osu file format v14

[General]
AudioFilename: audio.mp3
AudioLeadIn: 0
PreviewTime: 42348
Countdown: 0
SampleSet: Soft
StackLeniency: 0.7
Mode: 0
LetterboxInBreaks: 0
WidescreenStoryboard: 1

[Editor]
DistanceSpacing: 1.3
BeatDivisor: 4
GridSize: 4
TimelineZoom: 1.5

[Metadata]
Title:nameless color
TitleUnicode:nameless color
Artist:fhana
ArtistUnicode:fhána
Creator:Sotarks
Version:Melancholy
Source:SHOW BY ROCK!! Fes A Liv‪e
Tags:shizuku- shikibe mayu tritobandito junichi sato hideki hayashi yuxuki waga towana toshino tanabe yoshihiro kawamura single japanese jpop j-pop female vocalist square enix 熱狂バンドリズムゲーム rhythm game ost kazato asa pop
BeatmapID:3540020
BeatmapSetID:1731895

[Difficulty]
HPDrainRate:6
CircleSize:4
OverallDifficulty:9
ApproachRate:9.2
SliderMultiplier:1.82
SliderTickRate:1

[Events]
//Background and Video events
0,0,"bg.jpg",0,0
//Break Periods
2,198964,203528
//Storyboard Layer 0 (Background)
//Storyboard Layer 1 (Fail)
//Storyboard Layer 2 (Pass)
//Storyboard Layer 3 (Foreground)
//Storyboard Layer 4 (Overlay)
//Storyboard Sound Samples

[TimingPoints]
265,333.333333333333,4,2,1,70,1,0
265,-98.0392156862745,4,2,1,70,0,0
8098,-108.695652173913,4,2,2,60,0,0
8431,-108.695652173913,4,2,1,60,0,0
18764,-108.695652173913,4,2,1,65,0,0
24264,-98.0392156862745,4,2,1,65,0,0
26764,-121.951219512195,4,2,1,65,0,0
32098,-108.695652173913,4,2,1,65,0,0
42764,-89.2857142857143,4,2,1,75,0,0
43014,-89.2857142857143,4,2,1,75,0,0
43098,-98.0392156862745,4,2,1,75,0,0
45431,-89.2857142857143,4,2,1,75,0,0
45681,-89.2857142857143,4,2,1,75,0,0
45765,-98.0392156862745,4,2,1,75,0,0
48098,-89.2857142857143,4,2,1,75,0,0
48348,-89.2857142857143,4,2,1,75,0,0
48432,-98.0392156862745,4,2,1,75,0,0
50764,-89.2857142857143,4,2,1,75,0,0
51014,-89.2857142857143,4,2,1,75,0,0
51098,-98.0392156862745,4,2,1,75,0,0
53431,-89.2857142857143,4,2,1,75,0,0
53681,-89.2857142857143,4,2,1,75,0,0
53765,-98.0392156862745,4,2,1,75,0,0
55431,-89.2857142857143,4,2,1,75,0,0
56098,-89.2857142857143,4,2,1,75,0,0
56348,-89.2857142857143,4,2,1,75,0,0
56432,-98.0392156862745,4,2,1,75,0,0
58764,-89.2857142857143,4,2,1,75,0,0
59014,-89.2857142857143,4,2,1,75,0,0
59098,-98.0392156862745,4,2,1,75,0,0
61431,-89.2857142857143,4,2,1,75,0,0
61681,-89.2857142857143,4,2,1,75,0,0
61765,-98.0392156862745,4,2,1,75,0,0
64264,-108.695652173913,4,2,1,65,0,0
72264,-98.0392156862745,4,2,1,65,0,0
77598,-98.0392156862745,4,2,1,75,0,0
79764,-98.0392156862745,4,2,1,5,0,0
79848,-98.0392156862745,4,2,1,75,0,0
80014,-98.0392156862745,4,2,1,5,0,0
80098,-98.0392156862745,4,2,1,75,0,0
80181,-98.0392156862745,4,2,1,5,0,0
80265,-98.0392156862745,4,2,1,75,0,0
88264,-192.307692307692,4,2,1,75,0,0
89598,-98.0392156862745,4,2,1,75,0,0
90764,-108.695652173913,4,2,2,60,0,0
91097,-108.695652173913,4,2,1,60,0,0
109431,-121.951219512195,4,2,1,50,0,0
114764,-108.695652173913,4,2,1,50,0,0
122764,-108.695652173913,4,2,1,65,0,0
125431,-89.2857142857143,4,2,1,75,0,0
125681,-89.2857142857143,4,2,1,75,0,0
125765,-98.0392156862745,4,2,1,75,0,0
128098,-89.2857142857143,4,2,1,75,0,0
128348,-89.2857142857143,4,2,1,75,0,0
128432,-98.0392156862745,4,2,1,75,0,0
130765,-89.2857142857143,4,2,1,75,0,0
131015,-89.2857142857143,4,2,1,75,0,0
131099,-98.0392156862745,4,2,1,75,0,0
133431,-89.2857142857143,4,2,1,75,0,0
133681,-89.2857142857143,4,2,1,75,0,0
133765,-98.0392156862745,4,2,1,75,0,0
136098,-89.2857142857143,4,2,1,75,0,0
136348,-89.2857142857143,4,2,1,75,0,0
136432,-98.0392156862745,4,2,1,75,0,0
138098,-89.2857142857143,4,2,1,75,0,0
138348,-98.0392156862745,4,2,1,5,0,0
138432,-98.0392156862745,4,2,1,75,0,0
138765,-89.2857142857143,4,2,1,75,0,0
139015,-89.2857142857143,4,2,1,75,0,0
139099,-98.0392156862745,4,2,1,75,0,0
141431,-89.2857142857143,4,2,1,75,0,0
141681,-89.2857142857143,4,2,1,75,0,0
141765,-98.0392156862745,4,2,1,75,0,0
144098,-89.2857142857143,4,2,1,75,0,0
144348,-89.2857142857143,4,2,1,75,0,0
144432,-98.0392156862745,4,2,1,75,0,0
149598,-98.0392156862745,4,2,2,60,0,0
149931,-98.0392156862745,4,2,1,65,0,0
174598,-238.095238095238,4,2,1,65,0,0
177264,-108.695652173913,4,2,1,65,0,0
177431,-98.0392156862745,4,2,1,65,0,0
204098,-192.307692307692,4,2,1,40,0,0
211264,-121.951219512195,4,2,1,65,0,0
213431,-89.2857142857143,4,2,1,80,0,0
213681,-89.2857142857143,4,2,1,80,0,0
213765,-98.0392156862745,4,2,1,80,0,0
216098,-89.2857142857143,4,2,1,80,0,0
216348,-89.2857142857143,4,2,1,80,0,0
216432,-98.0392156862745,4,2,1,80,0,0
218765,-89.2857142857143,4,2,1,80,0,0
219015,-89.2857142857143,4,2,1,80,0,0
219099,-98.0392156862745,4,2,1,80,0,0
221431,-89.2857142857143,4,2,1,80,0,0
221681,-89.2857142857143,4,2,1,80,0,0
221765,-98.0392156862745,4,2,1,80,0,0
224098,-89.2857142857143,4,2,1,80,0,0
224348,-89.2857142857143,4,2,1,80,0,0
224432,-98.0392156862745,4,2,1,80,0,0
226098,-89.2857142857143,4,2,1,80,0,0
226348,-98.0392156862745,4,2,1,5,0,0
226432,-98.0392156862745,4,2,1,75,0,0
226765,-89.2857142857143,4,2,1,80,0,0
227015,-89.2857142857143,4,2,1,80,0,0
227099,-98.0392156862745,4,2,1,80,0,0
229431,-89.2857142857143,4,2,1,80,0,0
229681,-89.2857142857143,4,2,1,80,0,0
229765,-98.0392156862745,4,2,1,80,0,0
232098,-89.2857142857143,4,2,1,80,0,0
232348,-89.2857142857143,4,2,1,80,0,0
232432,-98.0392156862745,4,2,1,80,0,0
234931,-108.695652173913,4,2,1,70,0,0
242931,-98.0392156862745,4,2,1,70,0,0
248264,-98.0392156862745,4,2,1,80,0,0
250431,-98.0392156862745,4,2,1,5,0,0
250515,-98.0392156862745,4,2,1,75,0,0
250681,-98.0392156862745,4,2,1,5,0,0
250765,-98.0392156862745,4,2,1,75,0,0
250848,-98.0392156862745,4,2,1,5,0,0
250932,-98.0392156862745,4,2,1,75,0,0
259233,338.028169014084,4,2,1,80,1,0
259233,-238.095238095238,4,2,1,80,0,0

[Colours]
Combo1 : 225,253,255
Combo2 : 237,191,242
Combo3 : 221,183,255
Combo4 : 193,218,255

[HitObjects]
57,199,265,6,0,L|150:224,1,92.8200005665283,6|8,3:2|0:0,0:0:0:0:
228,268,514,1,8,0:0:0:0:
228,268,598,2,0,L|239:208,1,46.4100002832642,8|8,0:0|0:0,0:0:0:0:
477,92,764,6,0,L|384:117,1,92.8200005665283,6|8,3:2|0:0,0:0:0:0:
306,161,1013,1,8,0:0:0:0:
306,161,1097,2,0,L|295:101,1,46.4100002832642,8|8,0:0|0:0,0:0:0:0:
170,6,1264,6,0,P|136:43|140:97,1,92.8200005665283,6|8,3:2|0:0,0:0:0:0:
181,169,1514,1,8,0:0:0:0:
181,169,1598,2,0,L|126:157,1,46.4100002832642,8|8,0:0|0:0,0:0:0:0:
222,75,1764,5,6,3:2:0:0:
52,229,1931,1,10,0:0:0:0:
306,161,2098,1,2,3:2:0:0:
182,358,2264,6,0,P|177:333|170:304,1,46.4100002832642,10|8,0:0|0:0,0:0:0:0:
303,180,2431,2,0,P|297:202|293:225,1,46.4100002832642,10|8,3:2|0:0,0:0:0:0:
348,342,2598,2,0,P|325:336|302:332,1,46.4100002832642,8|8,3:0|3:0,0:0:0:0:
122,210,2764,2,0,P|144:204|167:200,1,46.4100002832642,4|4,3:0|3:0,0:0:0:0:
371,81,2931,6,0,L|266:58,1,92.8200005665283,6|8,3:2|0:0,0:0:0:0:
185,20,3181,1,8,0:0:0:0:
185,20,3264,2,0,L|200:83,1,46.4100002832642,8|8,0:0|0:0,0:0:0:0:
95,230,3431,6,0,L|200:207,1,92.8200005665283,6|8,3:2|0:0,0:0:0:0:
281,169,3681,1,8,0:0:0:0:
281,169,3764,2,0,L|266:232,1,46.4100002832642,8|8,0:0|0:0,0:0:0:0:
427,374,3931,6,0,P|439:322|402:270,1,92.8200005665283,6|4,3:2|3:0,0:0:0:0:
369,215,4181,1,4,3:0:0:0:
369,215,4264,2,0,L|428:200,1,46.4100002832642,8|8,0:0|3:0,0:0:0:0:
331,338,4431,5,6,3:2:0:0:
509,181,4598,1,10,3:0:0:0:
356,64,4764,1,6,3:0:0:0:
238,165,4931,5,10,3:0:0:0:
243,188,5014,1,8,3:0:0:0:
247,211,5097,1,6,3:0:0:0:
423,287,5264,1,10,3:2:0:0:
427,245,5347,1,8,3:0:0:0:
432,203,5430,1,6,3:0:0:0:
436,162,5513,1,4,3:0:0:0:
441,120,5598,6,0,P|390:129|339:138,1,92.8200005665283,14|2,0:0|3:2,0:0:0:0:
103,252,5931,2,0,P|57:244|11:237,1,92.8200005665283,10|2,0:0|3:2,0:0:0:0:
192,100,6264,5,10,0:0:0:0:
223,345,6431,1,10,0:0:0:0:
189,91,6598,1,10,0:0:0:0:
224,355,6764,6,0,B|255:346|297:339|297:339|317:304|317:304|347:304|396:287,1,185.640001133057,6|10,3:2|3:0,0:0:0:0:
206,215,7264,1,8,0:0:0:0:
358,86,7431,2,0,P|346:141|335:194,1,92.8200005665283,6|0,3:2|0:0,0:0:0:0:
200,71,7764,6,0,P|187:45|189:14,1,46.4100002832642,8|8,3:0|3:0,0:0:0:0:
317,145,7931,2,0,L|305:198,1,46.4100002832642,4|4,3:0|3:0,0:0:0:0:
227,338,8098,6,0,L|203:202,1,125.579995784363,6|0,3:2|0:0,0:0:0:0:
199,194,8431,1,2,0:0:0:0:
39,287,8598,2,0,L|56:196,1,83.7199971895753,2|0,3:2|0:0,0:0:0:0:
176,53,8931,6,0,P|135:78|91:77,1,83.7199971895753,2|2,3:2|0:0,0:0:0:0:
199,194,9264,1,2,3:2:0:0:
305,112,9431,6,0,P|352:120|399:129,1,83.7199971895753,2|0,0:0|3:2,0:0:0:0:
434,37,9764,2,0,P|392:29|351:22,1,83.7199971895753,2|0,0:0|3:2,0:0:0:0:
441,221,10098,5,2,3:2:0:0:
441,221,10181,1,0,3:0:0:0:
441,221,10264,1,0,3:2:0:0:
354,154,10431,1,2,0:0:0:0:
253,179,10598,1,0,3:0:0:0:
309,383,10764,6,0,L|333:247,1,125.579995784363,6|0,0:0|0:0,0:0:0:0:
337,239,11097,1,2,0:0:0:0:
512,321,11264,2,0,L|495:230,1,83.7199971895753,2|0,3:2|0:0,0:0:0:0:
387,90,11598,6,0,P|423:118|480:112,1,83.7199971895753,2|2,3:2|0:0,0:0:0:0:
337,239,11931,1,2,3:2:0:0:
218,139,12098,6,0,P|226:98|236:45,1,83.7199971895753,2|0,0:0|3:2,0:0:0:0:
108,174,12431,1,2,0:0:0:0:
227,274,12598,1,2,3:2:0:0:
123,364,12764,2,0,P|115:323|105:270,1,83.7199971895753,2|0,0:0|3:2,0:0:0:0:
88,274,13098,2,0,P|96:315|106:368,1,83.7199971895753,2|0,0:0|3:0,0:0:0:0:
317,185,13431,6,0,L|448:219,1,125.579995784363,6|0,0:0|0:0,0:0:0:0:
465,225,13764,1,2,0:0:0:0:
284,369,13931,2,0,P|332:318|440:350,1,167.439994379151,2|0,3:2|3:2,0:0:0:0:
213,264,14431,1,2,0:0:0:0:
317,185,14598,1,2,3:2:0:0:
193,85,14764,6,0,P|192:131|218:174,1,83.7199971895753,2|0,0:0|3:2,0:0:0:0:
110,244,15098,2,0,P|75:221|33:217,1,83.7199971895753,2|0,0:0|3:2,0:0:0:0:
18,95,15431,2,0,P|55:76|79:42,1,83.7199971895753,2|0,0:0|3:2,0:0:0:0:
108,146,15764,1,2,0:0:0:0:
193,85,15931,1,0,3:2:0:0:
329,216,16098,6,0,P|266:238|189:155,1,167.439994379151,2|0,0:0|0:0,0:0:0:0:
380,131,16598,2,0,P|367:226|356:303,1,167.439994379151,0|2,3:2|3:2,0:0:0:0:
459,213,17098,1,2,3:2:0:0:
278,122,17264,1,2,0:0:0:0:
473,70,17431,6,0,B|444:33|394:20|394:20|354:58|292:51,1,167.439994379151,6|0,3:2|3:2,0:0:0:0:
189,170,17931,2,0,P|173:122|191:86,1,83.7199971895753,8|2,0:0|3:2,0:0:0:0:
196,76,18181,1,8,3:0:0:0:
196,76,18264,1,0,3:0:0:0:
81,171,18431,1,8,3:0:0:0:
278,122,18598,1,4,3:0:0:0:
74,183,18764,6,0,B|140:195|140:195|161:224|161:224|248:239,1,167.439994379151,6|2,3:2|3:0,0:0:0:0:
367,297,19264,2,0,P|356:256|345:208,1,83.7199971895753,10|8,0:0|3:0,0:0:0:0:
340,190,19514,1,8,3:0:0:0:
340,190,19598,1,0,3:0:0:0:
256,333,19764,1,10,0:0:0:0:
443,217,19931,1,2,3:2:0:0:
254,120,20098,6,0,P|244:160|233:201,1,83.7199971895753,6|0,3:2|0:0,0:0:0:0:
411,81,20431,2,0,P|400:40|390:0,1,83.7199971895753,2|8,3:2|0:0,0:0:0:0:
354,175,20764,1,10,3:0:0:0:
354,175,20848,1,8,3:0:0:0:
354,175,20931,1,0,3:0:0:0:
203,63,21098,1,10,0:0:0:0:
290,0,21264,1,2,0:0:0:0:
233,201,21431,6,0,B|169:190|169:190|148:161|148:161|82:149,1,167.439994379151,6|0,3:2|3:0,0:0:0:0:
208,319,21931,2,0,P|250:309|299:298,1,83.7199971895753,8|8,0:0|3:0,0:0:0:0:
309,292,22181,1,8,3:0:0:0:
309,292,22264,1,0,3:0:0:0:
80,278,22431,2,0,P|67:319|52:367,1,83.7199971895753,2|0,0:0|3:0,0:0:0:0:
233,201,22764,1,10,0:0:0:0:
68,63,22931,5,0,3:0:0:0:
72,91,23014,1,8,0:0:0:0:
77,120,23097,1,8,3:0:0:0:
82,149,23180,1,0,3:0:0:0:
87,178,23264,1,8,0:0:0:0:
178,335,23431,1,2,3:2:0:0:
182,314,23514,1,0,3:0:0:0:
186,294,23597,1,4,3:2:0:0:
330,124,23764,6,0,P|303:134|285:141,1,41.8599985947876,10|8,2:0|2:0,0:0:0:0:
160,161,23931,2,0,P|176:175|192:188,1,41.8599985947876,2|8,3:2|3:0,0:0:0:0:
278,290,24098,2,0,P|281:269|285:249,1,41.8599985947876,6|4,3:0|3:0,0:0:0:0:
215,77,24264,6,0,P|163:116|76:97,1,139.230000849792,6|0,3:2|3:0,0:0:0:0:
67,90,24598,1,14,0:0:0:0:
192,188,24764,2,0,P|184:241|174:301,1,92.8200005665283,2|0,0:0|3:0,0:0:0:0:
290,138,25098,1,2,3:2:0:0:
86,218,25264,1,2,0:0:0:0:
271,344,25431,6,0,B|304:304|367:293|367:293|395:322|450:342,1,185.640001133057,14|0,0:0|3:0,0:0:0:0:
389,167,25931,1,8,0:0:0:0:
353,378,26098,1,0,3:0:0:0:
186,236,26264,1,8,0:0:0:0:
393,149,26431,1,0,3:0:0:0:
182,250,26598,1,8,0:0:0:0:
353,377,26764,6,0,B|345:343|339:303|354:311|349:261|333:206,1,149.240002277222,6|2,3:2|3:2,0:0:0:0:
275,167,27264,1,2,0:0:0:0:
356,123,27431,1,2,3:2:0:0:
266,29,27598,1,10,0:0:0:0:
365,136,27764,2,0,P|413:137|444:115,1,74.6200011386109,2|0,0:0|3:0,0:0:0:0:
205,102,28098,6,0,P|156:114|104:126,1,74.6200011386109,6|0,3:2|0:0,0:0:0:0:
339,229,28431,2,0,P|388:241|440:253,1,74.6200011386109,10|2,0:0|0:0,0:0:0:0:
244,327,28764,1,2,3:2:0:0:
355,212,28931,1,8,0:0:0:0:
221,109,29098,1,2,3:2:0:0:
171,219,29264,1,2,0:0:0:0:
340,114,29431,1,8,0:0:0:0:
181,7,29598,6,0,P|192:50|203:88,1,74.6200011386109,2|0,3:2|3:0,0:0:0:0:
249,234,29931,1,2,0:0:0:0:
106,173,30098,1,2,3:2:0:0:
155,328,30264,1,8,0:0:0:0:
156,251,30431,1,2,0:0:0:0:
87,284,30598,1,2,0:0:0:0:
291,349,30764,1,14,2:2:0:0:
181,34,31098,5,10,3:0:0:0:
363,136,31264,1,6,3:0:0:0:
156,251,31431,1,6,3:2:0:0:
156,251,31764,5,10,0:0:0:0:
189,256,31847,1,8,3:0:0:0:
222,261,31930,1,4,3:0:0:0:
255,267,32013,1,4,3:0:0:0:
288,274,32098,6,0,P|314:199|266:125,1,167.439994379151,6|2,3:2|3:2,0:0:0:0:
386,260,32598,5,10,0:0:0:0:
200,182,32764,1,2,3:2:0:0:
392,63,32931,1,10,0:0:0:0:
208,173,33097,1,2,3:2:0:0:
369,338,33264,1,8,0:0:0:0:
486,137,33431,6,0,B|428:147|428:147|405:184|405:184|327:199,1,167.439994379151,6|2,3:2|3:2,0:0:0:0:
158,118,33931,1,8,0:0:0:0:
309,288,34098,1,6,3:2:0:0:
106,360,34264,1,8,0:0:0:0:
196,228,34431,1,2,3:2:0:0:
196,228,34514,1,8,3:0:0:0:
196,228,34598,1,2,3:2:0:0:
196,228,34681,1,0,3:0:0:0:
196,228,34764,1,6,3:0:0:0:
196,228,34848,1,4,3:0:0:0:
196,228,34931,6,0,P|144:276|62:251,1,125.579995784363,6|0,3:2|0:0,0:0:0:0:
67,262,35264,1,10,0:0:0:0:
178,135,35431,2,0,P|222:145|274:158,1,83.7199971895753,2|0,0:0|3:2,0:0:0:0:
215,52,35764,1,2,3:2:0:0:
301,241,35931,1,2,0:0:0:0:
414,131,36098,6,0,P|373:121|332:111,1,83.7199971895753,10|0,0:0|0:0,0:0:0:0:
418,247,36431,1,2,3:2:0:0:
438,241,36514,1,0,3:0:0:0:
458,236,36597,1,8,0:0:0:0:
328,356,36764,1,2,3:2:0:0:
348,361,36847,1,0,3:0:0:0:
368,367,36930,1,8,0:0:0:0:
301,241,37098,1,10,0:0:0:0:
280,245,37181,1,8,0:0:0:0:
260,250,37264,1,8,3:0:0:0:
239,254,37348,1,4,3:0:0:0:
219,259,37431,6,0,B|212:214|212:214|231:181|231:181|216:140|231:76,1,167.439994379151,6|0,3:2|3:0,0:0:0:0:
145,41,37931,1,8,0:0:0:0:
292,26,38098,1,0,3:2:0:0:
121,145,38264,1,12,0:0:0:0:
340,121,38431,1,2,3:2:0:0:
219,259,38598,2,0,L|231:298,1,41.8599985947876,10|8,3:0|3:0,0:0:0:0:
301,384,38764,6,0,P|311:316|327:194,1,167.439994379151,6|0,3:2|3:0,0:0:0:0:
226,98,39264,1,8,0:0:0:0:
417,230,39431,1,8,2:0:0:0:
417,230,39514,1,8,2:0:0:0:
417,230,39598,2,0,L|404:190,1,41.8599985947876,0|8,3:0|3:0,0:0:0:0:
337,69,39764,2,0,L|324:108,1,41.8599985947876,4|4,3:0|3:0,0:0:0:0:
241,215,39931,2,0,L|280:202,1,41.8599985947876,8|8,0:0|0:0,0:0:0:0:
469,87,40098,6,0,B|406:72|406:72|386:39|386:39|302:23,1,167.439994379151,6|8,3:2|3:3,0:0:0:0:
81,161,40598,1,8,3:0:0:0:
302,46,40764,1,4,3:0:0:0:
79,173,40931,1,4,3:0:0:0:
338,295,41098,1,2,3:2:0:0:
241,138,41264,1,8,0:0:0:0:
150,295,41431,5,14,3:2:0:0:
155,315,41514,1,8,0:0:0:0:
161,335,41598,1,0,3:0:0:0:
326,189,41764,1,8,0:0:0:0:
347,153,41847,1,8,0:0:0:0:
346,112,41930,1,8,0:0:0:0:
324,77,42014,1,8,0:0:0:0:
288,58,42097,1,6,3:2:0:0:
288,58,42431,6,0,L|186:75,1,83.7199971895753,6|2,3:2|0:0,0:0:0:0:
0,194,42764,6,0,B|60:204|60:204|77:228|77:228|152:243,1,152.880001866211,6|0,3:2|0:0,0:0:0:0:
155,243,43098,1,2,3:2:0:0:
314,328,43264,2,0,P|300:280|284:225,1,92.8200005665283,10|10,0:0|0:0,0:0:0:0:
279,214,43514,1,8,0:0:0:0:
279,214,43598,1,2,3:2:0:0:
182,345,43764,1,2,3:2:0:0:
369,225,43931,1,10,0:0:0:0:
178,122,44098,1,2,3:2:0:0:
250,49,44264,5,2,0:0:0:0:
155,243,44431,1,2,3:2:0:0:
0,127,44598,1,8,0:0:0:0:
108,30,44764,1,10,0:0:0:0:
108,30,44848,1,8,0:0:0:0:
108,30,44931,2,0,P|120:74|133:119,1,92.8200005665283,0|2,3:2|3:2,0:0:0:0:
286,305,45264,2,0,L|297:243,1,46.4100002832642,2|0,3:2|3:0,0:0:0:0:
385,120,45431,6,0,B|348:139|348:139|304:126|304:126|278:154|225:154,1,152.880001866211,6|0,3:2|0:0,0:0:0:0:
216,160,45764,1,2,3:2:0:0:
381,282,45931,1,10,0:0:0:0:
381,282,46098,1,2,3:2:0:0:
252,375,46264,5,2,0:0:0:0:
272,271,46431,1,2,3:2:0:0:
296,169,46598,1,10,0:0:0:0:
296,169,46764,1,2,3:2:0:0:
157,261,46931,5,2,3:2:0:0:
406,194,47098,1,2,3:2:0:0:
116,109,47264,1,10,0:0:0:0:
365,42,47431,1,2,3:2:0:0:
365,42,47514,1,0,3:0:0:0:
365,42,47598,1,0,3:0:0:0:
205,186,47764,1,2,3:2:0:0:
396,325,47931,2,0,L|387:279,1,46.4100002832642,10|8,0:0|0:0,0:0:0:0:
267,109,48098,6,0,P|252:193|237:273,1,152.880001866211,6|0,3:2|0:0,0:0:0:0:
232,286,48431,1,2,3:0:0:0:
80,135,48598,1,8,0:0:0:0:
19,283,48764,2,0,P|64:269|119:252,1,92.8200005665283,2|0,3:2|3:0,0:0:0:0:
267,109,49098,1,2,3:2:0:0:
129,258,49264,1,8,0:0:0:0:
252,376,49431,6,0,P|241:330|231:285,1,92.8200005665283,2|0,3:2|0:0,0:0:0:0:
396,161,49764,2,0,P|385:206|375:251,1,92.8200005665283,2|8,3:2|0:0,0:0:0:0:
246,137,50098,1,0,3:0:0:0:
246,137,50181,1,8,0:0:0:0:
246,137,50264,1,0,3:0:0:0:
353,36,50431,2,0,L|404:56,1,46.4100002832642,8|4,3:0|3:0,0:0:0:0:
292,228,50598,2,0,L|248:244,1,46.4100002832642,10|2,0:0|0:0,0:0:0:0:
103,108,50764,6,0,B|160:94|160:94|179:58|179:58|255:40,1,152.880001866211,6|0,3:2|0:0,0:0:0:0:
251,38,51098,1,2,3:2:0:0:
128,191,51264,1,10,0:0:0:0:
128,191,51431,1,2,3:2:0:0:
276,318,51598,1,2,3:2:0:0:
276,318,51764,2,0,P|265:272|255:227,1,92.8200005665283,2|0,0:0|3:0,0:0:0:0:
14,285,52098,6,0,P|60:343|164:309,1,185.640001133057,10|2,0:0|3:2,0:0:0:0:
273,110,52598,1,8,0:0:0:0:
104,207,52764,1,2,3:2:0:0:
276,318,52931,1,8,0:0:0:0:
220,210,53098,1,10,0:0:0:0:
220,210,53181,1,8,0:0:0:0:
220,210,53264,1,10,0:0:0:0:
220,210,53348,1,8,0:0:0:0:
220,210,53431,6,0,P|296:219|402:243,1,152.880001866211,6|0,3:2|0:0,0:0:0:0:
393,242,53764,1,2,3:2:0:0:
344,23,53931,2,0,P|328:83|315:133,1,92.8200005665283,10|8,0:0|0:0,0:0:0:0:
313,139,54181,1,8,0:0:0:0:
313,139,54264,1,2,3:2:0:0:
359,334,54431,1,2,3:2:0:0:
220,210,54598,1,8,0:0:0:0:
141,375,54764,6,0,P|200:358|250:345,1,92.8200005665283,2|2,3:2|0:0,0:0:0:0:
457,240,55098,2,0,P|397:223|347:210,1,92.8200005665283,2|8,3:2|0:0,0:0:0:0:
160,118,55431,2,0,B|207:141|249:119|222:93|263:74|322:98,1,152.880001866211,2|0,3:2|0:0,0:0:0:0:
328,97,55764,1,2,3:2:0:0:
204,238,55931,1,10,2:2:0:0:
354,380,56098,6,0,B|339:333|339:333|357:301|357:301|338:273|337:230,1,152.880001866211,6|0,3:2|0:0,0:0:0:0:
325,209,56431,1,2,3:2:0:0:
203,370,56598,1,10,0:0:0:0:
203,370,56764,1,2,3:2:0:0:
76,198,56931,5,2,0:0:0:0:
188,259,57098,1,2,3:2:0:0:
252,150,57264,1,10,0:0:0:0:
252,150,57431,1,10,3:2:0:0:
82,328,57598,5,2,3:2:0:0:
112,73,57764,1,2,3:2:0:0:
88,340,57931,1,10,0:0:0:0:
105,64,58098,2,0,P|148:46|203:44,1,92.8200005665283,2|0,3:2|3:2,0:0:0:0:
88,232,58431,2,0,P|41:228|0:210,1,92.8200005665283,2|10,3:2|2:2,0:0:0:0:
216,174,58764,6,0,B|274:183|274:183|296:213|296:213|367:227,1,152.880001866211,6|0,3:2|0:0,0:0:0:0:
378,230,59098,1,2,3:2:0:0:
269,93,59264,1,10,0:0:0:0:
379,318,59431,1,10,3:2:0:0:
379,318,59514,1,8,0:0:0:0:
379,318,59598,1,2,3:2:0:0:
214,207,59764,2,0,P|168:216|123:225,1,92.8200005665283,2|8,3:2|0:0,0:0:0:0:
249,315,60098,5,14,3:2:0:0:
259,335,60181,1,8,0:0:0:0:
264,358,60264,1,0,3:0:0:0:
346,213,60431,1,10,3:2:0:0:
358,194,60514,1,8,0:0:0:0:
375,178,60598,1,8,3:0:0:0:
214,207,60764,1,2,3:2:0:0:
191,206,60847,1,0,3:0:0:0:
169,199,60930,1,4,3:0:0:0:
270,306,61098,6,0,P|282:334|285:357,1,46.4100002832642,4|4,3:0|3:0,0:0:0:0:
332,188,61264,2,0,P|350:163|368:149,1,46.4100002832642,8|8,0:0|3:2,0:0:0:0:
213,206,61431,6,0,P|140:199|61:163,1,152.880001866211,6|0,3:2|0:0,0:0:0:0:
46,150,61764,1,2,3:2:0:0:
162,88,61931,1,10,0:0:0:0:
35,280,62098,1,2,3:2:0:0:
180,367,62264,1,10,0:0:0:0:
119,216,62431,1,10,3:0:0:0:
253,112,62598,2,0,P|260:146|266:170,1,46.4100002832642,4|4,3:0|3:0,0:0:0:0:
307,309,62764,6,0,P|374:335|460:258,1,185.640001133057,6|2,3:2|3:2,0:0:0:0:
341,68,63264,1,8,0:0:0:0:
456,162,63431,1,10,3:2:0:0:
462,116,63514,1,8,0:0:0:0:
468,70,63598,1,0,3:0:0:0:
260,129,63764,1,10,3:0:0:0:
254,175,63848,1,8,3:0:0:0:
248,221,63930,1,4,3:0:0:0:
50,274,64098,2,0,L|60:209,1,46.4100002832642,4|4,3:0|3:0,0:0:0:0:
0,109,64264,6,0,B|98:91|66:160|183:137,1,167.439994379151,6|0,3:2|3:0,0:0:0:0:
331,45,64764,1,0,3:0:0:0:
256,203,64931,2,0,P|277:306|291:376,1,167.439994379151,8|2,0:0|3:2,0:0:0:0:
421,230,65431,6,0,P|436:181|422:135,1,83.7199971895753,8|0,0:0|3:0,0:0:0:0:
300,273,65764,1,2,0:0:0:0:
404,350,65931,2,0,P|446:337|496:323,1,83.7199971895753,2|0,3:2|3:0,0:0:0:0:
337,184,66264,1,8,0:0:0:0:
197,334,66431,1,10,0:0:0:0:
204,353,66514,1,8,0:0:0:0:
212,373,66597,1,2,3:2:0:0:
300,273,66764,1,10,0:0:0:0:
186,176,66931,6,0,B|131:150|131:150|88:201|16:196,1,167.439994379151,6|0,3:2|0:0,0:0:0:0:
193,77,67431,1,0,3:0:0:0:
24,19,67598,2,0,P|38:69|56:118,1,83.7199971895753,8|0,0:0|0:0,0:0:0:0:
140,254,67931,1,2,3:2:0:0:
13,276,68098,6,0,P|26:236|37:196,1,83.7199971895753,10|0,0:0|0:0,0:0:0:0:
214,358,68431,2,0,P|172:366|132:376,1,83.7199971895753,2|0,3:2|0:0,0:0:0:0:
204,138,68764,2,0,P|231:169|261:199,1,83.7199971895753,2|8,3:2|3:0,0:0:0:0:
140,254,69098,1,6,3:3:0:0:
347,171,69264,1,10,0:0:0:0:
140,254,69431,6,0,B|202:265|202:265|224:296|224:296|315:311,1,167.439994379151,6|0,3:2|3:0,0:0:0:0:
450,274,69931,2,0,P|432:334|422:364,1,83.7199971895753,2|0,0:0|3:0,0:0:0:0:
355,206,70264,2,0,P|344:144|333:61,1,125.579995784363,8|0,0:0|0:0,0:0:0:0:
328,61,70598,1,2,3:2:0:0:
208,188,70764,6,0,P|159:206|106:218,1,83.7199971895753,10|0,0:0|0:0,0:0:0:0:
200,56,71098,1,2,3:2:0:0:
102,200,71264,1,2,2:2:0:0:
236,301,71431,1,0,3:0:0:0:
34,126,71598,2,0,P|21:177|10:225,1,83.7199971895753,8|0,0:0|3:0,0:0:0:0:
250,217,71931,1,8,3:0:0:0:
279,212,72014,1,8,3:0:0:0:
307,207,72097,1,4,3:0:0:0:
336,200,72180,1,4,3:0:0:0:
364,193,72264,6,0,P|377:119|382:45,1,139.230000849792,6|0,3:2|0:0,0:0:0:0:
371,41,72598,2,0,P|399:33|425:27,3,46.4100002832642,8|8|8|8,3:2|0:0|0:0|0:0,0:0:0:0:
255,116,72931,2,0,P|232:109|210:103,3,46.4100002832642,8|8|8|8,3:2|0:0|0:0|0:0,0:0:0:0:
364,193,73264,1,10,3:2:0:0:
371,224,73347,1,8,0:0:0:0:
376,256,73430,1,10,0:0:0:0:
379,289,73513,1,8,0:0:0:0:
381,321,73598,6,0,P|358:326|336:333,3,46.4100002832642,8|8|8|8,3:2|0:0|0:0|0:0,0:0:0:0:
228,205,73931,2,0,P|250:210|272:217,1,46.4100002832642,8|8,3:2|0:0,0:0:0:0:
177,369,74098,1,8,0:0:0:0:
177,369,74181,1,8,0:0:0:0:
177,369,74264,2,0,P|170:346|165:324,1,46.4100002832642,8|8,3:2|0:0,0:0:0:0:
105,174,74431,2,0,P|99:196|93:218,1,46.4100002832642,8|8,0:0|0:0,0:0:0:0:
0,344,74598,2,0,P|22:337|44:331,1,46.4100002832642,8|10,3:0|3:0,0:0:0:0:
262,226,74764,6,0,B|225:216|191:212|191:212|168:169|168:169|131:163|89:154,1,185.640001133057,6|0,3:2|3:0,0:0:0:0:
222,343,75264,5,8,0:0:0:0:
178,70,75431,1,0,3:0:0:0:
221,363,75598,5,8,0:0:0:0:
184,60,75765,1,0,3:0:0:0:
359,238,75931,5,10,0:0:0:0:
23,210,76098,2,0,B|66:154|112:157|112:157|149:194|209:176,1,185.640001133057,6|0,3:2|3:0,0:0:0:0:
348,63,76598,1,8,0:0:0:0:
277,274,76764,1,8,0:0:0:0:
277,274,76848,1,8,0:0:0:0:
277,274,76931,2,0,P|262:223|254:207,1,46.4100002832642,8|8,0:0|0:0,0:0:0:0:
404,124,77098,2,0,P|396:145|391:168,1,46.4100002832642,0|0,3:0|3:0,0:0:0:0:
440,298,77264,2,0,P|418:290|395:285,1,46.4100002832642,0|8,3:0|3:0,0:0:0:0:
235,129,77431,2,0,P|256:121|279:116,1,46.4100002832642,4|4,3:0|3:0,0:0:0:0:
455,27,77598,5,14,3:2:0:0:
162,190,77764,1,10,0:0:0:0:
269,303,78098,5,10,0:0:0:0:
157,72,78265,1,10,0:0:0:0:
157,72,78431,1,0,3:0:0:0:
21,220,78598,6,0,B|51:217|98:241|98:241|141:190|141:190|212:233|287:192,1,278.460001699585,10|0,0:0|3:0,0:0:0:0:
408,81,79264,1,8,0:0:0:0:
362,323,79431,1,0,3:0:0:0:
221,92,79598,6,0,P|260:57|315:70,1,92.8200005665283,14|0,0:0|0:0,0:0:0:0:
198,183,79848,2,0,P|148:166|131:112,1,92.8200005665283,14|0,0:0|0:0,0:0:0:0:
297,156,80098,2,0,L|287:226,1,46.4100002832642,14|0,0:0|0:0,0:0:0:0:
266,337,80264,5,2,3:0:0:0:
318,60,80431,1,8,0:0:0:0:
421,169,80764,5,10,0:0:0:0:
195,67,80931,1,10,0:0:0:0:
195,67,81098,1,0,3:0:0:0:
324,313,81264,6,0,B|320:274|301:234|301:234|342:188|342:188|298:122|322:44,1,278.460001699585,6|8,3:2|3:0,0:0:0:0:
202,251,81931,1,8,0:0:0:0:
421,169,82098,1,0,3:0:0:0:
145,352,82264,1,10,0:0:0:0:
334,268,82431,1,8,0:0:0:0:
334,268,82514,1,8,0:0:0:0:
334,268,82598,2,0,P|327:300|321:328,3,46.4100002832642,8|8|8|8,0:0|0:0|0:0|3:0,0:0:0:0:
246,165,82931,6,0,L|231:64,1,92.8200005665283,6|10,3:2|0:0,0:0:0:0:
164,19,83181,1,8,0:0:0:0:
164,19,83264,2,0,L|153:73,1,46.4100002832642,10|8,0:0|0:0,0:0:0:0:
139,251,83431,6,0,L|124:150,1,92.8200005665283,6|8,3:2|0:0,0:0:0:0:
57,105,83681,1,8,0:0:0:0:
57,105,83764,2,0,L|46:159,1,46.4100002832642,10|8,0:0|0:0,0:0:0:0:
160,341,83931,6,0,L|175:240,1,92.8200005665283,6|8,3:2|0:0,0:0:0:0:
242,195,84181,1,8,0:0:0:0:
242,195,84264,2,0,L|253:249,1,46.4100002832642,10|8,0:0|0:0,0:0:0:0:
309,384,84431,6,0,L|324:283,1,92.8200005665283,6|8,3:2|0:0,0:0:0:0:
391,238,84681,1,8,0:0:0:0:
391,238,84764,2,0,L|402:292,1,46.4100002832642,10|8,0:0|0:0,0:0:0:0:
430,384,84931,1,6,3:2:0:0:
356,70,85264,1,6,3:2:0:0:
356,70,85598,6,0,L|256:90,1,92.8200005665283,6|10,3:2|0:0,0:0:0:0:
190,149,85848,1,8,0:0:0:0:
190,149,85931,2,0,L|257:165,1,46.4100002832642,10|8,0:0|0:0,0:0:0:0:
441,159,86098,6,0,L|341:179,1,92.8200005665283,6|8,3:2|0:0,0:0:0:0:
275,238,86348,1,8,0:0:0:0:
275,238,86431,2,0,L|342:254,1,46.4100002832642,10|8,0:0|0:0,0:0:0:0:
470,311,86598,6,0,L|370:331,1,92.8200005665283,6|8,3:2|0:0,0:0:0:0:
290,374,86848,1,8,0:0:0:0:
290,374,86931,2,0,L|273:315,1,46.4100002832642,10|8,0:0|0:0,0:0:0:0:
8,227,87098,6,0,L|108:247,1,92.8200005665283,6|8,3:2|3:0,0:0:0:0:
188,290,87348,1,8,3:0:0:0:
188,290,87431,2,0,L|205:231,1,46.4100002832642,6|0,3:0|0:0,0:0:0:0:
419,93,87598,6,0,P|348:93|309:123,1,92.8200005665283,6|4,3:2|3:0,0:0:0:0:
66,54,87931,2,0,P|109:69|154:63,1,92.8200005665283,6|4,3:2|3:0,0:0:0:0:
259,0,88181,1,4,3:0:0:0:
259,0,88264,6,0,B|216:62|224:177|294:153|288:262|238:336,1,331.239997978272,6|0,3:2|3:0,0:0:0:0:
397,167,89598,5,10,0:0:0:0:
137,234,89764,1,8,3:0:0:0:
390,172,89931,1,4,3:0:0:0:
70,142,90098,6,0,P|122:146|180:162,1,92.8200005665283,6|0,3:2|3:0,0:0:0:0:
453,242,90431,2,0,P|406:245|361:255,1,92.8200005665283,8|4,3:0|3:0,0:0:0:0:
212,377,90764,6,0,L|238:214,1,125.579995784363,6|0,3:2|0:0,0:0:0:0:
235,231,91098,1,2,3:2:0:0:
77,320,91264,2,0,L|43:136,1,167.439994379151,10|0,0:0|3:0,0:0:0:0:
181,315,91764,1,2,3:2:0:0:
340,228,91931,1,2,0:0:0:0:
227,82,92098,6,0,P|217:122|206:163,1,83.7199971895753,10|0,0:0|0:0,0:0:0:0:
414,81,92431,2,0,P|403:40|393:0,1,83.7199971895753,0|8,3:0|0:0,0:0:0:0:
325,169,92764,1,2,0:0:0:0:
206,62,92931,1,0,3:0:0:0:
293,0,93098,1,2,0:0:0:0:
293,0,93181,1,0,3:0:0:0:
293,0,93264,1,8,0:0:0:0:
227,200,93431,6,0,P|140:209|87:129,1,167.439994379151,6|0,3:2|3:0,0:0:0:0:
325,169,93931,2,0,B|307:220|307:220|325:254|325:254|304:293|306:345,1,167.439994379151,10|0,0:0|3:0,0:0:0:0:
227,200,94431,2,0,P|214:160|201:120,1,83.7199971895753,2|0,3:2|0:0,0:0:0:0:
387,35,94764,6,0,P|342:81|273:62,1,125.579995784363,8|0,0:0|0:0,0:0:0:0:
262,57,95098,1,2,3:2:0:0:
169,16,95264,1,10,0:0:0:0:
104,96,95431,2,0,P|116:135|129:175,1,83.7199971895753,10|0,0:0|3:0,0:0:0:0:
68,291,95764,1,10,0:0:0:0:
68,291,95848,1,8,0:0:0:0:
68,291,95931,1,8,0:0:0:0:
68,291,96014,1,8,0:0:0:0:
68,291,96098,6,0,P|138:296|201:322,1,125.579995784363,6|0,3:2|0:0,0:0:0:0:
209,331,96431,1,2,3:2:0:0:
389,284,96598,2,0,P|378:204|364:106,1,167.439994379151,10|0,0:0|3:0,0:0:0:0:
265,53,97098,1,2,0:0:0:0:
265,53,97181,1,0,3:0:0:0:
265,53,97264,1,2,3:2:0:0:
137,122,97431,6,0,P|167:161|288:151,1,167.439994379151,8|2,0:0|3:2,0:0:0:0:
169,274,97931,1,8,0:0:0:0:
268,359,98098,2,0,P|275:318|283:270,1,83.7199971895753,10|0,0:0|3:0,0:0:0:0:
54,216,98431,1,10,0:0:0:0:
60,244,98514,1,8,0:0:0:0:
66,273,98597,1,8,0:0:0:0:
72,301,98680,1,8,0:0:0:0:
78,330,98764,6,0,B|133:296|133:296|177:331|231:324,1,167.439994379151,6|0,3:2|3:0,0:0:0:0:
293,206,99264,2,0,P|250:220|204:230,1,83.7199971895753,8|0,0:0|0:0,0:0:0:0:
361,297,99598,1,2,3:2:0:0:
255,384,99764,2,0,P|262:346|275:292,1,83.7199971895753
354,76,100098,6,0,P|285:131|209:100,1,167.439994379151,14|8,0:0|0:0,0:0:0:0:
196,93,100514,1,8,0:0:0:0:
196,93,100598,2,0,L|207:44,1,41.8599985947876,0|8,3:0|3:0,0:0:0:0:
44,119,100764,2,0,L|53:159,1,41.8599985947876,6|4,3:0|3:0,0:0:0:0:
165,230,100931,1,8,0:0:0:0:
41,341,101098,1,10,0:0:0:0:
41,341,101181,1,0,3:0:0:0:
41,341,101264,1,8,3:0:0:0:
41,341,101348,1,4,3:0:0:0:
41,341,101431,6,0,B|77:313|121:303|121:303|152:336|194:339,1,167.439994379151,6|0,3:2|3:0,0:0:0:0:
323,220,101931,2,0,P|305:305|290:394,1,167.439994379151,14|0,0:0|3:0,0:0:0:0:
209,231,102431,1,2,3:2:0:0:
313,134,102598,1,2,0:0:0:0:
218,51,102764,2,0,P|166:61|121:72,1,83.7199971895753,10|0,0:0|0:0,0:0:0:0:
321,143,103098,2,0,P|373:153|418:164,1,83.7199971895753,0|8,3:0|0:0,0:0:0:0:
208,239,103431,2,0,P|156:249|111:260,1,83.7199971895753,2|0,0:0|3:0,0:0:0:0:
305,364,103764,2,0,P|357:374|402:385,1,83.7199971895753,2|0,3:2|0:0,0:0:0:0:
101,346,104098,6,0,P|36:291|67:199,1,167.439994379151,14|0,0:0|3:0,0:0:0:0:
177,51,104598,1,8,0:0:0:0:
126,256,104764,1,8,0:0:0:0:
245,180,104931,1,2,3:2:0:0:
245,180,105098,1,0,3:0:0:0:
343,346,105264,1,8,0:0:0:0:
226,283,105431,6,0,B|287:270|287:270|304:241|304:241|386:228,1,167.439994379151,6|0,3:2|3:0,0:0:0:0:
466,93,105931,1,8,0:0:0:0:
439,304,106098,1,2,3:2:0:0:
461,84,106264,1,8,0:0:0:0:
445,311,106431,1,2,0:0:0:0:
318,133,106598,1,2,3:2:0:0:
288,136,106681,1,8,0:0:0:0:
259,140,106764,1,2,3:2:0:0:
231,145,106847,1,8,0:0:0:0:
202,151,106931,6,0,P|195:197|182:252,1,83.7199971895753,6|0,3:2|0:0,0:0:0:0:
185,261,107181,1,0,3:0:0:0:
185,261,107264,1,10,0:0:0:0:
326,364,107431,2,0,P|317:323|311:281,1,83.7199971895753,2|0,0:0|3:0,0:0:0:0:
122,355,107764,2,0,P|161:367|200:383,1,83.7199971895753,2|0,3:2|0:0,0:0:0:0:
381,155,108098,6,0,P|288:172|193:197,1,167.439994379151,14|0,0:0|3:0,0:0:0:0:
41,91,108598,1,8,0:0:0:0:
103,248,108764,1,8,0:0:0:0:
103,248,108848,1,8,0:0:0:0:
103,248,108931,1,6,3:2:0:0:
247,137,109098,1,8,3:0:0:0:
146,46,109264,1,4,3:0:0:0:
208,243,109431,6,0,P|258:291|349:259,1,149.240002277222,6|2,3:2|3:2,0:0:0:0:
454,204,109931,1,2,0:0:0:0:
359,268,110098,1,2,3:2:0:0:
464,334,110265,1,10,0:0:0:0:
359,268,110431,2,0,P|343:216|357:184,1,74.6200011386109,2|0,0:0|3:0,0:0:0:0:
442,78,110765,6,0,P|405:86|369:95,1,74.6200011386109,6|0,3:2|0:0,0:0:0:0:
260,154,111098,2,0,P|211:142|159:130,1,74.6200011386109,10|0,0:0|0:0,0:0:0:0:
245,61,111431,1,2,3:2:0:0:
151,134,111598,1,8,0:0:0:0:
263,240,111765,1,2,3:2:0:0:
292,133,111931,1,2,3:2:0:0:
159,238,112098,1,10,0:0:0:0:
309,333,112265,6,0,P|298:290|287:252,1,74.6200011386109,2|0,3:2|3:2,0:0:0:0:
219,365,112598,1,2,3:2:0:0:
382,273,112765,1,2,3:0:0:0:
276,172,112931,1,8,0:0:0:0:
349,143,113098,1,2,3:2:0:0:
417,114,113265,1,8,0:0:0:0:
235,12,113431,1,6,3:2:0:0:
382,273,113765,5,6,3:2:0:0:
196,146,113931,1,8,0:0:0:0:
382,23,114098,1,6,3:2:0:0:
274,261,114431,5,8,0:0:0:0:
241,256,114514,1,8,3:0:0:0:
208,251,114597,1,4,0:3:0:0:
175,245,114680,1,4,0:3:0:0:
142,238,114764,6,0,B|127:195|127:195|143:166|143:166|119:120|131:74,1,167.439994379151,6|2,3:2|3:2,0:0:0:0:
226,65,115265,5,10,0:0:0:0:
24,109,115431,1,2,3:2:0:0:
262,153,115598,1,8,0:0:0:0:
35,210,115764,1,0,3:0:0:0:
135,14,115931,1,8,0:0:0:0:
167,287,116098,6,0,P|123:223|148:136,1,167.439994379151,6|2,3:2|3:2,0:0:0:0:
355,281,116598,1,8,0:0:0:0:
219,210,116765,1,2,3:2:0:0:
314,23,116931,1,8,0:0:0:0:
420,160,117098,1,10,0:0:0:0:
378,166,117181,1,8,0:0:0:0:
338,178,117264,1,2,3:2:0:0:
159,55,117431,1,10,0:0:0:0:
201,61,117514,1,8,0:0:0:0:
241,73,117598,6,0,B|260:147|230:147|257:233,1,125.579995784363,6|0,3:2|0:0,0:0:0:0:
253,225,117931,1,10,0:0:0:0:
194,344,118098,2,0,P|138:353|95:367,1,83.7199971895753,2|0,0:0|3:2,0:0:0:0:
349,284,118431,2,0,P|405:293|448:307,1,83.7199971895753,2|0,3:2|0:0,0:0:0:0:
156,140,118764,6,0,P|95:138|51:231,1,167.439994379151,10|2,0:0|3:2,0:0:0:0:
253,225,119264,2,0,P|268:168|273:128,1,83.7199971895753,8|2,0:0|3:2,0:0:0:0:
163,17,119598,1,8,0:0:0:0:
151,57,119681,1,8,0:0:0:0:
149,98,119764,1,10,0:0:0:0:
156,140,119847,1,8,0:0:0:0:
163,181,119931,1,8,0:0:0:0:
160,222,120014,1,8,0:0:0:0:
149,263,120097,1,6,3:2:0:0:
386,79,120431,5,0,3:0:0:0:
290,297,120598,2,0,P|271:229|270:196,1,83.7199971895753,12|0,0:0|3:0,0:0:0:0:
446,306,120931,1,8,0:0:0:0:
266,195,121098,1,2,3:2:0:0:
266,195,121181,1,0,3:0:0:0:
266,195,121264,1,10,0:0:0:0:
408,91,121431,6,0,B|344:80|344:80|324:48|324:48|244:37,1,167.439994379151,6|8,3:2|0:0,0:0:0:0:
227,39,121848,1,8,0:0:0:0:
227,39,121931,2,0,P|231:64|240:90,1,41.8599985947876,8|8,3:0|3:0,0:0:0:0:
108,167,122098,2,0,P|113:146|116:126,1,41.8599985947876,4|4,3:0|3:0,0:0:0:0:
266,195,122264,1,8,0:0:0:0:
273,218,122347,1,0,3:0:0:0:
273,243,122430,1,8,3:0:0:0:
264,267,122513,1,8,3:0:0:0:
255,289,122598,1,4,3:0:0:0:
254,314,122681,1,4,3:0:0:0:
261,337,122764,5,6,3:2:0:0:
352,43,123098,1,8,3:0:0:0:
108,167,123264,1,8,0:0:0:0:
356,306,123431,1,12,3:0:0:0:
356,306,123514,1,4,3:0:0:0:
356,306,123598,1,4,3:0:0:0:
178,67,123764,1,8,0:0:0:0:
93,338,123931,1,0,3:0:0:0:
404,180,124098,6,0,B|372:131|372:131|312:156|245:133,1,167.439994379151,6|8,3:2|0:0,0:0:0:0:
235,126,124514,1,8,2:0:0:0:
235,126,124598,2,0,L|243:183,1,41.8599985947876,8|8,0:0|2:0,0:0:0:0:
264,355,124764,1,12,0:0:0:0:
262,368,125098,5,14,0:0:0:0:
233,338,125181,1,8,0:0:0:0:
194,324,125264,1,10,0:0:0:0:
152,329,125347,1,8,0:0:0:0:
118,351,125431,6,0,B|102:301|102:301|116:268|116:268|95:200,1,152.880001866211,6|0,3:2|0:0,0:0:0:0:
87,180,125764,1,2,3:2:0:0:
236,61,125931,2,0,P|224:116|210:168,1,92.8200005665283,10|2,0:0|3:2,0:0:0:0:
208,180,126181,1,8,0:0:0:0:
208,180,126265,1,2,3:2:0:0:
320,344,126431,1,2,3:2:0:0:
156,261,126598,1,8,0:0:0:0:
313,160,126765,1,2,3:2:0:0:
266,254,126931,5,0,0:0:0:0:
193,84,127098,1,2,3:2:0:0:
376,13,127265,1,8,0:0:0:0:
455,190,127431,1,8,0:0:0:0:
455,190,127515,1,8,0:0:0:0:
455,190,127598,2,0,P|403:175|366:167,1,92.8200005665283,0|2,3:0|3:2,0:0:0:0:
193,84,127931,2,0,L|204:146,1,46.4100002832642,10|8,0:0|0:0,0:0:0:0:
162,292,128098,6,0,P|211:243|318:266,1,152.880001866211,6|0,3:2|0:0,0:0:0:0:
312,261,128431,1,2,3:2:0:0:
115,183,128598,1,8,0:0:0:0:
115,183,128765,1,2,3:0:0:0:
252,96,128931,5,2,0:0:0:0:
232,200,129098,1,2,3:2:0:0:
208,302,129265,1,10,0:0:0:0:
208,302,129431,1,2,3:2:0:0:
355,123,129598,5,2,3:2:0:0:
106,190,129765,1,2,3:2:0:0:
365,113,129931,1,10,0:0:0:0:
102,200,130098,1,2,3:2:0:0:
102,200,130181,1,8,0:0:0:0:
102,200,130265,1,8,3:0:0:0:
352,313,130431,1,2,3:2:0:0:
180,120,130598,2,0,L|189:166,1,46.4100002832642,10|8,0:0|0:0,0:0:0:0:
255,312,130765,6,0,B|252:231|282:248|275:150,1,152.880001866211,6|0,3:2|0:0,0:0:0:0:
277,132,131098,1,2,3:2:0:0:
397,296,131265,1,10,0:0:0:0:
462,164,131431,2,0,P|417:178|362:195,1,92.8200005665283,2|2,3:2|3:2,0:0:0:0:
255,312,131765,1,2,3:2:0:0:
346,179,131931,1,8,0:0:0:0:
224,63,132098,6,0,P|235:109|245:154,1,92.8200005665283,2|0,3:2|0:0,0:0:0:0:
82,263,132431,2,0,P|93:218|103:173,1,92.8200005665283,2|8,3:2|0:0,0:0:0:0:
230,280,132765,1,10,0:0:0:0:
230,280,132848,1,8,0:0:0:0:
230,280,132931,1,2,3:2:0:0:
146,384,133098,2,0,L|133:329,1,46.4100002832642,2|0,3:2|3:0,0:0:0:0:
244,153,133265,2,0,L|258:209,1,46.4100002832642,10|8,0:0|0:0,0:0:0:0:
358,304,133431,6,0,P|268:301|230:372,1,152.880001866211,6|0,3:2|0:0,0:0:0:0:
228,373,133765,1,2,3:2:0:0:
361,209,133931,1,10,0:0:0:0:
361,209,134098,1,2,0:0:0:0:
150,126,134265,1,2,3:2:0:0:
150,126,134431,2,0,P|161:172|171:217,1,92.8200005665283,2|8,3:2|0:0,0:0:0:0:
441,90,134765,6,0,B|410:43|371:34|371:34|323:72|270:62,1,185.640001133057,6|2,3:2|3:2,0:0:0:0:
196,241,135265,1,8,0:0:0:0:
368,142,135431,1,0,3:2:0:0:
187,40,135598,1,8,0:0:0:0:
264,149,135765,1,10,0:0:0:0:
264,149,135848,1,8,0:0:0:0:
264,149,135931,1,10,0:0:0:0:
264,149,136015,1,8,0:0:0:0:
264,149,136098,6,0,B|202:132|202:132|175:146|175:146|84:126,1,152.880001866211,6|0,3:2|0:0,0:0:0:0:
90,124,136431,1,2,3:2:0:0:
168,361,136598,2,0,P|184:301|197:251,1,92.8200005665283,10|10,0:0|0:0,0:0:0:0:
199,245,136848,1,8,0:0:0:0:
199,245,136931,1,2,3:2:0:0:
39,323,137098,1,2,3:2:0:0:
163,169,137265,1,8,0:0:0:0:
0,117,137431,6,0,P|20:173|41:236,1,92.8200005665283,0|0,3:0|3:0,0:0:0:0:
183,78,137765,2,0,P|169:136|161:181,1,92.8200005665283,2|8,3:2|0:0,0:0:0:0:
328,105,138098,2,0,P|347:185|367:269,1,152.880001866211,10|0,0:0|0:0,0:0:0:0:
371,284,138431,1,2,3:2:0:0:
469,155,138598,1,8,0:0:0:0:
265,308,138765,6,0,P|203:322|130:251,1,152.880001866211,6|0,3:2|0:0,0:0:0:0:
121,243,139098,1,2,3:2:0:0:
268,62,139265,1,8,0:0:0:0:
268,62,139431,1,2,3:2:0:0:
366,232,139598,5,2,0:0:0:0:
250,196,139765,1,2,3:2:0:0:
147,164,139931,1,10,0:0:0:0:
147,164,140098,1,2,3:2:0:0:
388,91,140265,5,2,3:2:0:0:
313,339,140431,1,2,3:2:0:0:
268,62,140598,1,10,0:0:0:0:
203,337,140765,2,0,P|160:355|105:357,1,92.8200005665283,10|0,0:0|3:2,0:0:0:0:
49,130,141098,2,0,P|93:112|147:110,1,92.8200005665283,2|10,3:2|0:0,0:0:0:0:
277,233,141431,6,0,B|230:200|230:200|170:232|119:195,1,152.880001866211,6|0,3:2|0:0,0:0:0:0:
113,192,141765,1,0,3:0:0:0:
232,319,141931,1,8,0:0:0:0:
167,115,142098,1,8,0:0:0:0:
167,115,142181,1,8,0:0:0:0:
167,115,142265,1,2,3:2:0:0:
277,233,142431,2,0,P|328:220|378:210,1,92.8200005665283,2|8,3:2|0:0,0:0:0:0:
467,91,142765,5,2,3:2:0:0:
457,71,142848,1,0,3:0:0:0:
452,48,142931,1,8,0:0:0:0:
296,144,143098,1,2,3:2:0:0:
306,117,143181,1,0,3:0:0:0:
310,90,143265,1,8,0:0:0:0:
473,254,143431,1,2,3:2:0:0:
456,221,143514,1,0,3:0:0:0:
450,189,143597,1,8,0:0:0:0:
283,302,143764,6,0,P|295:274|298:251,1,46.4100002832642,2|0,3:2|3:0,0:0:0:0:
404,297,143931,2,0,P|390:324|384:351,1,46.4100002832642,8|8,0:0|0:0,0:0:0:0:
198,253,144098,6,0,B|136:270|136:270|118:300|118:300|53:314,1,152.880001866211,6|0,3:2|0:0,0:0:0:0:
42,320,144431,1,2,3:2:0:0:
172,159,144598,1,10,0:0:0:0:
27,102,144765,1,2,3:2:0:0:
198,253,144931,1,10,0:0:0:0:
277,146,145098,1,8,0:0:0:0:
283,114,145181,1,8,0:0:0:0:
287,81,145264,1,8,3:0:0:0:
288,49,145348,1,4,3:0:0:0:
285,17,145431,6,0,P|181:11|133:101,1,185.640001133057,6|2,3:2|3:2,0:0:0:0:
313,244,145931,1,8,0:0:0:0:
145,187,146098,1,2,3:2:0:0:
361,78,146264,1,8,0:0:0:0:
220,249,146431,1,10,3:0:0:0:
219,272,146514,1,8,3:0:0:0:
220,295,146597,1,4,3:0:0:0:
223,318,146681,1,4,3:0:0:0:
227,341,146764,6,0,B|275:353|275:353|310:322|310:322|347:348|402:345,1,185.640001133057,6|2,3:2|3:2,0:0:0:0:
353,83,147264,1,10,0:0:0:0:
316,284,147431,1,2,3:2:0:0:
350,75,147598,1,10,0:0:0:0:
323,295,147765,1,8,3:0:0:0:
488,152,147931,1,8,0:0:0:0:
223,200,148098,6,0,P|138:181|32:165,1,185.640001133057,6|2,3:2|3:2,0:0:0:0:
197,50,148598,1,8,0:0:0:0:
69,273,148764,1,8,0:0:0:0:
69,273,148848,1,8,0:0:0:0:
69,273,148931,1,0,3:2:0:0:
313,161,149098,1,8,0:0:0:0:
11,338,149264,1,8,3:0:0:0:
400,154,149431,1,4,3:0:0:0:
167,368,149598,6,0,B|143:320|143:320|165:276|165:276|139:234|141:172,1,185.640001133057,6|0,3:2|3:0,0:0:0:0:
329,34,150098,1,0,3:0:0:0:
256,278,150264,2,0,P|197:249|207:130,1,185.640001133057,8|0,0:0|3:0,0:0:0:0:
362,227,150764,1,8,0:0:0:0:
354,248,150847,1,8,0:0:0:0:
351,271,150930,5,0,3:0:0:0:
226,142,151098,1,8,0:0:0:0:
362,50,151264,1,0,3:0:0:0:
249,242,151431,2,0,P|200:227|145:216,1,92.8200005665283,2|8,3:2|0:0,0:0:0:0:
324,135,151764,1,2,0:0:0:0:
201,52,151931,2,0,P|212:101|230:155,1,92.8200005665283,2|0,3:2|0:0,0:0:0:0:
142,324,152264,5,6,3:2:0:0:
287,228,152431,2,0,B|319:241|358:241|358:241|378:282|378:282|414:284|467:302,1,185.640001133057,8|0,0:0|3:0,0:0:0:0:
184,191,152931,2,0,P|149:255|212:340,1,185.640001133057,8|0,0:0|3:0,0:0:0:0:
287,228,153431,6,0,P|292:181|308:122,1,92.8200005665283,8|0,0:0|3:0,0:0:0:0:
339,314,153764,1,0,3:0:0:0:
184,191,153931,1,8,0:0:0:0:
347,82,154098,1,8,0:0:0:0:
335,102,154181,1,8,0:0:0:0:
331,124,154264,1,2,3:2:0:0:
189,67,154431,1,10,3:0:0:0:
446,147,154598,1,6,3:0:0:0:
192,77,154764,1,4,3:0:0:0:
324,272,154931,6,0,P|307:191|292:71,1,185.640001133057,6|8,3:2|0:0,0:0:0:0:
139,185,155431,2,0,P|190:252|290:207,1,185.640001133057,2|0,3:2|3:0,0:0:0:0:
446,297,155931,6,0,B|376:311|376:311|358:349|358:349|271:370,1,185.640001133057,14|0,3:2|0:0,0:0:0:0:
59,259,156431,1,0,3:0:0:0:
146,384,156598,2,0,P|160:340|167:283,1,92.8200005665283,8|8,0:0|0:0,0:0:0:0:
161,268,156848,1,8,0:0:0:0:
161,268,156931,1,0,3:2:0:0:
283,354,157098,1,8,0:0:0:0:
252,237,157264,1,8,3:0:0:0:
221,120,157431,1,4,3:0:0:0:
389,285,157598,6,0,P|431:234|395:123,1,185.640001133057,6|0,3:2|3:0,0:0:0:0:
252,237,158098,2,0,P|302:215|350:208,1,92.8200005665283,10|4,3:0|3:0,0:0:0:0:
221,120,158431,1,0,3:0:0:0:
260,345,158598,6,0,B|189:328|189:328|171:290|171:290|101:276,1,185.640001133057,10|0,0:0|3:0,0:0:0:0:
252,237,159098,1,8,0:0:0:0:
108,151,159264,1,2,3:2:0:0:
223,89,159431,1,8,3:0:0:0:
223,89,159514,1,8,3:0:0:0:
223,89,159598,1,4,3:0:0:0:
134,312,159764,2,0,P|73:323|4:233,1,185.640001133057,10|8,0:0|0:0,0:0:0:0:
36,146,160181,1,8,0:0:0:0:
36,146,160264,6,0,B|83:170|83:170|122:148|122:148|161:176|220:166,1,185.640001133057,6|0,3:2|0:0,0:0:0:0:
381,129,160764,1,0,3:0:0:0:
176,266,160931,2,0,P|220:204|323:214,1,185.640001133057,8|0,0:0|3:0,0:0:0:0:
231,380,161431,1,8,0:0:0:0:
211,367,161514,1,8,0:0:0:0:
188,362,161598,5,0,3:0:0:0:
330,288,161764,1,8,0:0:0:0:
190,183,161931,1,0,0:0:0:0:
300,85,162098,2,0,P|289:135|278:189,1,92.8200005665283,2|8,3:2|0:0,0:0:0:0:
459,244,162431,1,2,0:0:0:0:
357,192,162598,2,0,P|368:242|379:296,1,92.8200005665283,2|8,0:0|0:0,0:0:0:0:
387,315,162848,1,8,0:0:0:0:
387,315,162931,6,0,P|349:366|241:328,1,185.640001133057,0|0,3:0|0:0,0:0:0:0:
77,257,163431,1,0,3:0:0:0:
147,384,163598,2,0,B|143:300|176:307|176:169,1,185.640001133057,8|0,0:0|3:0,0:0:0:0:
313,271,164098,1,8,0:0:0:0:
207,136,164264,6,0,P|219:193|230:240,1,92.8200005665283
389,86,164598,2,0,P|377:143|366:190,1,92.8200005665283,0|0,3:0|0:0,0:0:0:0:
462,339,164931,1,10,0:0:0:0:
313,271,165098,1,2,3:2:0:0:
463,187,165264,1,10,0:0:0:0:
240,345,165431,1,8,0:0:0:0:
423,269,165598,6,0,B|353:255|353:255|334:221|334:221|246:206,1,185.640001133057,6|0,3:2|3:0,0:0:0:0:
52,268,166098,1,8,3:0:0:0:
140,200,166264,1,4,3:0:0:0:
37,163,166431,1,4,3:0:0:0:
149,371,166598,6,0,P|161:282|177:160,1,185.640001133057,6|0,3:2|0:0,0:0:0:0:
272,77,167098,1,0,3:0:0:0:
66,164,167264,1,8,0:0:0:0:
206,274,167431,1,8,0:0:0:0:
206,274,167514,1,8,0:0:0:0:
206,274,167598,1,8,3:2:0:0:
166,49,167764,1,8,0:0:0:0:
215,280,167931,1,0,3:0:0:0:
160,44,168098,1,8,0:0:0:0:
317,196,168264,5,6,3:2:0:0:
448,97,168431,2,0,B|376:82|376:82|350:46|350:46|256:27,1,185.640001133057,8|2,0:0|3:2,0:0:0:0:
436,196,168931,2,0,P|451:255|452:302,1,92.8200005665283,8|0,0:0|0:0,0:0:0:0:
168,241,169264,6,0,P|218:161|314:179,1,185.640001133057,6|0,3:2|0:0,0:0:0:0:
222,368,169764,1,8,0:0:0:0:
356,261,169931,1,2,3:2:0:0:
187,140,170098,1,0,3:0:0:0:
187,140,170181,1,8,0:0:0:0:
187,140,170264,1,10,0:0:0:0:
318,78,170431,1,8,3:0:0:0:
299,167,170598,1,4,3:0:0:0:
280,256,170764,1,4,3:0:0:0:
178,47,170931,6,0,P|113:27|70:20,2,92.8200005665283,6|0|0,3:2|3:0|3:0,0:0:0:0:
299,167,171431,2,0,P|364:147|407:140,2,92.8200005665283,14|0|0,0:0|3:0|3:0,0:0:0:0:
166,289,171931,6,0,P|102:301|37:195,1,185.640001133057,14|0,0:0|3:0,0:0:0:0:
294,262,172487,1,8,0:0:0:0:
294,262,172598,2,0,P|281:330|281:348,2,61.8800003776855,0|8|8,3:0|0:0|0:0,0:0:0:0:
193,180,172931,1,0,3:0:0:0:
373,237,173098,1,8,3:0:0:0:
312,75,173264,1,4,3:0:0:0:
359,335,173431,1,8,0:0:0:0:
499,201,173598,6,0,B|448:179|448:179|403:199|403:199|374:167|314:167,1,185.640001133057,6|0,3:2|3:0,0:0:0:0:
79,56,174098,2,0,P|184:64|193:144,1,185.640001133057,6|0,3:2|0:0,0:0:0:0:
29,257,174598,6,0,B|132:198|216:282|154:322|259:413|372:332,1,382.199988336182,6|0,3:2|0:0,0:0:0:0:
358,340,176598,1,0,3:0:0:0:
487,200,176931,1,10,0:0:0:0:
478,227,177014,1,8,0:0:0:0:
472,255,177097,1,2,3:2:0:0:
299,183,177264,2,0,P|291:158|294:130,1,41.8599985947876,8|8,0:0|0:0,0:0:0:0:
372,53,177431,6,0,B|304:67|304:67|285:105|285:105|204:124,1,185.640001133057,6|2,3:2|3:2,0:0:0:0:
6,87,177931,1,10,0:0:0:0:
140,176,178098,1,2,0:0:0:0:
0,257,178264,1,2,3:2:0:0:
132,78,178431,1,2,3:2:0:0:
132,78,178514,1,2,0:0:0:0:
132,78,178598,1,10,0:0:0:0:
194,303,178764,6,0,P|140:284|100:275,1,92.8200005665283,2|0,3:2|0:0,0:0:0:0:
288,137,179098,1,2,3:2:0:0:
179,202,179264,1,10,0:0:0:0:
321,339,179431,1,2,3:2:0:0:
321,339,179514,1,2,3:2:0:0:
321,339,179598,1,2,3:2:0:0:
372,206,179764,1,2,3:2:0:0:
194,303,179931,1,10,0:0:0:0:
389,107,180098,6,0,B|336:100|336:100|307:57|307:57|269:73|206:62,1,185.640001133057,6|2,3:2|3:2,0:0:0:0:
119,180,180598,1,10,0:0:0:0:
229,94,180764,1,2,3:2:0:0:
115,49,180931,1,2,3:2:0:0:
236,189,181098,1,2,3:2:0:0:
73,305,181264,1,10,0:0:0:0:
204,265,181431,6,0,P|220:319|234:359,1,92.8200005665283,2|0,3:2|3:2,0:0:0:0:
8,201,181764,2,0,P|22:157|35:112,1,92.8200005665283,2|8,3:2|0:0,0:0:0:0:
264,72,182098,2,0,P|221:155|121:158,1,185.640001133057,2|0,3:2|3:0,0:0:0:0:
380,224,182598,1,8,0:0:0:0:
231,353,182764,6,0,P|241:266|258:159,1,185.640001133057,4|0,3:2|3:0,0:0:0:0:
414,20,183264,2,0,P|425:86|436:130,1,92.8200005665283,8|0,0:0|3:2,0:0:0:0:
395,267,183598,2,0,P|375:213|372:207,2,46.4100002832642,2|2|2,3:2|0:0|3:2,0:0:0:0:
256,169,183931,1,10,0:0:0:0:
493,236,184098,6,0,P|486:281|476:327,1,92.8200005665283,2|0,3:2|0:0,0:0:0:0:
349,113,184431,1,2,3:2:0:0:
289,281,184598,1,10,0:0:0:0:
168,198,184764,2,0,P|242:174|274:160,1,92.8200005665283,2|0,3:2|3:0,0:0:0:0:
386,16,185098,1,2,3:2:0:0:
269,137,185264,1,2,3:2:0:0:
493,236,185431,6,0,P|451:176|339:189,1,185.640001133057,10|2,0:0|3:2,0:0:0:0:
234,363,185931,1,10,0:0:0:0:
365,279,186098,1,10,0:0:0:0:
218,130,186264,1,2,3:2:0:0:
319,53,186431,1,2,3:2:0:0:
319,53,186514,1,2,0:0:0:0:
319,53,186598,1,10,2:2:0:0:
249,240,186764,1,6,3:2:0:0:
61,150,186931,5,2,0:0:0:0:
164,33,187098,1,10,0:0:0:0:
168,55,187181,1,10,0:0:0:0:
172,78,187264,1,10,0:0:0:0:
177,101,187348,1,8,0:0:0:0:
182,124,187431,1,6,3:2:0:0:
94,305,187598,1,10,2:0:0:0:
98,282,187681,1,10,2:0:0:0:
104,259,187764,1,6,3:2:0:0:
299,137,187931,2,0,P|309:186|311:200,1,46.4100002832642,10|10,2:0|2:0,0:0:0:0:
378,324,188098,6,0,B|308:307|308:307|285:273|285:273|204:254,1,185.640001133057,6|2,3:2|3:2,0:0:0:0:
426,131,188598,2,0,P|401:193|397:228,1,92.8200005665283,14|8,0:0|0:0,0:0:0:0:
416,248,188848,1,8,0:0:0:0:
416,248,188931,2,0,P|447:242|473:236,1,46.4100002832642,2|0,3:2|3:0,0:0:0:0:
311,142,189098,1,2,3:2:0:0:
451,42,189264,1,10,0:0:0:0:
307,167,189431,6,0,P|255:154|203:144,1,92.8200005665283,2|2,3:2|0:0,0:0:0:0:
305,11,189764,1,2,3:2:0:0:
227,243,189931,1,8,0:0:0:0:
82,149,190098,1,10,0:0:0:0:
199,65,190264,2,0,P|207:96|215:126,1,46.4100002832642,2|0,3:2|3:0,0:0:0:0:
130,280,190431,2,0,P|135:257|141:235,1,46.4100002832642,2|0,3:2|3:0,0:0:0:0:
52,126,190598,2,0,P|74:120|96:114,1,46.4100002832642,10|10,0:0|0:0,0:0:0:0:
296,238,190764,6,0,P|223:217|146:200,1,139.230000849792,6|0,3:2|0:0,0:0:0:0:
131,194,191098,1,2,3:2:0:0:
297,103,191264,1,10,0:2:0:0:
179,32,191431,1,2,3:2:0:0:
344,177,191598,1,2,3:2:0:0:
433,60,191764,1,2,3:2:0:0:
224,177,191931,1,10,0:0:0:0:
420,340,192098,6,0,P|429:295|447:235,1,92.8200005665283,6|0,3:2|3:0,0:0:0:0:
264,275,192431,1,2,3:2:0:0:
415,159,192598,1,10,0:0:0:0:
278,59,192764,1,10,0:0:0:0:
363,253,192931,2,0,P|374:303|377:318,1,46.4100002832642,2|0,3:2|3:0,0:0:0:0:
207,170,193098,1,8,0:0:0:0:
207,170,193181,1,8,0:0:0:0:
207,170,193264,2,0,P|211:147|217:124,1,46.4100002832642,2|10,3:2|2:0,0:0:0:0:
113,310,193431,1,10,2:0:0:0:
113,310,193514,1,10,2:0:0:0:
113,310,193598,6,0,P|178:361|242:337,1,139.230000849792,6|0,3:2|3:0,0:0:0:0:
251,334,193931,1,10,0:0:0:0:
138,214,194098,1,2,0:0:0:0:
293,150,194264,1,2,3:2:0:0:
226,234,194431,1,2,3:2:0:0:
190,132,194598,1,2,0:0:0:0:
423,281,194764,6,0,B|386:238|316:248|316:248|298:298|242:323,1,185.640001133057,14|2,0:0|3:2,0:0:0:0:
396,131,195264,1,10,0:0:0:0:
358,339,195431,1,2,3:2:0:0:
481,181,195598,1,10,0:0:0:0:
226,234,195764,1,10,0:0:0:0:
492,185,195931,1,10,0:0:0:0:
215,228,196098,6,0,B|246:210|285:216|285:216|306:174|306:174|346:176|384:158,1,185.640001133057,6|2,3:2|3:2,0:0:0:0:
246,340,196598,1,14,0:0:0:0:
93,232,196764,1,2,3:2:0:0:
93,232,196848,1,0,3:0:0:0:
93,232,196931,1,10,0:0:0:0:
245,120,197098,1,10,0:0:0:0:
245,120,197181,1,8,0:0:0:0:
245,120,197264,1,10,0:0:0:0:
87,26,197431,6,0,P|106:122|126:211,1,185.640001133057,6|2,3:2|3:2,0:0:0:0:
65,375,197931,1,10,0:0:0:0:
211,225,198098,1,10,0:0:0:0:
250,202,198181,1,8,0:0:0:0:
296,206,198264,1,10,0:0:0:0:
330,236,198348,1,8,0:0:0:0:
364,266,198431,1,10,3:0:0:0:
408,272,198514,1,8,3:0:0:0:
447,248,198597,1,6,3:0:0:0:
460,205,198681,1,4,3:0:0:0:
444,191,198764,5,4,3:2:0:0:
96,293,204098,6,0,B|123:235|187:240|187:240|212:278|265:282,1,189.279998844727,2|0,0:0|0:0,0:0:0:0:
369,343,204931,2,0,P|352:298|354:238,1,94.6399994223633,10|0,0:0|0:0,0:0:0:0:
285,140,205431,2,0,P|281:169|273:190,1,47.3199997111816,2|0,0:0|0:0,0:0:0:0:
249,279,205764,2,0,P|229:264|214:247,1,47.3199997111816,2|0,0:0|0:0,0:0:0:0:
146,181,206098,2,0,P|168:171|191:166,1,47.3199997111816,2|8,0:0|0:0,0:0:0:0:
321,51,206431,1,2,0:0:0:0:
254,103,206598,1,2,0:0:0:0:
171,79,206764,6,0,B|112:67|112:67|92:41|92:41|36:33,1,141.959999133545,2|0,0:0|0:0,0:0:0:0:
177,208,207598,1,10,0:0:0:0:
86,240,207764,2,0,P|93:216|99:184,1,47.3199997111816,2|0,0:0|0:0,0:0:0:0:
248,134,208098,2,0,P|256:186|274:241,2,94.6399994223633,2|2|2,0:0|0:0|0:0,0:0:0:0:
346,69,208931,1,8,0:0:0:0:
291,17,209098,1,2,0:0:0:0:
379,261,209431,6,0,P|442:269|483:197,1,141.959999133545,2|0,0:0|0:0,0:0:0:0:
212,230,210098,1,0,0:0:0:0:
281,171,210264,2,0,P|291:225|301:274,1,94.6399994223633,10|0,0:0|0:0,0:0:0:0:
146,95,210764,5,2,3:2:0:0:
146,95,211264,2,0,L|163:194,1,74.6200011386109,12|0,0:0|0:0,0:0:0:0:
192,343,211598,1,8,0:0:0:0:
260,95,211764,1,8,0:0:0:0:
331,329,211931,1,8,0:0:0:0:
158,168,212098,6,0,P|107:156|71:160,1,74.6200011386109,4|0,3:2|0:0,0:0:0:0:
338,318,212431,2,0,P|389:330|425:326,1,74.6200011386109,4|0,3:2|0:0,0:0:0:0:
258,205,212764,2,0,L|250:246,1,37.3100005693054,4|0,3:2|0:0,0:0:0:0:
394,130,212931,5,12,0:0:0:0:
127,281,213098,1,12,0:0:0:0:
345,37,213431,6,0,B|336:81|336:81|361:104|361:104|372:150|344:193,1,152.880001866211,6|0,3:2|0:0,0:0:0:0:
345,207,213764,1,2,3:2:0:0:
253,384,213931,2,0,P|224:342|231:285,1,92.8200005665283,10|2,0:0|3:2,0:0:0:0:
232,278,214181,1,8,0:0:0:0:
232,278,214265,1,2,3:2:0:0:
364,338,214431,1,2,3:2:0:0:
147,256,214598,1,10,0:0:0:0:
277,139,214765,1,2,3:2:0:0:
345,225,214931,5,0,0:0:0:0:
170,158,215098,1,2,3:2:0:0:
267,18,215265,1,8,0:0:0:0:
386,102,215431,1,2,0:0:0:0:
386,102,215515,1,8,0:0:0:0:
386,102,215598,2,0,P|373:146|360:191,1,92.8200005665283,0|2,3:0|3:2,0:0:0:0:
306,361,215931,2,0,L|323:300,1,46.4100002832642,8|8,0:0|3:0,0:0:0:0:
356,214,216098,6,0,B|294:223|294:223|272:254|272:254|201:266,1,152.880001866211,6|0,3:2|0:0,0:0:0:0:
195,271,216431,1,2,3:2:0:0:
304,125,216598,1,10,0:0:0:0:
304,125,216765,1,2,3:2:0:0:
194,61,216931,5,2,0:0:0:0:
257,222,217098,1,2,3:2:0:0:
409,142,217265,1,10,0:0:0:0:
409,142,217431,1,2,3:2:0:0:
291,314,217598,5,2,3:2:0:0:
140,154,217765,1,2,3:2:0:0:
283,71,217931,1,8,0:0:0:0:
119,290,218098,1,10,0:0:0:0:
119,290,218181,1,8,0:0:0:0:
119,290,218265,1,0,3:2:0:0:
281,155,218431,1,2,3:2:0:0:
96,40,218598,2,0,L|87:86,1,46.4100002832642,10|8,0:0|0:0,0:0:0:0:
121,207,218765,6,0,B|146:266|146:266|116:313|146:366,1,152.880001866211,6|0,3:2|0:0,0:0:0:0:
271,173,219098,1,2,3:2:0:0:
217,308,219265,1,10,0:0:0:0:
415,272,219431,2,0,P|370:258|315:241,1,92.8200005665283,2|2,3:2|0:0,0:0:0:0:
454,131,219765,1,2,3:2:0:0:
350,38,219931,1,8,0:0:0:0:
271,173,220098,6,0,P|260:127|250:82,1,92.8200005665283,2|0,3:2|0:0,0:0:0:0:
136,0,220431,2,0,P|125:45|115:90,1,92.8200005665283,2|10,3:2|0:0,0:0:0:0:
26,200,220765,1,10,0:0:0:0:
26,200,220848,1,8,0:0:0:0:
26,200,220931,1,8,0:0:0:0:
178,134,221098,2,0,L|134:117,1,46.4100002832642,0|0,3:0|3:0,0:0:0:0:
105,299,221265,2,0,L|149:283,1,46.4100002832642,10|8,0:0|0:0,0:0:0:0:
275,221,221431,6,0,B|218:207|218:207|199:171|199:171|123:153,1,152.880001866211,6|0,3:2|0:0,0:0:0:0:
119,150,221765,1,2,3:2:0:0:
242,317,221931,1,8,0:0:0:0:
242,317,222098,1,2,3:2:0:0:
359,192,222265,1,10,0:0:0:0:
359,192,222431,2,0,P|348:146|338:101,1,92.8200005665283,2|0,3:2|3:0,0:0:0:0:
369,310,222765,6,0,P|415:368|519:334,1,185.640001133057,14|2,2:2|3:2,0:0:0:0:
466,158,223265,1,8,0:0:0:0:
302,234,223431,1,2,3:2:0:0:
162,150,223598,1,8,0:0:0:0:
266,71,223765,1,10,0:0:0:0:
266,71,223848,1,8,0:0:0:0:
266,71,223931,1,10,0:0:0:0:
266,71,224015,1,8,0:0:0:0:
266,71,224098,6,0,B|312:37|312:37|354:73|427:66,1,152.880001866211,6|0,3:2|0:0,0:0:0:0:
422,66,224431,1,10,0:0:0:0:
343,253,224598,2,0,P|331:208|319:163,1,92.8200005665283,10|0,0:0|3:0,0:0:0:0:
313,139,224848,1,0,3:0:0:0:
313,139,224931,1,10,0:0:0:0:
430,276,225098,1,2,3:2:0:0:
222,202,225265,1,0,3:2:0:0:
176,362,225431,6,0,P|235:345|285:332,1,92.8200005665283,10|0,0:0|3:0,0:0:0:0:
430,176,225765,2,0,P|370:159|320:146,1,92.8200005665283,2|8,3:2|0:0,0:0:0:0:
83,93,226098,2,0,P|157:80|237:51,1,152.880001866211,10|8,0:0|3:0,0:0:0:0:
257,43,226431,1,10,3:0:0:0:
140,196,226598,1,6,3:0:0:0:
265,336,226765,6,0,P|300:273|249:184,1,152.880001866211,6|0,3:2|0:0,0:0:0:0:
259,181,227098,1,2,3:2:0:0:
162,292,227265,1,14,0:0:0:0:
162,292,227431,1,2,0:0:0:0:
369,190,227598,5,2,3:2:0:0:
151,156,227765,1,2,3:2:0:0:
284,90,227931,1,10,0:0:0:0:
284,90,228098,1,10,0:0:0:0:
355,324,228265,5,2,3:2:0:0:
411,62,228431,1,2,3:2:0:0:
362,313,228598,1,10,0:0:0:0:
400,53,228765,2,0,P|443:35|498:33,1,92.8200005665283,2|0,0:0|3:0,0:0:0:0:
406,206,229098,2,0,P|362:224|308:226,1,92.8200005665283,2|10,3:2|0:0,0:0:0:0:
91,117,229431,6,0,P|169:115|220:172,1,152.880001866211,6|0,3:2|0:0,0:0:0:0:
227,186,229765,1,2,3:2:0:0:
134,317,229931,1,10,0:0:0:0:
312,232,230098,1,8,3:2:0:0:
312,232,230181,1,8,0:0:0:0:
312,232,230265,1,2,3:2:0:0:
129,188,230431,2,0,P|139:233|150:278,1,92.8200005665283,2|8,3:2|0:0,0:0:0:0:
247,112,230765,5,2,3:2:0:0:
257,92,230848,1,0,3:0:0:0:
262,69,230931,1,8,0:0:0:0:
283,239,231098,1,2,3:2:0:0:
312,232,231181,1,0,3:0:0:0:
340,220,231265,1,8,0:0:0:0:
211,342,231431,1,10,0:0:0:0:
227,358,231514,1,8,0:0:0:0:
239,378,231597,1,2,3:2:0:0:
129,188,231765,6,0,P|117:160|114:137,1,46.4100002832642,10|8,3:0|3:0,0:0:0:0:
283,239,231931,2,0,P|301:214|319:200,1,46.4100002832642,8|8,0:0|0:0,0:0:0:0:
187,322,232098,6,0,P|123:380|40:340,1,152.880001866211,6|0,3:2|0:0,0:0:0:0:
40,348,232431,1,2,3:2:0:0:
213,196,232598,1,14,0:0:0:0:
58,102,232765,1,2,0:0:0:0:
265,287,232931,1,14,2:0:0:0:
97,234,233098,1,10,3:0:0:0:
254,86,233265,2,0,P|261:120|267:144,1,46.4100002832642,4|4,3:0|3:0,0:0:0:0:
298,292,233431,6,0,B|367:278|367:278|394:237|394:237|467:224,1,185.640001133057,6|10,3:2|0:0,0:0:0:0:
361,371,233931,1,14,0:0:0:0:
481,250,234098,1,10,0:0:0:0:
475,204,234181,1,8,0:0:0:0:
469,158,234265,1,0,3:2:0:0:
316,88,234431,1,10,3:0:0:0:
310,134,234514,1,8,3:0:0:0:
304,180,234597,1,4,3:0:0:0:
185,299,234765,2,0,L|175:234,1,46.4100002832642,4|4,3:0|3:0,0:0:0:0:
69,135,234931,6,0,B|121:97|121:97|171:137|250:122,1,167.439994379151,6|0,3:2|3:0,0:0:0:0:
67,223,235431,1,0,3:0:0:0:
252,45,235598,2,0,P|315:109|285:201,1,167.439994379151,8|2,0:0|3:2,0:0:0:0:
189,340,236098,6,0,P|145:324|79:314,1,83.7199971895753,8|0,0:0|3:0,0:0:0:0:
217,125,236431,1,2,0:0:0:0:
291,213,236598,2,0,P|250:224|205:241,1,83.7199971895753,2|0,3:2|3:0,0:0:0:0:
92,124,236931,1,8,0:0:0:0:
225,84,237098,1,10,0:0:0:0:
221,103,237181,1,8,0:0:0:0:
217,125,237264,1,2,3:2:0:0:
172,1,237431,1,10,0:0:0:0:
291,213,237598,6,0,B|356:200|356:200|378:165|378:165|456:151,1,167.439994379151,6|0,3:2|0:0,0:0:0:0:
312,70,238098,1,0,3:0:0:0:
423,255,238265,2,0,P|468:233|526:215,1,83.7199971895753,8|0,0:0|0:0,0:0:0:0:
325,159,238598,1,2,3:2:0:0:
303,302,238764,6,0,P|297:346|287:390,1,83.7199971895753,10|0,0:0|0:0,0:0:0:0:
201,210,239098,2,0,P|192:169|186:127,1,83.7199971895753,2|0,3:2|0:0,0:0:0:0:
84,281,239431,2,0,P|78:325|68:369,1,83.7199971895753,2|8,3:2|3:0,0:0:0:0:
17,206,239765,1,6,3:3:0:0:
181,333,239931,1,10,0:0:0:0:
342,175,240098,6,0,P|261:159|199:215,1,167.439994379151,6|0,3:0|3:0,0:0:0:0:
291,384,240598,2,0,P|303:344|315:303,1,83.7199971895753,2|0,0:0|3:0,0:0:0:0:
175,229,240931,2,0,P|160:164|151:83,1,125.579995784363,8|0,0:0|0:0,0:0:0:0:
269,0,241265,1,2,3:2:0:0:
342,175,241431,6,0,P|301:164|262:149,1,83.7199971895753,10|0,0:0|0:0,0:0:0:0:
367,67,241765,1,2,3:2:0:0:
290,293,241931,1,14,2:2:0:0:
426,194,242098,1,0,3:0:0:0:
284,309,242264,2,0,P|244:323|204:334,1,83.7199971895753,8|8,3:0|3:0,0:0:0:0:
71,199,242598,1,4,3:0:0:0:
91,203,242681,1,4,3:0:0:0:
111,207,242764,1,4,3:0:0:0:
132,210,242848,1,4,3:0:0:0:
152,211,242931,6,0,P|176:145|125:81,1,139.230000849792,6|0,3:2|0:0,0:0:0:0:
118,71,243264,2,0,P|144:64|181:55,3,46.4100002832642,8|8|8|8,3:2|0:0|0:0|0:0,0:0:0:0:
264,161,243598,2,0,P|241:154|219:149,3,46.4100002832642,8|8|8|8,3:2|0:0|0:0|0:0,0:0:0:0:
327,77,243931,1,10,3:2:0:0:
349,72,244014,1,8,0:0:0:0:
372,68,244097,1,10,0:0:0:0:
395,64,244181,1,8,0:0:0:0:
418,59,244264,6,0,P|410:90|404:118,3,46.4100002832642,8|8|8|8,3:2|0:0|0:0|0:0,0:0:0:0:
468,201,244598,2,0,P|494:194|527:185,1,46.4100002832642,8|8,3:2|0:0,0:0:0:0:
337,256,244764,1,8,0:0:0:0:
337,256,244848,1,8,0:0:0:0:
337,256,244931,2,0,P|311:249|278:240,1,46.4100002832642,8|8,3:2|0:0,0:0:0:0:
442,306,245098,2,0,P|448:328|454:350,1,46.4100002832642,8|8,0:0|0:0,0:0:0:0:
365,163,245264,2,0,P|371:140|377:118,1,46.4100002832642,10|8,3:2|0:0,0:0:0:0:
260,276,245431,6,0,B|188:290|188:290|163:331|163:331|80:348,1,185.640001133057,6|8,3:2|0:0,0:0:0:0:
70,352,245848,1,8,0:0:0:0:
70,352,245931,2,0,P|74:328|81:292,1,46.4100002832642,8|8,3:2|0:0,0:0:0:0:
160,191,246098,1,8,0:0:0:0:
160,191,246181,1,8,0:0:0:0:
160,191,246264,2,0,P|156:168|151:145,1,46.4100002832642,8|8,3:2|0:0,0:0:0:0:
260,276,246431,1,8,0:0:0:0:
288,311,246514,1,8,0:0:0:0:
331,328,246597,1,10,3:3:0:0:
376,322,246681,1,8,0:0:0:0:
413,294,246764,1,6,3:2:0:0:
325,116,246931,6,0,L|312:56,3,46.4100002832642,8|8|8|8,0:0|0:0|0:0|0:0,0:0:0:0:
257,181,247264,1,8,3:2:0:0:
439,84,247431,2,0,L|429:129,1,46.4100002832642,8|8,3:0|3:0,0:0:0:0:
490,271,247598,1,8,3:0:0:0:
454,242,247681,1,8,3:0:0:0:
408,235,247764,1,4,3:0:0:0:
366,252,247848,1,4,3:0:0:0:
338,289,247931,1,4,3:0:0:0:
302,317,248014,1,4,3:0:0:0:
257,324,248097,1,0,3:0:0:0:
214,307,248181,1,0,3:0:0:0:
187,271,248264,5,14,3:2:0:0:
146,66,248431,1,10,0:0:0:0:
67,354,248764,5,10,0:0:0:0:
108,149,248931,1,10,0:0:0:0:
108,149,249098,1,0,3:0:0:0:
301,268,249264,6,0,B|272:265|225:289|225:289|182:238|182:238|111:281|57:249,1,278.460001699585,10|0,0:0|3:0,0:0:0:0:
275,141,249931,1,8,0:0:0:0:
231,384,250098,1,0,3:0:0:0:
377,311,250265,6,0,L|471:289,1,92.8200005665283,14|0,0:0|0:0,0:0:0:0:
468,270,250514,2,0,L|377:291,1,92.8200005665283,14|0,0:0|0:0,0:0:0:0:
294,313,250765,2,0,L|300:267,1,46.4100002832642,14|0,0:0|0:0,0:0:0:0:
311,137,250931,5,2,3:0:0:0:
395,384,251098,1,8,0:0:0:0:
440,158,251431,5,10,0:0:0:0:
294,313,251598,1,10,0:0:0:0:
294,313,251765,1,0,3:0:0:0:
512,211,251931,6,0,B|483:213|436:189|436:189|393:240|393:240|322:197|268:229,1,278.460001699585,6|8,3:2|3:0,0:0:0:0:
141,104,252598,1,8,0:0:0:0:
343,183,252765,1,0,3:0:0:0:
138,311,252931,1,10,0:0:0:0:
233,203,253098,1,8,0:0:0:0:
233,203,253181,1,8,0:0:0:0:
233,203,253265,2,0,P|226:235|220:263,3,46.4100002832642,8|8|8|8,0:0|0:0|0:0|3:0,0:0:0:0:
138,311,253598,6,0,L|123:210,1,92.8200005665283,6|10,3:2|0:0,0:0:0:0:
56,166,253848,1,8,0:0:0:0:
56,166,253931,2,0,L|45:220,1,46.4100002832642,10|8,0:0|0:0,0:0:0:0:
223,248,254098,2,0,L|238:147,1,92.8200005665283,6|8,3:2|0:0,0:0:0:0:
305,102,254348,1,8,0:0:0:0:
305,102,254431,2,0,L|316:156,1,46.4100002832642,10|8,0:0|0:0,0:0:0:0:
453,280,254598,6,0,L|352:252,1,92.8200005665283,6|8,3:2|0:0,0:0:0:0:
299,296,254848,1,8,0:0:0:0:
299,296,254931,2,0,L|310:350,1,46.4100002832642,10|8,0:0|0:0,0:0:0:0:
69,232,255098,2,0,L|170:204,1,92.8200005665283,6|8,3:2|0:0,0:0:0:0:
223,248,255348,1,8,0:0:0:0:
223,248,255431,2,0,L|212:302,1,46.4100002832642,10|8,0:0|0:0,0:0:0:0:
305,102,255598,1,6,3:2:0:0:
206,382,255931,1,6,3:2:0:0:
2,62,256265,6,0,L|102:82,1,92.8200005665283,14|8,0:0|3:0,0:0:0:0:
183,120,256515,1,8,3:0:0:0:
183,120,256598,2,0,L|165:53,1,46.4100002832642,4|4,3:0|3:0,0:0:0:0:
35,200,256764,2,0,L|135:220,1,92.8200005665283,14|8,0:0|3:0,0:0:0:0:
216,258,257014,1,8,3:0:0:0:
216,258,257097,2,0,L|198:191,1,46.4100002832642,4|4,3:0|3:0,0:0:0:0:
325,93,257265,6,0,L|298:188,1,92.8200005665283,14|8,0:0|3:0,0:0:0:0:
305,266,257515,1,8,3:0:0:0:
305,266,257598,2,0,L|378:244,1,46.4100002832642,4|4,3:0|3:0,0:0:0:0:
468,143,257764,6,0,L|441:238,1,92.8200005665283,14|8,0:0|3:0,0:0:0:0:
448,316,258014,1,8,3:0:0:0:
448,316,258097,2,0,L|521:294,1,46.4100002832642,8|0,3:0|3:0,0:0:0:0:
299,182,258264,6,0,P|253:190|214:215,1,92.8200005665283,14|0,0:0|3:0,0:0:0:0:
0,287,258598,2,0,P|37:311|97:320,1,92.8200005665283,14|0,0:0|0:0,0:0:0:0:
0,273,259233,6,0,B|134:392|323:249|184:172|339:19|512:131,1,611.519981337891,14|0,0:0|0:0,0:0:0:0:
