osu file format v14

[General]
AudioFilename: audio.mp3
AudioLeadIn: 0
PreviewTime: 34973
Countdown: 0
SampleSet: Soft
StackLeniency: 0.7
Mode: 0
LetterboxInBreaks: 0
WidescreenStoryboard: 1

[Editor]
DistanceSpacing: 1.5
BeatDivisor: 4
GridSize: 4
TimelineZoom: 2.699999

[Metadata]
Title:moon river
TitleUnicode:ムーンリバー
Artist:fhana
ArtistUnicode:fhána
Creator:Sotarks
Version:Melancholy
Source:有頂天家族2
Tags:Uchoten Kazoku The Eccentric Family Ed Ending Lantis Junichi Sato yuxuki waga kevin mitsunaga towana Kalibe Akitoshi Corinn
BeatmapID:1263316
BeatmapSetID:597604

[Difficulty]
HPDrainRate:6.2
CircleSize:3.8
OverallDifficulty:8
ApproachRate:9
SliderMultiplier:2.02
SliderTickRate:1

[Events]
//Background and Video events
Video,0,"video.avi"
0,0,"BG.jpg",0,0
//Break Periods
//Storyboard Layer 0 (Background)
//Storyboard Layer 1 (Fail)
//Storyboard Layer 2 (Pass)
//Storyboard Layer 3 (Foreground)
//Storyboard Sound Samples

[TimingPoints]
740,582.52427184466,4,2,22,32,1,0
740,-121.951219512195,4,2,22,32,0,0
5400,-98.0392156862745,4,2,22,42,0,0
33361,-89.2857142857143,4,2,22,52,0,0
34245,582.52427184466,4,2,22,52,1,0
34245,-89.2857142857143,4,2,22,52,0,0
35691,582.52427184466,4,2,22,62,1,1
35691,-81.9672131147541,4,2,22,62,0,1
40335,582.52427184466,4,2,22,62,1,1
40335,-81.9672131147541,4,2,22,62,0,1
43538,545.454545454546,4,2,22,62,1,1
43538,-81.9672131147541,4,2,22,62,0,1
43947,821.917808219178,4,2,22,62,1,1
43947,-61.7283950617284,4,2,22,62,0,1
44152,504.201680672269,4,2,22,62,1,1
44252,582.52427184466,4,2,22,62,1,1
44404,594.059405940594,4,2,22,62,1,1
44404,-81.9672131147541,4,2,22,62,0,1
44998,582.52427184466,4,2,22,62,1,1
44998,-81.9672131147541,4,2,22,62,0,1
45895,582.52427184466,4,2,22,62,1,1
45895,-81.9672131147541,4,2,22,62,0,1
46308,582.52427184466,4,2,22,62,1,1
46308,-81.9672131147541,4,2,22,62,0,1
47327,582.52427184466,4,2,22,62,1,1
47327,-81.9672131147541,4,2,22,62,0,1
51988,-75.7575757575758,4,2,22,62,0,1
52875,582.52427184466,4,2,22,62,1,1
52875,-75.7575757575758,4,2,22,62,0,1
54318,582.52427184466,4,2,22,62,1,1
54318,-81.9672131147541,4,2,22,62,0,1
58995,555.555555555556,4,2,22,62,1,1
58995,-81.9672131147541,4,2,22,62,0,1
59537,681.818181818182,4,2,22,62,1,1
59537,-81.9672131147541,4,2,22,62,0,1
59877,800,4,2,22,62,1,1
59877,-61.7283950617284,4,2,22,62,0,1
60280,631.578947368421,4,2,22,62,1,1
60280,-81.9672131147541,4,2,22,62,0,1
60595,504.201680672269,4,2,22,62,1,1
60721,606.060606060606,4,2,22,62,1,1
60721,-81.9672131147541,4,2,22,62,0,1
61327,582.52427184466,4,2,22,62,1,1
61327,-81.9672131147541,4,2,22,62,0,1
62492,504.201680672269,4,2,22,62,1,1
62618,571.428571428571,4,2,22,62,1,1
62618,-81.9672131147541,4,2,22,62,0,1
62760,625,4,2,22,62,1,1
63073,582.52427184466,4,2,22,62,1,1
63073,-81.9672131147541,4,2,22,62,0,1
63655,582.52427184466,4,2,22,62,1,1
63655,-81.9672131147541,4,2,22,62,0,1
65985,555.555555555556,4,2,22,62,1,1
65985,-81.9672131147541,4,2,22,62,0,1
66540,631.578947368421,4,2,22,62,1,1
66540,-81.9672131147541,4,2,22,62,0,1
66855,555.555555555556,4,2,22,62,1,1
66855,-81.9672131147541,4,2,22,62,0,1
67271,625,4,2,22,62,1,1
67271,-81.9672131147541,4,2,22,62,0,1
67585,571.428571428571,4,2,22,62,1,1
67727,-81.9672131147541,4,2,22,62,0,1
68013,582.52427184466,4,2,22,62,1,1
68013,-81.9672131147541,4,2,22,62,0,1
68304,594.059405940594,4,2,22,62,1,1
68304,-81.9672131147541,4,2,22,62,0,1
68749,483.870967741935,4,2,22,62,1,1
68869,652.173913043478,4,2,22,62,1,1
68869,-81.9672131147541,4,2,22,62,0,1
69195,800,4,2,22,62,1,1
69195,-61.7283950617284,4,2,22,62,0,1
69596,645.161290322581,4,2,22,62,1,1
69596,-81.9672131147541,4,2,22,62,0,1
69918,476.190476190476,4,2,22,62,1,1
70039,618.556701030928,4,2,22,62,1,1
70039,-81.9672131147541,4,2,22,62,0,1
70349,594.059405940594,4,2,22,62,1,1
70349,-81.9672131147541,4,2,22,62,0,1
70645,555.555555555556,4,2,22,62,1,1
70645,-81.9672131147541,4,2,22,62,0,1
71061,495.867768595041,4,2,22,62,1,1
71185,645.161290322581,4,2,22,62,1,1
71185,-81.9672131147541,4,2,22,62,0,1
71507,588.235294117647,4,2,22,62,1,1
71507,-81.9672131147541,4,2,22,62,0,1
72977,582.52427184466,4,2,22,62,1,0
72977,-89.2857142857143,4,2,22,62,0,0
79676,576.923076923077,4,2,22,62,1,0
79676,-89.2857142857143,4,2,22,62,0,0
79964,560.747663551402,4,2,22,62,1,0
79964,-89.2857142857143,4,2,22,62,0,0
80524,618.556701030928,4,2,22,62,1,0
80524,-89.2857142857143,4,2,22,62,0,0
80833,582.52427184466,4,2,22,62,1,0
80833,-89.2857142857143,4,2,22,62,0,0
82289,582.52427184466,4,2,22,62,1,0
82289,-89.2857142857143,4,2,22,62,0,0
82580,769.230769230769,4,2,22,62,1,0
82898,517.241379310345,4,2,22,62,1,0
82898,-89.2857142857143,4,2,22,62,0,0
83171,582.52427184466,4,2,22,62,1,0
83171,-89.2857142857143,4,2,22,62,0,0
83462,582.52427184466,4,2,22,62,1,0
83607,-89.2857142857143,4,2,22,62,0,0
84627,582.52427184466,4,2,22,62,1,0
84627,-89.2857142857143,4,2,22,62,0,0
89190,-89.2857142857143,4,2,22,12,0,0

[Colours]
Combo1 : 197,165,207
Combo2 : 205,7,7
Combo3 : 236,211,36
Combo4 : 168,205,20

[HitObjects]
228,110,740,6,0,P|218:169|214:221,1,82.8200012637329,2|0,0:0|0:0,0:0:0:0:
233,301,1176,2,0,P|188:285|150:277,1,82.8200012637329,2|0,0:0|0:0,0:0:0:0:
329,248,1613,2,0,L|442:230,1,82.8200012637329,2|0,0:0|0:0,0:0:0:0:
473,103,2050,2,0,P|474:164|485:212,1,82.8200012637329,2|0,0:0|0:0,0:0:0:0:
368,89,2487,2,0,P|378:143|384:168,1,41.4100006318665,2|0,0:0|0:0,0:0:0:0:
329,248,2778,2,0,P|332:227|336:207,1,41.4100006318665,2|0,0:0|0:0,0:0:0:0:
191,45,3070,6,0,P|209:103|217:145,1,82.8200012637329,2|0,0:0|0:0,0:0:0:0:
113,159,3506,2,0,P|95:217|87:259,1,82.8200012637329,2|0,0:0|0:0,0:0:0:0:
251,339,3943,2,0,L|349:332,1,82.8200012637329,2|0,0:0|0:0,0:0:0:0:
411,253,4380,2,0,L|313:246,1,82.8200012637329,2|0,0:0|0:0,0:0:0:0:
191,193,4817,2,0,P|240:167|265:165,1,41.4100006318665,2|0,0:0|0:0,0:0:0:0:
253,250,5108,1,2,0:0:0:0:
253,250,5254,1,2,0:0:0:0:
249,87,5400,6,0,P|314:69|358:89,1,103.020000628784,6|0,1:2|0:0,0:0:0:0:
303,154,5837,1,2,0:0:0:0:
172,52,5982,2,0,L|155:149,1,51.5100003143921,0|0,1:0|0:0,0:0:0:0:
125,238,6273,1,2,0:0:0:0:
160,116,6419,1,2,0:0:0:0:
46,222,6565,1,0,1:0:0:0:
75,312,6710,2,0,B|128:351|198:296,1,103.020000628784,0|0,3:0|3:0,0:0:0:0:
333,248,7147,2,0,P|282:233|256:232,1,51.5100003143921,0|0,1:0|0:0,0:0:0:0:
277,324,7439,1,2,0:0:0:0:
277,324,7584,1,2,0:0:0:0:
235,119,7730,6,0,B|203:169|203:169|207:219,1,103.020000628784,2|2,1:2|0:0,0:0:0:0:
313,156,8167,1,2,0:0:0:0:
164,81,8312,2,0,L|132:128,1,51.5100003143921,0|0,1:0|0:0,0:0:0:0:
128,256,8604,1,2,0:0:0:0:
312,64,8895,1,2,1:2:0:0:
391,114,9040,2,0,P|404:168|373:231,1,103.020000628784,0|0,3:0|3:0,0:0:0:0:
232,178,9477,2,0,P|286:156|299:154,1,51.5100003143921,0|0,1:0|0:0,0:0:0:0:
379,288,9769,2,0,P|354:279|331:267,1,51.5100003143921,2|0,0:0|0:0,0:0:0:0:
472,164,10060,6,0,L|485:286,2,103.020000628784,2|2|2,1:2|0:0|1:2,0:0:0:0:
391,114,10788,1,0,0:0:0:0:
321,202,10934,2,0,L|397:190,1,51.5100003143921,2|0,0:0|0:0,0:0:0:0:
204,56,11225,1,0,1:0:0:0:
160,136,11371,2,0,L|178:262,1,103.020000628784,0|0,3:0|3:0,0:0:0:0:
82,345,11807,2,0,P|138:339|151:334,1,51.5100003143921,2|0,1:2|0:0,0:0:0:0:
228,298,12099,2,0,P|284:304|297:309,1,51.5100003143921,2|0,0:0|0:0,0:0:0:0:
455,350,12390,6,0,B|484:268|418:284|451:186,1,154.530000943176,2|0,1:2|3:0,0:0:0:0:
457,66,12973,2,0,P|474:127|478:138,1,51.5100003143921,0|0,1:0|0:0,0:0:0:0:
283,81,13264,2,0,L|218:72,1,51.5100003143921,2|0,0:2|0:0,0:0:0:0:
69,192,13555,1,0,1:0:0:0:
146,143,13701,2,0,L|274:164,1,103.020000628784,0|0,3:0|3:0,0:0:0:0:
342,304,14138,2,0,P|328:236|327:225,1,51.5100003143921,0|0,1:0|0:0,0:0:0:0:
373,76,14429,2,0,P|368:101|361:126,1,51.5100003143921,2|0,0:0|0:0,0:0:0:0:
253,298,14720,6,0,L|147:286,1,103.020000628784,2|2,1:2|0:0,0:0:0:0:
247,159,15157,2,0,L|255:232,2,51.5100003143921,2|0|0,0:0|1:0|0:0,0:0:0:0:
169,53,15594,1,2,0:0:0:0:
165,189,15739,1,2,0:0:0:0:
262,64,15885,1,0,1:0:0:0:
329,127,16031,2,0,B|344:192|344:192|324:241,1,103.020000628784,0|0,3:0|3:0,0:0:0:0:
226,350,16468,2,0,L|162:339,1,51.5100003143921,0|0,1:0|0:0,0:0:0:0:
118,272,16759,1,2,0:0:0:0:
118,272,16905,1,2,0:0:0:0:
306,328,17050,6,0,L|415:307,1,103.020000628784,2|2,1:2|0:0,0:0:0:0:
347,226,17487,1,2,0:0:0:0:
209,256,17633,2,0,L|295:239,1,51.5100003143921,0|0,1:0|0:0,0:0:0:0:
172,165,17924,1,2,0:0:0:0:
71,351,18215,1,0,1:0:0:0:
18,275,18361,2,0,L|29:151,1,103.020000628784,0|0,3:0|3:0,0:0:0:0:
88,28,18798,2,0,P|148:13|158:13,1,51.5100003143921,0|0,1:0|0:0,0:0:0:0:
212,88,19089,2,0,P|237:83|261:73,1,51.5100003143921,2|0,0:0|0:0,0:0:0:0:
424,16,19380,6,0,B|437:71|437:71|422:114,2,103.020000628784,2|2|2,1:2|0:0|1:2,0:0:0:0:
349,68,20108,1,0,0:0:0:0:
495,154,20254,2,0,L|501:235,1,51.5100003143921,2|0,0:0|0:0,0:0:0:0:
419,343,20545,1,0,1:0:0:0:
478,293,20691,2,0,P|420:266|368:285,1,103.020000628784
282,354,21128,2,0,L|220:342,1,51.5100003143921,2|0,1:2|0:0,0:0:0:0:
187,248,21419,2,0,L|136:257,1,51.5100003143921,2|0,0:0|0:0,0:0:0:0:
16,352,21710,6,0,L|5:195,1,154.530000943176,2|0,1:2|3:0,0:0:0:0:
56,49,22293,2,0,L|67:125,1,51.5100003143921,0|0,1:0|0:0,0:0:0:0:
159,220,22584,2,0,L|151:169,1,51.5100003143921,0|0,3:0|0:0,0:0:0:0:
221,28,22875,1,0,1:0:0:0:
180,97,23021,2,0,B|231:121|231:121|293:102,1,103.020000628784,0|0,3:0|3:0,0:0:0:0:
438,20,23458,2,0,P|429:77|429:97,1,51.5100003143921,8|0,1:0|0:0,0:0:0:0:
486,161,23749,2,0,P|495:218|495:238,1,51.5100003143921
368,338,24040,5,2,1:2:0:0:
258,263,24186,2,0,L|169:281,1,51.5100003143921,0|0,1:0|0:0,0:0:0:0:
145,340,24477,2,0,P|116:290|126:234,1,103.020000628784,0|0,3:0|3:0,0:0:0:0:
211,70,24914,1,2,1:2:0:0:
285,179,25060,2,0,L|363:167,1,51.5100003143921,0|0,1:0|0:0,0:0:0:0:
391,91,25351,2,0,B|420:143|420:143|420:205,1,103.020000628784,0|0,3:0|3:0,0:0:0:0:
496,80,25788,2,0,L|495:248,1,154.530000943176,10|0,1:2|0:0,0:0:0:0:
378,348,26371,5,2,1:2:0:0:
255,257,26516,2,0,L|173:271,1,51.5100003143921,0|2,1:0|0:2,0:0:0:0:
153,337,26807,1,0,3:0:0:0:
71,275,26953,2,0,L|139:259,1,51.5100003143921,2|0,0:0|0:0,0:0:0:0:
176,113,27244,1,2,1:2:0:0:
216,184,27390,2,0,L|344:166,1,103.020000628784,0|0,3:0|3:0,0:0:0:0:
471,119,27827,1,0,1:0:0:0:
385,344,28118,1,10,1:2:0:0:
438,201,28264,1,0,0:0:0:0:
469,331,28409,2,0,P|450:274|446:263,1,51.5100003143921
259,81,28701,5,2,1:2:0:0:
98,192,28846,2,0,L|178:179,1,51.5100003143921,0|2,1:0|0:2,0:0:0:0:
67,116,29138,2,0,L|181:98,1,103.020000628784,0|0,3:0|3:0,0:0:0:0:
269,265,29574,1,2,1:2:0:0:
397,163,29720,2,0,L|336:154,2,51.5100003143921,0|0|0,1:0|0:0|0:0,0:0:0:0:
484,264,30157,2,0,L|410:254,1,51.5100003143921,2|0,1:2|0:0,0:0:0:0:
288,344,30448,1,10,1:2:0:0:
356,298,30594,2,0,P|315:263|260:269,1,103.020000628784,0|0,3:0|0:0,0:0:0:0:
93,354,31031,5,2,1:2:0:0:
25,180,31176,2,0,P|80:162|93:160,1,51.5100003143921,0|0,1:0|0:0,0:0:0:0:
31,78,31468,2,0,P|89:74|136:91,1,103.020000628784,0|0,3:0|3:0,0:0:0:0:
264,246,31905,1,0,1:0:0:0:
415,146,32050,2,0,P|357:142|310:159,1,103.020000628784,0|0,1:0|3:0,0:0:0:0:
341,49,32487,2,0,P|283:68|274:77,1,51.5100003143921,0|0,1:0|0:0,0:0:0:0:
195,188,32778,1,8,1:0:0:0:
367,227,32924,2,0,L|375:288,1,51.5100003143921,0|2,1:0|0:2,0:0:0:0:
426,127,33215,1,2,1:2:0:0:
437,333,33361,6,0,P|371:362|316:335,1,113.120001380859,10|0,0:0|0:0,0:0:0:0:
148,321,33798,2,0,P|208:311|232:301,1,56.5600006904297,2|0,3:0|0:0,0:0:0:0:
373,278,34089,1,8,0:0:0:0:
179,230,34245,2,0,P|240:240|270:261,1,56.5600006904297,0|0,1:0|0:0,0:0:0:0:
310,347,34535,5,8,0:0:0:0:
256,244,34681,1,8,3:0:0:0:
203,331,34827,2,0,L|138:319,1,56.5600006904297,4|4,3:0|3:0,0:0:0:0:
67,181,35118,1,10,0:2:0:0:
256,244,35264,1,10,0:2:0:0:
104,252,35410,1,2,0:2:0:0:
256,244,35555,1,2,0:2:0:0:
177,53,35691,6,0,P|199:121|200:129,1,61.6099974617463,6|0,1:2|0:0,0:0:0:0:
180,248,35982,1,2,0:0:0:0:
276,96,36128,1,0,1:0:0:0:
336,238,36273,2,0,P|349:210|357:180,1,61.6099974617463,10|0,0:2|0:0,0:0:0:0:
221,342,36565,2,0,P|152:355|99:323,1,123.219994923493,6|0,1:2|3:0,0:0:0:0:
132,169,37002,2,0,P|198:161|250:194,1,123.219994923493,10|0,0:2|1:0,0:0:0:0:
396,336,37439,2,0,P|415:272|416:261,1,61.6099974617463,10|0,0:2|0:0,0:0:0:0:
339,124,37730,2,0,P|345:154|357:182,1,61.6099974617463,2|0,1:2|0:0,0:0:0:0:
463,42,38021,6,0,L|297:26,1,123.219994923493,6|0,1:2|3:0,0:0:0:0:
229,85,38458,1,2,1:2:0:0:
93,23,38604,2,0,P|129:84|132:92,1,61.6099974617463,8|0,0:0|0:0,0:0:0:0:
48,217,38895,2,0,P|26:146|44:89,1,123.219994923493,6|0,1:2|3:0,0:0:0:0:
145,211,39332,2,0,P|128:283|43:326,1,123.219994923493,8|0,0:0|1:0,0:0:0:0:
227,268,39769,1,10,0:2:0:0:
48,217,39914,1,2,0:2:0:0:
217,146,40060,1,2,1:2:0:0:
145,211,40206,1,2,0:2:0:0:
173,68,40335,6,0,P|239:60|256:66,1,61.6099974617463,6|0,1:2|0:0,0:0:0:0:
368,135,40626,1,2,0:0:0:0:
217,146,40771,1,0,1:0:0:0:
429,199,40917,2,0,P|456:140|457:121,1,61.6099974617463,10|0,0:2|0:0,0:0:0:0:
337,211,41209,2,0,P|362:268|426:292,1,123.219994923493,6|0,1:2|3:0,0:0:0:0:
271,298,41646,2,0,L|203:310,2,61.6099974617463,10|0|0,0:2|0:0|1:0,0:0:0:0:
429,199,42083,2,0,L|497:211,1,61.6099974617463,10|0,0:2|3:0,0:0:0:0:
250,219,42374,2,0,L|182:231,1,61.6099974617463,2|0,1:2|0:0,0:0:0:0:
310,91,42665,6,0,P|334:173|335:233,1,123.219994923493,6|0,1:2|3:0,0:0:0:0:
399,109,43102,1,2,1:2:0:0:
237,135,43248,2,0,L|139:129,1,61.6099974617463,8|0,0:0|0:0,0:0:0:0:
30,58,43538,2,0,P|81:107|89:175,1,123.219994923493,6|0,1:2|3:0,0:0:0:0:
43,333,43947,2,0,P|34:294|44:255,1,81.8100019973145,8|0,0:0|0:0,0:0:0:0:
129,295,44252,1,0,1:0:0:0:
295,342,44404,2,0,L|390:326,1,61.6099974617463,10|0,0:2|0:0,0:0:0:0:
334,100,44701,1,10,0:2:0:0:
268,264,44849,1,8,0:0:0:0:
474,149,44998,6,0,P|406:165|350:190,1,123.219994923493,6|0,1:2|3:0,0:0:0:0:
277,247,45434,1,2,1:2:0:0:
134,148,45580,2,0,P|198:170|207:182,1,61.6099974617463,8|0,0:0|0:0,0:0:0:0:
409,80,45895,2,0,P|361:148|358:198,1,123.219994923493,6|0,1:2|3:0,0:0:0:0:
229,85,46308,2,0,P|271:146|273:156,1,61.6099974617463,10|0,0:2|0:0,0:0:0:0:
288,232,46600,1,0,1:0:0:0:
446,162,46745,2,0,L|456:243,1,61.6099974617463,10|0,0:2|0:0,0:0:0:0:
366,279,47037,2,0,L|356:360,1,61.6099974617463,2|0,0:2|0:0,0:0:0:0:
219,291,47328,6,0,P|156:275|94:320,1,123.219994923493,6|0,1:2|3:0,0:0:0:0:
169,370,47763,1,0,1:0:0:0:
198,204,47909,2,0,P|160:198|127:207,1,61.6099974617463,8|0,0:0|0:0,0:0:0:0:
342,65,48200,2,0,P|279:95|253:143,1,123.219994923493,6|0,1:2|3:0,0:0:0:0:
310,281,48637,1,10,0:2:0:0:
345,153,48783,1,0,0:0:0:0:
394,233,48928,1,0,1:0:0:0:
253,139,49074,2,0,P|215:127|149:115,1,61.6099974617463,10|0,0:2|0:0,0:0:0:0:
394,233,49366,2,0,P|432:221|498:209,1,61.6099974617463,2|0,0:2|0:0,0:0:0:0:
239,367,49658,6,0,B|150:357|150:357|112:327,1,123.219994923493,6|0,1:2|3:0,0:0:0:0:
76,247,50093,1,0,1:0:0:0:
185,105,50239,2,0,P|197:173|201:195,1,61.6099974617463,10|0,0:2|3:0,0:0:0:0:
94,41,50530,2,0,P|168:18|232:16,1,123.219994923493,6|0,1:2|3:0,0:0:0:0:
331,92,50967,2,0,P|269:76|258:76,1,61.6099974617463,8|0,0:0|3:0,0:0:0:0:
185,105,51259,1,0,1:0:0:0:
327,176,51404,1,8,0:0:0:0:
76,247,51695,1,2,1:2:0:0:
385,308,51988,5,4,1:0:0:0:
469,205,52133,2,0,B|381:188|381:188|333:215,1,133.31999959314,8|0,0:0|1:0,0:0:0:0:
209,344,52570,2,0,L|130:329,1,66.6599997965698,8|0,0:0|0:0,0:0:0:0:
158,128,52875,2,0,B|191:161|191:161|197:266,1,133.31999959314,4|0,1:0|3:0,0:0:0:0:
229,85,53311,1,8,0:0:0:0:
271,193,53457,2,0,L|343:177,1,66.6599997965698,0|0,1:0|0:0,0:0:0:0:
470,33,53748,5,10,0:2:0:0:
478,158,53894,1,10,3:2:0:0:
336,178,54039,1,4,3:0:0:0:
403,104,54185,1,4,3:0:0:0:
452,312,54318,6,0,P|384:332|344:326,1,61.6099974617463,6|0,1:2|0:0,0:0:0:0:
217,344,54610,1,2,3:2:0:0:
312,291,54755,1,0,1:0:0:0:
96,292,54901,2,0,P|147:274|169:267,1,61.6099974617463,10|0,0:2|0:0,0:0:0:0:
370,221,55192,2,0,P|294:209|236:238,1,123.219994923493,6|0,1:2|3:0,0:0:0:0:
111,196,55629,2,0,P|183:189|202:193,1,61.6099974617463,8|2,0:0|0:2,0:0:0:0:
310,296,55919,1,0,1:0:0:0:
278,106,56066,2,0,P|254:171|254:237,1,123.219994923493,8|2,0:0|3:2,0:0:0:0:
475,19,56649,6,0,L|486:158,1,123.219994923493,6|0,1:2|3:0,0:0:0:0:
445,257,57085,1,2,1:2:0:0:
368,103,57231,2,0,L|292:91,1,61.6099974617463,8|0,0:0|0:0,0:0:0:0:
187,189,57522,2,0,P|264:205|325:157,1,123.219994923493,6|0,1:2|3:0,0:0:0:0:
146,108,57959,2,0,P|101:160|99:188,1,61.6099974617463,8|0,0:0|0:0,0:0:0:0:
106,245,58251,1,0,1:0:0:0:
103,30,58396,1,10,0:2:0:0:
259,316,58687,1,2,1:2:0:0:
322,30,58995,6,0,P|391:21|414:25,1,61.6099974617463,6|0,1:2|0:0,0:0:0:0:
458,157,59272,1,2,0:0:0:0:
365,103,59411,1,0,1:0:0:0:
327,247,59537,2,0,P|396:238|413:241,1,61.6099974617463,8|0,0:0|0:0,0:0:0:0:
510,341,59877,2,0,L|369:320,1,109.080002663086,6|0,1:2|0:0,0:0:0:0:
294,195,60280,2,0,P|330:256|338:290,1,61.6099974617463,8|2,0:0|0:2,0:0:0:0:
296,334,60595,1,0,1:0:0:0:
181,222,60721,2,0,L|107:213,1,61.6099974617463,8|0,0:0|0:0,0:0:0:0:
13,264,61024,1,2,1:2:0:0:
149,43,61327,6,0,L|241:28,1,61.6099974617463,6|0,1:2|0:0,0:0:0:0:
320,135,61618,2,0,P|251:147|196:88,1,123.219994923493,2|8,0:2|0:0,0:0:0:0:
469,25,62200,2,0,B|496:107|496:107|479:153,1,123.219994923493,6|0,1:2|3:0,0:0:0:0:
402,254,62618,2,0,L|388:174,1,61.6099974617463,8|2,0:0|0:2,0:0:0:0:
402,110,62916,1,0,1:0:0:0:
481,289,63073,2,0,P|434:338|424:342,1,61.6099974617463,10|0,0:2|0:0,0:0:0:0:
245,303,63364,2,0,P|318:290|324:290,1,61.6099974617463,2|0,1:2|0:0,0:0:0:0:
127,200,63655,6,0,P|211:205|270:221,1,123.219994923493,6|0,1:2|3:0,0:0:0:0:
163,282,64092,1,2,1:2:0:0:
38,205,64237,2,0,P|61:145|70:137,1,61.6099974617463,8|0,0:0|0:0,0:0:0:0:
248,213,64529,2,0,P|226:148|185:103,1,123.219994923493,6|0,1:2|3:0,0:0:0:0:
38,185,64966,2,0,P|49:156|69:133,1,61.6099974617463,8|2,0:0|0:2,0:0:0:0:
241,225,65257,1,0,1:0:0:0:
183,72,65403,2,0,P|155:138|152:155,1,61.6099974617463,10|0,0:2|0:0,0:0:0:0:
335,208,65694,2,0,P|324:179|309:152,1,61.6099974617463,2|0,1:2|0:0,0:0:0:0:
178,303,65985,6,0,L|312:325,1,123.219994923493,6|0,1:2|3:0,0:0:0:0:
460,349,66401,1,0,1:0:0:0:
422,250,66540,2,0,L|436:143,1,61.6099974617463,8|0,0:0|0:0,0:0:0:0:
501,42,66855,2,0,P|432:61|370:57,1,123.219994923493,6|0,1:2|3:0,0:0:0:0:
194,101,67271,2,0,P|266:113|282:110,1,61.6099974617463,8|2,0:0|0:2,0:0:0:0:
352,54,67585,1,0,1:0:0:0:
133,27,67727,2,0,P|102:86|101:99,1,61.6099974617463,10|0,0:2|0:0,0:0:0:0:
242,245,68013,2,0,P|232:217|213:193,1,61.6099974617463,2|0,1:2|0:0,0:0:0:0:
103,331,68304,6,0,B|203:289|184:380|331:322,1,184.829992385239,6|0,1:2|1:0,0:0:0:0:
482,232,68869,2,0,P|415:218|402:218,1,61.6099974617463,10|0,0:2|0:0,0:0:0:0:
242,245,69195,2,0,P|330:254|367:277,1,109.080002663086,6|0,1:2|0:0,0:0:0:0:
230,159,69596,2,0,P|158:178|138:193,1,61.6099974617463,8|2,0:0|0:2,0:0:0:0:
330,169,69918,1,0,1:0:0:0:
172,87,70039,2,0,P|115:116|107:126,1,61.6099974617463,8|0,0:0|0:0,0:0:0:0:
340,85,70349,2,0,P|397:114|405:124,1,61.6099974617463,2|0,1:2|0:0,0:0:0:0:
420,288,70645,6,0,B|454:220|454:220|438:132,1,123.219994923493,4|0,1:0|0:0,0:0:0:0:
496,320,71061,1,0,1:0:0:0:
336,252,71185,2,0,L|334:341,1,61.6099974617463,8|0,0:0|3:0,0:0:0:0:
207,168,71507,2,0,L|226:293,1,123.219994923493,4|0,1:0|0:0,0:0:0:0:
289,177,71948,1,8,0:0:0:0:
153,319,72095,2,0,L|82:312,1,61.6099974617463,2|8,1:2|0:0,0:0:0:0:
95,130,72389,1,10,0:2:0:0:
134,231,72537,1,8,3:0:0:0:
172,85,72683,2,8,P|243:76|258:77,1,61.6099974617463,4|4,3:0|3:0,0:0:0:0:
399,190,72977,6,0,P|325:173|266:183,1,113.120001380859,6|0,1:2|3:0,0:0:0:0:
340,45,73413,2,0,P|357:107|359:120,2,56.5600006904297,8|0|8,0:0|0:0|0:0,0:0:0:0:
326,252,73850,2,0,P|262:256|215:234,1,113.120001380859,2|0,1:2|0:0,0:0:0:0:
273,122,74287,2,0,P|289:179|291:187,2,56.5600006904297,0|2|0,3:0|1:2|3:0,0:0:0:0:
251,328,74724,2,0,P|168:331|162:332,1,56.5600006904297,10|0,2:2|2:2,2:2:0:0:
161,236,75015,2,0,P|244:239|250:240,1,56.5600006904297,2|0,3:2|3:0,0:0:0:0:
366,332,75307,6,0,P|410:288|406:231,1,113.120001380859,6|0,1:2|3:0,0:0:0:0:
395,80,75744,2,0,P|374:145|374:165,1,56.5600006904297,8|0,0:0|3:0,0:0:0:0:
454,170,76035,1,0,3:0:0:0:
301,101,76180,2,0,B|198:70|238:138|123:106,1,169.680002071289,2|0,1:2|3:0,0:0:0:0:
266,231,76763,2,0,P|264:203|259:176,1,56.5600006904297,0|0,1:0|3:0,0:0:0:0:
63,72,77054,2,0,P|55:132|55:144,1,56.5600006904297,10|0,0:2|0:0,0:0:0:0:
179,204,77345,2,0,P|187:264|187:276,1,56.5600006904297,2|0,3:2|3:0,0:0:0:0:
99,354,77637,6,0,B|156:344|156:344|207:362|207:362|287:350,1,169.680002071289,6|0,1:2|3:0,0:0:0:0:
420,312,78219,2,8,P|361:310|350:308,1,56.5600006904297
226,278,78510,2,0,P|283:264|293:260,1,56.5600006904297,0|0,3:0|0:0,0:0:0:0:
489,260,78802,2,0,P|408:273|376:198,1,169.680002071289,4|0,1:0|3:0,0:0:0:0:
431,62,79384,2,0,P|448:119|450:130,1,56.5600006904297,8|8,0:0|0:0,0:0:0:0:
289,203,79676,2,0,P|296:175|314:125,1,56.5600006904297,2|0,3:2|3:0,0:0:0:0:
376,298,79964,6,0,B|316:327|316:327|210:269,1,169.680002071289,4|0,1:2|3:0,0:0:0:0:
143,125,80524,2,0,L|158:186,1,56.5600006904297,8|0,0:0|3:0,0:0:0:0:
62,301,80833,2,0,L|77:172,1,113.120001380859,0|2,1:0|0:2,0:0:0:0:
182,280,81269,2,0,L|197:341,2,56.5600006904297,8|0|2,0:0|1:0|0:2,0:0:0:0:
232,139,81706,1,8,0:0:0:0:
272,257,81852,1,4,3:0:0:0:
317,100,81998,2,0,P|314:170|311:194,1,56.5600006904297,4|0,3:0|3:0,0:0:0:0:
376,292,82289,6,0,P|368:222|434:193,1,113.120001380859,6|0,1:2|0:0,0:0:0:0:
489,192,82772,1,8,0:0:0:0:
459,304,82898,2,0,P|452:330|426:362,1,56.5600006904297,2|0,0:2|3:0,0:0:0:0:
248,296,83171,2,0,L|384:275,1,113.120001380859,6|0,1:2|0:0,0:0:0:0:
303,368,83607,1,0,3:0:0:0:
168,278,83752,2,0,L|100:267,1,56.5600006904297,2|0,1:2|3:0,0:0:0:0:
262,218,84044,2,0,L|330:207,1,56.5600006904297,8|0,0:0|0:0,0:0:0:0:
149,196,84335,2,0,L|81:185,1,56.5600006904297,0|0,3:0|3:0,0:0:0:0:
305,124,84627,6,0,P|363:130|395:213,1,113.120001380859,6|0,1:2|3:0,0:0:0:0:
453,49,85063,2,0,L|454:116,2,56.5600006904297,8|0|0,0:0|3:0|3:0,0:0:0:0:
306,35,85500,2,0,B|244:51|244:51|210:102,1,113.120001380859,0|2,1:0|0:2,0:0:0:0:
327,170,85937,1,8,0:0:0:0:
306,35,86082,2,0,L|317:106,1,56.5600006904297,0|8,1:0|0:0,0:0:0:0:
342,254,86374,1,8,0:0:0:0:
413,205,86519,1,8,3:0:0:0:
272,303,86665,2,0,L|200:292,1,56.5600006904297,4|4,3:0|3:0,0:0:0:0:
216,91,86957,5,6,1:2:0:0:
256,192,87102,12,0,89190,0:0:0:0:
