osu file format v14

[General]
AudioFilename: audio.mp3
AudioLeadIn: 0
PreviewTime: 34973
Countdown: 0
SampleSet: Soft
StackLeniency: 0.3
Mode: 0
LetterboxInBreaks: 0
WidescreenStoryboard: 1

[Editor]
DistanceSpacing: 1.7
BeatDivisor: 4
GridSize: 4
TimelineZoom: 1.8

[Metadata]
Title:moon river
TitleUnicode:ムーンリバー
Artist:fhana
ArtistUnicode:fhána
Creator:Sotarks
Version:Kalibe's Hard
Source:有頂天家族2
Tags:Uchoten Kazoku The Eccentric Family Ed Ending Lantis Junichi Sato yuxuki waga kevin mitsunaga towana Kalibe Akitoshi Corinn
BeatmapID:1263315
BeatmapSetID:597604

[Difficulty]
HPDrainRate:5
CircleSize:3.8
OverallDifficulty:6
ApproachRate:7.5
SliderMultiplier:2.01
SliderTickRate:1

[Events]
//Background and Video events
0,0,"BG.jpg",0,0
Video,0,"video.avi"
//Break Periods
//Storyboard Layer 0 (Background)
//Storyboard Layer 1 (Fail)
//Storyboard Layer 2 (Pass)
//Storyboard Layer 3 (Foreground)
//Storyboard Sound Samples

[TimingPoints]
740,582.52427184466,4,2,22,32,1,0
740,-121.951219512195,4,2,22,32,0,0
5400,-98.0392156862745,4,2,22,42,0,0
33361,-89.2857142857143,4,2,22,52,0,0
34245,582.52427184466,4,2,22,52,1,0
34245,-89.2857142857143,4,2,22,52,0,0
35691,582.52427184466,4,2,22,62,1,1
35691,-81.9672131147541,4,2,22,62,0,1
40335,582.52427184466,4,2,22,62,1,1
40335,-81.9672131147541,4,2,22,62,0,1
43538,545.454545454546,4,2,22,62,1,1
43538,-81.9672131147541,4,2,22,62,0,1
43947,821.917808219178,4,2,22,62,1,1
43947,-61.7283950617284,4,2,22,62,0,1
44152,504.201680672269,4,2,22,62,1,1
44252,582.52427184466,4,2,22,62,1,1
44404,594.059405940594,4,2,22,62,1,1
44404,-81.9672131147541,4,2,22,62,0,1
44998,582.52427184466,4,2,22,62,1,1
44998,-81.9672131147541,4,2,22,62,0,1
45895,582.52427184466,4,2,22,62,1,1
45895,-81.9672131147541,4,2,22,62,0,1
46308,582.52427184466,4,2,22,62,1,1
46308,-81.9672131147541,4,2,22,62,0,1
47327,582.52427184466,4,2,22,62,1,1
47327,-81.9672131147541,4,2,22,62,0,1
51988,-75.7575757575758,4,2,22,62,0,1
52875,582.52427184466,4,2,22,62,1,1
52875,-75.7575757575758,4,2,22,62,0,1
54318,582.52427184466,4,2,22,62,1,1
54318,-81.9672131147541,4,2,22,62,0,1
58995,555.555555555556,4,2,22,62,1,1
58995,-81.9672131147541,4,2,22,62,0,1
59537,681.818181818182,4,2,22,62,1,1
59537,-81.9672131147541,4,2,22,62,0,1
59877,800,4,2,22,62,1,1
59877,-61.7283950617284,4,2,22,62,0,1
60280,631.578947368421,4,2,22,62,1,1
60280,-81.9672131147541,4,2,22,62,0,1
60595,504.201680672269,4,2,22,62,1,1
60721,606.060606060606,4,2,22,62,1,1
60721,-81.9672131147541,4,2,22,62,0,1
61327,582.52427184466,4,2,22,62,1,1
61327,-81.9672131147541,4,2,22,62,0,1
62492,504.201680672269,4,2,22,62,1,1
62618,571.428571428571,4,2,22,62,1,1
62618,-81.9672131147541,4,2,22,62,0,1
62760,625,4,2,22,62,1,1
62760,-81.9672131147541,4,2,22,62,0,1
63073,582.52427184466,4,2,22,62,1,1
63073,-81.9672131147541,4,2,22,62,0,1
63655,582.52427184466,4,2,22,62,1,1
63655,-81.9672131147541,4,2,22,62,0,1
65985,555.555555555556,4,2,22,62,1,1
65985,-81.9672131147541,4,2,22,62,0,1
66540,631.578947368421,4,2,22,62,1,1
66540,-81.9672131147541,4,2,22,62,0,1
66855,555.555555555556,4,2,22,62,1,1
66855,-81.9672131147541,4,2,22,62,0,1
67271,625,4,2,22,62,1,1
67271,-81.9672131147541,4,2,22,62,0,1
67585,571.428571428571,4,2,22,62,1,1
67727,-81.9672131147541,4,2,22,62,0,1
68013,582.52427184466,4,2,22,62,1,1
68013,-81.9672131147541,4,2,22,62,0,1
68304,594.059405940594,4,2,22,62,1,1
68304,-81.9672131147541,4,2,22,62,0,1
68749,483.870967741935,4,2,22,62,1,1
68869,652.173913043478,4,2,22,62,1,1
68869,-81.9672131147541,4,2,22,62,0,1
69195,800,4,2,22,62,1,1
69195,-61.7283950617284,4,2,22,62,0,1
69596,645.161290322581,4,2,22,62,1,1
69596,-81.9672131147541,4,2,22,62,0,1
69918,476.190476190476,4,2,22,62,1,1
70039,618.556701030928,4,2,22,62,1,1
70039,-81.9672131147541,4,2,22,62,0,1
70349,594.059405940594,4,2,22,62,1,1
70349,-81.9672131147541,4,2,22,62,0,1
70645,555.555555555556,4,2,22,62,1,1
70645,-81.9672131147541,4,2,22,62,0,1
71061,495.867768595041,4,2,22,62,1,1
71185,645.161290322581,4,2,22,62,1,1
71185,-81.9672131147541,4,2,22,62,0,1
71507,588.235294117647,4,2,22,62,1,1
71507,-81.9672131147541,4,2,22,62,0,1
72977,582.52427184466,4,2,22,62,1,0
72977,-89.2857142857143,4,2,22,62,0,0
79676,576.923076923077,4,2,22,62,1,0
79676,-89.2857142857143,4,2,22,62,0,0
79964,560.747663551402,4,2,22,62,1,0
79964,-89.2857142857143,4,2,22,62,0,0
80524,618.556701030928,4,2,22,62,1,0
80524,-89.2857142857143,4,2,22,62,0,0
80833,582.52427184466,4,2,22,62,1,0
80833,-89.2857142857143,4,2,22,62,0,0
82289,582.52427184466,4,2,22,62,1,0
82580,769.230769230769,4,2,22,62,1,0
82580,-81.9672131147541,4,2,22,62,0,0
82898,517.241379310345,4,2,22,62,1,0
82898,-89.2857142857143,4,2,22,62,0,0
83171,582.52427184466,4,2,22,62,1,0
83171,-89.2857142857143,4,2,22,62,0,0
83462,582.52427184466,4,2,22,62,1,0
83607,-89.2857142857143,4,2,22,62,0,0
84627,582.52427184466,4,2,22,62,1,0
84627,-89.2857142857143,4,2,22,62,0,0
89190,-89.2857142857143,4,2,22,12,0,0

[Colours]
Combo1 : 197,165,207
Combo2 : 205,7,7
Combo3 : 236,211,36
Combo4 : 168,205,20

[HitObjects]
16,328,740,6,0,L|127:304,1,82.4100012574769,2|0,0:0|0:0,0:0:0:0:
138,277,1176,2,0,P|204:287|250:297,1,82.4100012574768,2|2,0:0|0:0,0:0:0:0:
260,325,1613,2,0,P|305:335|353:337,1,82.4100012574768,2|0,0:0|0:0,0:0:0:0:
391,317,2050,2,0,P|375:269|367:239,1,82.4100012574769,2|0,0:0|3:0,0:0:0:0:
324,205,2487,2,0,P|341:158|353:110,1,82.4100012574769,2|2,0:0|0:0,0:0:0:0:
395,29,3070,6,0,P|335:43|300:54,1,82.4100012574769,2|0,0:0|0:0,0:0:0:0:
263,63,3506,2,0,P|207:51|167:45,1,82.4100012574769,2|0,0:0|0:0,0:0:0:0:
128,52,3943,2,0,P|111:100|127:148,1,82.4100012574768,2|0,0:0|0:0,0:0:0:0:
145,175,4380,1,2,0:0:0:0:
222,257,4672,1,0,3:0:0:0:
222,257,4817,2,0,P|180:265|145:281,1,82.4100012574769,2|2,0:0|0:0,0:0:0:0:
116,327,5254,1,2,0:0:0:0:
116,327,5400,6,0,L|-1:302,1,102.510000625671,6|0,1:2|0:0,0:0:0:0:
13,223,5837,2,0,L|113:244,1,102.510000625671,2|0,0:0|0:0,0:0:0:0:
187,210,6273,1,2,0:0:0:0:
187,210,6419,2,0,P|235:234|284:221,1,102.510000625671,2|0,0:0|0:0,0:0:0:0:
244,149,6856,1,2,0:0:0:0:
325,290,7147,2,0,L|428:314,1,102.510000625671,0|2,1:0|0:0,0:0:0:0:
478,251,7584,1,2,0:0:0:0:
421,192,7730,6,0,P|368:217|324:208,1,102.510000625671,2|2,1:2|0:0,0:0:0:0:
254,170,8167,2,0,L|196:184,1,51.2550003128357,2|0,0:0|1:0,0:0:0:0:
297,46,8604,2,0,L|364:32,1,51.2550003128357,2|0,0:0|0:0,0:0:0:0:
414,85,8895,2,0,P|446:135|433:187,1,102.510000625671,2|0,1:2|0:0,0:0:0:0:
402,254,9332,1,0,3:0:0:0:
402,254,9477,2,0,L|301:233,1,102.510000625671,0|2,1:0|0:0,0:0:0:0:
188,352,10060,6,0,P|236:336|286:323,1,102.510000625671,2|2,1:2|0:0,0:0:0:0:
269,242,10497,1,0,0:0:0:0:
269,242,10642,2,0,P|241:249|219:255,1,51.2550003128357,2|0,1:2|0:0,0:0:0:0:
171,322,10934,2,0,P|104:312|72:292,1,102.510000625671,2|0,0:0|1:0,0:0:0:0:
27,228,11371,1,0,3:0:0:0:
27,228,11516,2,0,L|106:208,1,51.2550003128357,0|0,0:0|3:0,0:0:0:0:
124,144,11807,2,0,L|45:124,1,51.2550003128357,2|0,1:2|0:0,0:0:0:0:
24,60,12099,2,0,L|92:44,1,51.2550003128357,2|0,0:0|0:0,0:0:0:0:
160,16,12390,6,0,P|211:26|290:42,1,102.510000625671,2|0,1:2|0:0,0:0:0:0:
375,153,12973,2,0,L|431:142,1,51.2550003128357,0|0,1:0|0:0,0:0:0:0:
436,61,13264,2,0,L|326:81,1,102.510000625671,2|0,0:2|1:0,0:0:0:0:
266,124,13701,1,0,3:0:0:0:
266,124,13846,2,0,P|258:158|262:186,1,51.2550003128357,0|0,0:0|3:0,0:0:0:0:
312,237,14138,2,0,P|337:237|362:230,1,51.2550003128357,0|0,1:0|0:0,0:0:0:0:
427,180,14429,1,2,0:0:0:0:
484,333,14720,6,0,P|440:303|384:312,1,102.510000625671,2|2,1:2|0:0,0:0:0:0:
320,347,15157,1,0,0:0:0:0:
320,347,15303,2,0,B|256:355|256:355|216:328,1,102.510000625671,0|2,1:0|0:0,0:0:0:0:
177,274,15739,1,0,0:0:0:0:
177,274,15885,2,0,P|134:261|113:256,1,51.2550003128357,0|0,1:0|0:0,0:0:0:0:
68,316,16176,2,0,P|50:288|42:268,1,51.2550003128357,0|0,0:0|3:0,0:0:0:0:
78,196,16468,2,0,P|127:208|174:179,1,102.510000625671,0|2,1:0|0:0,0:0:0:0:
219,117,16905,1,2,0:0:0:0:
219,117,17050,6,0,P|162:127|101:136,1,102.510000625671,2|2,1:2|0:0,0:0:0:0:
39,109,17487,2,0,P|89:101|140:92,1,102.510000625671,2|0,0:0|0:0,0:0:0:0:
185,22,17924,2,0,P|238:40|281:27,1,102.510000625671,2|0,0:0|1:0,0:0:0:0:
321,98,18361,2,0,P|311:128|304:153,2,51.2550003128357,0|0|0,3:0|0:0|3:0,0:0:0:0:
390,54,18798,2,0,P|407:115|421:176,1,102.510000625671,0|2,1:0|0:0,0:0:0:0:
470,307,19380,6,0,P|420:294|370:280,1,102.510000625671,2|2,1:2|0:0,0:0:0:0:
305,230,19817,1,0,0:0:0:0:
305,230,19963,2,0,P|256:234|209:260,1,102.510000625671,2|2,1:2|0:0,0:0:0:0:
79,358,20545,1,0,1:0:0:0:
79,358,20691,2,0,P|103:313|108:262,1,102.510000625671,0|0,0:0|0:0,0:0:0:0:
54,200,21128,2,0,P|29:155|24:104,1,102.510000625671,2|2,1:2|0:0,0:0:0:0:
82,46,21565,1,0,0:0:0:0:
82,46,21710,6,0,B|155:15|159:86|232:42,1,153.765000938507,2|0,1:2|3:0,0:0:0:0:
305,11,22293,2,0,L|373:23,1,51.2550003128357,0|0,1:0|0:0,0:0:0:0:
421,68,22584,2,0,P|436:126|416:166,1,102.510000625671,0|0,0:0|1:0,0:0:0:0:
356,216,23021,2,0,P|286:201|241:195,1,102.510000625671,0|0,3:0|3:0,0:0:0:0:
190,145,23458,2,0,P|172:175|165:204,1,51.2550003128357,8|0,1:0|0:0,0:0:0:0:
97,234,23749,2,0,P|100:261|111:286,1,51.2550003128357,0|0,0:0|0:0,0:0:0:0:
168,348,24040,5,2,1:2:0:0:
168,348,24186,2,0,B|249:299|283:404|382:320,1,205.020001251343,0|0,1:0|3:0,0:0:0:0:
428,283,24914,1,2,1:2:0:0:
428,283,25060,2,0,P|446:212|403:138,1,153.765000938507,0|0,1:0|3:0,0:0:0:0:
305,268,25788,2,0,P|223:252|128:238,1,153.765000938507,10|0,1:2|0:0,0:0:0:0:
80,288,26371,5,2,1:2:0:0:
80,288,26516,2,0,B|36:196|124:196|72:88,1,205.020001251343,0|0,1:0|0:0,0:0:0:0:
12,35,27244,1,2,1:2:0:0:
12,35,27390,2,0,P|89:73|149:47,1,153.765000938507,0|0,3:0|1:0,0:0:0:0:
306,8,28118,1,10,1:2:0:0:
306,8,28264,2,0,L|411:37,1,102.510000625671,0|0,1:0|0:0,0:0:0:0:
469,85,28701,5,2,1:2:0:0:
398,128,28846,2,0,B|291:98|291:98|236:108|208:156,1,205.020001251343,0|0,1:0|3:0,0:0:0:0:
188,225,29574,1,2,1:2:0:0:
255,272,29720,2,0,P|352:258|432:251,1,153.765000938507,0|2,1:0|1:2,0:0:0:0:
282,360,30448,2,0,P|188:373|113:388,1,153.765000938507,10|0,1:2|0:0,0:0:0:0:
69,336,31031,5,2,1:2:0:0:
129,281,31176,2,0,P|152:224|95:93,1,205.020001251343,0|0,1:0|3:0,0:0:0:0:
29,49,31905,1,0,1:0:0:0:
21,134,32050,2,0,P|75:184|155:164,1,153.765000938507,0|0,1:0|1:0,0:0:0:0:
284,74,32778,1,8,1:0:0:0:
284,74,32924,2,0,B|346:60|346:60|390:85,1,102.510000625671,0|2,1:0|1:2,0:0:0:0:
440,19,33361,6,0,P|467:67|449:129,1,112.560001374023,10|0,0:0|0:0,0:0:0:0:
392,184,33798,2,0,P|320:168|244:153,1,112.560001374023,2|8,3:0|0:0,0:0:0:0:
206,197,34245,2,0,P|179:245|197:307,1,112.560001374023,0|8,1:0|0:0,0:0:0:0:
247,361,34682,5,8,3:0:0:0:
272,280,34827,1,4,3:0:0:0:
223,210,34973,1,4,3:0:0:0:
308,136,35118,5,10,0:2:0:0:
372,200,35264,2,0,P|398:265|379:313,1,112.560001374023,10|2,0:2|0:2,0:0:0:0:
247,361,35691,6,0,P|176:348|120:338,1,122.609994948624,6|2,1:2|0:2,0:0:0:0:
36,288,36128,1,0,1:0:0:0:
123,231,36273,2,0,L|206:216,1,61.3049974743119,10|0,0:2|0:0,0:0:0:0:
263,172,36565,2,0,L|75:203,1,183.914992422936,6|10,1:2|0:2,0:0:0:0:
0,128,37147,2,0,L|70:113,1,61.3049974743119,0|0,0:0|1:0,0:0:0:0:
142,40,37439,2,0,L|206:28,1,61.3049974743119,10|0,0:2|0:0,0:0:0:0:
253,127,37730,2,0,L|331:113,1,61.3049974743119,2|0,1:2|0:0,0:0:0:0:
412,56,38021,6,0,P|361:150|406:202,1,183.914992422936,6|2,1:2|1:2,0:0:0:0:
474,133,38604,1,8,0:0:0:0:
512,324,38895,2,0,B|435:282|410:360|335:316,1,183.914992422936,6|8,1:2|0:0,0:0:0:0:
269,245,39477,2,0,L|191:266,1,61.3049974743119,0|0,0:0|1:0,0:0:0:0:
161,361,39769,2,0,L|99:352,1,61.3049974743119,10|2,0:2|0:2,0:0:0:0:
12,285,40060,2,0,L|71:271,1,61.3049974743119,2|2,1:2|0:2,0:0:0:0:
147,203,40335,6,0,P|214:192|268:221,1,122.609994948624,6|2,1:2|3:2,0:0:0:0:
348,276,40771,1,0,1:0:0:0:
440,220,40917,1,10,0:2:0:0:
440,220,41208,2,0,B|370:208|370:208|325:227|325:227|262:215,1,183.914992422936,6|10,1:2|0:2,0:0:0:0:
158,262,41790,2,0,P|146:232|152:191,1,61.3049974743119,0|0,0:0|3:0,0:0:0:0:
74,146,42082,2,0,P|97:123|136:111,1,61.3049974743119,10|0,0:2|0:0,0:0:0:0:
126,3,42373,2,0,P|156:13|184:44,1,61.3049974743119,2|0,1:2|0:0,0:0:0:0:
298,123,42664,6,0,B|226:75|212:167|116:108,1,183.914992422936,6|2,1:2|1:2,0:0:0:0:
177,32,43247,1,8,0:0:0:0:
47,220,43538,2,0,P|115:233|177:243,1,122.609994948624,6|0,1:2|3:0,0:0:0:0:
254,209,43947,1,8,0:0:0:0:
323,368,44252,1,2,0:0:0:0:
323,368,44404,2,0,L|386:355,1,61.3049974743119,10|0,0:2|0:0,0:0:0:0:
463,324,44701,1,10,0:2:0:0:
430,244,44849,1,8,0:0:0:0:
377,156,44998,6,0,B|310:142|310:142|262:160|262:160|193:146,1,183.914992422936,6|2,1:2|1:2,0:0:0:0:
125,82,45580,1,8,0:0:0:0:
6,230,45895,2,0,P|50:196|116:209,1,122.609994948624,6|0,1:2|3:0,0:0:0:0:
180,280,46308,1,10,0:2:0:0:
180,280,46454,2,0,P|170:310|162:339,1,61.3049974743119,0|0,0:0|1:0,0:0:0:0:
80,284,46745,1,10,0:2:0:0:
266,205,47036,1,2,0:2:0:0:
266,205,47327,6,0,L|326:217|386:229,1,122.609994948624,6|0,1:2|3:0,0:0:0:0:
480,276,47764,1,0,1:0:0:0:
480,276,47910,1,8,0:0:0:0:
293,312,48201,2,0,P|258:265|270:197,1,122.609994948624,6|0,1:2|3:0,0:0:0:0:
313,125,48638,1,10,0:2:0:0:
313,125,48784,2,0,L|386:141,1,61.3049974743119,0|0,0:0|1:0,0:0:0:0:
478,165,49075,2,0,P|501:222|475:283,1,122.609994948624,10|2,0:2|0:2,0:0:0:0:
312,357,49658,6,0,B|233:313|216:394|133:344,1,183.914992422936,6|0,1:2|1:0,0:0:0:0:
88,260,50240,2,0,L|28:275,1,61.3049974743119,10|0,0:2|3:0,0:0:0:0:
17,377,50531,2,0,L|137:345,1,122.609994948624,6|0,1:2|3:0,0:0:0:0:
223,317,50968,1,8,0:0:0:0:
223,317,51114,2,0,P|229:286|219:243,1,61.3049974743119,0|0,3:0|1:0,0:0:0:0:
145,208,51405,2,0,L|21:239,1,122.609994948624,8|2,0:0|1:2,0:0:0:0:
208,136,51988,5,4,1:0:0:0:
110,86,52133,2,0,P|178:95|226:57,1,132.659999595154,8|0,0:0|1:0,0:0:0:0:
313,11,52570,2,0,L|387:26,1,66.3299997975769,8|0,0:0|0:0,0:0:0:0:
462,77,52875,2,0,P|396:65|346:107,1,132.659999595154,4|0,1:0|3:0,0:0:0:0:
278,174,53311,1,8,0:0:0:0:
278,174,53457,2,0,L|296:263,1,66.3299997975769,0|0,1:0|0:0,0:0:0:0:
368,336,53748,6,0,P|384:288|392:240,1,66.3299997975769,10|10,0:2|3:2,0:0:0:0:
436,164,54040,2,0,P|444:196|455:227,1,66.3299997975769,4|4,3:0|3:0,0:0:0:0:
479,360,54318,6,0,P|429:329|346:350,1,122.609994948624,6|2,1:2|3:2,0:0:0:0:
284,380,54755,1,0,1:0:0:0:
284,380,54900,1,10,0:2:0:0:
120,289,55192,2,0,P|103:242|123:175,1,122.609994948624,6|0,1:2|3:0,0:0:0:0:
214,175,55629,1,8,0:0:0:0:
214,175,55774,2,0,P|234:231|217:289,1,122.609994948624,2|8,0:2|0:0,0:0:0:0:
40,340,56357,1,2,3:2:0:0:
40,340,56648,6,0,P|4:258|28:168,1,183.914992422936,6|2,1:2|1:2,0:0:0:0:
104,96,57231,2,0,L|176:82,1,61.3049974743119,8|0,0:0|0:0,0:0:0:0:
96,10,57522,2,0,P|196:53|265:27,1,183.914992422936,6|8,1:2|0:0,0:0:0:0:
317,102,58104,2,0,P|349:107|394:116,1,61.3049974743119,0|0,0:0|1:0,0:0:0:0:
441,46,58396,2,0,P|473:100|461:156,1,122.609994948624,10|2,0:2|1:2,0:0:0:0:
318,272,58995,6,0,P|246:255|189:244,1,122.609994948624,6|2,1:2|3:2,0:0:0:0:
116,216,59411,1,0,1:0:0:0:
116,216,59537,1,8,0:0:0:0:
280,344,59877,2,0,P|364:292|432:324,1,162.810003974854,6|8,1:2|0:0,0:0:0:0:
492,248,60437,2,0,P|461:240|418:229,1,61.3049974743119,2|0,0:2|0:0,0:0:0:0:
428,148,60721,2,0,P|457:155|487:163,1,61.3049974743119,8|0,0:0|0:0,0:0:0:0:
472,72,61024,1,2,1:2:0:0:
380,254,61327,6,0,P|317:240|259:227,1,122.609994948624,6|2,1:2|0:2,0:0:0:0:
192,167,61763,1,0,3:0:0:0:
192,167,61909,2,0,P|146:176|127:181,1,61.3049974743119,8|0,0:0|0:0,0:0:0:0:
58,252,62200,2,0,P|24:204|43:136,1,122.609994948624,6|0,1:2|3:0,0:0:0:0:
92,80,62618,1,8,0:2:0:0:
92,80,62760,2,0,L|156:96,1,61.3049974743119,0|0,0:2|1:0,0:0:0:0:
208,180,63073,6,0,P|237:172|267:165,1,61.3049974743119,10|0,0:2|0:0,0:0:0:0:
352,104,63364,2,0,P|381:111|411:118,1,61.3049974743119,2|0,1:2|0:0,0:0:0:0:
512,192,63655,6,0,P|424:168|356:228,1,183.914992422936,6|2,1:2|1:2,0:0:0:0:
308,312,64238,1,8,0:0:0:0:
308,312,64529,2,0,P|226:296|156:268,1,122.609994948624,6|0,1:2|3:0,0:0:0:0:
108,336,64966,1,8,0:0:0:0:
108,336,65111,2,0,P|92:295|78:265,1,61.3049974743119,2|0,0:2|1:0,0:0:0:0:
20,200,65403,2,0,P|82:226|138:191,1,122.609994948624,10|2,0:2|1:2,0:0:0:0:
281,93,65985,6,0,P|254:146|277:201,1,122.609994948624,6|0,1:2|3:0,0:0:0:0:
360,256,66401,1,0,1:0:0:0:
342,150,66540,1,8,0:0:0:0:
249,308,66855,2,0,P|309:290|372:274,1,122.609994948624,6|0,1:2|3:0,0:0:0:0:
472,220,67271,1,8,0:0:0:0:
472,220,67427,2,0,P|415:203|388:193,1,61.3049974743119,2|0,0:2|0:0,0:0:0:0:
328,132,67727,2,0,P|384:115|412:105,1,61.3049974743119,10|0,0:2|0:0,0:0:0:0:
480,52,68013,1,2,1:2:0:0:
295,32,68304,6,0,B|264:116|331:130|293:219,1,183.914992422936,6|0,1:2|1:0,0:0:0:0:
256,284,68869,2,0,L|181:269,1,61.3049974743119,10|0,0:2|0:0,0:0:0:0:
136,179,69195,2,0,L|312:214,1,162.810003974854,6|8,1:2|0:0,0:0:0:0:
387,226,69757,1,0,0:0:0:0:
288,360,70039,2,0,L|168:334,1,122.609994948624,8|2,0:0|1:2,0:0:0:0:
3,250,70645,6,0,P|69:260|116:226,1,122.609994948624,4|0,1:0|0:0,0:0:0:0:
184,171,71061,1,0,1:0:0:0:
184,171,71185,1,8,0:0:0:0:
24,79,71507,2,0,P|85:87|157:97,1,122.609994948624,4|0,1:0|0:0,0:0:0:0:
224,37,71948,1,8,0:0:0:0:
224,37,72095,2,0,P|236:64|244:94,1,61.3049974743119,2|0,1:2|0:0,0:0:0:0:
184,171,72389,6,0,P|171:198|164:228,1,61.3049974743119,10|8,0:2|3:0,0:0:0:0:
276,325,72683,2,0,P|268:295|255:267,1,61.3049974743119,4|4,3:0|3:0,0:0:0:0:
184,326,72977,6,0,B|102:361|102:287|12:329,2,168.840002061035,6|8|2,1:2|0:0|1:2,0:0:0:0:
346,224,74142,1,0,0:0:0:0:
346,224,74287,2,0,L|402:234,1,56.2800006870117,0|0,0:0|3:0,0:0:0:0:
475,173,74578,1,0,0:0:0:0:
405,107,74724,2,0,B|355:135|355:135|301:122,1,112.560001374023,10|2,2:2|3:2,0:0:0:0:
229,67,75161,1,0,3:0:0:0:
229,67,75307,6,0,B|204:128|187:174|187:174|218:221,1,168.840002061035,6|8,1:2|0:0,0:0:0:0:
284,284,75889,2,0,L|353:266,1,56.2800006870117,0|0,3:0|3:0,0:0:0:0:
256,368,76180,2,0,L|136:344,1,112.560001374023,2|0,1:2|0:0,0:0:0:0:
120,256,76617,1,0,3:0:0:0:
31,302,76763,2,0,P|21:274|21:246,1,56.2800006870117,0|0,1:0|3:0,0:0:0:0:
84,180,77054,2,0,P|130:204|192:188,1,112.560001374023,10|2,0:2|3:2,0:0:0:0:
280,152,77491,1,0,3:0:0:0:
189,97,77637,6,0,P|293:120|373:136,1,168.840002061035,6|0,1:2|3:0,0:0:0:0:
427,185,78219,2,0,P|448:135|425:76,1,112.560001374023,8|0,0:0|3:0,0:0:0:0:
269,163,78802,2,0,P|251:215|272:266,1,112.560001374023,4|0,1:0|0:0,0:0:0:0:
330,335,79239,1,0,3:0:0:0:
330,335,79384,2,0,P|256:348|197:360,1,112.560001374023,8|2,0:0|3:2,0:0:0:0:
69,254,79964,6,0,P|143:267|202:279,1,112.560001374023,4|0,1:2|0:0,0:0:0:0:
264,224,80384,1,0,3:0:0:0:
186,159,80524,2,0,P|153:152|111:143,1,56.2800006870117,8|0,0:0|3:0,0:0:0:0:
46,181,80833,2,0,P|29:236|54:287,1,112.560001374023,0|2,1:0|0:2,0:0:0:0:
114,346,81269,2,0,B|181:363|181:363|228:336,1,112.560001374023,8|2,0:0|0:2,0:0:0:0:
283,279,81706,1,8,0:0:0:0:
361,291,81852,1,0,3:0:0:0:
400,360,81998,2,0,L|453:343,1,56.2800006870117,4|0,3:0|3:0,0:0:0:0:
512,260,82289,5,6,1:2:0:0:
512,260,82580,2,2,L|432:240,1,61.3049974743119
456,156,82898,2,2,L|401:170,1,56.2800006870117
341,241,83171,6,0,B|269:284|246:217|177:248,1,168.840002061035,6|0,1:2|3:0,0:0:0:0:
117,314,83753,2,0,P|88:268|105:203,1,112.560001374023,2|8,1:2|0:0,0:0:0:0:
176,152,84190,2,0,L|238:165,2,56.2800006870117,0|0|0,0:0|3:0|3:0,0:0:0:0:
82,107,84627,6,0,L|271:148,1,168.840002061035,6|8,1:2|0:0,0:0:0:0:
220,52,85209,1,0,3:0:0:0:
267,229,85500,2,0,P|323:244|375:217,1,112.560001374023,0|2,1:0|0:2,0:0:0:0:
448,168,85937,1,8,0:0:0:0:
448,168,86083,2,0,L|542:192,1,56.2800006870117,0|8,1:0|0:0,0:0:0:0:
478,308,86374,2,0,L|423:294,1,56.2800006870117,8|8,0:0|3:0,0:0:0:0:
370,221,86665,1,4,3:0:0:0:
370,221,86811,1,4,3:0:0:0:
284,250,86957,5,6,1:2:0:0:
256,192,87102,12,0,89190,0:0:0:0:
