osu file format v14

[General]
AudioFilename: audio.mp3
AudioLeadIn: 0
PreviewTime: 34973
Countdown: 0
SampleSet: Soft
StackLeniency: 0.7
Mode: 0
LetterboxInBreaks: 0
WidescreenStoryboard: 1

[Editor]
DistanceSpacing: 1
BeatDivisor: 4
GridSize: 4
TimelineZoom: 1.8

[Metadata]
Title:moon river
TitleUnicode:ムーンリバー
Artist:fhana
ArtistUnicode:fhána
Creator:Sotarks
Version:Akitoshi's Normal
Source:有頂天家族2
Tags:Uchoten Kazoku The Eccentric Family Ed Ending Lantis Junichi Sato yuxuki waga kevin mitsunaga towana Kalibe Akitoshi Corinn
BeatmapID:1263314
BeatmapSetID:597604

[Difficulty]
HPDrainRate:3
CircleSize:3
OverallDifficulty:4
ApproachRate:4.5
SliderMultiplier:2
SliderTickRate:1

[Events]
//Background and Video events
0,0,"BG.jpg",0,0
Video,0,"video.avi"
//Break Periods
//Storyboard Layer 0 (Background)
//Storyboard Layer 1 (Fail)
//Storyboard Layer 2 (Pass)
//Storyboard Layer 3 (Foreground)
//Storyboard Sound Samples

[TimingPoints]
740,582.52427184466,4,2,22,32,1,0
740,-100,4,2,22,32,0,0
5400,-100,4,2,22,42,0,0
33361,-100,4,2,22,52,0,0
34245,582.52427184466,4,2,22,52,1,0
35691,582.52427184466,4,2,22,62,1,1
35691,-100,4,2,22,62,0,1
40335,582.52427184466,4,2,22,62,1,1
40335,-100,4,2,22,62,0,1
43538,545.454545454546,4,2,22,62,1,1
43538,-100,4,2,22,62,0,1
43947,821.917808219178,4,2,22,62,1,1
43947,-100,4,2,22,62,0,1
44152,504.201680672269,4,2,22,62,1,1
44252,582.52427184466,4,2,22,62,1,1
44404,594.059405940594,4,2,22,62,1,1
44404,-100,4,2,22,62,0,1
44998,582.52427184466,4,2,22,62,1,1
44998,-100,4,2,22,62,0,1
45895,582.52427184466,4,2,22,62,1,1
46308,582.52427184466,4,2,22,62,1,1
47327,582.52427184466,4,2,22,62,1,1
51988,-100,4,2,22,62,0,1
52875,582.52427184466,4,2,22,62,1,1
54318,582.52427184466,4,2,22,62,1,1
58995,555.555555555556,4,2,22,62,1,1
59537,681.818181818182,4,2,22,62,1,1
59877,800,4,2,22,62,1,1
59877,-66.6666666666667,4,2,22,62,0,1
60280,631.578947368421,4,2,22,62,1,1
60595,504.201680672269,4,2,22,62,1,1
60721,606.060606060606,4,2,22,62,1,1
61327,582.52427184466,4,2,22,62,1,1
62492,504.201680672269,4,2,22,62,1,1
62618,571.428571428571,4,2,22,62,1,1
62760,625,4,2,22,62,1,1
63073,582.52427184466,4,2,22,62,1,1
63655,582.52427184466,4,2,22,62,1,1
65985,555.555555555556,4,2,22,62,1,1
66540,631.578947368421,4,2,22,62,1,1
66855,555.555555555556,4,2,22,62,1,1
67271,625,4,2,22,62,1,1
67585,571.428571428571,4,2,22,62,1,1
68013,582.52427184466,4,2,22,62,1,1
68304,594.059405940594,4,2,22,62,1,1
68749,483.870967741935,4,2,22,62,1,1
68869,652.173913043478,4,2,22,62,1,1
69195,800,4,2,22,62,1,1
69596,645.161290322581,4,2,22,62,1,1
69918,476.190476190476,4,2,22,62,1,1
70039,618.556701030928,4,2,22,62,1,1
70349,594.059405940594,4,2,22,62,1,1
70645,555.555555555556,4,2,22,62,1,1
71061,495.867768595041,4,2,22,62,1,1
71185,645.161290322581,4,2,22,62,1,1
71507,588.235294117647,4,2,22,62,1,1
72977,582.52427184466,4,2,22,62,1,0
79676,576.923076923077,4,2,22,62,1,0
79964,560.747663551402,4,2,22,62,1,0
80524,618.556701030928,4,2,22,62,1,0
80833,582.52427184466,4,2,22,62,1,0
82289,582.52427184466,4,2,22,62,1,0
82580,769.230769230769,4,2,22,62,1,0
82898,517.241379310345,4,2,22,62,1,0
83171,582.52427184466,4,2,22,62,1,0
83462,582.52427184466,4,2,22,62,1,0
84627,582.52427184466,4,2,22,62,1,0
84627,-100,4,2,22,62,0,0
89190,-100,4,2,22,12,0,0

[Colours]
Combo1 : 197,165,207
Combo2 : 205,7,7
Combo3 : 236,211,36
Combo4 : 168,205,20

[HitObjects]
233,200,740,6,0,B|186:201|186:201|127:182|127:182|47:184,1,150,2|2,0:0|0:0,0:0:0:0:
193,290,1613,2,0,B|240:291|240:291|299:272|299:272|379:274,1,150,2|2,0:0|0:0,0:0:0:0:
490,275,2487,1,2,0:0:0:0:
450,78,3070,6,0,B|376:57|371:112|272:78,1,150,2|2,0:0|0:0,0:0:0:0:
156,53,3943,2,0,B|151:90|166:120|166:120|152:207,1,150,2|2,0:0|0:0,0:0:0:0:
139,350,4817,2,0,P|91:351|23:308,1,100,2|2,0:0|0:0,0:0:0:0:
7,236,5400,6,0,B|0:93|0:93|32:31,1,200,6|0,1:2|1:0,0:0:0:0:
121,11,6273,1,2,0:0:0:0:
204,66,6565,2,0,P|257:75|324:51,1,100,0|0,1:0|0:0,0:0:0:0:
381,4,7147,2,0,P|400:52|390:111,1,100,0|2,1:0|0:0,0:0:0:0:
335,179,7730,6,0,B|264:186|264:186|215:166|215:166|133:172,1,200,2|0,1:2|1:0,0:0:0:0:
54,224,8604,1,2,0:0:0:0:
101,311,8895,2,0,P|153:330|222:312,1,100,2|0,1:2|0:0,0:0:0:0:
289,288,9477,2,0,P|341:269|410:287,1,100,0|2,1:0|0:0,0:0:0:0:
482,295,10060,6,0,L|498:183,1,100,2|2,1:2|0:0,0:0:0:0:
458,103,10642,1,2,1:2:0:0:
360,97,10934,2,0,P|312:120|178:63,1,200,2|0,0:0|0:0,0:0:0:0:
105,7,11807,2,0,P|84:54|93:115,1,100,2|2,1:2|0:0,0:0:0:0:
122,195,12390,6,0,B|172:176|216:196|216:196|266:218|334:203,1,200,2|0,1:2|1:0,0:0:0:0:
406,160,13264,1,2,0:2:0:0:
463,241,13555,2,0,P|444:311|324:359,1,200,0|0,1:0|1:0,0:0:0:0:
239,331,14429,1,2,0:0:0:0:
172,256,14720,6,0,L|163:78,2,150,2|2|2,1:2|0:0|0:0,0:0:0:0:
110,335,15885,2,0,P|60:330|9:290,1,100,0|0,1:0|0:0,0:0:0:0:
4,203,16468,2,0,P|9:153|49:102,1,100,0|2,1:0|0:0,0:0:0:0:
112,48,17050,6,0,B|166:66|166:66|291:43,2,150,2|2|2,1:2|0:0|0:0,0:0:0:0:
35,112,18215,2,0,L|45:239,1,100,0|0,1:0|0:0,0:0:0:0:
113,282,18798,2,0,L|240:272,1,100,0|2,1:0|0:0,0:0:0:0:
302,229,19380,6,0,P|316:187|293:116,1,100,2|2,1:2|0:0,0:0:0:0:
220,79,19963,1,2,1:2:0:0:
219,179,20254,2,0,B|358:165|358:165|425:188,1,200,2|0,0:0|0:0,0:0:0:0:
472,266,21128,2,0,P|456:316|411:348,1,100,2|2,1:2|0:0,0:0:0:0:
324,315,21710,6,0,P|260:297|167:330,2,150,2|0|0,1:2|3:0|3:0,0:0:0:0:
419,344,22875,2,0,L|407:210,1,100,0|0,1:0|0:0,0:0:0:0:
336,176,23458,2,0,L|348:42,1,100,8|0,1:0|0:0,0:0:0:0:
265,28,24040,5,2,1:2:0:0:
265,28,24186,2,0,P|218:72|96:62,1,150,0|0,1:0|0:0,0:0:0:0:
41,70,24914,1,2,1:2:0:0:
41,70,25060,2,0,L|50:239,1,150,0|0,1:0|0:0,0:0:0:0:
96,308,25788,2,0,B|145:296|145:296|207:307,1,100,10|0,1:2|0:0,0:0:0:0:
297,325,26371,5,2,1:2:0:0:
297,325,26516,2,0,P|373:323|431:253,1,150,0|2,1:0|0:0,0:0:0:0:
410,174,27244,1,2,1:2:0:0:
410,174,27390,2,0,B|362:164|362:164|308:178|308:178|223:164,1,150,0|0,3:0|1:0,0:0:0:0:
168,139,28118,2,0,L|159:25,1,100,10|0,1:2|0:0,0:0:0:0:
61,21,28701,5,2,1:2:0:0:
61,21,28846,2,0,L|73:183,1,150,0|0,1:0|0:0,0:0:0:0:
88,269,29574,1,2,1:2:0:0:
88,269,29720,2,0,P|152:291|232:260,1,150,0|2,1:0|1:2,0:0:0:0:
289,186,30448,2,0,L|406:192,1,100,10|0,1:2|0:0,0:0:0:0:
481,228,31031,5,2,1:2:0:0:
481,228,31176,2,0,P|484:282|395:359,1,150,0|0,1:0|0:0,0:0:0:0:
325,336,31905,1,0,1:0:0:0:
325,336,32050,2,0,B|282:311|282:311|139:331,1,150,0|0,1:0|1:0,0:0:0:0:
95,374,32778,2,0,P|82:321|102:267,1,100,8|2,1:0|0:2,0:0:0:0:
147,193,33361,6,0,B|160:92|160:92|144:41,2,150,10|2|0,0:0|3:0|1:0,0:0:0:0:
94,278,34536,2,0,P|141:293|216:265,1,100,8|4,0:0|3:0,0:0:0:0:
280,242,35118,1,10,0:2:0:0:
377,264,35410,1,2,0:2:0:0:
433,346,35691,6,0,P|465:312|474:247,2,100,6|2|10,1:2|0:0|0:2,0:0:0:0:
333,357,36565,2,0,B|278:317|278:317|111:338,1,200,6|0,1:2|0:0,0:0:0:0:
46,330,37439,2,0,P|28:279|45:221,1,100,10|2,0:2|1:2,0:0:0:0:
106,164,38021,6,0,P|180:192|291:143,1,200,6|10,1:2|0:2,0:0:0:0:
360,81,38895,2,0,B|395:127|395:127|369:285,1,200,6|0,1:2|0:0,0:0:0:0:
298,335,39769,2,0,P|244:346|190:330,1,100,10|2,0:2|0:2,0:0:0:0:
143,253,40335,6,0,L|13:273,2,100,6|2|10,1:2|3:2|0:2,0:0:0:0:
224,194,41208,2,0,P|248:107|179:21,1,200,6|0,1:2|0:0,0:0:0:0:
93,62,42082,2,0,L|80:188,1,100,10|2,0:2|1:2,0:0:0:0:
87,261,42665,6,0,P|162:260|260:337,1,200,6|10,1:2|0:2,0:0:0:0:
348,376,43538,2,0,P|430:359|485:293,1,150,6|8,1:2|0:0,0:0:0:0:
495,269,44152,1,0,0:0:0:0:
502,162,44404,2,0,L|491:45,1,100,10|10,0:2|0:2,0:0:0:0:
394,35,44998,6,0,B|403:134|403:134|374:198,1,150,6|0,1:2|1:0,0:0:0:0:
340,208,45580,1,8,0:0:0:0:
264,132,45895,1,0,1:0:0:0:
124,108,46308,2,0,P|68:116|28:164,1,100,8|0,0:0|1:0,0:0:0:0:
19,190,46745,2,0,L|36:309,1,100,10|2,0:2|0:2,0:0:0:0:
88,373,47328,6,0,P|156:376|231:324,1,150,6|0,1:2|1:0,0:0:0:0:
247,289,47910,1,8,0:0:0:0:
277,193,48201,2,0,B|331:186|331:186|414:209|414:209|483:198,1,200,6|0,1:2|0:0,0:0:0:0:
509,106,49075,2,0,P|472:70|400:54,1,100,10|2,0:2|0:2,0:0:0:0:
330,79,49658,6,0,P|289:103|205:102,1,100,6|0,1:2|0:2,0:0:0:0:
144,72,50240,1,10,0:0:0:0:
56,23,50531,2,0,B|7:68|7:68|11:230,1,200,6|0,1:2|3:0,0:0:0:0:
17,301,51405,2,0,P|77:305|127:275,1,100,8|2,0:0|1:2,0:0:0:0:
173,209,51987,2,0,P|250:189|326:284,1,200,4|8,1:2|0:0,0:0:0:0:
379,360,52875,2,0,P|453:319|480:190,1,200,4|0,1:0|1:0,0:0:0:0:
473,114,53748,2,0,B|425:123|425:123|372:111,1,100,10|4,0:2|3:0,0:0:0:0:
295,51,54318,6,0,P|241:41|177:75,2,100,6|2|10,1:2|3:2|0:2,0:0:0:0:
251,141,55192,2,0,B|240:194|240:194|260:276|260:276|237:352,1,200,6|2,1:2|0:2,0:0:0:0:
146,363,56065,2,0,P|94:362|36:330,1,100,8|2,0:0|3:2,0:0:0:0:
13,249,56648,6,0,L|23:91,1,150,6|2,1:2|1:2,0:0:0:0:
29,49,57231,1,8,0:0:0:0:
128,57,57522,2,0,P|216:92|322:62,1,200,6|0,1:2|0:0,0:0:0:0:
396,9,58396,2,0,P|414:64|399:121,1,100,10|2,0:2|1:2,0:0:0:0:
348,185,58995,6,0,L|359:295,1,100,6|2,1:2|0:0,0:0:0:0:
275,346,59537,1,8,0:0:0:0:
216,248,59877,2,0,P|151:217|41:239,1,150.000005722046,6|8,1:2|0:0,0:0:0:0:
38,258,60437,1,2,0:2:0:0:
29,367,60721,2,0,L|132:360,1,100,8|2,0:0|1:2,0:0:0:0:
233,380,61327,6,0,L|343:372,1,100,6|2,1:2|0:2,0:0:0:0:
366,278,61909,1,8,0:0:0:0:
276,232,62200,2,0,B|252:193|252:193|259:127,1,100,6|0,1:2|3:0,0:0:0:0:
270,38,62760,1,2,0:2:0:0:
376,16,63073,2,0,L|487:21,1,100,10|2,0:2|1:2,0:0:0:0:
499,117,63655,6,0,P|512:193|418:275,1,200,6|8,1:2|0:0,0:0:0:0:
411,172,64529,2,0,B|346:178|346:178|282:162|282:162|195:169,1,200,6|2,1:2|0:2,0:0:0:0:
113,179,65403,2,0,P|100:232|113:279,1,100,10|2,0:2|1:2,0:0:0:0:
174,351,65985,6,0,L|346:338,1,150,6|0,1:2|1:0,0:0:0:0:
373,333,66540,1,8,0:0:0:0:
460,271,66855,2,0,P|466:223|436:157,1,100,6|0,1:2|3:0,0:0:0:0:
399,97,67427,1,2,0:2:0:0:
312,37,67727,2,0,L|199:33,1,100,8|0,0:0|0:0,0:0:0:0:
113,30,68304,6,0,P|80:68|68:169,1,150,6|0,1:2|0:0,0:0:0:0:
74,207,68869,1,10,0:2:0:0:
116,303,69195,2,0,L|227:285,1,100,6|0,1:2|0:0,1:2:0:0:
259,279,69757,1,2,0:2:0:0:
346,331,70039,2,0,P|410:336|471:314,1,100,8|0,0:0|0:0,0:0:0:0:
497,225,70646,6,0,L|476:54,1,150,4|0,1:0|1:0,0:0:0:0:
469,31,71185,1,8,0:0:0:0:
361,61,71507,2,0,B|270:37|257:101|158:76,1,200,4|2,1:0|1:2,0:0:0:0:
88,13,72389,2,0,P|66:61|73:125,1,100,10|4,0:2|3:0,0:0:0:0:
92,205,72977,6,0,L|278:191,1,150,6|8,1:2|0:0,0:0:0:0:
389,216,73850,2,0,P|393:287|284:351,1,200,2|2,1:2|1:2,0:0:0:0:
196,330,74724,2,0,L|87:341,1,100,10|2,2:2|3:2,0:0:0:0:
34,260,75307,6,0,B|19:185|19:185|44:101,1,150,6|8,1:2|0:0,0:0:0:0:
169,39,76180,2,0,B|267:26|252:110|389:88,1,200,2|0,1:2|1:0,0:0:0:0:
456,81,77054,2,0,P|481:128|474:203,1,100,10|2,0:2|3:2,0:0:0:0:
429,258,77637,6,0,B|324:291|244:216|244:216|167:288|59:259|59:259|104:371|218:374,1,600,6|8,1:2|0:0,0:0:0:0:
309,368,79676,1,2,3:2:0:0:
407,348,79964,6,0,P|429:283|360:135,1,200,4|8,1:2|0:0,0:0:0:0:
311,99,80833,1,0,1:0:0:0:
218,137,81124,2,0,P|138:156|62:126,2,150,2|2|4,0:2|0:2|3:0,0:0:0:0:
310,99,82289,6,0,P|370:88|438:107,1,100,6|0,1:2|0:0,0:0:0:0:
498,147,82898,1,2,0:2:0:0:
481,248,83171,2,0,B|415:253|415:253|349:231|349:231|253:240,1,200,6|2,1:2|1:2,0:0:0:0:
188,221,84044,2,0,P|171:168|179:110,1,100,8|0,0:0|3:0,0:0:0:0:
222,36,84627,6,0,P|161:25|82:85,2,150,6|8|0,1:2|0:0|1:0,0:0:0:0:
284,114,85792,2,0,L|421:102,1,100,2|0,0:2|1:0,0:0:0:0:
470,156,86374,2,0,L|482:293,1,100,8|4,0:0|3:0,0:0:0:0:
411,329,86957,1,6,1:2:0:0:
256,192,87102,12,0,89190,0:0:0:0:
