osu file format v14

[General]
AudioFilename: audio.mp3
AudioLeadIn: 0
PreviewTime: 48885
Countdown: 0
SampleSet: Soft
StackLeniency: 0.7
Mode: 0
LetterboxInBreaks: 0
WidescreenStoryboard: 0

[Editor]
Bookmarks: 352,1579,2807,4034,10161,17507,17967,18426,19956,27303,28222,29752,30977,31283,31589,39548,44599,47048,49344,51793,54242,59140,61589,64038,64497,64956,65416,65875,66181,66487,66793,67405,67712,68018,68324,68630,68936,69242,71385,73834,78732,81181,83638,84097,84556,85015,85474,85780,86086,86546,87005,87311,87464,87923,88229,88535,88842,89148,89454,89760,90219,90678,90984,93440,94667,95895,100805,101572,102647,103260,108171
DistanceSpacing: 1
BeatDivisor: 2
GridSize: 16
TimelineZoom: 1

[Metadata]
Title:little secret magic
TitleUnicode:little secret magic
Artist:fhana
ArtistUnicode:fhána
Creator:Sotarks
Version:Normal
Source:
Tags:what a wonderful world line lantis junichi sato yuxuki waga kevin mitsunaga towana kalibe linada hb24 akitoshi yuii-
BeatmapID:1001658
BeatmapSetID:465300

[Difficulty]
HPDrainRate:4
CircleSize:3.3
OverallDifficulty:4
ApproachRate:5
SliderMultiplier:0.92
SliderTickRate:1

[Events]
//Background and Video events
0,0,"BG.jpg",0,0
//Break Periods
2,91184,92240
//Storyboard Layer 0 (Background)
//Storyboard Layer 1 (Fail)
//Storyboard Layer 2 (Pass)
//Storyboard Layer 3 (Foreground)
//Storyboard Sound Samples

[TimingPoints]
352,306.90537084399,4,2,1,42,1,0
1579,-100,4,2,1,52,0,0
2807,-100,4,2,1,62,0,0
4034,-100,4,2,1,72,0,0
4648,-100,4,2,1,42,0,0
4802,-100,4,2,1,52,0,0
4955,-100,4,2,1,62,0,0
5109,-100,4,2,1,72,0,0
6183,-100,4,2,1,62,0,0
9789,-100,4,2,1,5,0,0
9866,-100,4,2,1,42,0,0
10096,-100,4,2,1,5,0,0
10161,306.122448979592,4,2,1,52,1,0
29752,-100,4,2,1,42,0,0
31283,-100,4,2,1,52,0,0
31589,-100,4,2,1,62,0,0
31895,-100,4,2,1,42,0,0
34038,-100,4,2,1,52,0,0
34344,-100,4,2,1,42,0,0
39548,-100,4,2,1,52,0,0
54548,-100,4,2,1,72,0,0
64038,-100,4,2,1,72,0,1
66181,-100,4,2,1,72,0,0
66487,-100,4,2,1,72,0,1
68936,-100,4,2,1,72,0,0
83638,306.122448979592,4,2,1,72,1,1
85780,-100,4,2,1,72,0,0
86086,-100,4,2,1,72,0,1
88229,-100,4,2,1,72,0,0
88535,-100,4,2,1,72,0,1
90984,-100,4,2,1,72,0,0
93440,306.90537084399,4,2,1,42,1,0
95895,-100,4,2,1,62,0,0
97122,-100,4,2,1,72,0,0
97736,-100,4,2,1,42,0,0
97890,-100,4,2,1,52,0,0
98043,-100,4,2,1,62,0,0
98197,-100,4,2,1,72,0,0
99271,-100,4,2,1,62,0,0
102647,-100,4,2,1,52,0,0
103260,-100,4,2,1,52,0,0

[Colours]
Combo1 : 46,132,218
Combo2 : 0,190,206
Combo3 : 120,130,214
Combo4 : 179,156,224
SliderTrackOverride : 25,80,100

[HitObjects]
201,102,352,6,0,P|263:73|340:108,2,138,0|0|0,1:0|1:0|1:0,0:0:0:0:
268,163,1579,2,0,B|274:212|274:212|225:291,2,138,0|0|0,1:0|1:0|1:0,0:0:0:0:
183,201,2807,2,0,B|122:180|114:224|35:195,2,138,0|0|0,1:0|1:0|1:0,0:0:0:0:
146,285,4034,2,0,P|203:290|269:232,2,138,0|0|2,1:0|1:0|0:0,0:0:0:0:
182,200,5262,6,0,B|186:170|186:170|175:136|175:136|175:74,1,92,0|2,1:0|0:0,0:0:0:0:
217,90,5722,2,0,P|276:81|329:106,1,92,0|2,1:0|0:0,0:0:0:0:
326,132,6183,1,0,1:0:0:0:
417,123,6490,1,0,1:0:0:0:
417,123,6643,2,0,L|403:23,2,92,2|0|0,0:0|1:0|0:0,0:0:0:0:
447,157,7410,1,0,1:0:0:0:
408,240,7717,6,0,L|454:240,2,46,0|0|0,1:0|1:0|0:0,0:0:0:0:
374,271,8178,1,0,0:0:0:0:
245,227,8638,6,0,L|199:227,2,46,0|0|0,1:0|1:0|0:0,0:0:0:0:
279,258,9099,1,0,0:0:0:0:
327,128,9559,1,10,3:0:0:0:
406,173,9866,1,8,3:0:0:0:
336,228,10161,6,0,P|290:222|244:228,1,92,4|8,0:0|0:0,0:0:0:0:
194,305,10773,2,0,P|159:265|160:195,1,92,0|2,1:0|3:0,0:0:0:0:
160,182,11232,1,8,0:0:0:0:
275,107,11691,2,0,L|393:107,1,92,0|0,1:0|1:0,0:0:0:0:
392,145,12150,2,0,L|444:145,1,46,0|8,1:0|0:0,0:0:0:0:
420,235,12609,6,0,B|387:234|387:234|353:243|353:243|294:247,1,92,0|8,1:0|0:0,0:0:0:0:
274,318,13222,2,0,P|239:270|245:217,1,92,0|2,1:0|3:0,0:0:0:0:
246,194,13681,1,8,0:0:0:0:
290,61,14140,2,0,P|233:54|178:70,1,92,8|0,0:0|1:0,0:0:0:0:
166,92,14599,2,0,P|141:94|106:88,1,46,0|8,1:0|0:0,0:0:0:0:
28,100,15058,6,0,L|35:222,1,92,0|8,1:0|0:0,0:0:0:0:
13,278,15671,2,0,P|69:271|123:284,1,92,0|2,1:0|3:0,0:0:0:0:
138,307,16130,1,8,0:0:0:0:
236,210,16589,2,0,L|240:301,2,92,8|0|8,0:0|1:0|0:0,0:0:0:0:
169,148,17507,6,0,P|218:121|284:135,1,92,4|8,1:0|0:0,0:0:0:0:
291,146,17967,1,4,1:0:0:0:
384,247,18426,2,0,P|335:274|269:260,1,92,8|0,0:0|1:0,0:0:0:0:
262,249,18886,1,8,0:0:0:0:
169,148,19344,2,0,P|218:121|284:135,1,92,8|8,0:0|3:0,0:0:0:0:
321,60,19956,6,0,B|339:119|339:119|373:159,1,92,4|8,0:0|0:0,0:0:0:0:
418,212,20569,2,0,P|365:202|304:221,1,92,0|0,1:0|0:0,0:0:0:0:
290,235,21028,1,4,0:0:0:0:
182,320,21487,2,0,P|129:328|80:315,1,92,8|0,0:0|1:0,0:0:0:0:
59,288,21946,2,0,L|59:242,1,46,0|8,1:0|0:0,0:0:0:0:
18,159,22405,6,0,P|63:148|108:162,1,92,0|8,1:0|0:0,0:0:0:0:
183,210,23018,2,0,P|194:146|172:102,1,92,0|2,1:0|3:0,0:0:0:0:
164,81,23477,1,8,0:0:0:0:
295,41,23936,2,0,L|412:40,1,92,8|0,0:0|1:0,0:0:0:0:
416,75,24395,2,0,L|461:75,1,46,0|8,1:0|0:0,0:0:0:0:
436,164,24854,6,0,L|329:164,1,92,0|8,1:0|0:0,0:0:0:0:
275,225,25467,2,0,L|361:273,1,92,0|8,1:0|0:0,0:0:0:0:
393,295,25926,1,4,0:0:0:0:
256,313,26385,2,0,P|208:285|191:213,2,92,8|0|8,0:0|1:0|0:0,0:0:0:0:
275,225,27303,6,0,B|291:202|266:169|283:120,1,92,4|8,1:0|0:0,0:0:0:0:
292,90,27763,1,0,1:0:0:0:
412,22,28222,2,0,B|396:45|421:78|404:127,1,92,8|0,0:0|1:0,0:0:0:0:
395,157,28682,1,8,0:0:0:0:
444,285,29140,2,0,L|377:286,1,46,0|0,1:0|0:0,0:0:0:0:
365,318,29446,2,0,L|306:319,1,46,0|8,1:0|0:0,0:0:0:0:
280,344,29752,6,0,B|292:288|292:288|282:228|282:228|296:142,1,184,6|2,0:0|0:0,0:0:0:0:
235,90,30671,1,2,0:0:0:0:
184,166,30977,2,0,P|148:113|165:33,2,138,2|0|8,0:0|0:0|3:0,0:0:0:0:
235,90,32201,2,0,B|281:114|326:79|326:79|366:60|424:82,1,184,2|2,0:0|0:0,0:0:0:0:
464,151,33120,1,2,0:0:0:0:
446,241,33426,2,0,P|393:235|328:252,1,92,2|2,0:0|0:0,0:0:0:0:
294,310,34038,2,0,P|248:316|203:310,1,92,2|8,0:0|3:0,0:0:0:0:
247,229,34650,6,0,B|257:189|257:189|236:160|236:160|266:109|235:50,1,184,2|2,0:0|0:0,0:0:0:0:
161,108,35569,1,2,0:0:0:0:
106,181,35875,2,0,P|75:134|111:36,2,138,2|0|8,0:0|0:0|3:0,0:0:0:0:
172,244,37099,2,0,B|248:239|287:189|287:189|297:274|386:279,1,276,2|8,0:0|0:0,0:0:0:0:
377,187,38324,2,0,P|359:132|310:101,1,92,0|0,1:0|0:0,0:0:0:0:
245,87,38936,2,0,P|194:78|131:100,1,92,0|8,1:0|3:0,0:0:0:0:
74,131,39548,5,4,0:0:0:0:
68,225,39854,2,0,L|205:224,1,138,8|0,0:0|1:0,0:0:0:0:
261,297,40620,2,0,P|294:237|279:171,1,138,8|8,0:0|0:0,0:0:0:0:
208,113,41385,2,0,P|262:81|325:95,1,92,0|8,1:0|0:0,0:0:0:0:
375,113,41997,1,0,1:0:0:0:
435,286,42609,2,0,L|457:217,2,46,0|0|2,1:0|1:0|3:0,0:0:0:0:
403,319,43069,2,0,B|334:353|323:291|250:341,1,138,8|8,0:0|0:0,0:0:0:0:
85,318,44140,2,0,L|86:261,1,46,8|0,0:0|0:0,0:0:0:0:
19,207,44599,6,0,P|55:185|136:202,1,92,4|8,1:0|0:0,0:0:0:0:
143,208,45058,2,0,P|182:230|227:230,1,92,0|8,1:0|0:0,0:0:0:0:
257,194,45518,2,0,P|296:171|341:171,1,92,4|0,1:0|0:0,0:0:0:0:
375,202,45977,2,0,L|381:100,2,92,4|0|0,1:0|1:0|1:0,0:0:0:0:
432,327,47048,6,0,L|325:326,1,92,4|8,1:0|0:0,0:0:0:0:
301,301,47507,1,4,1:0:0:0:
255,221,47814,2,0,L|362:220,1,92,8|4,0:0|1:0,0:0:0:0:
381,189,48273,2,0,P|444:181|472:139,1,92,4|0,1:0|1:0,0:0:0:0:
474,118,48732,2,0,B|430:106|430:106|394:74,1,92,8|0,3:0|0:0,0:0:0:0:
311,36,49344,1,4,0:0:0:0:
281,122,49650,6,0,B|282:184|282:184|304:248,2,92,0|0|8,0:0|1:0|0:0,0:0:0:0:
245,92,50416,2,0,P|197:84|141:101,1,92,0|0,1:0|1:0,0:0:0:0:
136,135,50875,2,0,P|91:144|46:136,2,92,8|0|8,0:0|1:0|0:0,0:0:0:0:
208,191,51793,1,4,1:0:0:0:
276,252,52099,6,0,P|297:205|279:132,2,92,8|0|8,0:0|1:0|0:0,0:0:0:0:
249,289,52865,2,0,P|202:297|160:288,1,92,0|0,1:0|1:0,0:0:0:0:
141,245,53324,2,0,P|96:235|51:243,2,92,8|0|8,0:0|1:0|0:0,0:0:0:0:
200,174,54242,1,4,1:0:0:0:
257,245,54548,6,0,L|370:244,1,92,8|0,0:0|1:0,0:0:0:0:
391,226,55007,1,0,1:0:0:0:
452,157,55314,2,0,P|395:133|341:155,1,92,0|0,1:0|1:0,0:0:0:0:
325,157,55773,2,0,P|276:157|234:132,2,92,8|0|8,0:0|1:0|0:0,0:0:0:0:
300,70,56691,6,0,P|237:46|197:58,1,92,0|8,1:0|0:0,0:0:0:0:
183,83,57150,1,0,0:0:0:0:
143,59,57303,2,0,P|97:57|57:79,1,92,0|8,1:0|0:0,0:0:0:0:
52,124,57763,1,4,1:0:0:0:
101,254,58222,2,0,P|150:275|224:256,2,92,8|0|0,0:0|0:0|0:0,0:0:0:0:
162,185,59140,5,4,1:0:0:0:
245,146,59446,1,8,0:0:0:0:
327,186,59752,2,0,P|391:188|425:175,1,92,0|8,1:0|0:0,0:0:0:0:
445,142,60212,2,0,L|459:252,1,92,0|0,1:0|1:0,0:0:0:0:
445,277,60671,2,0,L|386:279,1,46,8|0,0:0|1:0,0:0:0:0:
332,341,61130,2,0,P|282:351|221:330,1,92,0|0,1:0|1:0,0:0:0:0:
208,311,61589,5,8,0:0:0:0:
185,221,61895,1,12,0:0:0:0:
109,168,62201,2,0,P|149:136|206:132,1,92,0|8,1:0|0:0,0:0:0:0:
232,142,62661,2,0,P|280:127|312:92,2,92,0|0|0,1:0|1:0|1:0,0:0:0:0:
231,51,63579,1,0,1:0:0:0:
368,32,64038,6,0,B|406:50|406:50|454:119,1,92,4|8,1:0|0:0,0:0:0:0:
449,134,64497,2,0,P|395:145|357:180,1,92,4|0,1:0|1:0,0:0:0:0:
336,201,64956,2,0,P|390:212|428:247,1,92,12|0,0:0|1:0,0:0:0:0:
450,266,65416,2,0,P|396:277|358:312,1,92,12|0,0:0|1:0,0:0:0:0:
335,331,65875,1,8,0:0:0:0:
275,266,66181,1,8,0:0:0:0:
211,332,66487,6,0,P|190:298|193:226,1,92,4|8,1:0|0:0,0:0:0:0:
210,208,66946,2,0,P|231:173|228:101,1,92,0|0,1:0|1:0,0:0:0:0:
218,80,67405,2,0,P|163:95|115:76,1,92,8|0,0:0|1:0,0:0:0:0:
95,55,67865,2,0,P|105:127|86:165,2,92,8|8|0,0:0|0:0|1:0,0:0:0:0:
15,167,68936,1,2,0:0:0:0:
84,227,69242,6,0,B|78:259|78:259|65:286|65:286|53:337,2,92,4|0|8,1:0|1:0|0:0,0:0:0:0:
117,195,70007,2,0,L|243:195,1,92,0|0,1:0|1:0,0:0:0:0:
239,230,70467,2,0,P|231:171|251:124,2,92,8|0|8,0:0|1:0|0:0,0:0:0:0:
321,188,71385,1,4,1:0:0:0:
399,142,71691,6,0,P|410:187|401:232,2,92,8|0|8,0:0|1:0|0:0,0:0:0:0:
381,100,72456,2,0,P|326:106|276:98,1,92,0|0,1:0|1:0,0:0:0:0:
261,65,72916,2,0,P|261:123|226:172,2,92,8|0|8,0:0|1:0|0:0,0:0:0:0:
174,95,73834,1,4,1:0:0:0:
136,179,74140,6,0,L|259:180,1,92,8|0,0:0|1:0,0:0:0:0:
266,205,74599,1,0,1:0:0:0:
322,277,74905,2,0,P|352:232|321:130,1,138,0|8,1:0|0:0,0:0:0:0:
283,79,75671,2,0,P|238:86|194:74,1,92,0|8,1:0|0:0,0:0:0:0:
117,25,76283,2,0,P|101:74|122:128,1,92,0|8,1:0|0:0,0:0:0:0:
173,178,76895,2,0,P|182:222|166:264,1,92,0|8,1:0|0:0,0:0:0:0:
146,306,77354,1,4,1:0:0:0:
282,329,77814,2,0,L|407:352,2,92,8|2|8,0:0|3:0|0:0,0:0:0:0:
248,243,78732,5,4,1:0:0:0:
294,163,79038,1,8,0:0:0:0:
353,233,79344,2,0,P|417:231|451:244,1,92,0|8,1:0|0:0,0:0:0:0:
471,277,79804,2,0,L|485:167,1,92,0|0,1:0|0:0,0:0:0:0:
471,142,80263,2,0,L|412:140,1,46,8|2,0:0|3:0,0:0:0:0:
358,76,80722,2,0,P|308:66|247:87,1,92,0|0,1:0|1:0,0:0:0:0:
234,106,81181,5,8,0:0:0:0:
209,195,81487,1,12,0:0:0:0:
131,245,81793,2,0,P|164:279|229:280,1,92,0|8,1:0|0:0,0:0:0:0:
252,280,82252,2,0,L|257:383,2,92,0|4|0,1:0|1:0|1:0,0:0:0:0:
285,197,83171,1,0,1:0:0:0:
162,229,83638,6,0,B|174:188|174:188|236:131,1,92,4|8,0:0|0:0,0:0:0:0:
241,121,84097,2,0,P|259:172|299:205,1,92,4|0,1:0|1:0,0:0:0:0:
323,224,84556,2,0,P|326:168|355:126,1,92,12|0,0:0|1:0,0:0:0:0:
371,103,85016,2,0,P|389:154|429:187,1,92,12|0,0:0|1:0,0:0:0:0:
457,198,85474,1,12,0:0:0:0:
447,289,85780,1,0,1:0:0:0:
375,345,86086,6,0,P|323:355|275:337,1,92,4|8,1:0|0:0,0:0:0:0:
261,304,86546,2,0,P|216:292|172:303,1,92,4|8,1:0|0:0,0:0:0:0:
137,333,87005,1,4,0:0:0:0:
66,214,87464,2,0,P|81:148|163:163,1,138,4|4,1:0|1:0,0:0:0:0:
215,197,88229,1,0,1:0:0:0:
263,275,88535,6,0,P|302:227|303:181,1,92,12|0,0:0|0:0,0:0:0:0:
287,156,88995,2,0,P|248:108|247:62,1,92,12|0,0:0|0:0,0:0:0:0:
288,66,89454,2,0,P|333:71|376:56,1,92,12|0,0:0|0:0,0:0:0:0:
415,30,89913,2,0,L|429:146,1,92,12|0,0:0|0:0,0:0:0:0:
448,161,90372,1,12,0:0:0:0:
427,250,90678,1,8,0:0:0:0:
349,201,90984,5,4,0:0:0:0:
196,305,93440,6,0,P|257:332|334:297,2,138,0|0|0,1:0|1:0|1:0,0:0:0:0:
262,242,94667,2,0,B|268:193|268:193|219:114,2,138,0|0|0,1:0|1:0|3:0,0:0:0:0:
176,208,95895,2,0,B|129:208|129:208|85:221|85:221|30:220,2,138,0|0|0,1:0|1:0|3:0,0:0:0:0:
268,209,97122,2,0,B|315:209|315:209|359:222|359:222|414:221,2,138,0|0|2,1:0|1:0|0:0,0:0:0:0:
208,137,98350,6,0,P|207:78|227:31,1,92,0|2,1:0|0:0,0:0:0:0:
260,64,98810,2,0,P|336:78|366:64,1,92,0|2,1:0|0:0,0:0:0:0:
387,49,99271,1,0,0:0:0:0:
413,137,99578,1,0,0:0:0:0:
413,137,99731,2,0,P|442:113|480:52,2,92,0|0|2,0:0|1:0|0:0,0:0:0:0:
403,182,100498,1,0,1:0:0:0:
431,269,100805,6,0,L|377:268,1,46,4|0,1:0|1:0,0:0:0:0:
355,303,101112,2,0,L|295:303,1,46,8|4,0:0|1:0,0:0:0:0:
188,235,101726,2,0,L|242:236,1,46,8|0,0:0|1:0,0:0:0:0:
270,207,102033,2,0,L|330:207,1,46,0|12,1:0|0:0,0:0:0:0:
410,106,102647,1,4,1:0:0:0:
256,192,103260,12,0,108171,0:0:0:0:
