osu file format v14

[General]
AudioFilename: audio.mp3
AudioLeadIn: 0
PreviewTime: 48885
Countdown: 0
SampleSet: Soft
StackLeniency: 0.7
Mode: 0
LetterboxInBreaks: 0
WidescreenStoryboard: 0

[Editor]
DistanceSpacing: 1.8
BeatDivisor: 4
GridSize: 4
TimelineZoom: 1.5

[Metadata]
Title:little secret magic
TitleUnicode:little secret magic
Artist:fhana
ArtistUnicode:fhána
Creator:Sotarks
Version:Linada's Insane
Source:
Tags:what a wonderful world line lantis junichi sato yuxuki waga kevin mitsunaga towana kalibe linada hb24 akitoshi yuii-
BeatmapID:996108
BeatmapSetID:465300

[Difficulty]
HPDrainRate:6
CircleSize:3.5
OverallDifficulty:8
ApproachRate:9.3
SliderMultiplier:1.8
SliderTickRate:1

[Events]
//Background and Video events
0,0,"BG.jpg",0,0
//Break Periods
//Storyboard Layer 0 (Background)
//Storyboard Layer 1 (Fail)
//Storyboard Layer 2 (Pass)
//Storyboard Layer 3 (Foreground)
//Storyboard Sound Samples

[TimingPoints]
352,306.90537084399,4,2,1,42,1,0
352,-98.0392156862745,4,2,1,42,0,0
1579,-98.0392156862745,4,2,1,52,0,0
2807,-98.0392156862745,4,2,1,62,0,0
4034,-98.0392156862745,4,2,1,72,0,0
4648,-98.0392156862745,4,2,1,42,0,0
4802,-98.0392156862745,4,2,1,52,0,0
4955,-98.0392156862745,4,2,1,62,0,0
5109,-98.0392156862745,4,2,1,72,0,0
6183,-98.0392156862745,4,2,1,62,0,0
9559,-89.2857142857143,4,2,1,62,0,0
9789,-89.2857142857143,4,2,1,5,0,0
9866,-138.888888888889,4,2,1,42,0,0
10096,-138.888888888889,4,2,1,5,0,0
10161,306.122448979592,4,2,1,52,1,0
10161,-108.695652173913,4,2,1,52,0,0
29752,-138.888888888889,4,2,1,42,0,0
31283,-138.888888888889,4,2,1,52,0,0
31589,-138.888888888889,4,2,1,62,0,0
31895,-138.888888888889,4,2,1,42,0,0
34038,-138.888888888889,4,2,1,52,0,0
34344,-138.888888888889,4,2,1,42,0,0
39548,-108.695652173913,4,2,1,52,0,0
49344,-81.9672131147541,4,2,1,72,0,0
49650,-89.2857142857143,4,2,1,72,0,0
51793,-81.9672131147541,4,2,1,72,0,0
52099,-89.2857142857143,4,2,1,72,0,0
54242,-81.9672131147541,4,2,1,72,0,0
54548,-89.2857142857143,4,2,1,72,0,0
64038,-89.2857142857143,4,2,1,72,0,1
66181,-89.2857142857143,4,2,1,72,0,0
66487,-89.2857142857143,4,2,1,72,0,1
68936,-138.888888888889,4,2,1,72,0,0
69242,-81.9672131147541,4,2,1,72,0,0
69548,-89.2857142857143,4,2,1,72,0,0
71385,-81.9672131147541,4,2,1,72,0,0
71691,-89.2857142857143,4,2,1,72,0,0
83638,306.122448979592,4,2,1,72,1,1
83638,-89.2857142857143,4,2,1,72,0,1
85780,-89.2857142857143,4,2,1,72,0,0
86086,-89.2857142857143,4,2,1,72,0,1
88229,-89.2857142857143,4,2,1,72,0,0
88535,-89.2857142857143,4,2,1,72,0,1
90984,-89.2857142857143,4,2,1,72,0,0
93440,306.90537084399,4,2,1,52,1,0
102647,-138.888888888889,4,2,1,52,0,0

[Colours]
Combo1 : 46,132,218
Combo2 : 0,190,206
Combo3 : 120,130,214
Combo4 : 179,156,224
SliderTrackOverride : 25,80,100

[HitObjects]
133,252,352,6,0,P|129:162|186:93,1,183.600001120605,0|2,1:0|0:0,0:0:0:0:
336,188,812,2,0,P|293:204|248:203,1,91.8000005603027,0|0,1:0|0:0,0:0:0:0:
263,70,1119,1,2,0:0:0:0:
336,217,1272,2,0,P|290:218|247:202,1,91.8000005603027,0|0,1:0|0:0,0:0:0:0:
430,71,1579,6,0,L|419:254,1,183.600001120605,0|2,1:0|0:0,0:0:0:0:
255,293,2039,2,0,L|247:202,1,91.8000005603027,0|0,1:0|0:0,0:0:0:0:
236,73,2346,1,2,0:0:0:0:
233,309,2500,2,0,L|226:218,1,91.8000005603027,0|0,1:0|0:0,0:0:0:0:
58,97,2807,6,0,P|142:65|229:91,1,183.600001120605,0|2,1:0|0:0,0:0:0:0:
340,211,3267,2,0,B|333:177|333:177|340:120,1,91.8000005603027,0|0,1:0|0:0,0:0:0:0:
394,4,3574,1,2,0:0:0:0:
437,165,3727,2,0,B|444:199|444:199|437:256,1,91.8000005603027,0|0,1:0|0:0,0:0:0:0:
273,297,4034,6,0,P|260:216|342:213,1,183.600001120605,0|2,1:0|0:0,0:0:0:0:
194,341,4495,2,0,P|172:300|161:256,1,91.8000005603027,0|2,1:0|0:0,0:0:0:0:
174,135,4802,1,2,0:0:0:0:
85,276,4955,1,2,0:0:0:0:
256,220,5109,1,2,0:0:0:0:
233,46,5262,6,0,P|145:29|76:84,1,183.600001120605,0|2,1:0|0:0,0:0:0:0:
199,316,5722,2,0,L|174:135,1,183.600001120605,0|2,1:0|0:0,0:0:0:0:
312,73,6183,1,0,1:0:0:0:
306,105,6259,1,0,0:0:0:0:
302,137,6336,1,0,0:0:0:0:
298,170,6413,1,0,0:0:0:0:
293,203,6490,5,0,1:0:0:0:
418,288,6643,2,0,L|393:199,1,91.8000005603027,2|0,0:0|0:0,0:0:0:0:
353,76,6950,1,0,1:0:0:0:
498,230,7103,2,0,L|473:141,1,91.8000005603027,2|0,0:0|0:0,0:0:0:0:
334,52,7410,2,0,P|267:63|199:50,1,137.700000840454,0|0,1:0|0:0,0:0:0:0:
173,40,7717,5,0,1:0:0:0:
113,192,7871,1,0,1:0:0:0:
38,86,8024,1,8,0:0:0:0:
236,151,8178,1,2,3:0:0:0:
254,140,8484,5,0,1:0:0:0:
212,319,8638,2,0,L|231:229,1,91.8000005603027,8|0,0:0|1:0,0:0:0:0:
277,127,8945,5,0,1:0:0:0:
332,340,9098,2,0,L|312:250,1,91.8000005603027,8|0,0:0|0:0,0:0:0:0:
299,116,9405,5,0,3:0:0:0:
468,288,9559,2,0,L|363:180,1,151.200001845703,10|0,3:0|0:0,0:0:0:0:
322,103,9866,6,0,L|236:96,1,64.8000015820313,8|0,3:0|0:0,0:0:0:0:
134,89,10161,6,0,L|148:170,1,82.7999972204591,4|0,0:0|0:0,0:0:0:0:
180,308,10467,1,8,0:0:0:0:
180,308,10620,1,0,0:0:0:0:
63,219,10773,2,0,L|48:137,1,82.7999972204591,0|0,1:0|1:0,0:0:0:0:
26,23,11079,1,2,3:0:0:0:
225,93,11232,6,0,L|252:256,1,165.599994440918,8|0,0:0|1:0,0:0:0:0:
363,173,11691,1,0,1:0:0:0:
340,346,11844,1,0,0:0:0:0:
455,252,11997,1,0,1:0:0:0:
252,256,12150,1,0,1:0:0:0:
370,142,12303,1,8,0:0:0:0:
245,265,12456,1,0,0:0:0:0:
237,273,12533,1,0,0:0:0:0:
231,280,12609,6,0,P|190:287|149:279,1,82.7999972204591,0|0,1:0|0:0,0:0:0:0:
52,215,12916,1,8,0:0:0:0:
89,355,13069,1,0,0:0:0:0:
191,202,13222,2,0,L|196:119,1,82.7999972204591,0|0,1:0|1:0,0:0:0:0:
92,50,13528,1,2,3:0:0:0:
287,34,13681,1,8,0:0:0:0:
299,43,13987,5,0,1:0:0:0:
102,61,14140,1,8,0:0:0:0:
191,202,14293,1,0,0:0:0:0:
191,202,14370,1,0,1:0:0:0:
191,202,14446,1,0,1:0:0:0:
199,86,14599,1,0,1:0:0:0:
92,209,14752,2,0,P|104:248|132:278,1,82.7999972204591,8|0,0:0|0:0,0:0:0:0:
355,296,15058,5,0,1:0:0:0:
200,319,15212,1,0,1:0:0:0:
346,187,15365,1,8,0:0:0:0:
191,202,15518,1,0,0:0:0:0:
283,344,15671,2,0,L|275:261,1,82.7999972204591,0|0,1:0|1:0,0:0:0:0:
261,126,15977,1,2,3:0:0:0:
200,319,16130,1,8,0:0:0:0:
191,338,16436,5,0,0:0:0:0:
146,149,16589,2,0,P|90:125|31:142,1,124.199995830689,8|0,0:0|0:0,0:0:0:0:
5,171,16895,1,0,1:0:0:0:
138,13,17048,1,0,1:0:0:0:
147,186,17201,2,0,L|154:268,1,82.7999972204591,8|0,0:0|0:0,0:0:0:0:
243,150,17507,6,0,B|240:272|240:272|271:238,1,165.599994440918,4|8,1:0|0:0,0:0:0:0:
310,69,17967,2,0,P|232:47|161:87,1,165.599994440918,4|0,1:0|1:0,0:0:0:0:
386,195,18426,6,0,L|393:29,1,165.599994440918,8|0,0:0|1:0,0:0:0:0:
297,265,18885,2,0,P|364:309|444:296,1,165.599994440918,8|0,0:0|1:0,0:0:0:0:
302,160,19344,5,8,0:0:0:0:
260,161,19421,1,0,1:0:0:0:
225,181,19497,1,0,1:0:0:0:
201,215,19574,1,0,1:0:0:0:
193,264,19650,5,8,3:0:0:0:
160,303,19727,1,8,3:0:0:0:
111,316,19803,1,8,3:0:0:0:
64,298,19880,1,8,3:0:0:0:
39,250,19956,6,0,L|45:167,1,82.7999972204591,4|0,0:0|0:0,0:0:0:0:
56,51,20263,1,8,0:0:0:0:
201,215,20416,1,0,0:0:0:0:
279,46,20569,2,0,L|197:38,1,82.7999972204591,0|0,1:0|1:0,0:0:0:0:
81,26,20875,1,0,0:0:0:0:
280,139,21028,2,0,P|353:106|370:28,1,165.599994440918,4|0,0:0|1:0,0:0:0:0:
189,129,21487,6,0,P|191:169|213:204,1,82.7999972204591,8|0,0:0|0:0,0:0:0:0:
49,213,21793,2,0,P|71:178|73:137,1,82.7999972204591,0|0,1:0|1:0,0:0:0:0:
180,297,22099,2,0,L|97:299,1,82.7999972204591,8|0,0:0|0:0,0:0:0:0:
232,217,22405,6,0,P|271:288|247:365,1,165.599994440918,0|8,1:0|0:0,0:0:0:0:
97,298,22865,1,0,0:0:0:0:
147,176,23018,2,0,P|173:145|210:127,1,82.7999972204591,0|0,1:0|1:0,0:0:0:0:
324,111,23324,1,2,3:0:0:0:
148,39,23477,6,0,L|311:11,1,165.599994440918,8|0,0:0|1:0,0:0:0:0:
418,141,23936,2,0,L|337:130,1,82.7999972204591,8|0,0:0|0:0,0:0:0:0:
213,250,24242,2,0,L|294:238,1,82.7999972204591,0|0,1:0|1:0,0:0:0:0:
147,176,24548,1,8,0:0:0:0:
130,201,24625,1,0,0:0:0:0:
120,231,24701,1,0,0:0:0:0:
119,262,24778,1,0,0:0:0:0:
127,292,24854,6,0,L|45:306,1,82.7999972204591,0|0,1:0|0:0,0:0:0:0:
168,151,25161,1,8,0:0:0:0:
168,151,25314,2,0,L|331:125,1,165.599994440918,0|0,0:0|1:0,0:0:0:0:
262,32,25773,1,8,0:0:0:0:
294,270,25926,1,4,0:0:0:0:
286,290,26232,5,0,1:0:0:0:
150,153,26385,2,0,P|110:140|69:140,1,82.7999972204591,8|0,0:0|0:0,0:0:0:0:
125,271,26691,1,0,1:0:0:0:
238,113,26844,1,0,1:0:0:0:
275,310,26997,2,0,B|236:299|236:299|152:306,1,124.199995830689,8|0,0:0|0:0,0:0:0:0:
312,318,27303,6,0,P|299:239|340:168,1,165.599994440918,4|8,1:0|0:0,0:0:0:0:
169,84,27763,2,0,L|333:68,1,165.599994440918,0|0,1:0|1:0,0:0:0:0:
208,212,28222,6,0,L|43:196,1,165.599994440918,8|0,0:0|1:0,0:0:0:0:
59,66,28681,2,0,L|141:74,1,82.7999972204591,8|0,0:0|1:0,0:0:0:0:
291,220,28987,5,0,1:0:0:0:
291,220,29064,1,0,1:0:0:0:
291,220,29140,2,0,L|126:204,1,165.599994440918,0|0,1:0|1:0,0:0:0:0:
10,192,29599,1,8,0:0:0:0:
164,77,29752,5,6,0:0:0:0:
164,77,30058,1,2,0:0:0:0:
284,125,30365,1,2,0:0:0:0:
284,125,30671,1,2,0:0:0:0:
149,332,30977,6,0,L|126:204,1,129.600003164063,2|2,0:0|0:0,0:0:0:0:
284,125,31436,1,0,0:0:0:0:
284,125,31589,2,0,L|273:188,1,64.8000015820313,2|0,0:0|0:0,0:0:0:0:
256,275,31895,1,8,3:0:0:0:
392,296,32201,5,2,0:0:0:0:
403,166,32507,1,2,0:0:0:0:
262,58,32814,1,2,0:0:0:0:
273,188,33120,1,2,0:0:0:0:
126,309,33426,6,0,L|255:321,1,129.600003164063,2|2,0:0|0:0,0:0:0:0:
240,175,33885,1,0,0:0:0:0:
240,175,34038,2,0,L|175:178,1,64.8000015820313,2|0,0:0|0:0,0:0:0:0:
45,187,34344,1,8,3:0:0:0:
245,55,34650,5,2,0:0:0:0:
358,161,34956,1,2,0:0:0:0:
213,328,35263,1,2,0:0:0:0:
175,177,35569,1,2,0:0:0:0:
379,21,35875,6,0,P|368:84|384:146,1,129.600003164063,2|2,0:0|0:0,0:0:0:0:
256,234,36334,1,0,0:0:0:0:
247,119,36487,2,0,L|244:54,1,64.8000015820313,2|0,0:0|0:0,0:0:0:0:
265,265,36793,2,0,L|267:329,1,64.8000015820313,8|0,3:0|0:0,0:0:0:0:
216,150,37099,6,0,L|211:20,1,129.600003164063,2|2,0:0|0:0,0:0:0:0:
122,141,37558,1,0,0:0:0:0:
122,141,37712,2,0,L|125:209,1,64.8000015820313,0|0,1:0|1:0,0:0:0:0:
13,270,38018,2,0,L|16:140,1,129.600003164063,8|2,0:0|3:0,0:0:0:0:
58,41,38477,5,4,0:0:0:0:
211,20,38630,1,0,1:0:0:0:
246,23,38706,1,0,0:0:0:0:
279,42,38783,1,0,1:0:0:0:
300,77,38859,1,0,0:0:0:0:
306,122,38936,6,0,L|301:168,3,32.4000007910156,0|0|8|0,1:0|0:0|3:0|0:0,0:0:0:0:
374,44,39242,2,0,L|369:-2,3,32.4000007910156,8|0|8|0,3:0|0:0|3:0|0:0,0:0:0:0:
417,132,39548,6,0,L|408:214,1,82.7999972204591,4|0,0:0|0:0,0:0:0:0:
390,312,39854,1,8,0:0:0:0:
296,219,40007,2,0,P|217:197|143:229,1,165.599994440918,0|0,0:0|1:0,0:0:0:0:
91,315,40467,1,2,3:0:0:0:
58,191,40620,6,0,L|26:28,1,165.599994440918,8|0,0:0|1:0,0:0:0:0:
208,104,41079,2,0,L|126:106,1,82.7999972204591,8|0,0:0|0:0,0:0:0:0:
226,14,41385,2,0,L|308:15,1,82.7999972204591,0|0,1:0|1:0,0:0:0:0:
413,97,41691,2,0,L|288:100,1,124.199995830689,8|0,0:0|0:0,0:0:0:0:
208,104,41997,6,0,L|126:106,1,82.7999972204591,0|0,1:0|0:0,0:0:0:0:
10,114,42303,1,8,0:0:0:0:
94,230,42456,1,0,0:0:0:0:
94,230,42533,1,0,0:0:0:0:
94,230,42609,1,0,1:0:0:0:
197,136,42763,1,0,1:0:0:0:
227,297,42916,1,2,3:0:0:0:
383,127,43069,6,0,P|302:115|220:126,1,165.599994440918,8|0,0:0|1:0,0:0:0:0:
313,257,43528,1,8,0:0:0:0:
141,254,43681,1,0,0:0:0:0:
313,232,43834,2,0,L|395:228,1,82.7999972204591,0|0,1:0|1:0,0:0:0:0:
230,334,44140,1,8,0:0:0:0:
220,126,44293,1,0,0:0:0:0:
121,279,44446,1,0,1:0:0:0:
86,127,44599,6,0,L|168:120,1,82.7999972204591,4|0,1:0|0:0,0:0:0:0:
303,111,44905,1,8,0:0:0:0:
358,270,45058,6,0,L|275:263,1,82.7999972204591,0|0,1:0|0:0,0:0:0:0:
141,254,45365,1,8,0:0:0:0:
342,53,45518,6,0,L|348:135,1,82.7999972204591,4|0,1:0|0:0,0:0:0:0:
358,270,45824,1,0,0:0:0:0:
134,336,45977,6,0,L|140:253,1,82.7999972204591,4|0,1:0|0:0,0:0:0:0:
150,119,46283,1,0,1:0:0:0:
242,233,46436,1,0,0:0:0:0:
40,237,46589,1,0,1:0:0:0:
148,102,47048,6,0,L|222:140,1,82.7999972204591,4|0,1:0|0:0,0:0:0:0:
344,208,47354,1,8,0:0:0:0:
124,315,47507,6,0,L|130:232,1,82.7999972204591,4|0,1:0|1:0,0:0:0:0:
148,102,47814,1,8,0:0:0:0:
148,102,47967,1,0,0:0:0:0:
339,245,48120,6,0,L|256:280,1,82.7999972204591,4|4,1:0|1:0,0:0:0:0:
124,315,48426,1,0,1:0:0:0:
71,132,48579,5,0,1:0:0:0:
106,108,48655,1,0,1:0:0:0:
148,102,48732,1,0,1:0:0:0:
189,114,48808,1,8,3:0:0:0:
221,141,48885,1,8,3:0:0:0:
340,287,49038,5,2,3:0:0:0:
339,245,49115,1,0,3:0:0:0:
339,204,49191,1,0,3:0:0:0:
339,162,49268,1,0,3:0:0:0:
339,121,49344,6,0,B|304:79|304:79|244:171,1,164.699993214569,4|0,1:0|0:0,0:0:0:0:
189,249,49650,2,0,B|166:283|166:283|128:236,1,100.800001230469,0|0,0:0|0:0,0:0:0:0:
71,132,49956,6,0,P|82:83|113:43,1,100.800001230469,0|0,1:0|1:0,0:0:0:0:
232,19,50263,1,8,0:0:0:0:
261,144,50416,2,0,L|161:126,1,100.800001230469,0|0,1:0|0:0,0:0:0:0:
272,17,50722,1,0,1:0:0:0:
372,141,50875,2,0,L|358:240,1,100.800001230469,8|0,0:0|0:0,0:0:0:0:
273,327,51181,2,0,P|224:335|175:325,1,100.800001230469,0|0,1:0|1:0,0:0:0:0:
107,212,51487,2,0,P|156:203|205:213,1,100.800001230469,8|0,0:0|0:0,0:0:0:0:
31,282,51793,6,0,P|4:207|35:133,1,164.699993214569,4|0,1:0|0:0,0:0:0:0:
131,124,52099,2,0,P|155:80|155:30,1,100.800001230469,8|0,0:0|0:0,0:0:0:0:
340,83,52405,5,0,1:0:0:0:
224,184,52558,1,0,1:0:0:0:
247,25,52712,1,8,0:0:0:0:
320,177,52865,2,0,P|307:226|275:264,1,100.800001230469,0|0,1:0|0:0,0:0:0:0:
181,341,53171,1,0,1:0:0:0:
123,186,53324,2,0,P|173:179|224:184,1,100.800001230469,8|0,0:0|0:0,0:0:0:0:
181,341,53630,2,0,P|131:347|80:343,1,100.800001230469,0|0,1:0|1:0,0:0:0:0:
15,205,53936,2,0,L|0:105,1,100.800001230469,8|0,0:0|0:0,0:0:0:0:
141,22,54242,6,0,L|123:186,1,164.699993214569,4|0,1:0|0:0,0:0:0:0:
213,284,54548,2,0,L|224:184,1,100.800001230469,8|0,0:0|0:0,0:0:0:0:
241,35,54854,5,0,1:0:0:0:
384,145,55007,2,0,B|388:189|388:189|376:244,1,100.800001230469,0|8,1:0|0:0,0:0:0:0:
225,322,55314,1,0,1:0:0:0:
225,322,55467,2,0,B|269:325|269:325|324:314,1,100.800001230469,0|0,0:0|1:0,0:0:0:0:
224,184,55773,2,0,B|180:180|180:180|124:191,1,100.800001230469,8|0,0:0|0:0,0:0:0:0:
40,277,56079,1,0,1:0:0:0:
62,79,56232,1,0,1:0:0:0:
144,232,56385,1,8,0:0:0:0:
0,184,56538,1,0,0:0:0:0:
237,94,56691,6,0,P|316:119|253:174,1,201.600002460938,0|8,1:0|0:0,0:0:0:0:
139,133,57150,1,0,0:0:0:0:
219,1,57303,2,0,P|268:-5|318:3,1,100.800001230469,0|0,1:0|1:0,0:0:0:0:
411,80,57609,1,8,0:0:0:0:
269,312,57763,6,0,B|252:176|252:176|304:220,1,201.600002460938,4|0,1:0|1:0,0:0:0:0:
169,312,58222,2,0,L|159:212,1,100.800001230469,8|0,0:0|1:0,0:0:0:0:
355,116,58528,1,0,0:0:0:0:
259,87,58681,1,0,1:0:0:0:
328,266,58834,1,8,0:0:0:0:
328,266,58911,1,0,1:0:0:0:
328,266,58987,1,0,1:0:0:0:
328,266,59064,1,0,1:0:0:0:
328,266,59140,6,0,B|266:271|213:251|213:251|268:221,1,151.200001845703,4|0,1:0|0:0,0:0:0:0:
327,158,59446,2,0,B|357:141|357:141|304:121|242:126,1,151.200001845703,8|0,0:0|0:0,0:0:0:0:
133,154,59752,5,0,1:0:0:0:
237,36,59905,1,0,1:0:0:0:
243,234,60058,1,8,0:0:0:0:
79,53,60212,2,0,P|20:131|45:226,1,201.600002460938,0|0,1:0|1:0,0:0:0:0:
140,297,60671,1,8,0:0:0:0:
233,157,60824,2,0,L|133:154,1,100.800001230469,0|0,1:0|0:0,0:0:0:0:
183,314,61130,1,0,1:0:0:0:
310,200,61283,2,0,P|320:151|303:104,1,100.800001230469,8|0,0:0|1:0,0:0:0:0:
366,285,61589,6,0,L|387:239,1,50.4000006152344,8|0,0:0|0:0,0:0:0:0:
437,142,61742,2,0,L|458:188,1,50.4000006152344,0|0,1:0|0:0,0:0:0:0:
429,334,61895,2,0,B|397:373|397:373|348:354|297:364,1,151.200001845703,12|0,0:0|0:0,0:0:0:0:
194,362,62201,5,0,1:0:0:0:
227,215,62354,1,0,1:0:0:0:
46,262,62507,1,8,0:0:0:0:
197,338,62661,1,0,1:0:0:0:
157,123,62967,5,0,1:0:0:0:
71,254,63120,1,8,0:0:0:0:
58,133,63273,2,0,L|48:32,1,100.800001230469,0|0,1:0|0:0,0:0:0:0:
172,106,63579,6,0,L|167:55,1,50.4000006152344,0|0,1:0|0:0,0:0:0:0:
241,5,63732,1,8,0:0:0:0:
286,24,63808,1,0,1:0:0:0:
315,65,63885,1,0,1:0:0:0:
319,114,63962,1,0,1:0:0:0:
296,158,64038,5,4,1:0:0:0:
287,288,64191,1,0,0:0:0:0:
404,230,64344,1,8,0:0:0:0:
276,140,64497,2,0,P|227:128|177:132,2,100.800001230469,4|0|0,1:0|0:0|1:0,0:0:0:0:
212,232,64956,5,12,0:0:0:0:
92,284,65109,1,0,0:0:0:0:
92,152,65263,1,0,1:0:0:0:
228,251,65416,2,0,P|229:301|213:348,2,100.800001230469,12|0|0,0:0|0:0|1:0,0:0:0:0:
177,132,65875,5,8,0:0:0:0:
166,96,65951,1,0,0:0:0:0:
171,58,66028,1,0,1:0:0:0:
190,26,66104,1,0,1:0:0:0:
221,5,66181,5,8,0:0:0:0:
255,34,66257,1,0,0:0:0:0:
302,52,66334,1,0,1:0:0:0:
351,43,66411,1,0,1:0:0:0:
402,22,66487,6,0,L|399:122,1,100.800001230469,4|0,1:0|1:0,0:0:0:0:
368,284,66793,1,8,0:0:0:0:
111,157,66946,2,0,L|312:167,1,201.600002460938,0|0,1:0|1:0,0:0:0:0:
176,256,67405,5,8,0:0:0:0:
184,68,67558,1,0,1:0:0:0:
332,184,67712,1,0,1:0:0:0:
175,43,67865,2,0,P|125:40|77:51,2,100.800001230469,8|0|8,0:0|1:0|0:0,0:0:0:0:
288,156,68324,5,4,1:0:0:0:
329,159,68400,1,0,0:0:0:0:
368,145,68477,2,0,P|386:128|397:106,1,50.4000006152344,0|0,1:0|1:0,0:0:0:0:
288,64,68630,1,0,1:0:0:0:
241,80,68706,1,0,1:0:0:0:
209,119,68783,1,0,1:0:0:0:
201,168,68859,1,0,1:0:0:0:
220,213,68936,6,0,P|191:229|159:231,1,64.8000015820313,2|2,0:0|3:0,0:0:0:0:
299,260,69242,6,0,P|308:206|287:155,1,109.79999547638,4|0,1:0|0:0,0:0:0:0:
240,352,69548,1,0,1:0:0:0:
368,324,69701,1,0,1:0:0:0:
220,214,69854,1,8,0:0:0:0:
388,132,70007,6,0,P|316:65|221:83,1,201.600002460938,0|0,1:0|1:0,0:0:0:0:
108,176,70467,2,0,L|111:75,1,100.800001230469,8|0,0:0|0:0,0:0:0:0:
16,56,70773,1,0,1:0:0:0:
212,128,70926,1,0,1:0:0:0:
19,205,71079,2,0,L|120:216,1,100.800001230469,8|0,0:0|0:0,0:0:0:0:
287,223,71385,6,0,P|287:308|232:243,1,219.599990952759,4|8,1:0|0:0,0:0:0:0:
232,132,71844,1,0,0:0:0:0:
380,184,71997,2,0,P|401:229|408:279,1,100.800001230469,0|0,1:0|1:0,0:0:0:0:
360,380,72303,1,8,0:0:0:0:
256,127,72456,6,0,P|330:63|428:62,1,201.600002460938,0|0,1:0|1:0,0:0:0:0:
300,220,72916,2,0,P|250:227|202:214,1,100.800001230469,8|0,0:0|0:0,0:0:0:0:
84,92,73222,1,0,1:0:0:0:
256,127,73375,1,0,1:0:0:0:
88,224,73528,1,8,0:0:0:0:
172,68,73681,1,8,0:0:0:0:
200,236,73834,6,0,L|205:336,1,100.800001230469,4|0,1:0|0:0,0:0:0:0:
320,184,74140,2,0,B|332:120|332:120|312:40|312:40|359:65,1,201.600002460938,8|0,0:0|1:0,0:0:0:0:
196,160,74599,2,0,L|177:60,1,100.800001230469,0|8,1:0|0:0,0:0:0:0:
100,180,74905,6,0,P|162:253|258:237,1,201.600002460938,0|0,1:0|1:0,0:0:0:0:
418,193,75365,2,0,P|370:181|320:184,1,100.800001230469,8|0,0:0|0:0,0:0:0:0:
213,49,75671,2,0,P|263:51|311:39,1,100.800001230469,0|0,1:0|1:0,0:0:0:0:
419,212,75977,1,8,0:0:0:0:
408,17,76130,1,0,0:0:0:0:
283,215,76283,6,0,P|209:238|250:171,1,201.600002460938,0|8,1:0|0:0,0:0:0:0:
359,153,76742,1,0,0:0:0:0:
304,320,76895,6,0,P|207:331|130:269,1,201.600002460938,0|8,1:0|0:0,0:0:0:0:
344,140,77354,1,4,1:0:0:0:
359,153,77661,5,0,1:0:0:0:
185,86,77814,2,0,P|88:75|12:137,1,201.600002460938,8|2,0:0|3:0,0:0:0:0:
0,267,78273,1,0,1:0:0:0:
123,195,78426,1,8,0:0:0:0:
170,210,78502,1,0,1:0:0:0:
220,206,78579,1,0,1:0:0:0:
264,183,78655,1,0,1:0:0:0:
296,144,78732,6,0,L|305:44,1,100.800001230469,4|0,1:0|0:0,0:0:0:0:
452,281,79038,2,0,L|301:288,1,151.200001845703,8|0,0:0|0:0,0:0:0:0:
205,294,79344,5,0,1:0:0:0:
194,107,79497,1,0,1:0:0:0:
329,188,79650,1,8,0:0:0:0:
127,209,79803,2,0,L|26:211,1,100.800001230469,0|0,1:0|0:0,0:0:0:0:
51,125,80109,5,0,1:0:0:0:
113,303,80263,1,8,0:0:0:0:
194,107,80416,2,0,L|93:104,1,100.800001230469,2|0,3:0|0:0,0:0:0:0:
230,246,80722,1,0,1:0:0:0:
230,246,80798,1,0,0:0:0:0:
230,246,80875,1,8,0:0:0:0:
296,122,81028,1,0,1:0:0:0:
296,122,81104,1,0,0:0:0:0:
296,122,81181,6,0,B|357:115|407:140|407:140|374:157,1,151.200001845703,8|0,0:0|0:0,0:0:0:0:
209,164,81487,2,0,P|202:114|213:65,1,100.800001230469,12|0,0:0|0:0,0:0:0:0:
314,19,81793,1,0,1:0:0:0:
372,189,81946,1,0,1:0:0:0:
193,180,82099,1,8,0:0:0:0:
415,89,82252,6,0,L|401:189,1,100.800001230469,0|0,1:0|0:0,0:0:0:0:
383,319,82558,5,4,1:0:0:0:
434,112,82712,1,8,0:0:0:0:
277,236,82865,6,0,L|378:235,1,100.800001230469,0|0,1:0|0:0,0:0:0:0:
257,133,83171,2,0,L|206:133,1,50.4000006152344,0|0,1:0|0:0,0:0:0:0:
97,136,83324,1,8,0:0:0:0:
103,160,83400,1,0,1:0:0:0:
110,184,83477,1,0,1:0:0:0:
116,209,83553,1,0,1:0:0:0:
123,233,83638,6,0,L|222:248,1,100.800001230469,4|0,0:0|0:0,0:0:0:0:
359,275,83944,1,8,0:0:0:0:
442,91,84097,6,0,L|342:106,1,100.800001230469,4|0,1:0|0:0,0:0:0:0:
206,133,84403,1,0,1:0:0:0:
359,275,84556,6,0,L|458:290,1,100.800001230469,12|0,0:0|0:0,0:0:0:0:
496,188,84862,1,0,1:0:0:0:
342,105,85015,6,0,L|243:120,1,100.800001230469,12|0,0:0|0:0,0:0:0:0:
196,220,85321,1,0,1:0:0:0:
64,148,85474,6,0,L|56:48,1,100.800001230469,12|0,0:0|0:0,0:0:0:0:
164,32,85780,1,0,1:0:0:0:
164,32,85857,1,0,0:0:0:0:
164,32,85933,1,0,0:0:0:0:
196,220,86086,5,4,1:0:0:0:
64,148,86240,1,0,1:0:0:0:
63,299,86393,1,8,0:0:0:0:
306,193,86546,6,0,P|282:149|242:120,1,100.800001230469,4|0,1:0|0:0,0:0:0:0:
102,61,86852,1,8,0:0:0:0:
196,220,87005,5,4,0:0:0:0:
326,73,87158,1,8,0:0:0:0:
138,40,87311,1,0,1:0:0:0:
306,193,87464,6,0,L|303:294,1,100.800001230469,4|0,1:0|0:0,0:0:0:0:
357,84,87770,1,8,0:0:0:0:
216,120,87923,1,4,1:0:0:0:
191,125,88000,1,0,0:0:0:0:
166,131,88076,1,0,0:0:0:0:
142,137,88153,1,8,0:0:0:0:
117,143,88229,2,0,L|113:193,1,50.4000006152344,0|0,1:0|0:0,0:0:0:0:
27,226,88382,2,0,L|32:176,1,50.4000006152344,0|0,0:0|0:0,0:0:0:0:
48,48,88535,5,12,0:0:0:0:
126,213,88689,1,2,0:0:0:0:
212,56,88842,1,0,0:0:0:0:
308,240,88995,6,0,L|314:139,1,100.800001230469,12|2,0:0|0:0,0:0:0:0:
324,0,89301,1,0,0:0:0:0:
107,142,89454,6,0,L|207:149,1,100.800001230469,12|2,0:0|0:0,0:0:0:0:
392,164,89760,1,0,0:0:0:0:
192,60,89913,5,12,0:0:0:0:
409,161,90066,1,2,0:0:0:0:
205,241,90219,1,0,0:0:0:0:
423,158,90372,5,12,0:0:0:0:
207,149,90525,1,0,0:0:0:0:
398,61,90678,5,8,0:0:0:0:
308,240,90831,1,0,0:0:0:0:
172,41,90984,5,4,0:0:0:0:
171,41,93440,6,0,P|153:81|150:126,1,90,0|0,1:0|0:0,0:0:0:0:
167,232,93746,1,2,0:0:0:0:
275,318,93900,6,0,P|293:277|296:232,1,90,0|0,1:0|0:0,0:0:0:0:
279,127,94206,1,2,0:0:0:0:
81,210,94360,6,0,P|121:228|166:231,1,90,0|0,1:0|0:0,0:0:0:0:
298,107,94667,6,0,L|304:17,1,90,0|0,1:0|0:0,0:0:0:0:
385,170,94974,1,2,0:0:0:0:
166,231,95127,6,0,L|159:141,1,90,0|0,1:0|0:0,0:0:0:0:
72,305,95434,1,2,0:0:0:0:
290,322,95588,6,0,L|296:232,1,90,0|0,1:0|3:0,0:0:0:0:
203,56,95895,6,0,P|158:48|114:56,1,90,0|0,1:0|0:0,0:0:0:0:
26,120,96202,1,2,0:0:0:0:
267,233,96355,6,0,P|274:188|266:144,1,90,0|0,1:0|0:0,0:0:0:0:
203,56,96662,1,2,0:0:0:0:
58,281,96815,6,0,P|102:288|146:280,1,90,0|0,1:0|3:0,0:0:0:0:
354,163,97122,6,0,B|266:144,1,90,0|0,1:0|0:0,0:0:0:0:
339,64,97429,1,2,0:0:0:0:
370,263,97583,6,0,B|282:244,1,90,0|2,1:0|0:0,0:0:0:0:
354,163,97890,1,2,0:0:0:0:
383,363,98043,5,2,0:0:0:0:
178,297,98197,1,2,0:0:0:0:
253,128,98350,6,0,L|341:143,1,90,0|0,1:0|0:0,0:0:0:0:
447,165,98657,1,2,0:0:0:0:
242,18,98810,6,0,L|153:33,1,90,0|0,1:0|0:0,0:0:0:0:
48,55,99117,1,2,0:0:0:0:
136,275,99271,5,0,1:0:0:0:
139,241,99347,1,0,0:0:0:0:
142,208,99424,1,0,0:0:0:0:
145,174,99501,1,0,0:0:0:0:
149,141,99577,5,0,1:0:0:0:
246,280,99731,1,0,0:0:0:0:
246,280,99885,1,2,0:0:0:0:
365,156,100038,5,0,1:0:0:0:
151,122,100191,1,0,0:0:0:0:
151,122,100345,1,2,0:0:0:0:
290,285,100498,5,0,1:0:0:0:
266,32,100805,6,0,L|252:120,1,90,4|0,1:0|1:0,0:0:0:0:
236,224,101112,1,8,0:0:0:0:
24,124,101266,6,0,B|164:116|164:116|138:146,1,180,4|0,1:0|1:0,0:0:0:0:
76,228,101726,5,8,0:0:0:0:
172,324,101879,1,0,1:0:0:0:
12,333,102033,1,0,1:0:0:0:
175,116,102186,6,0,P|242:172|245:259,1,180,12|0,0:0|3:0,0:0:0:0:
76,171,102647,6,0,P|47:267|134:224,1,226.800005537109,4|0,1:0|0:0,0:0:0:0:
138,225,103260,5,6,0:0:0:0:
256,192,103337,12,0,108171,0:0:0:0:
