osu file format v14

[General]
AudioFilename: audio.mp3
AudioLeadIn: 0
PreviewTime: 44446
Countdown: 0
SampleSet: Soft
StackLeniency: 0.4
Mode: 0
LetterboxInBreaks: 0
WidescreenStoryboard: 0

[Editor]
DistanceSpacing: 1.9
BeatDivisor: 4
GridSize: 32
TimelineZoom: 1.7

[Metadata]
Title:little secret magic
TitleUnicode:little secret magic
Artist:fhana
ArtistUnicode:fhána
Creator:IceKalt
Version:Journey
Source:
Tags:sakurauchi riko phyloukz kawashiro -unlock c00l cool endaris hybrit set
BeatmapID:1343172
BeatmapSetID:632789

[Difficulty]
HPDrainRate:6
CircleSize:4.1
OverallDifficulty:8.5
ApproachRate:9.3
SliderMultiplier:1.7
SliderTickRate:1

[Events]
//Background and Video events
0,0,"aquarium_in_front_of_window.jpg",0,0
//Break Periods
//Storyboard Layer 0 (Background)
//Storyboard Layer 1 (Fail)
//Storyboard Layer 2 (Pass)
//Storyboard Layer 3 (Foreground)
//Storyboard Sound Samples

[TimingPoints]
352,306.122448979592,4,2,1,65,1,0
7622,-100,4,2,1,70,0,0
10161,306.122448979592,4,2,1,65,1,0
17507,-76.9230769230769,4,2,1,65,0,0
19344,-100,4,2,1,65,0,0
29752,-125,4,2,1,55,0,0
30058,-125,4,2,1,45,0,0
32201,-125,4,2,1,55,0,0
32507,-125,4,2,1,45,0,0
34650,-125,4,2,1,55,0,0
34956,-125,4,2,1,45,0,0
37099,-125,4,2,1,55,0,0
37405,-125,4,2,1,45,0,0
37712,-100,4,2,1,65,0,0
39548,-100,4,2,1,60,0,0
44446,-83.3333333333333,4,2,1,75,0,1
48732,-83.3333333333333,4,2,1,75,0,0
49038,-76.9230769230769,4,2,1,70,0,0
61130,-133.333333333333,4,2,1,70,0,0
61589,-76.9230769230769,4,2,1,70,0,0
64038,-76.9230769230769,4,2,1,70,0,1
66487,-76.9230769230769,4,2,1,75,0,1
68936,-76.9230769230769,4,2,1,70,0,0
80722,-133.333333333333,4,2,1,70,0,0
81181,-76.9230769230769,4,2,1,70,0,0
83638,306.122448979592,4,2,1,50,1,0
83638,-76.9230769230769,4,2,1,70,0,1
86086,-76.9230769230769,4,2,1,75,0,1
88535,-76.9230769230769,4,2,1,80,0,1
90984,-142.857142857143,4,2,1,65,0,0
91291,-142.857142857143,4,2,1,40,0,0
91597,-142.857142857143,4,2,1,20,0,0
93433,-100,4,2,1,65,0,0
93440,306.122448979592,4,2,1,65,1,0
100786,-100,4,2,1,70,0,0
102929,-100,4,2,1,50,0,0
103159,-100,4,2,1,20,0,0
103235,-100,4,2,1,70,0,0
103848,-100,4,2,1,60,0,0
105072,-100,4,2,1,50,0,0
106297,-100,4,2,1,40,0,0
107521,-100,4,2,1,30,0,0
107980,-100,4,2,1,20,0,0
108127,-100,4,2,1,50,0,0

[Colours]
Combo1 : 0,255,64
Combo2 : 0,215,215
Combo3 : 0,113,225
Combo4 : 0,132,66
Combo5 : 253,157,87

[HitObjects]
406,170,352,6,0,P|378:126|344:108,1,85,4|0,0:0|0:0,0:0:0:0:
155,96,658,1,0,0:0:0:0:
381,261,811,2,0,P|383:208|365:174,1,85,4|0,0:0|0:0,0:0:0:0:
181,124,1117,1,0,0:0:0:0:
318,320,1270,2,0,P|350:278|355:240,1,85,4|0,0:0|0:0,0:0:0:0:
47,200,1576,6,0,L|136:212,1,85,4|0,0:0|0:0,0:0:0:0:
321,161,1882,1,0,0:0:0:0:
130,117,2035,2,0,L|219:129,1,85,4|0,0:0|0:0,0:0:0:0:
406,90,2341,1,0,0:0:0:0:
217,37,2494,6,0,L|306:49,1,85,4|0,0:0|0:0,0:0:0:0:
63,165,2800,2,0,P|98:127|135:115,1,85,4|0,0:0|0:0,0:0:0:0:
323,140,3107,1,0,0:0:0:0:
70,259,3260,2,0,P|77:207|101:177,1,85,4|0,0:0|0:0,0:0:0:0:
292,162,3566,1,0,0:0:0:0:
119,328,3719,2,0,P|95:281|97:242,1,85,4|0,0:0|0:0,0:0:0:0:
459,233,4025,6,0,L|370:245,1,85,4|0,0:0|0:0,0:0:0:0:
185,194,4331,1,0,0:0:0:0:
376,150,4484,2,0,L|287:162,1,85,4|0,0:0|0:0,0:0:0:0:
101,110,4790,1,0,0:0:0:0:
313,58,4943,1,4,0:0:0:0:
215,112,5096,1,0,0:0:0:0:
449,210,5249,6,0,P|380:253|289:227,1,170,4|0,0:0|0:0,0:0:0:0:
64,211,5709,2,0,P|133:254|224:228,1,170,4|0,0:0|0:0,0:0:0:0:
242,384,6168,2,0,L|258:301,1,85,0|0,0:3|0:3,0:3:0:0:
355,129,6474,2,0,P|369:96|357:38,2,85,4|0|0,0:0|0:0|0:0,0:0:0:0:
258,300,6933,1,0,0:0:0:0:
157,143,7086,2,0,B|235:174,1,85,4|0,0:0|0:0,0:0:0:0:
79,216,7392,2,0,L|0:247,1,85
214,28,7698,6,0,P|230:69|260:104,1,85,4|0,0:0|0:0,0:0:0:0:
83,44,8005,1,0,0:0:0:0:
322,70,8158,2,0,P|329:109|230:172,1,170,4|0,0:0|0:0,0:0:0:0:
418,70,8617,2,0,P|411:109|510:172,1,170,4|0,0:0|0:0,0:0:0:0:
370,293,9076,2,0,L|370:206,1,85
418,70,9382,1,0,0:0:0:0:
448,278,9535,2,0,P|436:339|291:299,1,255,4|0,0:0|0:0,0:0:0:0:
214,66,10161,5,4,0:0:0:0:
45,139,10314,2,0,L|131:101,1,85,0|0,0:0|0:0,0:0:0:0:
256,191,10620,1,0,0:0:0:0:
45,245,10773,2,0,L|131:283,1,85,0|0,0:0|0:0,0:0:0:0:
214,318,11079,5,0,0:0:0:0:
321,133,11232,2,0,P|345:191|312:257,1,127.5,4|0,0:0|0:0,0:0:0:0:
256,191,11538,5,0,0:0:0:0:
366,190,11691,1,0,0:0:0:0:
438,273,11844,1,0,0:0:0:0:
256,191,11997,2,0,P|257:142|279:105,1,85,0|0,0:0|0:0,0:0:0:0:
512,247,12303,2,0,P|513:303|452:350,1,127.5,0|0,0:0|0:0,0:0:0:0:
345,318,12609,6,0,B|330:288|356:264|356:264|378:327|344:394,1,170,4|0,0:0|0:0,0:0:0:0:
251,234,13069,2,0,B|249:277|226:293|226:293|169:277|115:320,1,170,4|0,0:0|0:0,0:0:0:0:
188,192,13528,1,0,0:0:0:0:
390,319,13681,2,0,B|391:329|370:354|370:354|335:303|334:232,1,170,4|0,0:0|0:0,0:0:0:0:
353,62,14140,1,0,0:0:0:0:
411,157,14293,2,0,P|424:201|413:250,2,85,0|0|0,0:0|0:0|0:0,0:0:0:0:
292,109,14752,1,0,0:0:0:0:
164,101,14905,1,0,0:0:0:0:
400,309,15058,6,0,P|439:244|419:126,1,170,4|0,0:0|0:0,0:0:0:0:
315,321,15518,2,0,B|261:369|261:369|220:347|220:347|158:345,1,170,4|0,0:0|0:0,0:0:0:0:
273,189,15977,1,4,0:0:0:0:
168,71,16130,6,0,B|158:124|199:153|199:153|178:195|210:247,1,170
355,307,16589,2,0,P|363:347|344:384,1,85,2|0,0:0|0:0,0:0:0:0:
273,189,16895,2,0,P|264:229|283:266,1,85,2|0,0:0|0:0,0:0:0:0:
397,34,17201,2,0,P|405:74|386:111,1,85,2|0,0:0|0:0,0:0:0:0:
156,73,17507,6,0,L|325:37,1,165.749992412568,14|0,0:0|0:0,0:0:0:0:
77,94,17814,1,2,0:0:0:0:
401,163,17967,2,0,L|232:127,1,165.749992412568,14|0,0:0|0:0,0:0:0:0:
480,184,18274,1,2,0:0:0:0:
154,255,18426,2,0,L|323:219,1,165.749992412568,14|0,0:0|0:0,0:0:0:0:
75,276,18733,1,2,0:0:0:0:
377,376,18885,2,0,P|429:359|341:331,1,220.999989883423,14|0,0:0|0:0,0:0:0:0:
190,346,19344,5,2,0:0:0:0:
157,306,19421,1,0,0:0:0:0:
154,255,19497,1,2,0:0:0:0:
180,210,19574,1,0,0:0:0:0:
228,194,19650,5,2,0:0:0:0:
347,305,19803,1,2,0:0:0:0:
469,199,19956,5,6,0:0:0:0:
422,95,20109,2,0,L|339:143,1,85,0|0,0:0|0:0,0:0:0:0:
502,50,20416,1,0,0:0:0:0:
273,182,20569,2,0,L|356:230,1,85,0|0,0:0|0:0,0:0:0:0:
193,137,20876,1,0,0:0:0:0:
447,283,21028,1,4,0:0:0:0:
155,369,21334,5,0,0:0:0:0:
54,322,21487,1,0,0:0:0:0:
33,213,21640,1,0,0:0:0:0:
85,115,21793,2,0,P|107:152|114:200,1,85,0|0,0:0|0:0,0:0:0:0:
260,302,22099,2,0,P|202:239|206:186,1,127.5,0|0,0:0|0:0,0:0:0:0:
312,205,22405,6,0,B|333:251|390:256|390:256|372:289|383:314|383:314|395:308|399:297,1,170,4|0,0:0|0:0,0:0:0:0:
446,127,22865,2,0,P|401:92|398:174,1,170,4|0,0:0|0:0,0:0:0:0:
512,14,23324,1,0,0:0:0:0:
258,144,23477,2,0,P|240:205|134:202,1,170,4|0,0:0|0:0,0:0:0:0:
300,75,23936,2,0,P|295:122|308:161,1,85,0|0,0:0|0:0,0:0:0:0:
384,257,24242,1,0,0:0:0:0:
502,303,24395,1,0,0:0:0:0:
306,239,24548,2,0,P|262:251|225:281,1,85,0|0,0:0|0:0,0:0:0:0:
196,94,24854,6,0,L|197:0,1,85,4|0,0:0|0:0,0:0:0:0:
45,73,25161,1,0,0:0:0:0:
185,171,25314,2,0,P|235:162|269:57,1,170,4|0,0:0|0:0,0:0:0:0:
121,121,25773,2,0,P|103:169|177:251,1,170,4|0,0:0|0:0,0:0:0:0:
325,221,26232,1,0,0:0:0:0:
196,94,26385,2,0,P|143:101|113:135,1,85,0|0,0:0|0:0,0:0:0:0:
365,83,26691,1,0,0:0:0:0:
185,171,26844,1,0,0:0:0:0:
174,251,26997,2,0,P|229:240|262:194,1,85
465,78,27303,6,0,P|399:83|363:195,1,170,4|0,0:0|0:0,0:0:0:0:
380,329,27763,2,0,B|367:251|367:251|307:254|282:208,1,170,4|0,0:0|0:0,0:0:0:0:
438,156,28222,2,0,L|464:328,1,170,4|0,0:0|0:0,0:0:0:0:
354,167,28681,1,0,0:0:0:0:
65,355,28987,5,0,0:0:0:0:
44,367,29064,1,0,0:0:0:0:
20,372,29140,2,0,P|64:379|107:339,1,85,4|0,0:0|0:0,0:0:0:0:
177,249,29446,1,0,0:0:0:0:
159,79,29599,1,0,0:0:0:0:
299,356,29752,6,0,L|326:279,1,68,4|0,0:0|0:0,0:0:0:0:
393,98,30058,2,0,L|370:162,1,68,0|0,0:0|0:0,0:0:0:0:
275,367,30365,6,0,L|314:256,1,102
395,248,30671,1,0,0:0:0:0:
286,137,30824,1,0,0:0:0:0:
92,254,30977,6,0,P|149:280|207:259,1,102,4|0,0:0|0:0,0:0:0:0:
152,200,31283,1,0,0:0:0:0:
127,365,31436,1,0,0:0:0:0:
213,145,31589,6,0,P|156:119|98:140,1,102
177,35,31895,1,0,0:0:0:0:
152,200,32048,1,0,0:0:0:0:
299,28,32201,6,0,L|326:105,1,68,4|0,0:0|0:0,0:0:0:0:
393,286,32507,2,0,L|370:221,1,68,0|0,0:0|0:0,0:0:0:0:
275,17,32814,6,0,L|314:128,1,102
395,136,33120,1,0,0:0:0:0:
286,247,33273,1,0,0:0:0:0:
96,176,33426,6,0,P|152:219|193:194,1,102,4|0,0:0|0:0,0:0:0:0:
110,255,33732,1,0,0:0:0:0:
171,118,33885,1,0,0:0:0:0:
405,185,34038,6,0,P|380:225|330:192,1,102
395,264,34344,1,0,0:0:0:0:
341,118,34497,1,0,0:0:0:0:
77,302,34650,6,0,L|141:279,1,68,4|0,0:0|0:0,0:0:0:0:
335,208,34956,2,0,L|270:231,1,68,0|0,0:0|0:0,0:0:0:0:
66,326,35263,6,0,L|162:292,1,102
185,206,35569,1,0,0:0:0:0:
296,315,35722,1,0,0:0:0:0:
201,110,35875,6,0,P|179:155|187:210,1,102,4|0,0:0|0:0,0:0:0:0:
256,168,36181,1,0,0:0:0:0:
145,53,36334,1,0,0:0:0:0:
311,110,36487,6,0,P|333:155|325:210,1,102
256,168,36793,1,0,0:0:0:0:
364,49,36946,1,0,0:0:0:0:
29,132,37099,6,0,L|93:109,1,68,4|0,0:0|0:0,0:0:0:0:
287,38,37405,2,0,L|222:61,1,68,0|0,0:0|0:0,0:0:0:0:
364,48,37712,5,0,0:0:0:0:
297,176,37865,1,0,0:0:0:0:
170,245,38018,2,0,P|186:201|234:174,1,85,4|0,0:0|0:0,0:0:0:0:
290,302,38324,5,0,0:0:0:0:
150,340,38477,1,0,0:0:0:0:
19,277,38630,1,0,0:0:0:0:
170,245,38783,1,0,0:0:0:0:
170,245,38859,1,0,0:0:0:0:
170,245,38936,1,4,0:0:0:0:
130,147,39089,1,0,0:0:0:0:
221,7,39242,1,4,0:0:0:0:
217,87,39395,1,0,0:0:0:0:
75,56,39548,6,0,P|156:35|220:95,1,170,4|0,0:0|0:0,0:0:0:0:
289,239,40007,2,0,L|295:148,1,85,0|0,0:0|0:0,0:0:0:0:
243,326,40314,1,0,0:0:0:0:
380,280,40467,1,0,0:0:0:0:
440,148,40620,6,0,B|432:119|447:94|447:94|388:113|348:91|348:91|375:79,1,170,4|0,0:0|0:0,0:0:0:0:
289,239,41079,2,0,L|283:148,1,85,0|0,0:0|0:0,0:0:0:0:
320,327,41385,1,0,0:0:0:0:
201,244,41538,1,0,0:0:0:0:
202,99,41691,2,0,P|235:71|295:65,1,85,0|0,0:0|0:0,0:0:0:0:
292,277,41997,6,0,P|262:326|142:317,1,170,4|0,0:0|0:0,0:0:0:0:
93,34,42609,1,0,0:0:0:0:
105,161,42763,1,0,0:0:0:0:
201,244,42916,1,0,0:0:0:0:
327,260,43069,6,0,P|315:211|197:171,1,170,4|0,0:0|0:0,0:0:0:0:
325,342,43528,2,0,P|372:330|401:279,1,85,4|0,0:0|0:0,0:0:0:0:
251,284,43834,1,0,0:0:0:0:
127,359,43987,1,0,0:0:0:0:
394,303,44140,1,0,0:0:0:0:
392,69,44293,1,0,0:0:0:0:
325,25,44446,5,8,0:0:0:0:
361,232,44599,2,0,L|337:99,1,101.999996887207,4|0,0:0|0:0,0:0:0:0:
70,93,44905,5,8,0:0:0:0:
106,300,45058,2,0,L|82:167,1,101.999996887207,4|0,0:0|0:0,0:0:0:0:
283,299,45365,5,8,0:0:0:0:
247,92,45518,2,0,L|271:225,1,101.999996887207,4|0,0:0|0:0,0:0:0:0:
149,63,45824,5,8,0:0:0:0:
481,109,45977,2,0,L|403:183,1,101.999996887207,2|0,0:0|0:0,0:0:0:0:
275,372,46283,2,0,L|249:267,1,101.999996887207,2|0,0:0|0:0,0:0:0:0:
149,63,46589,2,0,L|252:93,1,101.999996887207,2|0,0:0|0:0,0:0:0:0:
481,235,46895,5,0,0:0:0:0:
251,273,47048,2,0,L|384:249,1,101.999996887207,4|0,0:0|0:0,0:0:0:0:
34,154,47354,5,8,0:0:0:0:
267,195,47507,2,0,L|134:171,1,101.999996887207,4|0,0:0|0:0,0:0:0:0:
352,369,47814,1,4,0:0:0:0:
267,195,47967,1,0,0:0:0:0:
187,18,48120,1,4,0:0:0:0:
360,131,48273,1,0,0:0:0:0:
227,135,48426,1,2,0:0:0:0:
115,63,48579,1,0,0:0:0:0:
115,63,48655,1,0,0:0:0:0:
115,63,48732,1,4,0:0:0:0:
7,32,49038,5,0,0:0:0:0:
3,57,49115,1,0,0:0:0:0:
0,82,49191,1,0,0:0:0:0:
1,107,49268,1,0,0:0:0:0:
4,132,49344,6,0,P|55:130|117:156,1,110.499994941712,12|0,0:0|0:0,0:0:0:0:
218,245,49650,1,2,0:0:0:0:
361,245,49803,1,0,0:0:0:0:
485,167,49956,1,8,0:0:0:0:
378,269,50109,1,0,0:0:0:0:
306,69,50263,1,8,0:0:0:0:
186,306,50416,6,0,B|234:320|271:285|271:285|297:131,1,220.999989883423,12|0,0:0|0:0,0:0:0:0:
398,0,50875,2,0,L|379:111,1,110.499994941712,2|0,0:0|0:0,0:0:0:0:
283,216,51181,1,2,0:0:0:0:
141,242,51334,1,0,0:0:0:0:
2,199,51487,2,0,P|58:170|124:183,1,110.499994941712,8|0,0:0|0:0,0:0:0:0:
352,276,51793,2,0,P|304:303|250:301,1,110.499994941712,12|0,0:0|0:0,0:0:0:0:
162,42,52099,5,2,0:0:0:0:
103,173,52252,1,0,0:0:0:0:
131,314,52405,1,8,0:0:0:0:
71,183,52558,1,0,0:0:0:0:
250,301,52712,1,8,0:0:0:0:
413,373,52865,6,0,B|309:324|295:416|198:373,1,220.999989883423,12|0,0:0|0:0,0:0:0:0:
200,216,53324,2,0,P|254:208|307:224,1,110.499994941712,2|0,0:0|0:0,0:0:0:0:
413,282,53630,1,2,0:0:0:0:
491,374,53783,1,0,0:0:0:0:
470,128,53936,2,0,L|472:255,1,110.499994941712,8|0,0:0|0:0,0:0:0:0:
415,53,54242,2,0,P|375:81|302:82,1,110.499994941712,12|0,0:0|0:0,0:0:0:0:
131,14,54548,6,0,P|143:78|125:141,1,110.499994941712,2|0,0:0|0:0,0:0:0:0:
94,259,54854,1,8,0:0:0:0:
192,363,55007,1,0,0:0:0:0:
336,354,55161,1,8,0:0:0:0:
174,305,55314,6,0,B|192:364|192:364|262:194,1,220.999989883423,12|0,0:0|0:0,0:0:0:0:
226,32,55773,2,0,P|206:87|231:146,1,110.499994941712,2|0,0:0|0:0,0:0:0:0:
323,266,56079,2,0,P|338:213|318:163,1,110.499994941712,2|0,0:0|0:0,0:0:0:0:
178,128,56385,1,8,0:0:0:0:
69,221,56538,1,0,0:0:0:0:
286,93,56691,5,12,0:0:0:0:
134,121,56844,1,0,0:0:0:0:
37,242,56997,2,0,P|98:256|147:223,1,110.499994941712,2|0,0:0|0:0,0:0:0:0:
196,27,57303,1,12,0:0:0:0:
235,187,57456,1,0,0:0:0:0:
342,313,57609,1,12,0:0:0:0:
90,297,57763,6,0,B|118:317|156:310|156:310|146:342|146:342|210:321|270:368,1,220.999989883423,12|0,0:0|0:0,0:0:0:0:
405,176,58222,2,0,L|434:291,1,110.499994941712,2|0,0:0|0:0,0:0:0:0:
262,79,58528,2,0,L|233:194,1,110.499994941712,2|0,0:0|0:0,0:0:0:0:
381,77,58834,1,8,0:0:0:0:
381,77,58911,1,0,0:0:0:0:
381,77,58987,1,0,0:0:0:0:
341,251,59140,6,0,L|360:352,1,101.999996887207,12|0,0:0|0:0,0:0:0:0:
324,145,59446,1,2,0:0:0:0:
43,344,59752,5,8,0:0:0:0:
117,247,59905,1,0,0:0:0:0:
133,126,60058,1,8,0:0:0:0:
85,13,60212,2,0,P|51:58|48:121,1,110.499994941712,12|0,0:0|0:0,0:0:0:0:
320,65,60518,1,0,0:0:0:0:
212,7,60671,1,8,0:0:0:0:
92,27,60824,2,0,P|120:67|191:88,1,110.499994941712,8|0,0:0|0:0,0:0:0:0:
347,181,61130,6,0,P|311:159|271:150,2,63.7500024318696,2|0|0,0:0|0:0|0:0,0:0:0:0:
81,274,61589,6,0,L|62:374,1,101.999996887207,12|0,0:0|0:0,0:0:0:0:
98,167,61895,1,2,0:0:0:0:
472,34,62201,5,8,0:0:0:0:
502,151,62354,1,0,0:0:0:0:
460,265,62507,1,8,0:0:0:0:
363,339,62661,2,0,B|345:303|345:303|345:226,1,110.499994941712,12|0,0:0|0:0,0:0:0:0:
278,28,62967,1,2,0:0:0:0:
232,210,63120,1,0,0:0:0:0:
335,367,63273,2,0,B|316:327|316:327|317:254,1,110.499994941712,12|0,0:0|0:0,0:0:0:0:
250,63,63579,1,2,0:0:0:0:
162,239,63732,1,2,0:0:0:0:
313,187,63885,1,2,0:0:0:0:
313,187,63962,1,0,0:0:0:0:
313,187,64038,5,12,0:0:0:0:
206,159,64191,1,0,0:0:0:0:
135,74,64344,1,0,0:0:0:0:
319,214,64497,5,4,0:0:0:0:
212,186,64650,1,0,0:0:0:0:
141,101,64803,1,0,0:0:0:0:
442,71,64956,5,12,0:0:0:0:
402,182,65109,1,0,0:0:0:0:
363,291,65263,1,0,0:0:0:0:
464,50,65416,5,4,0:0:0:0:
424,161,65569,1,0,0:0:0:0:
385,270,65723,1,0,0:0:0:0:
89,73,65875,6,0,P|121:31|175:21,1,110.499994941712,12|0,0:0|0:0,0:0:0:0:
205,33,66104,1,0,0:0:0:0:
225,58,66181,1,2,0:0:0:0:
234,89,66257,1,0,0:0:0:0:
227,121,66334,1,2,0:0:0:0:
208,148,66411,1,0,0:0:0:0:
179,163,66487,5,14,0:0:0:0:
322,168,66640,1,0,0:0:0:0:
89,159,66793,1,0,0:0:0:0:
252,322,66946,5,4,0:0:0:0:
385,270,67099,1,0,0:0:0:0:
167,353,67252,1,0,0:0:0:0:
403,194,67405,5,12,0:0:0:0:
363,344,67558,1,0,0:0:0:0:
424,106,67711,1,0,0:0:0:0:
195,113,67865,6,0,L|318:106,1,110.499994941712,4|0,0:0|0:0,0:0:0:0:
182,197,68171,2,0,P|126:167|112:117,1,110.499994941712,2|4,0:0|0:0,0:0:0:0:
293,19,68477,1,0,0:0:0:0:
293,19,68553,1,0,0:0:0:0:
293,19,68630,2,0,L|403:25,1,110.499994941712,8|0,0:0|0:0,0:0:0:0:
181,10,68936,1,4,0:0:0:0:
160,286,69242,6,0,P|211:327|265:328,1,110.499994941712,12|0,0:0|0:0,0:0:0:0:
382,265,69548,1,2,0:0:0:0:
406,123,69701,1,0,0:0:0:0:
355,257,69854,1,8,0:0:0:0:
192,376,70007,6,0,B|152:348|111:370|111:370|131:283|53:212,1,220.999989883423,12|0,0:0|0:0,0:0:0:0:
144,18,70467,2,0,P|155:67|144:141,1,110.499994941712,2|0,0:0|0:0,0:0:0:0:
161,269,70773,1,2,0:0:0:0:
270,362,70926,1,0,0:0:0:0:
412,380,71079,2,0,P|386:329|327:302,1,110.499994941712,8|0,0:0|0:0,0:0:0:0:
129,374,71385,2,0,L|160:268,1,110.499994941712,12|0,0:0|0:0,0:0:0:0:
22,36,71691,5,2,0:0:0:0:
77,168,71844,1,0,0:0:0:0:
216,203,71997,1,8,0:0:0:0:
72,199,72150,1,0,0:0:0:0:
265,49,72303,1,8,0:0:0:0:
415,235,72456,6,0,B|379:198|379:198|378:301|299:349,1,220.999989883423,12|0,0:0|0:0,0:0:0:0:
162,344,72916,2,0,P|127:302|120:248,1,110.499994941712,2|0,0:0|0:0,0:0:0:0:
253,132,73222,1,2,0:0:0:0:
416,199,73375,1,0,0:0:0:0:
379,347,73528,2,0,P|337:285|302:271,1,110.499994941712,8|0,0:0|0:0,0:0:0:0:
259,261,73757,1,0,0:0:0:0:
211,257,73834,2,0,P|246:215|253:161,1,110.499994941712,12|0,0:0|0:0,0:0:0:0:
34,21,74140,6,0,P|50:79|93:133,1,110.499994941712,2|0,0:0|0:0,0:0:0:0:
220,180,74446,1,8,0:0:0:0:
372,152,74599,1,0,0:0:0:0:
495,59,74752,1,8,0:0:0:0:
253,161,74905,6,0,B|245:216|297:216|287:283|287:283|335:261|392:286,1,220.999989883423,12|0,0:0|0:0,0:0:0:0:
312,83,75365,2,0,P|263:62|196:79,1,110.499994941712,2|0,0:0|0:0,0:0:0:0:
184,271,75671,2,0,P|234:292|287:282,1,110.499994941712,2|0,0:0|0:0,0:0:0:0:
450,187,75977,1,8,0:0:0:0:
509,8,76130,1,0,0:0:0:0:
386,238,76283,6,0,B|374:291|408:329|408:329|372:349|337:310|268:342,1,220.999989883423,12|0,0:0|0:0,0:0:0:0:
471,266,76742,1,0,0:0:0:0:
307,236,76895,1,8,0:0:0:0:
140,98,77048,1,0,0:0:0:0:
386,9,77201,1,8,0:0:0:0:
403,305,77354,2,0,P|360:346|211:304,1,220.999989883423,12|0,0:0|0:0,0:0:0:0:
236,122,77814,6,0,L|199:15,1,110.499994941712,2|0,0:0|0:0,0:0:0:0:
342,130,78120,2,0,L|305:234,1,110.499994941712,2|0,0:0|0:0,0:0:0:0:
338,50,78426,1,8,0:0:0:0:
144,278,78579,1,0,0:0:0:0:
144,278,78655,1,0,0:0:0:0:
144,278,78732,6,0,L|181:174,1,110.499994941712,4|0,0:0|0:0,0:0:0:0:
102,383,79038,1,2,0:0:0:0:
489,11,79344,5,8,0:0:0:0:
409,143,79497,1,0,0:0:0:0:
271,214,79650,1,8,0:0:0:0:
116,207,79803,2,0,P|150:155|213:127,1,110.499994941712,12|0,0:0|0:0,0:0:0:0:
365,317,80110,1,0,0:0:0:0:
210,325,80263,1,8,0:0:0:0:
88,229,80416,2,0,P|160:212|207:233,1,110.499994941712,8|0,0:0|0:0,0:0:0:0:
365,317,80722,6,0,P|382:291|393:257,2,63.7500024318696,2|0|0,0:0|0:0|0:0,0:0:0:0:
429,156,81181,6,0,L|392:260,1,110.499994941712,12|0,0:0|0:0,0:0:0:0:
471,51,81487,1,2,0:0:0:0:
499,344,81793,5,8,0:0:0:0:
344,356,81946,1,0,0:0:0:0:
181,251,82099,1,8,0:0:0:0:
84,66,82252,2,0,P|136:96|163:164,1,110.499994941712,14|0,0:0|0:0,0:0:0:0:
290,4,82558,2,0,P|320:55|309:128,1,110.499994941712,2|0,0:0|0:0,0:0:0:0:
505,77,82865,2,0,P|505:137|459:194,1,110.499994941712,2|0,0:0|0:0,0:0:0:0:
289,338,83171,1,0,0:0:0:0:
198,117,83324,5,2,0:0:0:0:
234,92,83400,1,0,0:0:0:0:
278,88,83477,1,2,0:0:0:0:
318,105,83553,1,0,0:0:0:0:
348,136,83630,5,0,0:0:0:0:
280,244,83791,1,0,0:0:0:0:
161,270,83944,1,0,0:0:0:0:
365,161,84097,5,4,0:0:0:0:
297,269,84258,1,0,0:0:0:0:
178,295,84403,1,0,0:0:0:0:
242,44,84556,5,12,0:0:0:0:
369,48,84717,1,0,0:0:0:0:
451,138,84862,1,0,0:0:0:0:
263,24,85015,5,4,0:0:0:0:
390,28,85176,1,0,0:0:0:0:
472,118,85321,1,0,0:0:0:0:
438,356,85474,2,0,L|480:248,1,110.499994941712,12|0,0:0|0:0,0:0:0:0:
229,260,85780,2,0,L|188:362,1,110.499994941712,0|0,0:0|0:0,0:0:0:0:
35,34,86086,5,12,0:0:0:0:
143,90,86240,1,0,0:0:0:0:
251,144,86393,1,0,0:0:0:0:
51,61,86546,5,4,0:0:0:0:
159,117,86700,1,0,0:0:0:0:
267,171,86853,1,0,0:0:0:0:
374,225,87005,2,0,P|355:282|443:237,1,220.999989883423,12|0,0:0|0:0,0:0:0:0:
161,304,87463,6,0,L|130:196,1,110.499994941712,6|0,0:0|0:0,0:0:0:0:
303,129,87770,1,0,0:0:0:0:
229,348,87923,2,0,P|159:385|108:361,1,110.499994941712,4|0,0:0|0:0,0:0:0:0:
63,154,88229,2,0,P|133:117|184:141,1,110.499994941712,4|0,0:0|0:0,0:0:0:0:
412,127,88535,6,0,L|471:296,1,165.749992412568,14|0,0:0|0:0,0:0:0:0:
382,39,88842,1,0,0:0:0:0:
104,280,88995,6,0,L|163:111,1,165.749992412568,14|0,0:0|0:0,0:0:0:0:
74,368,89302,1,0,0:0:0:0:
408,221,89454,6,0,L|239:162,1,165.749992412568,14|0,0:0|0:0,0:0:0:0:
496,251,89761,1,0,0:0:0:0:
105,60,89913,6,0,L|274:1,1,165.749992412568,6|0,0:0|0:0,0:0:0:0:
17,90,90220,5,0,0:0:0:0:
128,252,90372,1,10,0:0:0:0:
302,347,90525,1,0,0:0:0:0:
497,381,90678,2,0,P|454:336|386:326,1,110.499994941712,14|0,0:0|0:0,0:0:0:0:
273,321,90984,6,0,P|346:265|503:281,1,237.999992736817,14|0,0:0|0:0,0:0:0:0:
466,91,93440,6,0,P|422:84|374:96,1,85,4|0,0:0|0:0,0:0:0:0:
197,176,93746,1,0,0:0:0:0:
471,173,93899,2,0,P|427:180|381:172,1,85,4|0,0:0|0:0,0:0:0:0:
202,88,94205,1,0,0:0:0:0:
492,91,94358,2,0,P|510:129|504:171,1,85,4|0,0:0|0:0,0:0:0:0:
346,272,94664,6,0,L|358:363,1,85,4|0,0:0|0:0,0:0:0:0:
329,144,94970,1,0,0:0:0:0:
204,274,95123,2,0,L|192:365,1,85,4|0,0:0|0:0,0:0:0:0:
221,146,95429,1,0,0:0:0:0:
276,367,95582,2,0,L|276:264,1,85,4|0,0:0|0:0,0:0:0:0:
60,59,95888,6,0,P|104:52|150:60,1,85,4|0,0:0|0:0,0:0:0:0:
329,144,96195,1,0,0:0:0:0:
55,141,96348,2,0,P|99:148|145:140,1,85,4|0,0:0|0:0,0:0:0:0:
324,56,96654,1,0,0:0:0:0:
33,59,96807,2,0,P|15:97|22:139,1,85,4|0,0:0|0:0,0:0:0:0:
198,270,97113,6,0,L|186:361,1,85,4|0,0:0|0:0,0:0:0:0:
215,142,97419,1,0,0:0:0:0:
340,272,97572,2,0,L|352:363,1,85,4|0,0:0|0:0,0:0:0:0:
475,251,97878,1,0,0:0:0:0:
270,226,98031,1,4,0:0:0:0:
416,111,98184,1,0,0:0:0:0:
222,330,98338,6,0,P|162:356|65:289,1,170,4|0,0:0|0:0,0:0:0:0:
98,128,98797,2,0,P|158:102|255:169,1,170,4|0,0:0|0:0,0:0:0:0:
155,272,99257,2,0,L|168:177,1,85,0|0,0:0|0:0,0:0:0:0:
344,72,99563,2,0,P|376:86|418:129,2,85,4|0|0,0:0|0:0|0:0,0:0:0:0:
245,147,100021,1,0,0:0:0:0:
435,212,100174,2,0,P|479:196|502:135,1,85,4|0,0:0|0:0,0:0:0:0:
344,249,100481,2,0,P|375:293|415:307,1,85,4|0,0:0|0:0,0:0:0:0:
273,0,100786,5,4,0:0:0:0:
497,92,100940,2,0,L|418:59,1,85,0|0,0:0|0:0,0:0:0:0:
194,70,101246,5,4,0:0:0:0:
418,162,101399,2,0,L|339:129,1,85,0|0,0:0|0:0,0:0:0:0:
108,376,101705,5,4,0:0:0:0:
332,284,101859,2,0,L|253:316,1,85,0|0,0:0|0:0,0:0:0:0:
29,306,102165,5,4,0:0:0:0:
253,214,102319,2,0,L|174:246,1,85,0|0,0:0|0:0,0:0:0:0:
0,85,102624,6,0,B|18:52|7:4|7:4|48:33|100:29|100:29|116:56|116:56|162:55|210:94,1,297.5,4|0,0:0|0:0,0:0:0:0:
357,4,103235,1,4,0:0:0:0:
256,192,103389,12,0,107981,0:0:0:0:
195,243,108134,6,0,P|189:159|305:255,1,340,4|0,0:0|0:0,0:0:0:0:
