osu file format v14

[General]
AudioFilename: ending.mp3
AudioLeadIn: 0
PreviewTime: 50823
Countdown: 0
SampleSet: Soft
StackLeniency: 0.7
Mode: 0
LetterboxInBreaks: 0
WidescreenStoryboard: 0

[Editor]
DistanceSpacing: 1
BeatDivisor: 2
GridSize: 4
TimelineZoom: 1.5

[Metadata]
Title:calling
TitleUnicode:calling
Artist:fhana
ArtistUnicode:fhána
Creator:Kalibe
Version:Easy
Source:テイルズ オブ ゼスティリア ザ クロス
Tags:Tales of Zestiria the X Cross ufotable ending akitoshi doormat sotarks TV size
BeatmapID:1028435
BeatmapSetID:481927

[Difficulty]
HPDrainRate:2
CircleSize:2.5
OverallDifficulty:2
ApproachRate:3
SliderMultiplier:1.9
SliderTickRate:2

[Events]
//Background and Video events
Video,0,"zestiria+ed.avi"
0,0,"AAAAAAAAA.jpg",0,0
//Break Periods
//Storyboard Layer 0 (Background)
//Storyboard Layer 1 (Fail)
//Storyboard Layer 2 (Pass)
//Storyboard Layer 3 (Foreground)
//Storyboard Sound Samples

[TimingPoints]
225,845.070422535211,4,2,1,60,1,0
10365,-100,4,2,1,50,0,0
23886,-100,4,2,1,55,0,0
35717,-100,4,2,1,45,0,0
36140,-100,4,2,1,55,0,0
37408,-100,4,2,1,60,0,0
40154,-100,4,3,1,30,0,0
40577,-100,4,2,1,60,0,0
43534,-100,4,3,1,30,0,0
43957,-100,4,2,1,60,0,0
47126,-100,4,2,1,50,0,0
47548,-100,4,2,1,65,0,0
50084,-100,4,2,1,65,0,0
50929,-100,4,2,1,70,0,1
64450,-100,4,2,1,75,0,1
71210,-100,4,2,1,65,0,0
77971,-100,4,2,1,75,0,1
81351,-100,4,3,1,60,0,1
84732,-100,4,2,1,60,0,0
90858,-100,4,2,1,30,0,0
91281,-100,4,2,1,60,0,0
94239,-100,4,2,1,30,0,0
94872,-100,4,2,0,40,0,0

[Colours]
Combo1 : 255,166,113
Combo2 : 225,134,11
Combo3 : 28,159,223
Combo4 : 149,207,27
Combo5 : 234,58,28

[HitObjects]
276,64,225,6,0,B|368:32|368:97|468:77,2,190,0|8|0,3:0|0:0|3:0,0:0:0:0:
188,100,2337,1,0,0:0:0:0:
234,183,2760,2,0,P|281:183|323:155,1,95,8|2,0:0|0:0,0:0:0:0:
382,86,3605,6,0,L|366:294,2,190,0|8|0,3:0|0:0|3:0,0:0:0:0:
332,5,5717,1,0,0:0:0:0:
250,53,6140,2,0,P|205:59|146:57,1,95,8|2,0:0|0:0,0:0:0:0:
74,9,6985,6,0,B|36:102|109:102|66:209,1,190,0|8,3:0|0:0,0:0:0:0:
32,281,8253,1,2,0:0:0:0:
98,349,8675,2,0,P|142:361|200:346,2,95,4|0|8,0:3|0:0|0:0,0:0:0:0:
146,266,9943,1,2,0:0:0:0:
96,185,10365,6,0,B|161:178|161:178|213:190|213:190|305:186,1,190,4|8,0:0|0:0,0:0:0:0:
370,146,11633,1,0,0:0:0:0:
307,74,12055,2,0,P|263:50|207:50,2,95,0|2|8,0:0|0:0|0:0,0:0:0:0:
370,146,13323,1,2,0:0:0:0:
283,187,13746,6,0,B|230:193|193:164|193:164|149:132|88:150,1,190,0|8,3:0|0:0,0:0:0:0:
39,216,15013,1,0,0:0:0:0:
72,305,15436,2,0,P|116:329|184:341,1,95,0|2,3:0|0:0,0:0:0:0:
250,312,16281,2,0,P|294:304|366:312,1,95,8|2,0:0|0:0,0:0:0:0:
428,350,17126,6,0,P|392:266|432:170,1,190,0|8,3:0|0:0,0:0:0:0:
490,109,18394,1,0,0:0:0:0:
422,42,18816,2,0,L|306:22,2,95,0|2|8,3:0|0:0|0:0,0:0:0:0:
490,109,20084,1,2,0:0:0:0:
424,177,20506,6,0,B|352:185|313:152|313:152|281:170|226:164,1,190,0|8,3:0|0:0,0:0:0:0:
260,71,21774,1,0,0:0:0:0:
178,22,22196,2,0,P|164:70|183:131,1,95,0|2,3:0|0:0,0:0:0:0:
228,190,23041,2,0,P|236:238|224:286,1,95,8|2,0:0|0:0,0:0:0:0:
142,236,23886,6,0,B|198:212|266:248|266:248|342:244,1,190,4|8,0:0|0:0,0:0:0:0:
418,208,25154,1,0,0:0:0:0:
373,123,25577,2,0,L|381:23,2,95,0|2|8,3:0|0:0|0:0,0:0:0:0:
418,208,26844,1,2,0:0:0:0:
342,266,27267,6,0,B|274:281|274:281|211:249|142:282,1,190,0|8,3:0|0:0,0:0:0:0:
77,326,28534,1,0,0:0:0:0:
10,257,28957,2,0,B|6:213|6:213|18:145,1,95,0|2,3:0|0:0,0:0:0:0:
84,98,29802,2,0,B|128:86|128:86|192:86,1,95,8|2,0:0|0:0,0:0:0:0:
259,135,30647,6,0,B|323:159|399:135|399:135|451:163,1,190,0|8,3:0|0:0,0:0:0:0:
510,222,31915,1,0,0:0:0:0:
440,287,32337,2,0,P|396:299|328:299,2,95,0|2|8,3:0|0:0|0:0,0:0:0:0:
510,222,33605,1,2,0:0:0:0:
440,157,34027,6,0,B|396:138|358:145|348:154|338:163|299:178|238:160,1,190,0|8,3:0|0:0,0:0:0:0:
292,77,35295,1,0,0:0:0:0:
210,28,35717,2,0,P|158:24|98:40,1,95,0|2,3:0|0:0,0:0:0:0:
36,84,36563,1,8,0:1:0:0:
98,155,36985,1,0,3:0:0:0:
34,225,37408,6,0,P|42:317|134:345,1,190,4|8,0:0|0:1,0:0:0:0:
215,320,38675,1,0,0:0:0:0:
286,257,39098,2,0,P|293:208|282:162,2,95,2|0|8,0:0|0:0|0:1,0:0:0:0:
215,320,40365,1,8,0:3:0:0:
148,252,40788,6,0,B|128:200|148:159|148:159|128:115|152:59,1,190,2|8,0:0|0:1,0:0:0:0:
230,19,42055,1,0,0:0:0:0:
304,78,42478,2,0,P|316:126|292:194,1,95,2|8,0:0|0:0,0:0:0:0:
229,225,43323,2,0,P|217:273|228:318,1,95,8|8,0:1|0:3,0:0:0:0:
311,272,44168,6,0,B|255:252|183:276|183:276|103:260,1,190,4|8,0:0|0:1,0:0:0:0:
42,215,45436,1,0,0:0:0:0:
57,121,45858,2,0,P|57:77|45:13,2,95,2|0|8,0:0|0:0|0:1,0:0:0:0:
42,215,47126,1,4,3:0:0:0:
130,180,47548,6,0,B|194:172|194:172|255:185|255:185|334:180,1,190,4|8,0:0|0:1,0:0:0:0:
404,141,48816,1,0,3:0:0:0:
436,230,49239,2,0,P|408:269|373:300,1,95,0|8,3:0|0:0,0:0:0:0:
282,327,50084,2,0,P|234:327|188:316,1,95,8|2,0:1|0:0,0:0:0:0:
116,255,50929,6,0,L|140:47,2,190,6|8|2,0:0|0:1|0:0,0:0:0:0:
99,347,53041,1,0,0:0:0:0:
189,317,53464,2,0,P|237:309|301:313,1,95,8|0,0:1|0:0,0:0:0:0:
365,358,54309,6,0,B|399:265|333:265|369:162,1,190,2|8,0:0|0:1,0:0:0:0:
413,89,55577,1,0,0:0:0:0:
336,32,55999,2,0,L|236:40,1,95,2|0,0:0|0:0,0:0:0:0:
199,125,56844,2,0,L|99:113,1,95,8|0,0:1|0:0,0:0:0:0:
34,49,57689,6,0,P|71:135|37:243,1,190,4|8,0:0|0:1,0:0:0:0:
23,317,58957,1,0,0:0:0:0:
103,367,59379,2,0,P|151:371|207:359,1,95,2|0,0:0|0:0,0:0:0:0:
276,310,60224,2,0,P|287:263|279:204,1,95,8|0,0:1|0:0,0:0:0:0:
264,123,61070,5,2,0:0:0:0:
352,89,61492,2,0,L|450:102,2,95,0|8|0,0:0|0:1|0:0,0:0:0:0:
264,123,62760,1,0,3:0:0:0:
196,55,63182,1,2,0:0:0:0:
106,86,63605,2,0,P|94:134|110:190,1,95,8|8,0:1|0:1,0:0:0:0:
170,245,64450,6,0,B|262:281|262:221|378:269,1,190,4|8,0:0|0:1,0:0:0:0:
404,344,65717,1,0,0:0:0:0:
308,340,66140,2,0,P|266:255|320:176,1,190,2|8,0:0|0:1,0:0:0:0:
396,139,67408,1,0,0:0:0:0:
381,45,67830,6,0,P|333:46|265:58,1,95,2|0,0:0|0:0,0:0:0:0:
194,28,68675,2,0,P|190:77|202:133,1,95,8|0,0:1|0:0,0:0:0:0:
266,194,69520,2,0,P|183:154|101:211,1,190,2|8,0:0|0:1,0:0:0:0:
68,288,70788,1,0,3:0:0:0:
132,357,71210,6,0,P|207:377|289:299,1,190,4|8,0:0|0:1,0:0:0:0:
284,213,72478,1,0,0:0:0:0:
226,137,72901,2,0,P|177:131|115:151,1,95,0|2,3:0|0:0,0:0:0:0:
56,198,73746,2,0,P|48:244|61:293,1,95,8|0,0:1|0:0,0:0:0:0:
140,242,74591,6,0,L|347:232,1,190,2|8,0:0|0:1,0:0:0:0:
407,178,75858,1,0,0:0:0:0:
434,269,76281,2,0,P|431:313|438:377,2,95,0|2|8,3:0|0:0|0:1,0:0:0:0:
491,193,77548,1,2,0:0:0:0:
459,103,77971,6,0,P|409:93|349:93,1,95,4|0,0:0|0:0,0:0:0:0:
280,48,78816,1,8,0:1:0:0:
192,85,79239,1,0,0:0:0:0:
141,165,79661,2,0,B|187:176|187:176|253:169,1,95,2|0,0:0|0:0,0:0:0:0:
290,247,80506,2,0,B|336:241|336:241|383:249,1,95,8|0,0:1|0:0,0:0:0:0:
465,201,81351,6,0,B|506:108|440:108|477:-7,2,190,4|0|0,0:2|0:0|0:0,0:0:0:0:
282,254,83886,1,2,0:2:0:0:
155,111,84732,6,0,B|190:203|129:203|167:319,1,190,4|8,0:0|0:1,0:0:0:0:
245,341,85999,1,0,3:0:0:0:
282,254,86422,2,0,P|293:207|300:157,1,95,2|0,0:0|0:0,0:0:0:0:
394,170,87267,2,0,P|395:218|409:277,1,95,8|8,0:1|0:0,0:0:0:0:
499,255,88112,6,0,B|467:187|511:131|511:131|475:71,1,190,2|8,0:0|0:1,0:0:0:0:
409,18,89379,1,0,0:0:0:0:
324,61,89802,2,0,L|216:69,1,95,2|0,0:0|0:0,0:0:0:0:
142,27,90647,1,8,0:1:0:0:
120,119,91070,1,8,0:3:0:0:
147,209,91492,6,0,P|227:257|327:241,1,190,4|8,0:0|0:1,0:0:0:0:
399,194,92760,1,0,0:0:0:0:
365,105,93182,2,0,P|317:85|257:85,1,95,2|0,0:0|0:0,0:0:0:0:
186,118,94027,2,0,P|139:128|76:119,1,95,8|8,0:1|0:0,0:0:0:0:
6,82,94872,5,4,0:1:0:0:
