osu file format v14

[General]
AudioFilename: audio.mp3
AudioLeadIn: 0
PreviewTime: 236851
Countdown: 0
SampleSet: Normal
StackLeniency: 0.7
Mode: 1
LetterboxInBreaks: 0
WidescreenStoryboard: 0

[Editor]
Bookmarks: 20944,38354,58406,88250,132862,162862,187732,207628,237473,257369,285815
DistanceSpacing: 0.5
BeatDivisor: 4
GridSize: 32
TimelineZoom: 2

[Metadata]
Title:Wonder Stella
TitleUnicode:ワンダーステラ
Artist:fhana
ArtistUnicode:fhána
Creator:Sotarks
Version:Chromoyams' Inner Oni
Source:Fate/kaleid liner プリズマ☆イリヤ ツヴァイ ヘルツ!
Tags:Prisma☆Illya 2wei Herz! Illya Prisma Herz towana yuxugi waga kevin mitsunaga junichi sato lantis op opening full ver version chromoxx newyams99
BeatmapID:1414482
BeatmapSetID:668202

[Difficulty]
HPDrainRate:6
CircleSize:2
OverallDifficulty:6
ApproachRate:5
SliderMultiplier:1.4
SliderTickRate:1

[Events]
//Background and Video events
0,0,"bg.jpg",0,120
//Break Periods
//Storyboard Layer 0 (Background)
//Storyboard Layer 1 (Fail)
//Storyboard Layer 2 (Pass)
//Storyboard Layer 3 (Foreground)
//Storyboard Sound Samples

[TimingPoints]
1204,310.880829015544,4,1,0,40,1,0
1204,-133.333333333333,4,1,0,40,0,0
10374,-125,4,1,0,80,0,0
10685,-117.647058823529,4,1,0,80,0,0
10841,-111.111111111111,4,1,0,80,0,0
10996,-105.263157894737,4,1,0,80,0,0
11152,-100,4,1,0,80,0,0
20944,-100,4,1,0,60,0,0
38354,-100,4,1,0,80,0,0
58406,-100,4,1,0,80,0,1
88250,-142.857142857143,4,1,0,40,0,0
108147,-117.647058823529,4,1,0,60,0,0
120426,-100,4,1,0,80,0,0
128198,-125,4,1,0,80,0,0
130530,-111.111111111111,4,1,0,80,0,0
131929,-109.89010989011,4,1,0,80,0,0
132084,-108.695652173913,4,1,0,80,0,0
132240,-107.52688172043,4,1,0,80,0,0
132317,-106.382978723404,4,1,0,80,0,0
132395,-105.263157894737,4,1,0,80,0,0
132473,-104.166666666667,4,1,0,80,0,0
132551,-103.092783505155,4,1,0,80,0,0
132628,-102.040816326531,4,1,0,80,0,0
132706,-101.010101010101,4,1,0,80,0,0
132862,-100,4,1,0,80,0,0
162862,-100,4,1,0,80,0,1
206229,-100,4,1,0,80,0,0
207628,-133.333333333333,4,1,0,60,0,0
237473,-133.333333333333,4,1,0,40,0,0
246644,-131.578947368421,4,1,0,40,0,0
246799,-129.87012987013,4,1,0,40,0,0
246955,-128.205128205128,4,1,0,40,0,0
247110,-126.582278481013,4,1,0,40,0,0
247266,-125,4,1,0,40,0,0
247421,-117.647058823529,4,1,0,60,0,0
257369,-100,4,1,0,80,0,0
258613,-96.1538461538461,4,1,0,80,0,0
258924,-92.5925925925926,4,1,0,80,0,0
259235,-89.2857142857143,4,1,0,80,0,0
259390,-86.2068965517241,4,1,0,80,0,0
259856,-86.2068965517241,4,1,0,80,0,1
300737,-86.2068965517241,4,1,0,80,0,0

[HitObjects]
256,192,1204,5,2,0:0:0:0:
256,192,1514,1,0,0:0:0:0:
256,192,1670,1,2,0:0:0:0:
256,192,1981,1,0,0:0:0:0:
256,192,2292,1,2,0:0:0:0:
256,192,3069,1,2,0:0:0:0:
256,192,3380,1,2,0:0:0:0:
256,192,3691,1,0,0:0:0:0:
256,192,4001,1,2,0:0:0:0:
256,192,4157,1,0,0:0:0:0:
256,192,4468,1,0,0:0:0:0:
256,192,4623,1,2,0:0:0:0:
256,192,4779,1,2,0:0:0:0:
256,192,5556,1,2,0:0:0:0:
256,192,5711,1,0,0:0:0:0:
256,192,5867,1,0,0:0:0:0:
256,192,6178,1,2,0:0:0:0:
256,192,6488,1,2,0:0:0:0:
256,192,6644,1,0,0:0:0:0:
256,192,6799,1,2,0:0:0:0:
256,192,7110,1,2,0:0:0:0:
256,192,7266,1,2,0:0:0:0:
256,192,7577,1,2,0:0:0:0:
256,192,7887,1,0,0:0:0:0:
256,192,8043,1,2,0:0:0:0:
256,192,8198,1,0,0:0:0:0:
256,192,8354,1,0,0:0:0:0:
256,192,8509,1,0,0:0:0:0:
256,192,8665,1,2,0:0:0:0:
256,192,8976,1,2,0:0:0:0:
256,192,9131,1,0,0:0:0:0:
256,192,9286,1,2,0:0:0:0:
256,192,9597,1,0,0:0:0:0:
256,192,9753,1,2,0:0:0:0:
256,192,10064,1,2,0:0:0:0:
256,192,10374,1,2,0:0:0:0:
256,192,10452,1,2,0:0:0:0:
256,192,10530,1,0,0:0:0:0:
256,192,10685,1,0,0:0:0:0:
256,192,10841,1,0,0:0:0:0:
256,192,10996,1,0,0:0:0:0:
256,192,11152,1,6,0:0:0:0:
256,192,11463,1,0,0:0:0:0:
256,192,11618,1,0,0:0:0:0:
256,192,11773,1,2,0:0:0:0:
256,192,11929,1,2,0:0:0:0:
256,192,12007,1,2,0:0:0:0:
256,192,12084,1,0,0:0:0:0:
256,192,12240,1,0,0:0:0:0:
256,192,12551,1,0,0:0:0:0:
256,192,12706,1,2,0:0:0:0:
256,192,12862,1,0,0:0:0:0:
256,192,12939,1,0,0:0:0:0:
256,192,13017,1,2,0:0:0:0:
256,192,13172,1,2,0:0:0:0:
256,192,13250,1,2,0:0:0:0:
256,192,13328,1,0,0:0:0:0:
256,192,13483,1,0,0:0:0:0:
256,192,13639,1,6,0:0:0:0:
256,192,13950,1,0,0:0:0:0:
256,192,14105,1,0,0:0:0:0:
256,192,14183,1,0,0:0:0:0:
256,192,14260,1,2,0:0:0:0:
256,192,14416,1,0,0:0:0:0:
256,192,14571,1,0,0:0:0:0:
256,192,14727,1,2,0:0:0:0:
256,192,14882,1,2,0:0:0:0:
256,192,14960,1,0,0:0:0:0:
256,192,15038,1,0,0:0:0:0:
256,192,15193,1,0,0:0:0:0:
256,192,15349,1,0,0:0:0:0:
256,192,15426,1,0,0:0:0:0:
256,192,15504,1,2,0:0:0:0:
256,192,15659,1,0,0:0:0:0:
256,192,15815,1,0,0:0:0:0:
256,192,15970,1,0,0:0:0:0:
256,192,16126,1,6,0:0:0:0:
256,192,16437,1,0,0:0:0:0:
256,192,16592,1,0,0:0:0:0:
256,192,16748,1,2,0:0:0:0:
256,192,16903,1,0,0:0:0:0:
256,192,16981,1,0,0:0:0:0:
256,192,17058,1,2,0:0:0:0:
256,192,17214,1,2,0:0:0:0:
256,192,17369,1,0,0:0:0:0:
256,192,17525,1,2,0:0:0:0:
256,192,17680,1,0,0:0:0:0:
256,192,17991,1,2,0:0:0:0:
256,192,18147,1,0,0:0:0:0:
256,192,18224,1,0,0:0:0:0:
256,192,18302,1,0,0:0:0:0:
256,192,18457,1,0,0:0:0:0:
256,192,18613,1,6,0:0:0:0:
256,192,18768,1,0,0:0:0:0:
256,192,18924,1,0,0:0:0:0:
256,192,19079,1,6,0:0:0:0:
256,192,19235,1,0,0:0:0:0:
256,192,19390,1,0,0:0:0:0:
256,192,19545,1,2,0:0:0:0:
256,192,19701,1,0,0:0:0:0:
256,192,19856,1,0,0:0:0:0:
256,192,20012,1,2,0:0:0:0:
256,192,20167,1,0,0:0:0:0:
256,192,20323,1,0,0:0:0:0:
256,192,20400,1,0,0:0:0:0:
256,192,20478,1,2,0:0:0:0:
256,192,20634,1,2,0:0:0:0:
256,192,20789,1,2,0:0:0:0:
320,160,20944,1,4,0:0:0:0:
320,224,21255,1,0,0:0:0:0:
224,160,21411,1,0,0:0:0:0:
192,160,21722,1,8,0:0:0:0:
192,192,22343,1,0,0:0:0:0:
192,192,22654,1,8,0:0:0:0:
192,192,22810,1,0,0:0:0:0:
256,192,23121,1,0,0:0:0:0:
256,192,23276,1,8,0:0:0:0:
288,224,23431,1,4,0:0:0:0:
288,224,23742,1,0,0:0:0:0:
288,224,23898,1,0,0:0:0:0:
256,192,24209,1,8,0:0:0:0:
224,160,24830,1,0,0:0:0:0:
224,160,25141,1,8,0:0:0:0:
224,160,25297,1,0,0:0:0:0:
256,224,25608,1,0,0:0:0:0:
256,224,25763,1,8,0:0:0:0:
256,224,25919,1,4,0:0:0:0:
288,224,26229,1,8,0:0:0:0:
288,224,26385,1,0,0:0:0:0:
288,224,26540,1,0,0:0:0:0:
288,224,26696,1,8,0:0:0:0:
288,224,26851,1,0,0:0:0:0:
320,256,27007,1,8,0:0:0:0:
320,256,27162,1,0,0:0:0:0:
256,192,27317,1,8,0:0:0:0:
256,224,27473,1,8,0:0:0:0:
256,224,27628,1,0,0:0:0:0:
256,224,27784,1,0,0:0:0:0:
224,128,28095,1,0,0:0:0:0:
224,128,28250,1,0,0:0:0:0:
224,128,28406,1,8,0:0:0:0:
288,256,28716,1,0,0:0:0:0:
32,352,28872,1,0,0:0:0:0:
224,160,29183,1,8,0:0:0:0:
224,160,29338,1,8,0:0:0:0:
224,160,29494,1,0,0:0:0:0:
224,160,29649,1,8,0:0:0:0:
352,224,29960,1,0,0:0:0:0:
352,224,30115,1,0,0:0:0:0:
416,288,30426,1,8,0:0:0:0:
416,288,30582,1,8,0:0:0:0:
416,288,30737,1,8,0:0:0:0:
416,288,30893,1,8,0:0:0:0:
416,288,31048,1,4,0:0:0:0:
224,192,31359,1,0,0:0:0:0:
224,192,31670,1,8,0:0:0:0:
224,192,31825,1,0,0:0:0:0:
320,224,32136,1,0,0:0:0:0:
384,288,32447,1,0,0:0:0:0:
384,288,32602,1,0,0:0:0:0:
416,256,32913,1,8,0:0:0:0:
416,256,33069,1,8,0:0:0:0:
416,256,33380,1,0,0:0:0:0:
288,96,33846,1,8,0:0:0:0:
288,96,34001,1,8,0:0:0:0:
288,96,34157,1,0,0:0:0:0:
320,96,34312,1,0,0:0:0:0:
320,96,34468,1,8,0:0:0:0:
320,96,34623,1,0,0:0:0:0:
320,192,34934,1,0,0:0:0:0:
320,192,35090,1,0,0:0:0:0:
320,192,35400,1,8,0:0:0:0:
320,192,35556,1,0,0:0:0:0:
320,192,35711,1,0,0:0:0:0:
320,192,35867,1,8,0:0:0:0:
384,192,36178,1,8,0:0:0:0:
384,192,36333,1,0,0:0:0:0:
384,192,36488,1,0,0:0:0:0:
384,256,36644,1,8,0:0:0:0:
384,256,36799,1,0,0:0:0:0:
384,256,36955,1,8,0:0:0:0:
352,256,37110,1,8,0:0:0:0:
352,256,37266,1,0,0:0:0:0:
352,256,37421,1,8,0:0:0:0:
352,256,37577,1,0,0:0:0:0:
352,256,37732,1,0,0:0:0:0:
352,256,37887,1,8,0:0:0:0:
352,256,38043,1,0,0:0:0:0:
352,256,38198,1,8,0:0:0:0:
256,192,38354,1,4,0:0:0:0:
256,192,38665,1,0,0:0:0:0:
256,192,38820,1,2,0:0:0:0:
256,192,39131,1,0,0:0:0:0:
256,192,39286,1,0,0:0:0:0:
256,192,39442,1,2,0:0:0:0:
256,192,39597,1,0,0:0:0:0:
256,192,39908,1,0,0:0:0:0:
256,192,40064,1,2,0:0:0:0:
256,192,40219,1,2,0:0:0:0:
256,192,40374,1,0,0:0:0:0:
256,192,40530,1,0,0:0:0:0:
256,192,40608,1,0,0:0:0:0:
256,192,40685,1,2,0:0:0:0:
256,192,40841,1,4,0:0:0:0:
256,192,41152,1,0,0:0:0:0:
256,192,41307,1,2,0:0:0:0:
256,192,41463,1,0,0:0:0:0:
256,192,41618,1,2,0:0:0:0:
256,192,41773,1,2,0:0:0:0:
256,192,41851,1,2,0:0:0:0:
256,192,41929,1,0,0:0:0:0:
256,192,42084,1,2,0:0:0:0:
256,192,42240,1,0,0:0:0:0:
256,192,42317,1,0,0:0:0:0:
256,192,42395,1,2,0:0:0:0:
256,192,42551,1,0,0:0:0:0:
256,192,42706,1,2,0:0:0:0:
256,192,42784,1,2,0:0:0:0:
256,192,42862,1,0,0:0:0:0:
256,192,42939,1,0,0:0:0:0:
256,192,43017,1,0,0:0:0:0:
256,192,43172,1,2,0:0:0:0:
256,192,43328,1,2,0:0:0:0:
256,192,43483,1,4,0:0:0:0:
256,192,43794,1,2,0:0:0:0:
256,192,44105,1,0,0:0:0:0:
256,192,44260,1,0,0:0:0:0:
256,192,44416,1,2,0:0:0:0:
256,192,44571,1,0,0:0:0:0:
256,192,44882,1,0,0:0:0:0:
256,192,45038,1,2,0:0:0:0:
256,192,45193,1,0,0:0:0:0:
256,192,45349,1,0,0:0:0:0:
256,192,45504,1,0,0:0:0:0:
256,192,45582,1,0,0:0:0:0:
256,192,45659,1,2,0:0:0:0:
256,192,45815,1,2,0:0:0:0:
256,192,45970,1,4,0:0:0:0:
256,192,46281,1,2,0:0:0:0:
256,192,46592,1,0,0:0:0:0:
256,192,46748,1,0,0:0:0:0:
256,192,46903,1,2,0:0:0:0:
256,192,47058,1,4,0:0:0:0:
256,192,47369,1,0,0:0:0:0:
256,192,47525,1,2,0:0:0:0:
256,192,47680,1,0,0:0:0:0:
256,192,47758,1,0,0:0:0:0:
256,192,47836,1,2,0:0:0:0:
256,192,47991,1,2,0:0:0:0:
256,192,48147,1,2,0:0:0:0:
256,192,48302,1,2,0:0:0:0:
256,192,48457,1,4,0:0:0:0:
256,192,48768,1,0,0:0:0:0:
256,192,49079,1,2,0:0:0:0:
256,192,49235,1,0,0:0:0:0:
256,192,49390,1,0,0:0:0:0:
256,192,49545,1,2,0:0:0:0:
256,192,49623,1,8,0:0:0:0:
256,192,49701,1,0,0:0:0:0:
256,192,49856,1,2,0:0:0:0:
256,192,50012,1,0,0:0:0:0:
256,192,50323,1,2,0:0:0:0:
256,192,50478,1,0,0:0:0:0:
256,192,50634,1,0,0:0:0:0:
256,192,50789,1,2,0:0:0:0:
256,192,50944,1,2,0:0:0:0:
256,192,51100,1,0,0:0:0:0:
256,192,51255,1,2,0:0:0:0:
256,192,51411,1,0,0:0:0:0:
256,192,51566,1,2,0:0:0:0:
256,192,51722,1,2,0:0:0:0:
256,192,51877,1,2,0:0:0:0:
256,192,52033,1,0,0:0:0:0:
256,192,52343,1,2,0:0:0:0:
256,192,52499,1,0,0:0:0:0:
256,192,52654,1,0,0:0:0:0:
256,192,52732,1,0,0:0:0:0:
256,192,52810,1,2,0:0:0:0:
256,192,52965,1,2,0:0:0:0:
256,192,53121,1,2,0:0:0:0:
256,192,53276,1,0,0:0:0:0:
256,192,53431,1,6,0:0:0:0:
256,192,53742,1,2,0:0:0:0:
256,192,53898,1,0,0:0:0:0:
256,192,54053,1,2,0:0:0:0:
256,192,54209,1,0,0:0:0:0:
256,192,54286,1,0,0:0:0:0:
256,192,54364,1,0,0:0:0:0:
256,192,54520,1,2,0:0:0:0:
256,192,54830,1,2,0:0:0:0:
256,192,54986,1,0,0:0:0:0:
256,192,55297,1,2,0:0:0:0:
256,192,55452,1,2,0:0:0:0:
256,192,55608,1,0,0:0:0:0:
256,192,55763,1,6,0:0:0:0:
256,192,56074,1,0,0:0:0:0:
256,192,56229,1,0,0:0:0:0:
256,192,56385,1,6,0:0:0:0:
256,192,56540,1,0,0:0:0:0:
256,192,56696,1,0,0:0:0:0:
256,192,56851,1,6,0:0:0:0:
256,192,57007,1,0,0:0:0:0:
256,192,57162,1,6,0:0:0:0:
256,192,57784,1,0,0:0:0:0:
256,192,58095,1,2,0:0:0:0:
256,192,58406,1,4,0:0:0:0:
256,160,58716,1,8,0:0:0:0:
256,160,58872,1,0,0:0:0:0:
256,160,58950,1,0,0:0:0:0:
256,160,59027,1,0,0:0:0:0:
256,160,59183,1,0,0:0:0:0:
256,160,59338,1,8,0:0:0:0:
256,160,59494,1,0,0:0:0:0:
288,192,59805,1,0,0:0:0:0:
288,192,59960,1,8,0:0:0:0:
288,192,60115,1,0,0:0:0:0:
288,192,60193,1,0,0:0:0:0:
288,192,60271,1,8,0:0:0:0:
288,192,60426,1,0,0:0:0:0:
288,192,60582,1,8,0:0:0:0:
288,192,60737,1,8,0:0:0:0:
288,192,60815,1,8,0:0:0:0:
288,192,60893,1,0,0:0:0:0:
256,160,61048,1,0,0:0:0:0:
256,160,61203,1,8,0:0:0:0:
256,160,61359,1,8,0:0:0:0:
256,160,61437,1,8,0:0:0:0:
256,160,61514,1,0,0:0:0:0:
256,160,61670,1,0,0:0:0:0:
256,160,61748,1,0,0:0:0:0:
256,160,61825,1,8,0:0:0:0:
256,160,61981,1,0,0:0:0:0:
192,64,62292,1,0,0:0:0:0:
192,64,62447,1,8,0:0:0:0:
192,64,62602,1,0,0:0:0:0:
192,64,62680,1,0,0:0:0:0:
192,64,62758,1,8,0:0:0:0:
384,160,62913,1,0,0:0:0:0:
384,160,63069,1,8,0:0:0:0:
384,160,63147,1,8,0:0:0:0:
384,160,63224,1,8,0:0:0:0:
384,160,63302,1,8,0:0:0:0:
384,160,63380,1,0,0:0:0:0:
288,128,63535,1,0,0:0:0:0:
288,128,63691,1,8,0:0:0:0:
288,128,63846,1,0,0:0:0:0:
288,128,63924,1,0,0:0:0:0:
288,128,64001,1,8,0:0:0:0:
288,128,64157,1,0,0:0:0:0:
256,128,64312,1,8,0:0:0:0:
256,128,64468,1,4,0:0:0:0:
352,128,64779,1,0,0:0:0:0:
352,160,64934,1,8,0:0:0:0:
352,160,65090,1,0,0:0:0:0:
352,128,65167,1,0,0:0:0:0:
352,128,65245,1,8,0:0:0:0:
352,128,65400,1,0,0:0:0:0:
352,128,65556,1,8,0:0:0:0:
352,128,65634,1,8,0:0:0:0:
352,128,65711,1,8,0:0:0:0:
352,128,65789,1,8,0:0:0:0:
352,128,65867,1,0,0:0:0:0:
320,160,66022,1,0,0:0:0:0:
320,160,66178,1,8,0:0:0:0:
320,160,66333,1,0,0:0:0:0:
320,160,66411,1,0,0:0:0:0:
320,160,66488,1,8,0:0:0:0:
320,160,66644,1,0,0:0:0:0:
288,160,66799,1,8,0:0:0:0:
288,160,66955,1,4,0:0:0:0:
256,128,67266,1,4,0:0:0:0:
256,128,67577,1,12,0:0:0:0:
96,160,67887,1,0,0:0:0:0:
192,128,68043,1,8,0:0:0:0:
192,128,68198,1,8,0:0:0:0:
192,128,68354,1,4,0:0:0:0:
224,128,68665,1,8,0:0:0:0:
224,128,68820,1,0,0:0:0:0:
224,128,68898,1,0,0:0:0:0:
224,128,68976,1,0,0:0:0:0:
224,128,69131,1,0,0:0:0:0:
224,128,69286,1,8,0:0:0:0:
224,128,69442,1,0,0:0:0:0:
288,160,69753,1,0,0:0:0:0:
288,160,69908,1,8,0:0:0:0:
288,160,70064,1,0,0:0:0:0:
288,128,70141,1,0,0:0:0:0:
288,128,70219,1,8,0:0:0:0:
288,128,70374,1,0,0:0:0:0:
288,128,70530,1,8,0:0:0:0:
288,128,70608,1,8,0:0:0:0:
288,128,70685,1,8,0:0:0:0:
288,128,70763,1,8,0:0:0:0:
288,128,70841,1,0,0:0:0:0:
352,224,70996,1,0,0:0:0:0:
352,224,71152,1,8,0:0:0:0:
352,224,71307,1,0,0:0:0:0:
352,224,71385,1,0,0:0:0:0:
355,216,71463,1,0,0:0:0:0:
355,216,71618,1,0,0:0:0:0:
355,216,71696,1,0,0:0:0:0:
355,216,71773,1,8,0:0:0:0:
355,216,71929,1,0,0:0:0:0:
105,153,72240,1,0,0:0:0:0:
105,153,72395,1,8,0:0:0:0:
105,153,72551,1,0,0:0:0:0:
105,153,72628,1,0,0:0:0:0:
105,153,72706,1,8,0:0:0:0:
105,153,72862,1,0,0:0:0:0:
105,153,73017,1,8,0:0:0:0:
105,147,73095,1,8,0:0:0:0:
105,147,73172,1,8,0:0:0:0:
105,147,73250,1,8,0:0:0:0:
105,147,73328,1,0,0:0:0:0:
288,215,73483,1,0,0:0:0:0:
176,98,73639,1,8,0:0:0:0:
288,215,73794,1,0,0:0:0:0:
288,215,73872,1,0,0:0:0:0:
176,98,73950,1,8,0:0:0:0:
288,215,74105,1,8,0:0:0:0:
288,215,74183,1,8,0:0:0:0:
288,215,74260,1,0,0:0:0:0:
288,215,74338,1,0,0:0:0:0:
288,215,74416,1,8,0:0:0:0:
223,162,74727,1,0,0:0:0:0:
223,162,74882,1,8,0:0:0:0:
223,162,75038,1,0,0:0:0:0:
223,162,75115,1,0,0:0:0:0:
223,162,75193,1,0,0:0:0:0:
223,162,75349,1,0,0:0:0:0:
223,162,75504,1,8,0:0:0:0:
223,162,75582,1,0,0:0:0:0:
223,162,75659,1,8,0:0:0:0:
223,162,75737,1,8,0:0:0:0:
223,162,75815,1,0,0:0:0:0:
324,227,75970,1,0,0:0:0:0:
324,227,76126,1,8,0:0:0:0:
324,227,76281,1,0,0:0:0:0:
324,227,76359,1,0,0:0:0:0:
320,221,76437,1,8,0:0:0:0:
316,214,76592,1,0,0:0:0:0:
316,214,76670,1,0,0:0:0:0:
316,214,76748,1,8,0:0:0:0:
316,214,76825,1,8,0:0:0:0:
317,210,76903,1,0,0:0:0:0:
304,180,77214,1,12,0:0:0:0:
304,180,77525,1,12,0:0:0:0:
240,136,77836,1,0,0:0:0:0:
240,136,77991,1,8,0:0:0:0:
240,136,78147,1,8,0:0:0:0:
240,136,78302,1,0,0:0:0:0:
288,179,78613,1,0,0:0:0:0:
288,179,78924,1,8,0:0:0:0:
288,179,79079,1,0,0:0:0:0:
298,179,79235,1,0,0:0:0:0:
298,179,79390,1,8,0:0:0:0:
263,146,79701,1,0,0:0:0:0:
263,146,79856,1,0,0:0:0:0:
263,146,80012,1,0,0:0:0:0:
263,146,80167,1,8,0:0:0:0:
263,146,80323,1,8,0:0:0:0:
263,146,80478,1,0,0:0:0:0:
263,146,80634,1,8,0:0:0:0:
300,125,80944,1,8,0:0:0:0:
300,125,81100,1,0,0:0:0:0:
300,125,81255,1,0,0:0:0:0:
300,125,81411,1,8,0:0:0:0:
300,125,81566,1,0,0:0:0:0:
300,125,81722,1,8,0:0:0:0:
300,125,81877,1,8,0:0:0:0:
296,133,82188,1,8,0:0:0:0:
296,133,82343,1,0,0:0:0:0:
296,133,82499,1,0,0:0:0:0:
296,133,82577,1,0,0:0:0:0:
296,133,82654,1,8,0:0:0:0:
296,133,82810,1,0,0:0:0:0:
296,133,82965,1,8,0:0:0:0:
296,133,83043,1,0,0:0:0:0:
296,133,83121,1,8,0:0:0:0:
296,133,83198,1,8,0:0:0:0:
296,133,83276,1,0,0:0:0:0:
242,135,83587,1,8,0:0:0:0:
242,135,83742,1,0,0:0:0:0:
242,135,83820,1,0,0:0:0:0:
247,137,83898,1,0,0:0:0:0:
248,137,84053,1,0,0:0:0:0:
248,137,84209,1,8,0:0:0:0:
248,137,84364,1,4,0:0:0:0:
315,265,84675,1,0,0:0:0:0:
226,208,84830,1,8,0:0:0:0:
226,208,84986,1,0,0:0:0:0:
226,208,85064,1,0,0:0:0:0:
226,208,85141,1,8,0:0:0:0:
230,208,85297,1,0,0:0:0:0:
231,208,85452,1,8,0:0:0:0:
231,208,85530,1,0,0:0:0:0:
232,206,85608,1,8,0:0:0:0:
232,206,85685,1,8,0:0:0:0:
232,206,85763,1,0,0:0:0:0:
271,181,85919,1,0,0:0:0:0:
179,165,86074,1,8,0:0:0:0:
179,165,86229,1,0,0:0:0:0:
179,165,86307,1,0,0:0:0:0:
179,165,86385,1,0,0:0:0:0:
293,201,86540,1,0,0:0:0:0:
293,201,86696,1,8,0:0:0:0:
293,201,86851,1,4,0:0:0:0:
256,192,87007,12,0,88095,0:0:0:0:
256,192,88250,5,4,0:0:0:0:
256,192,88561,1,0,0:0:0:0:
256,192,88872,1,2,0:0:0:0:
256,192,89183,1,0,0:0:0:0:
256,192,89338,1,2,0:0:0:0:
256,192,89494,1,0,0:0:0:0:
256,192,89805,1,0,0:0:0:0:
256,192,90115,1,2,0:0:0:0:
256,192,90737,1,0,0:0:0:0:
256,192,91048,1,0,0:0:0:0:
256,192,91359,1,2,0:0:0:0:
256,192,91670,1,2,0:0:0:0:
256,192,91825,1,2,0:0:0:0:
256,192,91981,1,0,0:0:0:0:
256,192,92292,1,0,0:0:0:0:
256,192,92602,1,2,0:0:0:0:
256,192,92758,1,0,0:0:0:0:
256,192,93224,1,0,0:0:0:0:
256,192,93535,1,0,0:0:0:0:
256,192,93846,1,2,0:0:0:0:
256,192,94157,1,0,0:0:0:0:
256,192,94312,1,2,0:0:0:0:
256,192,94468,1,0,0:0:0:0:
256,192,94779,1,0,0:0:0:0:
256,192,95090,1,2,0:0:0:0:
256,192,95711,1,2,0:0:0:0:
256,192,96022,1,0,0:0:0:0:
256,192,96333,1,2,0:0:0:0:
256,192,96644,1,2,0:0:0:0:
256,192,96799,1,2,0:0:0:0:
256,192,96955,1,0,0:0:0:0:
256,192,97266,1,0,0:0:0:0:
256,192,97577,1,2,0:0:0:0:
256,192,97732,1,0,0:0:0:0:
256,192,98198,1,4,0:0:0:0:
256,192,98509,1,0,0:0:0:0:
256,192,98820,1,2,0:0:0:0:
256,192,99131,1,0,0:0:0:0:
256,192,99286,1,2,0:0:0:0:
256,192,99442,1,0,0:0:0:0:
256,192,99753,1,0,0:0:0:0:
256,192,100064,1,2,0:0:0:0:
256,192,100685,1,0,0:0:0:0:
256,192,100996,1,0,0:0:0:0:
256,192,101307,1,2,0:0:0:0:
256,192,101618,1,2,0:0:0:0:
256,192,101773,1,2,0:0:0:0:
256,192,101929,1,0,0:0:0:0:
256,192,102240,1,0,0:0:0:0:
256,192,102551,1,2,0:0:0:0:
256,192,102706,1,0,0:0:0:0:
256,192,103172,1,0,0:0:0:0:
256,192,103483,1,0,0:0:0:0:
256,192,103794,1,2,0:0:0:0:
256,192,104105,1,0,0:0:0:0:
256,192,104260,1,2,0:0:0:0:
256,192,104416,1,0,0:0:0:0:
256,192,104727,1,0,0:0:0:0:
256,192,105038,1,2,0:0:0:0:
256,192,105659,1,2,0:0:0:0:
256,192,105970,1,0,0:0:0:0:
256,192,106281,1,2,0:0:0:0:
256,192,106592,1,2,0:0:0:0:
256,192,106748,1,2,0:0:0:0:
256,192,106903,1,0,0:0:0:0:
256,192,107214,1,0,0:0:0:0:
256,192,107525,1,2,0:0:0:0:
256,192,107680,1,0,0:0:0:0:
256,192,108147,1,4,0:0:0:0:
256,192,108457,1,0,0:0:0:0:
256,192,108768,1,0,0:0:0:0:
256,192,109079,1,0,0:0:0:0:
256,192,109390,1,2,0:0:0:0:
256,192,109701,1,2,0:0:0:0:
256,192,109856,1,0,0:0:0:0:
256,192,110012,1,2,0:0:0:0:
256,192,110167,1,0,0:0:0:0:
256,192,110478,1,2,0:0:0:0:
256,192,110634,1,0,0:0:0:0:
256,192,110944,1,0,0:0:0:0:
256,192,111255,1,0,0:0:0:0:
256,192,111566,1,0,0:0:0:0:
256,192,111722,1,0,0:0:0:0:
256,192,111877,1,2,0:0:0:0:
256,192,112188,1,0,0:0:0:0:
256,192,112343,1,2,0:0:0:0:
256,192,112499,1,2,0:0:0:0:
256,192,112654,1,0,0:0:0:0:
256,192,112810,1,2,0:0:0:0:
256,192,113121,1,0,0:0:0:0:
256,192,113431,1,0,0:0:0:0:
256,192,113742,1,0,0:0:0:0:
256,192,114053,1,0,0:0:0:0:
256,192,114209,1,0,0:0:0:0:
256,192,114364,1,2,0:0:0:0:
256,192,114675,1,0,0:0:0:0:
256,192,114830,1,2,0:0:0:0:
256,192,114986,1,0,0:0:0:0:
256,192,115141,1,0,0:0:0:0:
256,192,115297,1,2,0:0:0:0:
256,192,115452,1,2,0:0:0:0:
256,192,115608,1,0,0:0:0:0:
256,192,115919,1,0,0:0:0:0:
256,192,116229,1,2,0:0:0:0:
256,192,116540,1,0,0:0:0:0:
256,192,116696,1,2,0:0:0:0:
256,192,117007,1,2,0:0:0:0:
256,192,117162,1,0,0:0:0:0:
256,192,117473,1,2,0:0:0:0:
256,192,117784,1,0,0:0:0:0:
256,192,118095,1,4,0:0:0:0:
256,192,118406,1,0,0:0:0:0:
256,192,118716,1,0,0:0:0:0:
256,192,119027,1,0,0:0:0:0:
256,192,119338,1,2,0:0:0:0:
256,192,119649,1,0,0:0:0:0:
256,192,119805,1,2,0:0:0:0:
256,192,119882,1,2,0:0:0:0:
256,192,119960,1,2,0:0:0:0:
256,192,120115,1,0,0:0:0:0:
256,192,120271,1,0,0:0:0:0:
256,192,120426,1,6,0:0:0:0:
256,192,120737,1,0,0:0:0:0:
256,192,120893,1,0,0:0:0:0:
256,192,121203,1,2,0:0:0:0:
256,192,121359,1,0,0:0:0:0:
256,192,121437,1,2,0:0:0:0:
256,192,121514,1,2,0:0:0:0:
256,192,121670,1,0,0:0:0:0:
256,192,121825,1,2,0:0:0:0:
256,192,121981,1,0,0:0:0:0:
256,192,122058,1,0,0:0:0:0:
256,192,122136,1,0,0:0:0:0:
256,192,122292,1,2,0:0:0:0:
256,192,122447,1,2,0:0:0:0:
256,192,122602,1,0,0:0:0:0:
256,192,122680,1,0,0:0:0:0:
256,192,122758,1,2,0:0:0:0:
256,192,122913,1,4,0:0:0:0:
256,192,123224,1,2,0:0:0:0:
256,192,123380,1,0,0:0:0:0:
256,192,123691,1,2,0:0:0:0:
256,192,123846,1,0,0:0:0:0:
256,192,123924,1,0,0:0:0:0:
256,192,124001,1,2,0:0:0:0:
256,192,124157,1,2,0:0:0:0:
256,192,124312,1,4,0:0:0:0:
256,192,124468,1,0,0:0:0:0:
256,192,124623,1,2,0:0:0:0:
256,192,124779,1,0,0:0:0:0:
256,192,124856,1,0,0:0:0:0:
256,192,124934,1,2,0:0:0:0:
256,192,125090,1,2,0:0:0:0:
256,192,125245,1,2,0:0:0:0:
256,192,125400,1,4,0:0:0:0:
256,192,125711,1,2,0:0:0:0:
256,192,125867,1,0,0:0:0:0:
256,192,126178,1,2,0:0:0:0:
256,192,126333,1,0,0:0:0:0:
256,192,126488,1,0,0:0:0:0:
256,192,126644,1,2,0:0:0:0:
256,192,126799,1,4,0:0:0:0:
256,192,127110,1,2,0:0:0:0:
256,192,127266,1,0,0:0:0:0:
256,192,127421,1,2,0:0:0:0:
256,192,127577,1,2,0:0:0:0:
256,192,127732,1,0,0:0:0:0:
256,192,127887,1,0,0:0:0:0:
256,192,128043,1,6,0:0:0:0:
256,192,128354,1,0,0:0:0:0:
256,192,128509,1,0,0:0:0:0:
256,192,128665,1,2,0:0:0:0:
256,192,128976,1,2,0:0:0:0:
256,192,129131,1,0,0:0:0:0:
256,192,129286,1,0,0:0:0:0:
256,192,129597,1,0,0:0:0:0:
256,192,129908,1,2,0:0:0:0:
256,192,130219,1,0,0:0:0:0:
256,192,130374,1,0,0:0:0:0:
256,192,130530,1,6,0:0:0:0:
256,192,130841,1,0,0:0:0:0:
256,192,130996,1,2,0:0:0:0:
256,192,131152,1,0,0:0:0:0:
256,192,131307,1,2,0:0:0:0:
256,192,131385,1,2,0:0:0:0:
256,192,131463,1,0,0:0:0:0:
256,192,131618,1,2,0:0:0:0:
256,192,131773,1,4,0:0:0:0:
256,192,131929,1,2,0:0:0:0:
256,192,132084,1,2,0:0:0:0:
256,192,132240,1,2,0:0:0:0:
256,192,132317,1,2,0:0:0:0:
256,192,132395,1,0,0:0:0:0:
256,192,132473,1,0,0:0:0:0:
256,192,132551,1,0,0:0:0:0:
256,192,132628,1,0,0:0:0:0:
256,192,132706,1,2,0:0:0:0:
256,192,132862,1,4,0:0:0:0:
272,228,133172,1,0,0:0:0:0:
272,228,133328,1,8,0:0:0:0:
272,228,133483,1,0,0:0:0:0:
272,228,133639,1,0,0:0:0:0:
272,228,133794,1,0,0:0:0:0:
272,228,133950,1,8,0:0:0:0:
272,228,134105,1,0,0:0:0:0:
372,259,134416,1,0,0:0:0:0:
372,259,134571,1,8,0:0:0:0:
372,259,134727,1,8,0:0:0:0:
372,259,134882,1,0,0:0:0:0:
372,259,135038,1,0,0:0:0:0:
372,259,135193,1,8,0:0:0:0:
372,259,135349,1,8,0:0:0:0:
309,224,135659,1,0,0:0:0:0:
309,224,135815,1,8,0:0:0:0:
309,217,135970,1,0,0:0:0:0:
309,217,136126,1,8,0:0:0:0:
314,222,136281,1,8,0:0:0:0:
369,261,136437,1,0,0:0:0:0:
370,231,136592,1,8,0:0:0:0:
340,190,136903,1,8,0:0:0:0:
341,212,137214,1,0,0:0:0:0:
184,210,137525,1,0,0:0:0:0:
184,210,137680,1,8,0:0:0:0:
184,210,137836,1,4,0:0:0:0:
341,249,138147,1,8,0:0:0:0:
341,249,138302,1,8,0:0:0:0:
341,249,138457,1,0,0:0:0:0:
341,249,138613,1,8,0:0:0:0:
341,249,138768,1,0,0:0:0:0:
341,249,138924,1,0,0:0:0:0:
341,249,139079,1,0,0:0:0:0:
243,188,139390,1,0,0:0:0:0:
102,194,139545,1,8,0:0:0:0:
323,234,139856,1,0,0:0:0:0:
323,234,140012,1,0,0:0:0:0:
323,234,140167,1,8,0:0:0:0:
323,234,140323,1,4,0:0:0:0:
200,223,140634,1,0,0:0:0:0:
200,223,140789,1,8,0:0:0:0:
331,316,141100,1,8,0:0:0:0:
331,316,141255,1,0,0:0:0:0:
331,316,141411,1,8,0:0:0:0:
318,289,141722,1,0,0:0:0:0:
318,289,141877,1,0,0:0:0:0:
318,289,142033,1,0,0:0:0:0:
300,268,142343,1,8,0:0:0:0:
300,268,142499,1,8,0:0:0:0:
300,268,142654,1,8,0:0:0:0:
300,268,142810,1,4,0:0:0:0:
227,199,143121,1,0,0:0:0:0:
227,199,143276,1,8,0:0:0:0:
227,199,143431,1,0,0:0:0:0:
227,199,143509,1,0,0:0:0:0:
227,199,143587,1,0,0:0:0:0:
220,205,143742,1,0,0:0:0:0:
220,205,143898,1,8,0:0:0:0:
301,249,144053,1,0,0:0:0:0:
340,264,144364,1,0,0:0:0:0:
340,264,144520,1,8,0:0:0:0:
326,249,144675,1,8,0:0:0:0:
326,249,144753,1,8,0:0:0:0:
340,264,144830,1,0,0:0:0:0:
340,264,144986,1,0,0:0:0:0:
340,264,145141,1,8,0:0:0:0:
340,264,145297,1,0,0:0:0:0:
204,200,145608,1,0,0:0:0:0:
204,200,145763,1,8,0:0:0:0:
204,200,145919,1,8,0:0:0:0:
204,200,146074,1,0,0:0:0:0:
277,248,146385,1,8,0:0:0:0:
277,248,146540,1,0,0:0:0:0:
277,248,146851,1,0,0:0:0:0:
277,248,147007,1,8,0:0:0:0:
277,248,147162,1,0,0:0:0:0:
357,312,147473,1,0,0:0:0:0:
357,312,147628,1,8,0:0:0:0:
357,312,147784,1,8,0:0:0:0:
357,312,147862,1,8,0:0:0:0:
357,312,147939,1,0,0:0:0:0:
314,178,148250,1,8,0:0:0:0:
314,178,148561,1,0,0:0:0:0:
314,178,148716,1,0,0:0:0:0:
314,178,148872,1,8,0:0:0:0:
314,178,149027,1,0,0:0:0:0:
199,199,149338,1,0,0:0:0:0:
199,199,149494,1,8,0:0:0:0:
287,258,149649,1,0,0:0:0:0:
287,258,149727,1,0,0:0:0:0:
199,199,149805,1,0,0:0:0:0:
199,199,149960,1,0,0:0:0:0:
199,199,150115,1,8,0:0:0:0:
199,199,150193,1,8,0:0:0:0:
199,199,150271,1,8,0:0:0:0:
199,199,150349,1,8,0:0:0:0:
199,199,150426,1,0,0:0:0:0:
338,262,150737,1,8,0:0:0:0:
338,262,150893,1,0,0:0:0:0:
343,261,150970,1,0,0:0:0:0:
343,261,151048,1,0,0:0:0:0:
343,261,151203,1,0,0:0:0:0:
343,261,151359,1,8,0:0:0:0:
343,261,151514,1,4,0:0:0:0:
305,237,151825,1,0,0:0:0:0:
305,237,151981,1,8,0:0:0:0:
305,237,152136,1,0,0:0:0:0:
305,237,152214,1,0,0:0:0:0:
305,237,152292,1,8,0:0:0:0:
305,237,152447,1,8,0:0:0:0:
304,243,152602,1,8,0:0:0:0:
304,243,152758,1,8,0:0:0:0:
304,243,152913,1,4,0:0:0:0:
286,253,153224,1,8,0:0:0:0:
286,253,153535,1,0,0:0:0:0:
286,253,153691,1,0,0:0:0:0:
286,253,153846,1,8,0:0:0:0:
263,177,154001,1,0,0:0:0:0:
369,264,154312,1,0,0:0:0:0:
369,264,154468,1,8,0:0:0:0:
360,273,154779,1,0,0:0:0:0:
360,273,154934,1,0,0:0:0:0:
360,273,155090,1,8,0:0:0:0:
360,273,155245,1,8,0:0:0:0:
360,273,155400,1,4,0:0:0:0:
391,297,155711,1,8,0:0:0:0:
391,297,155867,1,0,0:0:0:0:
388,301,155944,1,0,0:0:0:0:
388,301,156022,1,0,0:0:0:0:
388,301,156178,1,0,0:0:0:0:
388,301,156333,1,8,0:0:0:0:
388,301,156488,1,0,0:0:0:0:
336,253,156799,1,0,0:0:0:0:
336,253,156955,1,8,0:0:0:0:
296,212,157110,1,0,0:0:0:0:
296,212,157188,1,0,0:0:0:0:
296,212,157266,1,8,0:0:0:0:
128,192,157421,1,0,0:0:0:0:
288,320,157577,1,8,0:0:0:0:
288,320,157732,1,8,0:0:0:0:
192,288,157887,1,4,0:0:0:0:
314,265,158198,1,8,0:0:0:0:
314,265,158354,1,0,0:0:0:0:
314,265,158431,1,0,0:0:0:0:
314,265,158509,1,0,0:0:0:0:
318,249,158665,1,0,0:0:0:0:
318,249,158820,1,8,0:0:0:0:
318,249,158976,1,4,0:0:0:0:
333,279,159286,1,0,0:0:0:0:
333,279,159442,1,8,0:0:0:0:
333,279,159597,1,0,0:0:0:0:
333,279,159675,1,0,0:0:0:0:
333,279,159753,1,8,0:0:0:0:
333,279,159908,1,8,0:0:0:0:
333,279,160064,1,8,0:0:0:0:
351,222,160141,1,8,0:0:0:0:
345,226,160219,1,0,0:0:0:0:
296,224,160530,1,0,0:0:0:0:
296,224,160685,1,8,0:0:0:0:
296,224,160841,1,4,0:0:0:0:
250,202,161152,1,0,0:0:0:0:
250,202,161307,1,8,0:0:0:0:
250,202,161385,1,0,0:0:0:0:
250,202,161463,1,0,0:0:0:0:
250,202,161540,1,0,0:0:0:0:
250,202,161618,1,8,0:0:0:0:
382,266,162240,1,0,0:0:0:0:
298,222,162551,1,8,0:0:0:0:
256,192,162862,1,4,0:0:0:0:
256,192,163017,1,0,0:0:0:0:
256,192,163172,1,2,0:0:0:0:
256,192,163328,1,2,0:0:0:0:
256,192,163406,1,2,0:0:0:0:
256,192,163483,1,0,0:0:0:0:
256,192,163639,1,0,0:0:0:0:
256,192,163794,1,2,0:0:0:0:
256,192,163950,1,2,0:0:0:0:
256,192,164027,1,2,0:0:0:0:
256,192,164105,1,0,0:0:0:0:
256,192,164183,1,0,0:0:0:0:
256,192,164260,1,0,0:0:0:0:
256,192,164416,1,2,0:0:0:0:
256,192,164571,1,0,0:0:0:0:
256,192,164649,1,0,0:0:0:0:
256,192,164727,1,2,0:0:0:0:
256,192,164805,1,2,0:0:0:0:
256,192,164882,1,0,0:0:0:0:
256,192,165038,1,2,0:0:0:0:
256,192,165193,1,2,0:0:0:0:
256,192,165349,1,4,0:0:0:0:
256,192,165504,1,0,0:0:0:0:
256,192,165582,1,0,0:0:0:0:
256,192,165659,1,2,0:0:0:0:
256,192,165815,1,2,0:0:0:0:
256,192,165970,1,0,0:0:0:0:
256,192,166126,1,0,0:0:0:0:
256,192,166204,1,0,0:0:0:0:
256,192,166281,1,2,0:0:0:0:
256,192,166437,1,2,0:0:0:0:
256,192,166748,1,0,0:0:0:0:
256,192,166903,1,2,0:0:0:0:
256,192,167058,1,0,0:0:0:0:
256,192,167136,1,0,0:0:0:0:
256,192,167214,1,2,0:0:0:0:
256,192,167292,1,2,0:0:0:0:
256,192,167369,1,0,0:0:0:0:
256,192,167525,1,2,0:0:0:0:
256,192,167680,1,0,0:0:0:0:
256,192,167836,1,6,0:0:0:0:
256,192,167991,1,0,0:0:0:0:
256,192,168069,1,0,0:0:0:0:
256,192,168147,1,2,0:0:0:0:
256,192,168302,1,2,0:0:0:0:
256,192,168380,1,0,0:0:0:0:
256,192,168457,1,2,0:0:0:0:
256,192,168535,1,2,0:0:0:0:
256,192,168613,1,0,0:0:0:0:
256,192,168768,1,2,0:0:0:0:
256,192,168924,1,4,0:0:0:0:
256,192,169079,1,0,0:0:0:0:
256,192,169157,1,0,0:0:0:0:
256,192,169235,1,2,0:0:0:0:
256,192,169312,1,2,0:0:0:0:
256,192,169390,1,0,0:0:0:0:
256,192,169545,1,2,0:0:0:0:
256,192,169701,1,0,0:0:0:0:
256,192,169779,1,0,0:0:0:0:
256,192,169856,1,0,0:0:0:0:
256,192,169934,1,0,0:0:0:0:
256,192,170012,1,2,0:0:0:0:
256,192,170167,1,2,0:0:0:0:
256,192,170323,1,4,0:0:0:0:
256,192,170634,1,2,0:0:0:0:
256,192,170789,1,0,0:0:0:0:
256,192,170867,1,0,0:0:0:0:
256,192,170944,1,2,0:0:0:0:
256,192,171100,1,0,0:0:0:0:
256,192,171255,1,2,0:0:0:0:
256,192,171411,1,4,0:0:0:0:
256,192,171722,1,6,0:0:0:0:
256,192,171877,1,0,0:0:0:0:
256,192,172033,1,6,0:0:0:0:
256,192,172343,1,2,0:0:0:0:
256,192,172499,1,0,0:0:0:0:
256,192,172654,1,0,0:0:0:0:
256,192,172810,1,6,0:0:0:0:
256,192,173121,1,2,0:0:0:0:
256,192,173276,1,2,0:0:0:0:
256,192,173431,1,0,0:0:0:0:
256,192,173587,1,2,0:0:0:0:
256,192,173665,1,2,0:0:0:0:
256,192,173742,1,0,0:0:0:0:
256,192,173898,1,2,0:0:0:0:
256,192,174053,1,0,0:0:0:0:
256,192,174209,1,0,0:0:0:0:
256,192,174286,1,0,0:0:0:0:
256,192,174364,1,2,0:0:0:0:
256,192,174520,1,0,0:0:0:0:
256,192,174675,1,2,0:0:0:0:
256,192,174830,1,0,0:0:0:0:
256,192,174908,1,0,0:0:0:0:
256,192,174986,1,2,0:0:0:0:
256,192,175064,1,2,0:0:0:0:
256,192,175141,1,0,0:0:0:0:
256,192,175297,1,6,0:0:0:0:
256,192,175452,1,0,0:0:0:0:
256,192,175530,1,0,0:0:0:0:
256,192,175608,1,2,0:0:0:0:
256,192,175763,1,2,0:0:0:0:
256,192,175919,1,0,0:0:0:0:
256,192,176074,1,0,0:0:0:0:
256,192,176152,1,0,0:0:0:0:
256,192,176229,1,2,0:0:0:0:
256,192,176385,1,2,0:0:0:0:
256,192,176696,1,0,0:0:0:0:
256,192,176851,1,2,0:0:0:0:
256,192,177007,1,0,0:0:0:0:
256,192,177084,1,0,0:0:0:0:
256,192,177162,1,2,0:0:0:0:
256,192,177317,1,0,0:0:0:0:
256,192,177395,1,0,0:0:0:0:
256,192,177473,1,2,0:0:0:0:
256,192,177551,1,2,0:0:0:0:
256,192,177628,1,2,0:0:0:0:
256,192,177784,1,6,0:0:0:0:
256,192,177939,1,0,0:0:0:0:
256,192,178017,1,0,0:0:0:0:
256,192,178095,1,2,0:0:0:0:
256,192,178250,1,0,0:0:0:0:
256,192,178406,1,2,0:0:0:0:
256,192,178561,1,0,0:0:0:0:
256,192,178639,1,0,0:0:0:0:
256,192,178716,1,2,0:0:0:0:
256,192,178872,1,2,0:0:0:0:
256,192,179183,1,2,0:0:0:0:
256,192,179338,1,2,0:0:0:0:
256,192,179494,1,0,0:0:0:0:
256,192,179571,1,0,0:0:0:0:
256,192,179649,1,2,0:0:0:0:
256,192,179805,1,0,0:0:0:0:
256,192,179882,1,0,0:0:0:0:
256,192,179960,1,2,0:0:0:0:
256,192,180038,1,2,0:0:0:0:
256,192,180115,1,2,0:0:0:0:
256,192,180271,1,4,0:0:0:0:
256,192,180426,1,2,0:0:0:0:
256,192,180504,1,2,0:0:0:0:
256,192,180582,1,0,0:0:0:0:
256,192,180737,1,0,0:0:0:0:
256,192,180893,1,2,0:0:0:0:
256,192,180970,1,2,0:0:0:0:
256,192,181048,1,0,0:0:0:0:
256,192,181203,1,0,0:0:0:0:
256,192,181359,1,2,0:0:0:0:
256,192,181437,1,2,0:0:0:0:
256,192,181514,1,0,0:0:0:0:
256,192,181670,1,0,0:0:0:0:
256,192,181825,1,2,0:0:0:0:
256,192,181981,1,0,0:0:0:0:
256,192,182058,1,0,0:0:0:0:
256,192,182136,1,2,0:0:0:0:
256,192,182214,1,2,0:0:0:0:
256,192,182292,1,0,0:0:0:0:
256,192,182447,1,2,0:0:0:0:
256,192,182758,1,6,0:0:0:0:
256,192,182913,1,2,0:0:0:0:
128,128,182991,1,2,0:0:0:0:
256,192,183069,1,2,0:0:0:0:
256,192,183224,1,2,0:0:0:0:
256,192,183380,1,0,0:0:0:0:
256,192,183535,1,0,0:0:0:0:
256,192,183613,1,0,0:0:0:0:
256,192,183691,1,2,0:0:0:0:
256,192,183846,1,0,0:0:0:0:
256,192,184157,1,0,0:0:0:0:
256,192,184312,1,2,0:0:0:0:
256,192,184468,1,2,0:0:0:0:
256,192,184623,1,0,0:0:0:0:
256,192,184779,1,0,0:0:0:0:
256,192,184856,1,0,0:0:0:0:
256,192,184934,1,2,0:0:0:0:
256,192,185090,1,2,0:0:0:0:
256,192,185245,1,4,0:0:0:0:
256,192,185556,1,2,0:0:0:0:
256,192,185867,1,0,0:0:0:0:
256,192,186022,1,0,0:0:0:0:
256,192,186178,1,2,0:0:0:0:
256,192,186333,1,4,0:0:0:0:
256,192,186644,1,0,0:0:0:0:
256,192,186799,1,2,0:0:0:0:
256,192,186955,1,0,0:0:0:0:
256,192,187033,1,0,0:0:0:0:
256,192,187110,1,2,0:0:0:0:
256,192,187266,1,0,0:0:0:0:
256,320,187343,1,0,0:0:0:0:
256,192,187421,1,2,0:0:0:0:
256,320,187499,1,0,0:0:0:0:
256,192,187577,1,2,0:0:0:0:
256,192,187654,1,2,0:0:0:0:
256,192,187732,1,0,0:0:0:0:
224,192,187887,1,0,0:0:0:0:
224,192,188043,1,0,0:0:0:0:
224,192,188198,1,12,0:0:0:0:
224,192,188354,1,0,0:0:0:0:
224,192,188509,1,0,0:0:0:0:
224,192,188665,1,12,0:0:0:0:
192,192,188820,1,0,0:0:0:0:
192,192,188898,1,0,0:0:0:0:
192,192,188976,1,0,0:0:0:0:
192,192,189131,1,12,0:0:0:0:
288,256,189286,1,0,0:0:0:0:
288,256,189364,1,0,0:0:0:0:
288,256,189442,1,0,0:0:0:0:
288,288,189597,1,12,0:0:0:0:
224,224,189753,1,0,0:0:0:0:
288,288,189908,1,12,0:0:0:0:
224,224,190064,1,0,0:0:0:0:
288,224,190219,1,4,0:0:0:0:
256,224,190530,1,8,0:0:0:0:
256,224,190685,1,4,0:0:0:0:
256,224,190996,1,0,0:0:0:0:
256,224,191152,1,12,0:0:0:0:
320,224,191463,1,8,0:0:0:0:
320,224,191618,1,4,0:0:0:0:
288,192,191929,1,8,0:0:0:0:
288,192,192084,1,0,0:0:0:0:
288,192,192162,1,0,0:0:0:0:
288,192,192240,1,8,0:0:0:0:
288,192,192317,1,0,0:0:0:0:
288,192,192395,1,8,0:0:0:0:
288,192,192473,1,8,0:0:0:0:
288,192,192551,1,0,0:0:0:0:
352,288,192706,1,0,0:0:0:0:
352,288,192784,1,0,0:0:0:0:
352,288,192862,1,8,0:0:0:0:
320,288,192939,1,0,0:0:0:0:
320,288,193017,1,8,0:0:0:0:
256,192,193172,1,8,0:0:0:0:
256,192,193250,1,0,0:0:0:0:
256,192,193328,1,8,0:0:0:0:
256,192,193406,1,8,0:0:0:0:
256,192,193483,1,0,0:0:0:0:
256,192,193639,1,0,0:0:0:0:
256,192,193716,1,8,0:0:0:0:
256,192,193794,1,0,0:0:0:0:
256,192,193872,1,0,0:0:0:0:
256,192,193950,1,8,0:0:0:0:
320,224,194105,1,8,0:0:0:0:
320,224,194183,1,8,0:0:0:0:
352,224,194260,1,0,0:0:0:0:
352,224,194338,1,0,0:0:0:0:
352,224,194416,1,8,0:0:0:0:
320,224,194571,1,0,0:0:0:0:
320,224,194649,1,8,0:0:0:0:
320,224,194727,1,0,0:0:0:0:
320,224,194805,1,0,0:0:0:0:
320,224,194882,1,8,0:0:0:0:
320,224,194960,1,0,0:0:0:0:
320,224,195038,1,8,0:0:0:0:
320,224,195193,1,0,0:0:0:0:
160,192,195271,1,0,0:0:0:0:
160,192,195349,1,8,0:0:0:0:
160,192,195426,1,0,0:0:0:0:
160,192,195504,1,8,0:0:0:0:
160,192,195659,1,8,0:0:0:0:
160,192,195737,1,0,0:0:0:0:
160,192,195815,1,8,0:0:0:0:
160,192,195893,1,8,0:0:0:0:
160,160,195970,1,0,0:0:0:0:
320,160,196126,1,0,0:0:0:0:
320,160,196203,1,0,0:0:0:0:
320,160,196281,1,0,0:0:0:0:
320,160,196359,1,0,0:0:0:0:
320,160,196437,1,8,0:0:0:0:
320,224,196592,1,8,0:0:0:0:
320,224,196670,1,0,0:0:0:0:
320,224,196748,1,8,0:0:0:0:
320,224,196825,1,8,0:0:0:0:
320,224,196903,1,0,0:0:0:0:
256,160,197058,1,0,0:0:0:0:
256,160,197136,1,0,0:0:0:0:
256,160,197214,1,8,0:0:0:0:
256,160,197292,1,8,0:0:0:0:
256,160,197369,1,0,0:0:0:0:
352,288,197525,1,8,0:0:0:0:
352,256,197680,1,8,0:0:0:0:
352,256,197758,1,0,0:0:0:0:
352,256,197836,1,0,0:0:0:0:
352,256,197913,1,0,0:0:0:0:
320,256,197991,1,0,0:0:0:0:
320,256,198069,1,0,0:0:0:0:
288,224,198147,1,8,0:0:0:0:
320,256,198224,1,0,0:0:0:0:
320,256,198302,1,8,0:0:0:0:
256,224,198380,1,8,0:0:0:0:
256,224,198457,1,0,0:0:0:0:
256,224,198535,1,8,0:0:0:0:
256,224,198613,1,0,0:0:0:0:
256,224,198691,1,0,0:0:0:0:
320,256,198768,1,8,0:0:0:0:
320,256,198846,1,8,0:0:0:0:
320,256,198924,1,0,0:0:0:0:
261,169,199001,1,8,0:0:0:0:
261,169,199079,1,0,0:0:0:0:
261,169,199157,1,0,0:0:0:0:
390,245,199235,1,8,0:0:0:0:
390,245,199312,1,0,0:0:0:0:
390,245,199390,1,0,0:0:0:0:
390,245,199468,1,0,0:0:0:0:
390,245,199545,1,8,0:0:0:0:
390,245,199623,1,0,0:0:0:0:
390,245,199701,1,8,0:0:0:0:
390,245,199779,1,8,0:0:0:0:
390,245,199856,1,0,0:0:0:0:
303,206,200012,1,0,0:0:0:0:
357,230,200167,1,0,0:0:0:0:
357,230,200245,1,8,0:0:0:0:
357,230,200323,1,0,0:0:0:0:
363,232,200400,1,0,0:0:0:0:
329,258,200478,1,8,0:0:0:0:
329,258,200556,1,0,0:0:0:0:
329,258,200634,1,8,0:0:0:0:
329,258,200711,1,8,0:0:0:0:
329,258,200789,1,0,0:0:0:0:
329,258,200867,1,0,0:0:0:0:
355,262,200944,1,8,0:0:0:0:
355,262,201022,1,8,0:0:0:0:
355,262,201100,1,0,0:0:0:0:
355,262,201178,1,8,0:0:0:0:
360,225,201255,1,0,0:0:0:0:
367,224,201333,1,0,0:0:0:0:
367,225,201411,1,8,0:0:0:0:
367,225,201488,1,0,0:0:0:0:
367,225,201566,1,8,0:0:0:0:
370,227,201644,1,8,0:0:0:0:
370,227,201722,1,0,0:0:0:0:
352,207,201799,1,0,0:0:0:0:
352,207,201877,1,8,0:0:0:0:
352,207,201955,1,8,0:0:0:0:
352,207,202033,1,0,0:0:0:0:
368,257,202110,1,8,0:0:0:0:
368,257,202188,1,0,0:0:0:0:
368,257,202266,1,0,0:0:0:0:
368,257,202343,1,8,0:0:0:0:
368,257,202499,1,8,0:0:0:0:
365,285,202654,1,8,0:0:0:0:
365,285,202732,1,0,0:0:0:0:
365,285,202810,1,8,0:0:0:0:
358,278,202887,1,8,0:0:0:0:
357,278,202965,1,0,0:0:0:0:
357,278,203043,1,0,0:0:0:0:
356,277,203121,1,8,0:0:0:0:
356,275,203198,1,0,0:0:0:0:
355,271,203276,1,8,0:0:0:0:
355,271,203354,1,8,0:0:0:0:
355,271,203431,1,0,0:0:0:0:
355,271,203509,1,0,0:0:0:0:
357,240,203587,1,8,0:0:0:0:
357,240,203665,1,0,0:0:0:0:
357,240,203742,1,8,0:0:0:0:
357,240,203820,1,8,0:0:0:0:
357,240,203898,1,0,0:0:0:0:
357,240,203976,1,0,0:0:0:0:
346,220,204053,1,8,0:0:0:0:
346,220,204131,1,0,0:0:0:0:
346,220,204209,1,8,0:0:0:0:
346,221,204286,1,8,0:0:0:0:
346,221,204364,1,0,0:0:0:0:
346,221,204442,1,0,0:0:0:0:
350,255,204520,1,8,0:0:0:0:
350,255,204597,1,0,0:0:0:0:
350,255,204675,1,8,0:0:0:0:
350,255,204753,1,8,0:0:0:0:
350,255,204830,1,0,0:0:0:0:
350,255,204986,1,0,0:0:0:0:
350,238,205141,5,12,0:0:0:0:
350,238,205297,1,12,0:0:0:0:
350,238,205608,1,12,0:0:0:0:
350,238,205763,1,12,0:0:0:0:
350,238,206074,1,12,0:0:0:0:
350,238,206229,1,12,0:0:0:0:
256,192,207628,5,6,0:0:0:0:
256,192,209338,1,0,0:0:0:0:
256,192,209494,1,0,0:0:0:0:
256,192,209727,1,2,0:0:0:0:
256,192,209960,1,2,0:0:0:0:
256,192,210115,1,0,0:0:0:0:
256,192,210737,1,2,0:0:0:0:
256,192,211359,1,0,0:0:0:0:
256,192,211981,1,2,0:0:0:0:
256,192,212602,1,4,0:0:0:0:
256,192,214157,1,2,0:0:0:0:
256,192,214468,1,2,0:0:0:0:
256,192,214779,1,2,0:0:0:0:
256,192,215090,1,0,0:0:0:0:
256,192,216022,1,0,0:0:0:0:
256,192,216178,1,2,0:0:0:0:
256,192,216644,1,2,0:0:0:0:
256,192,216799,1,2,0:0:0:0:
256,192,216955,1,0,0:0:0:0:
256,192,217110,1,2,0:0:0:0:
256,192,217266,1,0,0:0:0:0:
256,192,217421,1,0,0:0:0:0:
256,192,217577,1,6,0:0:0:0:
256,192,218198,1,0,0:0:0:0:
256,192,218509,1,0,0:0:0:0:
256,192,218665,1,2,0:0:0:0:
256,192,218820,1,0,0:0:0:0:
256,192,218976,1,2,0:0:0:0:
256,192,219131,1,0,0:0:0:0:
256,192,219442,1,0,0:0:0:0:
256,192,219675,1,2,0:0:0:0:
256,192,219908,1,2,0:0:0:0:
256,192,220064,1,0,0:0:0:0:
256,192,220374,1,0,0:0:0:0:
256,192,220530,1,0,0:0:0:0:
256,192,220685,1,2,0:0:0:0:
256,192,220996,1,0,0:0:0:0:
256,192,221152,1,2,0:0:0:0:
256,192,221307,1,0,0:0:0:0:
256,192,221463,1,2,0:0:0:0:
256,192,221618,1,0,0:0:0:0:
256,192,221929,1,2,0:0:0:0:
256,192,222084,1,2,0:0:0:0:
256,192,222240,1,0,0:0:0:0:
256,192,222395,1,0,0:0:0:0:
256,192,222551,1,6,0:0:0:0:
256,192,223172,1,2,0:0:0:0:
256,192,223483,1,0,0:0:0:0:
256,192,223639,1,2,0:0:0:0:
256,192,223794,1,0,0:0:0:0:
256,192,223950,1,2,0:0:0:0:
256,192,224105,1,0,0:0:0:0:
256,192,224416,1,2,0:0:0:0:
256,192,224649,1,0,0:0:0:0:
256,192,224727,1,0,0:0:0:0:
256,192,224882,1,2,0:0:0:0:
256,192,225038,1,4,0:0:0:0:
256,192,225193,1,2,0:0:0:0:
256,192,225349,1,0,0:0:0:0:
256,192,225659,1,2,0:0:0:0:
256,192,225815,1,2,0:0:0:0:
256,192,225970,1,0,0:0:0:0:
256,192,226126,1,2,0:0:0:0:
256,192,226281,1,0,0:0:0:0:
256,192,226437,1,0,0:0:0:0:
256,192,226592,1,2,0:0:0:0:
256,192,226748,1,0,0:0:0:0:
256,192,226825,1,0,0:0:0:0:
256,192,226903,1,2,0:0:0:0:
256,192,227058,1,2,0:0:0:0:
256,192,227214,1,0,0:0:0:0:
256,192,227369,1,2,0:0:0:0:
256,192,227525,1,4,0:0:0:0:
256,192,228147,1,2,0:0:0:0:
256,192,228457,1,0,0:0:0:0:
256,192,228613,1,2,0:0:0:0:
256,192,228768,1,0,0:0:0:0:
256,192,228924,1,2,0:0:0:0:
256,192,229079,1,0,0:0:0:0:
256,192,229390,1,2,0:0:0:0:
256,192,229623,1,0,0:0:0:0:
256,192,229701,1,0,0:0:0:0:
256,192,229856,1,0,0:0:0:0:
256,192,230012,1,2,0:0:0:0:
256,192,230167,1,2,0:0:0:0:
256,192,230323,1,0,0:0:0:0:
256,192,230634,1,2,0:0:0:0:
256,192,230867,1,0,0:0:0:0:
256,192,230944,1,0,0:0:0:0:
256,192,231100,1,2,0:0:0:0:
256,192,231255,1,0,0:0:0:0:
256,192,231411,1,2,0:0:0:0:
256,192,231566,1,0,0:0:0:0:
256,192,231722,1,0,0:0:0:0:
256,192,231799,1,0,0:0:0:0:
256,192,231877,1,2,0:0:0:0:
256,192,232033,1,2,0:0:0:0:
256,192,232188,1,0,0:0:0:0:
256,192,232499,1,6,0:0:0:0:
256,192,232965,1,0,0:0:0:0:
256,192,233121,1,2,0:0:0:0:
256,192,233431,1,0,0:0:0:0:
256,192,233742,1,2,0:0:0:0:
256,192,233898,1,2,0:0:0:0:
256,192,234053,1,0,0:0:0:0:
256,192,234209,1,0,0:0:0:0:
256,192,234364,1,2,0:0:0:0:
256,192,234597,1,0,0:0:0:0:
256,192,234675,1,0,0:0:0:0:
256,192,234830,1,2,0:0:0:0:
256,192,234986,1,4,0:0:0:0:
256,192,235141,1,0,0:0:0:0:
256,192,235219,1,0,0:0:0:0:
256,192,235297,1,2,0:0:0:0:
256,192,235452,1,0,0:0:0:0:
256,192,235608,1,2,0:0:0:0:
256,192,235763,1,2,0:0:0:0:
256,192,235919,1,0,0:0:0:0:
256,192,236074,1,2,0:0:0:0:
256,192,236229,1,4,0:0:0:0:
256,192,237473,1,4,0:0:0:0:
323,189,237784,1,0,0:0:0:0:
323,189,237939,1,8,0:0:0:0:
323,189,238250,1,0,0:0:0:0:
323,189,238406,1,0,0:0:0:0:
323,189,238561,1,8,0:0:0:0:
325,250,239338,1,0,0:0:0:0:
325,250,239649,1,8,0:0:0:0:
325,250,239960,1,0,0:0:0:0:
341,332,240271,1,8,0:0:0:0:
341,332,240426,1,0,0:0:0:0:
341,332,240737,1,8,0:0:0:0:
338,323,240893,1,0,0:0:0:0:
338,323,241048,1,8,0:0:0:0:
282,267,241825,1,0,0:0:0:0:
282,267,242136,1,8,0:0:0:0:
282,267,242447,1,0,0:0:0:0:
411,250,242758,1,8,0:0:0:0:
411,250,242913,1,0,0:0:0:0:
411,250,243069,1,8,0:0:0:0:
411,250,243224,1,8,0:0:0:0:
396,324,243535,1,0,0:0:0:0:
396,324,243846,1,8,0:0:0:0:
396,324,244157,1,0,0:0:0:0:
373,258,244468,1,8,0:0:0:0:
373,258,244623,1,8,0:0:0:0:
373,258,244779,1,0,0:0:0:0:
375,280,244934,1,8,0:0:0:0:
282,287,245245,1,0,0:0:0:0:
282,287,245400,1,0,0:0:0:0:
282,287,245556,1,8,0:0:0:0:
402,258,245867,1,0,0:0:0:0:
402,258,246022,1,0,0:0:0:0:
402,258,246333,1,8,0:0:0:0:
402,258,246644,1,8,0:0:0:0:
480,288,246799,1,0,0:0:0:0:
480,288,246955,1,0,0:0:0:0:
451,352,247110,1,8,0:0:0:0:
480,288,247266,1,8,0:0:0:0:
451,352,247421,1,4,0:0:0:0:
388,321,247732,1,8,0:0:0:0:
340,316,248043,1,0,0:0:0:0:
340,316,248198,1,0,0:0:0:0:
340,316,248354,1,8,0:0:0:0:
340,316,248509,1,0,0:0:0:0:
308,265,248820,1,0,0:0:0:0:
308,265,248976,1,8,0:0:0:0:
308,265,249286,1,0,0:0:0:0:
308,265,249442,1,0,0:0:0:0:
308,265,249597,1,8,0:0:0:0:
378,292,249908,1,0,0:0:0:0:
344,325,250219,1,8,0:0:0:0:
344,325,250530,1,0,0:0:0:0:
344,325,250685,1,0,0:0:0:0:
344,325,250841,1,8,0:0:0:0:
161,242,250996,1,0,0:0:0:0:
309,250,251307,1,8,0:0:0:0:
155,214,251463,1,8,0:0:0:0:
328,201,251773,1,0,0:0:0:0:
328,201,251929,1,0,0:0:0:0:
328,201,252084,1,8,0:0:0:0:
328,201,252240,1,8,0:0:0:0:
328,201,252395,1,0,0:0:0:0:
273,223,252706,1,8,0:0:0:0:
273,223,253017,1,0,0:0:0:0:
273,223,253172,1,0,0:0:0:0:
273,223,253328,1,8,0:0:0:0:
273,223,253483,1,0,0:0:0:0:
391,284,253794,1,8,0:0:0:0:
391,284,253950,1,0,0:0:0:0:
391,284,254105,1,0,0:0:0:0:
391,284,254260,1,8,0:0:0:0:
365,281,254571,1,0,0:0:0:0:
365,281,254882,1,8,0:0:0:0:
342,281,255038,1,8,0:0:0:0:
341,281,255193,1,0,0:0:0:0:
341,280,255349,1,0,0:0:0:0:
341,280,255504,1,8,0:0:0:0:
314,270,255659,1,0,0:0:0:0:
314,270,255815,1,0,0:0:0:0:
314,270,255970,1,12,0:0:0:0:
256,192,257369,1,4,0:0:0:0:
256,192,258302,1,0,0:0:0:0:
256,192,258613,1,2,0:0:0:0:
256,192,258924,1,0,0:0:0:0:
256,192,259235,1,2,0:0:0:0:
256,192,259390,1,0,0:0:0:0:
256,192,259468,1,0,0:0:0:0:
256,192,259545,1,2,0:0:0:0:
256,192,259623,1,2,0:0:0:0:
256,192,259701,1,2,0:0:0:0:
256,192,259779,1,2,0:0:0:0:
256,192,259856,1,4,0:0:0:0:
256,192,260012,1,0,0:0:0:0:
256,192,260090,1,0,0:0:0:0:
256,192,260167,1,2,0:0:0:0:
256,192,260323,1,2,0:0:0:0:
256,192,260478,1,0,0:0:0:0:
256,192,260634,1,0,0:0:0:0:
256,192,260711,1,0,0:0:0:0:
256,192,260789,1,2,0:0:0:0:
256,192,260944,1,2,0:0:0:0:
256,192,261022,1,2,0:0:0:0:
256,192,261100,1,0,0:0:0:0:
256,192,261178,1,2,0:0:0:0:
256,192,261255,1,0,0:0:0:0:
256,192,261411,1,2,0:0:0:0:
256,192,261566,1,0,0:0:0:0:
256,192,261644,1,0,0:0:0:0:
256,192,261722,1,2,0:0:0:0:
256,192,261799,1,0,0:0:0:0:
256,192,261877,1,0,0:0:0:0:
256,192,261955,1,0,0:0:0:0:
256,192,262033,1,2,0:0:0:0:
256,192,262110,1,2,0:0:0:0:
256,192,262188,1,0,0:0:0:0:
256,192,262343,1,6,0:0:0:0:
256,192,262499,1,0,0:0:0:0:
256,192,262577,1,0,0:0:0:0:
256,192,262654,1,2,0:0:0:0:
256,192,262810,1,2,0:0:0:0:
256,192,262887,1,0,0:0:0:0:
256,192,262965,1,2,0:0:0:0:
256,192,263043,1,2,0:0:0:0:
256,192,263121,1,0,0:0:0:0:
256,192,263198,1,0,0:0:0:0:
256,192,263276,1,2,0:0:0:0:
256,192,263431,1,6,0:0:0:0:
256,192,263587,1,0,0:0:0:0:
256,192,263665,1,0,0:0:0:0:
256,192,263742,1,2,0:0:0:0:
256,192,263820,1,2,0:0:0:0:
256,192,263898,1,0,0:0:0:0:
256,192,264053,1,2,0:0:0:0:
256,192,264131,1,2,0:0:0:0:
256,192,264209,1,0,0:0:0:0:
256,192,264286,1,0,0:0:0:0:
256,192,264364,1,2,0:0:0:0:
256,192,264442,1,0,0:0:0:0:
256,192,264520,1,2,0:0:0:0:
256,192,264597,1,2,0:0:0:0:
256,192,264675,1,0,0:0:0:0:
256,192,264830,1,6,0:0:0:0:
256,192,264986,1,0,0:0:0:0:
256,192,265064,1,0,0:0:0:0:
256,192,265141,1,2,0:0:0:0:
256,192,265219,1,0,0:0:0:0:
256,192,265297,1,2,0:0:0:0:
256,192,265374,1,2,0:0:0:0:
256,192,265452,1,0,0:0:0:0:
256,192,265530,1,2,0:0:0:0:
256,192,265608,1,0,0:0:0:0:
256,192,265685,1,0,0:0:0:0:
256,192,265763,1,2,0:0:0:0:
256,192,265919,1,4,0:0:0:0:
256,192,266229,1,6,0:0:0:0:
256,192,266385,1,0,0:0:0:0:
256,192,266540,1,6,0:0:0:0:
256,192,266696,1,0,0:0:0:0:
256,192,266851,1,2,0:0:0:0:
256,192,267007,1,0,0:0:0:0:
256,192,267162,1,0,0:0:0:0:
256,192,267317,1,6,0:0:0:0:
256,192,267628,1,2,0:0:0:0:
256,192,267784,1,2,0:0:0:0:
256,192,267862,1,2,0:0:0:0:
256,192,267939,1,0,0:0:0:0:
256,192,268095,1,0,0:0:0:0:
256,192,268250,1,2,0:0:0:0:
256,192,268406,1,2,0:0:0:0:
256,192,268483,1,2,0:0:0:0:
256,192,268561,1,0,0:0:0:0:
256,192,268639,1,2,0:0:0:0:
256,192,268716,1,0,0:0:0:0:
256,192,268872,1,2,0:0:0:0:
256,192,269027,1,0,0:0:0:0:
256,192,269105,1,0,0:0:0:0:
256,192,269183,1,2,0:0:0:0:
256,192,269260,1,2,0:0:0:0:
256,192,269338,1,2,0:0:0:0:
256,192,269416,1,0,0:0:0:0:
256,192,269494,1,2,0:0:0:0:
256,192,269571,1,2,0:0:0:0:
256,192,269649,1,0,0:0:0:0:
256,192,269805,1,4,0:0:0:0:
256,192,269960,1,0,0:0:0:0:
256,192,270038,1,0,0:0:0:0:
256,192,270115,1,2,0:0:0:0:
256,192,270271,1,2,0:0:0:0:
256,192,270426,1,0,0:0:0:0:
256,192,270582,1,0,0:0:0:0:
256,192,270659,1,0,0:0:0:0:
256,192,270737,1,2,0:0:0:0:
256,192,270893,1,2,0:0:0:0:
256,192,271204,1,0,0:0:0:0:
256,192,271359,1,2,0:0:0:0:
256,192,271514,1,0,0:0:0:0:
256,192,271592,1,0,0:0:0:0:
256,192,271670,1,2,0:0:0:0:
256,192,271825,1,0,0:0:0:0:
256,192,271903,1,0,0:0:0:0:
256,192,271981,1,2,0:0:0:0:
256,192,272058,1,2,0:0:0:0:
256,192,272136,1,0,0:0:0:0:
256,192,272292,1,6,0:0:0:0:
256,192,272447,1,0,0:0:0:0:
256,192,272525,1,0,0:0:0:0:
256,192,272602,1,2,0:0:0:0:
256,192,272758,1,2,0:0:0:0:
256,192,272836,1,2,0:0:0:0:
256,192,272913,1,0,0:0:0:0:
256,192,272991,1,2,0:0:0:0:
256,192,273069,1,0,0:0:0:0:
256,192,273147,1,0,0:0:0:0:
256,192,273224,1,2,0:0:0:0:
256,192,273380,1,6,0:0:0:0:
256,192,273691,1,2,0:0:0:0:
256,192,273846,1,0,0:0:0:0:
256,192,274001,1,0,0:0:0:0:
256,192,274079,1,0,0:0:0:0:
256,192,274157,1,2,0:0:0:0:
256,192,274312,1,0,0:0:0:0:
256,192,274390,1,0,0:0:0:0:
256,192,274468,1,2,0:0:0:0:
256,192,274545,1,2,0:0:0:0:
256,192,274623,1,2,0:0:0:0:
256,192,274779,1,6,0:0:0:0:
256,192,274934,1,2,0:0:0:0:
256,192,275012,1,2,0:0:0:0:
256,192,275090,1,0,0:0:0:0:
256,192,275167,1,0,0:0:0:0:
256,192,275245,1,2,0:0:0:0:
256,192,275323,1,0,0:0:0:0:
256,192,275400,1,2,0:0:0:0:
256,192,275478,1,2,0:0:0:0:
256,192,275556,1,0,0:0:0:0:
256,192,275634,1,0,0:0:0:0:
256,192,275711,1,2,0:0:0:0:
256,192,275867,1,4,0:0:0:0:
256,192,276178,1,6,0:0:0:0:
256,192,276333,1,0,0:0:0:0:
256,192,276488,1,6,0:0:0:0:
256,192,276644,1,0,0:0:0:0:
256,192,276799,1,0,0:0:0:0:
256,192,276955,1,2,0:0:0:0:
256,192,277266,1,4,0:0:0:0:
256,192,277577,1,0,0:0:0:0:
256,192,277887,1,2,0:0:0:0:
256,192,278043,1,0,0:0:0:0:
256,192,278121,1,0,0:0:0:0:
256,192,278198,1,2,0:0:0:0:
256,192,278354,1,2,0:0:0:0:
256,192,278509,1,0,0:0:0:0:
256,192,278665,1,2,0:0:0:0:
256,192,278742,1,0,0:0:0:0:
256,192,278820,1,0,0:0:0:0:
256,192,278976,1,0,0:0:0:0:
256,192,279131,1,2,0:0:0:0:
256,192,279442,1,2,0:0:0:0:
256,192,279597,1,2,0:0:0:0:
256,192,279675,1,2,0:0:0:0:
256,192,279753,1,0,0:0:0:0:
256,192,279908,1,2,0:0:0:0:
256,192,280064,1,0,0:0:0:0:
256,192,280374,1,2,0:0:0:0:
256,192,280530,1,2,0:0:0:0:
256,192,280608,1,2,0:0:0:0:
256,192,280685,1,0,0:0:0:0:
256,192,280841,1,6,0:0:0:0:
256,192,281152,1,0,0:0:0:0:
256,192,281307,1,2,0:0:0:0:
256,192,281463,1,0,0:0:0:0:
256,192,281540,1,0,0:0:0:0:
256,192,281618,1,2,0:0:0:0:
256,192,281773,1,0,0:0:0:0:
256,192,281929,1,2,0:0:0:0:
256,192,282084,1,2,0:0:0:0:
256,192,282162,1,2,0:0:0:0:
256,192,282240,1,0,0:0:0:0:
256,192,282395,1,0,0:0:0:0:
256,192,282551,1,2,0:0:0:0:
256,192,282706,1,0,0:0:0:0:
256,192,282784,1,0,0:0:0:0:
256,192,282862,1,2,0:0:0:0:
256,192,282939,1,2,0:0:0:0:
256,192,283017,1,0,0:0:0:0:
256,192,283095,1,0,0:0:0:0:
256,192,283172,1,2,0:0:0:0:
256,192,283328,1,6,0:0:0:0:
256,192,283639,1,2,0:0:0:0:
256,192,283794,1,2,0:0:0:0:
256,192,283950,1,0,0:0:0:0:
256,192,284027,1,0,0:0:0:0:
256,192,284105,1,2,0:0:0:0:
256,192,284260,1,0,0:0:0:0:
256,192,284416,1,2,0:0:0:0:
256,192,284571,1,2,0:0:0:0:
256,192,284727,1,4,0:0:0:0:
256,192,284882,1,0,0:0:0:0:
256,192,284960,1,0,0:0:0:0:
256,192,285038,1,2,0:0:0:0:
256,192,285193,1,4,0:0:0:0:
256,192,285349,1,0,0:0:0:0:
256,192,285426,1,0,0:0:0:0:
256,192,285504,1,2,0:0:0:0:
256,192,285659,1,2,0:0:0:0:
256,192,285815,1,4,0:0:0:0:
258,157,286126,1,0,0:0:0:0:
258,157,286281,1,8,0:0:0:0:
258,157,286437,1,4,0:0:0:0:
258,157,286748,1,0,0:0:0:0:
258,157,286903,1,8,0:0:0:0:
258,157,287058,1,4,0:0:0:0:
311,82,287369,1,0,0:0:0:0:
311,82,287525,1,0,0:0:0:0:
311,82,287680,1,12,0:0:0:0:
261,185,287991,1,8,0:0:0:0:
244,169,288069,1,0,0:0:0:0:
259,178,288147,1,0,0:0:0:0:
259,178,288224,1,0,0:0:0:0:
242,172,288302,1,8,0:0:0:0:
271,225,288613,1,8,0:0:0:0:
216,170,288768,1,0,0:0:0:0:
216,170,288924,1,12,0:0:0:0:
254,220,289235,1,8,0:0:0:0:
254,220,289390,1,0,0:0:0:0:
254,220,289545,1,4,0:0:0:0:
253,226,289856,1,0,0:0:0:0:
287,187,290012,1,0,0:0:0:0:
287,187,290167,1,12,0:0:0:0:
287,187,290478,1,8,0:0:0:0:
224,224,290556,1,0,0:0:0:0:
230,237,290634,1,0,0:0:0:0:
229,233,290711,1,0,0:0:0:0:
229,233,290789,1,8,0:0:0:0:
264,140,291100,1,0,0:0:0:0:
264,140,291255,1,8,0:0:0:0:
264,140,291411,1,0,0:0:0:0:
264,140,291488,1,0,0:0:0:0:
264,140,291566,1,0,0:0:0:0:
264,140,291722,1,0,0:0:0:0:
264,140,291877,1,8,0:0:0:0:
266,151,292188,1,0,0:0:0:0:
266,151,292499,1,8,0:0:0:0:
266,151,292654,1,0,0:0:0:0:
266,151,292732,1,0,0:0:0:0:
266,151,292810,1,0,0:0:0:0:
266,151,292965,1,0,0:0:0:0:
266,151,293121,1,8,0:0:0:0:
266,151,293276,1,0,0:0:0:0:
286,232,293587,1,0,0:0:0:0:
286,232,293742,1,8,0:0:0:0:
286,232,293898,1,0,0:0:0:0:
286,232,293976,1,0,0:0:0:0:
286,232,294053,1,0,0:0:0:0:
286,232,294209,1,0,0:0:0:0:
286,232,294364,1,8,0:0:0:0:
217,76,294520,1,0,0:0:0:0:
217,76,294597,1,0,0:0:0:0:
217,76,294675,1,0,0:0:0:0:
217,76,294830,1,0,0:0:0:0:
217,76,294986,1,8,0:0:0:0:
302,208,295141,1,8,0:0:0:0:
302,208,295219,1,8,0:0:0:0:
302,208,295297,1,0,0:0:0:0:
302,208,295452,1,0,0:0:0:0:
302,208,295530,1,0,0:0:0:0:
302,208,295608,1,0,0:0:0:0:
269,203,295685,1,0,0:0:0:0:
325,194,295763,1,8,0:0:0:0:
297,194,296074,1,0,0:0:0:0:
297,194,296229,1,8,0:0:0:0:
296,205,296385,1,0,0:0:0:0:
74,151,296463,1,0,0:0:0:0:
80,151,296540,1,0,0:0:0:0:
100,154,296696,1,0,0:0:0:0:
100,150,296851,1,8,0:0:0:0:
317,214,297007,1,0,0:0:0:0:
321,215,297084,1,0,0:0:0:0:
321,215,297162,1,8,0:0:0:0:
321,215,297317,1,0,0:0:0:0:
321,215,297473,1,8,0:0:0:0:
321,215,297628,1,8,0:0:0:0:
321,215,297706,1,8,0:0:0:0:
321,215,297784,1,0,0:0:0:0:
327,212,297939,1,0,0:0:0:0:
327,212,298017,1,0,0:0:0:0:
327,212,298095,1,8,0:0:0:0:
327,212,298172,1,8,0:0:0:0:
328,212,298250,1,0,0:0:0:0:
292,233,298561,1,0,0:0:0:0:
292,233,298716,1,8,0:0:0:0:
292,233,298872,1,0,0:0:0:0:
292,233,298950,1,0,0:0:0:0:
292,233,299027,1,0,0:0:0:0:
292,233,299183,1,0,0:0:0:0:
292,233,299338,1,8,0:0:0:0:
319,177,299416,1,8,0:0:0:0:
319,177,299494,1,0,0:0:0:0:
319,177,299571,1,0,0:0:0:0:
319,177,299649,1,8,0:0:0:0:
319,177,299805,1,0,0:0:0:0:
314,210,299882,1,0,0:0:0:0:
314,210,299960,1,0,0:0:0:0:
256,192,300115,5,6,0:0:0:0:
256,192,300426,1,4,0:0:0:0:
256,192,300737,1,4,0:0:0:0:
160,192,302136,1,8,0:0:0:0:
