osu file format v14

[General]
AudioFilename: audio.mp3
AudioLeadIn: 0
PreviewTime: 247018
Countdown: 0
SampleSet: Soft
StackLeniency: 0.7
Mode: 0
LetterboxInBreaks: 0
WidescreenStoryboard: 0

[Editor]
Bookmarks: 58702,87147,153209,178080,250204,276163
DistanceSpacing: 1
BeatDivisor: 4
GridSize: 8
TimelineZoom: 2.6

[Metadata]
Title:Wonder Stella
TitleUnicode:ワンダーステラ
Artist:fhana
ArtistUnicode:fhána
Creator:Sotarks
Version:Melancholy.
Source:Fate/kaleid liner プリズマ☆イリヤ ツヴァイ ヘルツ!
Tags:Prisma☆Illya 2wei Herz! Illya Prisma Herz towana yuxugi waga kevin mitsunaga junichi sato lantis op opening full ver version jpop j-pop japanese anime appleeaterx mint
BeatmapID:2435130
BeatmapSetID:1167347

[Difficulty]
HPDrainRate:5.2
CircleSize:3.8
OverallDifficulty:8.7
ApproachRate:9.2
SliderMultiplier:1.82
SliderTickRate:1

[Events]
//Background and Video events
0,0,"bg.jpg",0,0
//Break Periods
//Storyboard Layer 0 (Background)
//Storyboard Layer 1 (Fail)
//Storyboard Layer 2 (Pass)
//Storyboard Layer 3 (Foreground)
//Storyboard Layer 4 (Overlay)
//Storyboard Sound Samples

[TimingPoints]
1500,310.880829015544,4,2,22,42,1,0
1500,-138.888888888889,4,2,22,42,0,0
10670,-138.888888888889,4,2,22,62,0,0
11448,-98.0392156862746,4,2,22,72,0,0
21240,-89.2857142857143,4,2,22,62,0,0
22018,-121.951219512195,4,2,22,52,0,0
23727,-89.2857142857143,4,2,22,62,0,0
24505,-121.951219512195,4,2,22,52,0,0
26215,-108.695652173913,4,2,22,52,0,0
28702,-98.0392156862745,4,2,22,52,0,0
31344,-89.2857142857143,4,2,22,62,0,0
31966,-121.951219512195,4,2,22,52,0,0
36163,-89.2857142857143,4,2,22,62,0,0
36629,-98.0392156862745,4,2,22,52,0,0
38183,-98.0392156862745,4,2,22,72,0,0
38650,-98.0392156862745,4,2,22,62,0,0
56059,-81.9672131147541,4,2,22,72,0,0
57458,-89.2857142857143,4,2,22,72,0,0
57691,-89.2857142857143,4,2,22,5,0,0
57769,-121.951219512195,4,2,22,42,0,0
58002,-121.951219512195,4,2,22,5,0,0
58080,-192.307692307692,4,2,22,42,0,0
58313,-192.307692307692,4,2,22,5,0,0
58391,-192.307692307692,4,2,22,42,0,0
58624,-192.307692307692,4,2,22,5,0,0
58702,-89.2857142857143,4,2,22,82,0,0
67251,-81.9672131147541,4,2,22,82,0,0
67562,-89.2857142857143,4,2,22,82,0,0
68650,-89.2857142857143,4,2,22,82,0,0
77199,-81.9672131147541,4,2,22,82,0,0
77510,-89.2857142857143,4,2,22,82,0,0
78598,-98.0392156862745,4,2,22,82,0,0
83572,-89.2857142857143,4,2,22,82,0,0
87147,-192.307692307692,4,2,22,82,0,0
87225,-192.307692307692,4,2,22,42,0,0
88546,-161.290322580645,4,2,22,42,0,0
98494,-138.888888888889,4,2,22,52,0,0
110152,-138.888888888889,4,2,22,62,0,0
110774,-98.0392156862746,4,2,22,72,0,0
118391,-108.695652173913,4,2,22,62,0,0
122277,-108.695652173913,4,2,22,72,0,0
123209,-98.0392156862745,4,2,22,82,0,0
131137,-98.0392156862745,4,2,22,72,0,0
133158,-98.0392156862745,4,2,22,62,0,0
150567,-81.9672131147541,4,2,22,72,0,0
151966,-192.307692307692,4,2,22,72,0,0
152898,-161.290322580645,4,2,22,52,0,0
153209,-89.2857142857143,4,2,22,82,0,0
161759,-81.9672131147541,4,2,22,82,0,0
162069,-89.2857142857143,4,2,22,82,0,0
163157,-89.2857142857143,4,2,22,82,0,0
178080,-81.9672131147541,4,2,22,82,0,0
188028,-108.695652173913,4,2,22,72,0,0
189893,-81.9672131147541,4,2,22,82,0,0
190437,-81.9672131147541,4,2,22,5,0,0
190515,-108.695652173913,4,2,22,72,0,0
192380,-81.9672131147541,4,2,22,82,0,0
192691,-75.7575757575758,4,2,22,82,0,0
192924,-75.7575757575758,4,2,22,5,0,0
193002,-89.2857142857143,4,2,22,82,0,0
195489,-89.2857142857143,4,2,22,92,0,0
197976,-238.095238095238,4,2,22,52,0,0
207924,-108.695652173913,4,2,22,62,0,0
226577,-161.290322580645,4,2,22,62,0,0
227821,-454.545454545455,4,2,22,52,0,0
230308,-454.545454545455,4,2,22,42,0,0
236992,-121.951219512195,4,2,22,62,0,0
237769,-108.695652173913,4,2,22,62,0,0
245230,-108.695652173913,4,2,22,72,0,0
246784,-454.545454545455,4,2,22,42,0,0
247639,-454.545454545455,4,2,22,5,0,0
247717,-192.307692307692,4,2,22,72,0,0
248650,-192.307692307692,4,2,22,52,0,0
249582,-98.0392156862745,4,2,22,72,0,0
250204,-89.2857142857143,4,2,22,82,0,0
256266,-81.9672131147541,4,2,22,82,0,0
256577,-89.2857142857143,4,2,22,82,0,0
266215,-81.9672131147541,4,2,22,82,0,0
266525,-89.2857142857143,4,2,22,82,0,0
267613,-98.0392156862745,4,2,22,82,0,0
272588,-89.2857142857143,4,2,22,82,0,0
278650,-81.9672131147541,4,2,22,82,0,0
281137,-89.2857142857143,4,2,22,82,0,0
290463,-89.2857142857143,4,2,22,92,0,0

[Colours]
Combo1 : 207,255,159
Combo2 : 233,250,227
Combo3 : 213,199,188
Combo4 : 172,146,166
Combo5 : 204,222,249
Combo6 : 124,169,224
Combo7 : 254,255,191
Combo8 : 253,181,227

[HitObjects]
77,156,1500,22,0,P|85:225|92:293,1,131.040003199219,2|0,1:2|0:2,0:0:0:0:
180,344,1966,2,0,P|185:296|190:256,1,65.5200015996094,0|0,0:2|3:2,0:0:0:0:
277,215,2277,2,0,P|280:247|284:280,1,65.5200015996094,0|0,0:2|0:2,0:0:0:0:
370,345,2588,2,0,P|428:335|449:261,1,131.040003199219,0|0,3:2|0:2,0:0:0:0:
390,133,3054,1,0,0:2:0:0:
488,168,3209,1,0,0:2:0:0:
376,233,3365,2,0,P|331:225|290:219,1,65.5200015996094,8|0,0:2|0:2,0:0:0:0:
277,106,3676,2,0,P|244:111|212:117,1,65.5200015996094,0|0,0:2|0:2,0:0:0:0:
99,185,3987,6,0,P|105:119|113:54,1,131.040003199219,2|0,1:2|0:2,0:0:0:0:
235,20,4453,2,0,P|228:85|220:150,1,131.040003199219,0|0,0:2|0:2,0:0:0:0:
251,263,4919,1,0,0:2:0:0:
320,180,5075,102,0,P|365:177|410:247,1,131.040003199219,0|0,0:2|0:2,0:0:0:0:
354,358,5541,1,0,0:2:0:0:
358,362,5696,1,0,0:2:0:0:
466,302,5852,1,8,0:2:0:0:
334,275,6007,2,0,B|255:275|297:327|194:319,1,131.040003199219,0|0,1:2|0:2,0:0:0:0:
73,362,6474,6,0,P|79:296|87:231,1,131.040003199219,2|0,1:2|0:2,0:0:0:0:
164,124,6940,1,0,0:2:0:0:
58,53,7095,2,0,P|67:108|71:136,1,65.5200015996094,0|0,3:2|0:2,0:0:0:0:
128,221,7406,1,0,0:2:0:0:
164,124,7562,102,0,P|205:132|246:145,1,65.5200015996094,0|0,1:2|0:2,0:0:0:0:
222,279,7873,2,0,P|193:295|166:313,1,65.5200015996094,0|0,0:2|0:2,0:0:0:0:
20,239,8183,2,0,P|25:206|34:175,1,65.5200015996094,0|8,0:2|0:2,0:0:0:0:
128,221,8494,1,0,1:2:0:0:
81,317,8650,1,0,0:2:0:0:
161,206,8805,1,0,0:2:0:0:
227,361,8961,6,0,B|278:346|324:333|324:333|367:363,1,131.040003199219,2|0,1:2|0:2,0:0:0:0:
355,188,9427,1,0,0:2:0:0:
228,269,9582,2,0,P|178:276|127:206,1,131.040003199219,0|0,3:2|0:2,0:0:0:0:
300,106,10049,2,0,P|304:149|308:187,1,65.5200015996094,2|0,1:2|0:2,0:0:0:0:
144,132,10360,2,0,P|147:99|150:66,1,65.5200015996094,0|0,0:2|0:2,0:0:0:0:
220,180,10670,37,8,0:2:0:0:
223,183,10748,1,8,0:2:0:0:
227,187,10826,1,8,1:2:0:0:
69,246,10981,1,8,1:2:0:0:
223,99,11137,1,8,1:2:0:0:
62,211,11292,1,8,1:2:0:0:
312,146,11448,86,0,P|320:208|327:263,1,92.8200005665283,6|0,1:2|0:2,0:0:0:0:
144,132,11759,2,0,P|149:85|155:39,1,92.8200005665283,0|0,1:2|0:2,0:0:0:0:
321,10,12069,1,8,0:2:0:0:
215,205,12225,1,0,1:2:0:0:
215,205,12303,1,8,0:2:0:0:
215,205,12380,1,0,1:2:0:0:
367,88,12536,2,0,P|428:96|488:104,1,92.8200005665283,10|0,0:2|1:2,0:0:0:0:
360,300,12847,1,8,0:2:0:0:
236,119,13002,2,0,P|175:127|115:135,1,92.8200005665283,2|0,1:2|0:2,0:0:0:0:
260,340,13313,5,10,0:2:0:0:
393,173,13468,1,8,0:2:0:0:
200,94,13624,1,8,0:3:0:0:
273,224,13779,1,4,0:3:0:0:
350,36,13935,102,0,P|406:45|453:52,1,92.8200005665283,2|0,1:2|0:2,0:0:0:0:
454,246,14246,2,0,P|398:255|351:262,1,92.8200005665283,0|0,1:2|0:2,0:0:0:0:
132,148,14556,2,0,B|198:128|263:107|263:107|285:124|316:152,1,185.640001133057,8|0,0:2|0:2,0:0:0:0:
194,333,15023,2,0,P|183:265|174:207,1,92.8200005665283,8|2,0:2|1:2,0:0:0:0:
309,275,15334,1,8,0:2:0:0:
95,279,15489,2,0,P|106:211|115:153,1,92.8200005665283,0|0,0:2|1:2,0:0:0:0:
111,144,15722,1,0,1:2:0:0:
115,148,15800,5,10,0:2:0:0:
259,96,15955,1,8,0:2:0:0:
31,209,16111,1,8,0:3:0:0:
222,308,16266,1,4,0:3:0:0:
155,66,16422,102,0,P|97:59|46:54,1,92.8200005665283,6|0,1:2|0:2,0:0:0:0:
95,279,16733,2,0,P|141:273|187:268,1,92.8200005665283,0|0,1:2|0:2,0:0:0:0:
321,113,17044,1,8,0:2:0:0:
153,178,17199,1,0,1:2:0:0:
153,178,17277,1,8,0:2:0:0:
153,178,17354,1,0,1:2:0:0:
314,322,17510,2,0,P|321:261|327:212,1,92.8200005665283,10|0,0:2|0:2,0:0:0:0:
242,73,17821,1,8,0:2:0:0:
419,239,17976,2,0,P|412:178|406:129,1,92.8200005665283,2|0,1:2|0:2,0:0:0:0:
233,254,18287,5,10,0:2:0:0:
363,57,18443,1,8,0:2:0:0:
441,275,18598,1,8,0:3:0:0:
304,160,18753,1,4,0:3:0:0:
240,348,18909,102,0,P|155:335|122:329,1,92.8200005665283,14|0,0:2|1:2,0:0:0:0:
214,92,19220,1,0,1:2:0:0:
337,313,19375,2,0,P|422:300|455:294,1,92.8200005665283,8|0,0:2|1:2,0:0:0:0:
363,57,19686,1,0,1:2:0:0:
172,197,19841,1,8,0:2:0:0:
382,92,19997,6,0,P|390:159|396:205,1,92.8200005665283,2|0,1:2|1:2,0:0:0:0:
322,354,20308,1,8,0:2:0:0:
470,161,20463,2,0,P|462:228|456:274,1,92.8200005665283,0|0,1:2|1:2,0:0:0:0:
447,286,20696,1,0,1:2:0:0:
451,290,20774,1,8,0:2:0:0:
299,111,20930,1,8,0:2:0:0:
231,334,21085,1,8,0:2:0:0:
393,184,21240,86,0,B|319:204|253:225|253:225|220:200|189:172,1,203.840002488281,6|0,1:2|0:2,0:0:0:0:
81,33,21707,2,0,P|75:92|67:166,1,101.920001244141,2|0,1:2|0:2,0:0:0:0:
167,278,22018,102,0,P|159:179|153:99,1,149.240002277222,8|0,0:2|0:2,0:0:0:0:
207,45,22484,1,0,1:2:0:0:
258,132,22639,2,0,P|307:121|349:114,1,74.6200011386109,0|0,1:2|0:2,0:0:0:0:
396,29,22950,1,0,1:2:0:0:
396,29,23106,2,0,P|347:18|305:11,1,74.6200011386109,0|8,1:2|0:2,0:0:0:0:
251,159,23417,2,0,P|300:148|342:141,1,74.6200011386109,0|0,1:2|0:2,0:0:0:0:
500,243,23727,102,0,B|441:226|401:271|420:280|378:336|277:293,1,203.840002488281,6|0,1:2|0:2,0:0:0:0:
167,239,24194,2,0,P|173:298|181:372,1,101.920001244141,2|0,1:2|0:2,0:0:0:0:
349,217,24505,22,0,P|357:118|363:38,1,149.240002277222,8|0,0:2|0:2,0:0:0:0:
280,12,24971,1,0,1:2:0:0:
232,124,25126,2,0,P|193:119|146:108,1,74.6200011386109,0|8,1:2|0:2,0:0:0:0:
73,16,25437,1,0,1:2:0:0:
77,20,25593,1,0,1:2:0:0:
122,220,25748,1,8,0:2:0:0:
194,35,25904,1,8,0:3:0:0:
38,131,26059,1,4,0:3:0:0:
240,145,26215,102,0,P|319:134|426:123,1,167.439994379151,6|0,1:2|0:2,0:0:0:0:
476,250,26681,2,0,P|407:239|380:233,1,83.7199971895753,0|0,1:2|0:2,0:0:0:0:
256,262,26992,2,0,P|363:279|378:353,1,167.439994379151,8|0,0:2|0:2,0:0:0:0:
380,323,27458,1,0,1:2:0:0:
319,166,27613,1,0,1:2:0:0:
260,355,27769,1,8,0:2:0:0:
175,244,27924,2,0,P|133:249|92:257,1,83.7199971895753,0|0,1:2|0:2,0:0:0:0:
188,120,28235,1,8,0:2:0:0:
130,331,28391,1,0,1:2:0:0:
15,158,28546,1,8,0:2:0:0:
263,244,28702,102,0,B|328:221|392:201|392:201|422:220|460:247,1,185.640001133057,6|0,1:2|0:2,0:0:0:0:
279,135,29168,2,0,P|226:126|169:117,1,92.8200005665283,0|0,1:2|0:2,0:0:0:0:
370,40,29479,1,8,0:2:0:0:
156,95,29634,1,8,0:2:0:0:
355,67,29790,1,4,1:3:0:0:
120,22,29945,2,0,P|65:77|95:195,1,185.640001133057,2|8,1:2|0:2,0:0:0:0:
204,278,30411,2,0,P|257:269|314:260,1,92.8200005665283,0|0,1:2|1:2,0:0:0:0:
328,247,30645,1,0,1:2:0:0:
328,247,30722,21,8,0:2:0:0:
186,164,30878,1,8,0:2:0:0:
302,357,31033,1,8,0:2:0:0:
397,157,31189,1,8,0:2:0:0:
183,359,31344,102,0,P|116:345|71:334,1,101.920001244141,6|0,1:2|0:2,0:0:0:0:
94,101,31655,2,0,P|161:87|206:76,1,101.920001244141,0|0,1:2|0:2,0:0:0:0:
292,231,31966,101,8,0:2:0:0:
292,231,32121,2,0,P|224:224|195:221,1,74.6200011386109,0|0,1:2|0:2,0:0:0:0:
302,80,32432,2,0,P|397:74|437:129,1,149.240002277222,0|8,1:2|0:2,0:0:0:0:
448,254,32898,1,0,1:2:0:0:
448,254,33209,2,0,B|442:306|435:349,1,74.6200011386109,8|0,0:2|0:2,0:0:0:0:
338,376,33520,1,0,1:2:0:0:
292,230,33676,22,0,B|200:217|247:292|126:270,1,149.240002277222,2|0,1:2|0:2,0:0:0:0:
44,170,34142,1,0,1:2:0:0:
165,188,34297,1,0,1:2:0:0:
18,264,34453,1,8,0:2:0:0:
165,188,34608,2,0,P|160:132|154:81,1,74.6200011386109,0|0,1:2|0:2,0:0:0:0:
11,74,34919,2,0,P|7:111|4:148,1,74.6200011386109,8|0,0:2|1:2,0:0:0:0:
125,292,35230,1,8,0:2:0:0:
202,95,35386,1,0,1:2:0:0:
202,95,35696,101,8,0:2:0:0:
269,341,35852,1,8,0:2:0:0:
364,134,36007,1,8,0:3:0:0:
125,291,36163,102,0,B|198:312|253:264|221:241|283:177|371:215,1,254.800003110352,6|0,1:2|0:2,0:0:0:0:
417,256,36629,2,0,P|466:216|453:121,1,139.230000849792,0|0,1:2|0:2,0:0:0:0:
418,83,36940,22,0,P|349:92|301:99,1,92.8200005665283,6|0,1:3|0:2,0:0:0:0:
167,199,37251,2,0,P|121:192|74:186,1,92.8200005665283,0|0,1:2|0:2,0:0:0:0:
49,25,37562,102,0,P|127:10|173:74,1,139.230000849792,6|0,1:3|0:2,0:0:0:0:
208,117,37873,2,0,P|272:135|325:94,1,139.230000849792,0|0,1:2|0:2,0:0:0:0:
340,17,38183,101,10,0:2:0:0:
310,274,38339,1,8,0:2:0:0:
211,32,38494,1,8,0:2:0:0:
424,199,38650,102,0,P|417:315|411:404,1,185.640001133057,4|0,1:2|1:2,0:0:0:0:
284,191,39116,2,0,P|221:202|177:210,1,92.8200005665283,10|0,0:2|0:2,0:0:0:0:
153,363,39427,1,2,1:2:0:0:
290,291,39582,1,2,1:2:0:0:
150,198,39738,1,8,0:2:0:0:
239,360,39893,2,0,B|311:337|372:316|372:316|396:332|421:350,1,185.640001133057,2|0,1:2|1:2,0:0:0:0:
348,143,40360,1,10,0:2:0:0:
225,252,40515,2,0,P|161:245|107:238,1,92.8200005665283,2|0,1:2|0:2,0:0:0:0:
81,39,40826,2,0,P|127:34|173:28,1,92.8200005665283,2|8,1:2|0:2,0:0:0:0:
423,67,41137,6,0,B|312:53|362:135|242:121,1,185.640001133057,6|0,1:2|1:2,0:0:0:0:
331,0,41603,1,8,0:2:0:0:
399,159,41759,1,2,0:2:0:0:
213,58,41914,2,0,P|207:123|201:184,1,92.8200005665283,2|0,1:2|1:2,0:0:0:0:
277,299,42225,1,10,0:2:0:0:
119,120,42380,2,0,P|125:185|131:246,1,92.8200005665283,2|0,1:2|0:2,0:0:0:0:
289,108,42691,1,2,1:2:0:0:
197,311,42847,1,8,0:2:0:0:
240,43,43002,2,0,P|313:21|389:92,1,185.640001133057,2|0,1:2|1:2,0:0:0:0:
351,284,43468,1,10,0:2:0:0:
207,159,43624,1,2,1:2:0:0:
180,349,43779,102,0,P|121:341|78:336,1,92.8200005665283,6|0,1:2|0:2,0:0:0:0:
146,100,44090,1,10,0:2:0:0:
258,295,44246,2,0,P|317:287|360:282,1,92.8200005665283,2|0,1:2|0:2,0:0:0:0:
292,46,44557,1,2,1:2:0:0:
125,203,44712,1,8,0:2:0:0:
359,120,44867,2,0,P|372:196|380:248,1,92.8200005665283,2|0,1:2|0:2,0:0:0:0:
441,360,45178,1,2,1:2:0:0:
258,295,45334,1,8,0:2:0:0:
467,173,45489,2,0,P|454:249|446:301,1,92.8200005665283,2|0,0:2|1:2,0:0:0:0:
290,183,45800,1,2,1:2:0:0:
365,26,45955,2,0,P|423:37|462:45,1,92.8200005665283,8|0,0:2|0:2,0:0:0:0:
355,251,46266,6,0,B|279:271|217:288|217:288|199:273|176:255,1,185.640001133057,6|8,1:2|0:2,0:0:0:0:
236,80,46733,1,0,1:2:0:0:
102,226,46888,1,0,1:2:0:0:
256,183,47044,1,2,1:2:0:0:
84,113,47199,1,8,0:2:0:0:
242,303,47354,102,0,P|327:291|454:276,1,185.640001133057,6|0,1:2|1:2,0:0:0:0:
309,123,47821,2,0,P|304:193|301:237,1,92.8200005665283,8|0,0:2|0:2,0:0:0:0:
511,309,48132,2,0,P|507:262|504:216,1,92.8200005665283,10|0,0:2|0:2,0:0:0:0:
334,341,48443,1,10,0:3:0:0:
415,169,48598,1,4,0:3:0:0:
242,303,48753,6,0,B|171:283|108:264|108:264|88:278|65:295,1,185.640001133057,6|0,1:2|1:2,0:0:0:0:
336,31,49375,2,0,P|344:112|346:139,1,92.8200005665283,8|0,0:2|0:2,0:0:0:0:
266,271,49686,1,0,1:2:0:0:
444,65,49841,2,0,P|436:146|424:271,1,185.640001133057,0|8,1:2|0:2,0:0:0:0:
260,95,50308,2,0,P|205:102|143:112,1,92.8200005665283,0|0,1:2|0:2,0:0:0:0:
326,210,50619,1,8,0:2:0:0:
206,22,50774,1,0,1:2:0:0:
161,241,50930,2,0,P|115:234|69:228,1,92.8200005665283,0|8,1:2|0:2,0:0:0:0:
260,95,51240,101,2,1:2:0:0:
197,315,51396,1,8,0:2:0:0:
77,139,51551,2,0,P|85:70|89:23,1,92.8200005665283,0|0,1:2|0:2,0:0:0:0:
306,173,51862,1,8,0:2:0:0:
59,272,52018,1,8,0:2:0:0:
319,145,52173,1,4,0:3:0:0:
127,333,52329,6,0,B|250:304|176:408|338:370,1,185.640001133057,4|8,1:2|0:2,0:0:0:0:
474,269,52795,2,0,P|464:213|455:158,1,92.8200005665283,0|0,1:2|1:2,0:0:0:0:
452,133,53028,1,0,1:2:0:0:
456,137,53106,1,8,0:2:0:0:
292,282,53261,1,8,0:2:0:0:
390,52,53417,1,8,0:2:0:0:
452,304,53572,1,8,0:2:0:0:
269,131,53727,102,0,P|214:142|169:153,1,92.8200005665283,6|0,1:2|0:2,0:0:0:0:
357,234,54038,1,0,1:2:0:0:
244,57,54194,1,0,1:2:0:0:
195,275,54349,1,8,0:2:0:0:
347,149,54505,2,0,P|402:160|447:171,1,92.8200005665283,0|0,1:2|0:2,0:0:0:0:
293,356,54816,2,0,P|180:370|81:381,1,185.640001133057,6|8,1:2|0:2,0:0:0:0:
56,206,55282,2,0,P|66:147|75:103,1,92.8200005665283,0|0,1:2|0:2,0:0:0:0:
211,233,55593,1,8,0:2:0:0:
76,351,55748,1,8,0:3:0:0:
192,140,55904,1,4,0:3:0:0:
319,337,56059,102,0,P|402:319|438:313,1,111.019995426117,14|0,0:2|0:2,0:0:0:0:
304,115,56370,1,0,1:2:0:0:
470,197,56525,1,0,1:2:0:0:
360,384,56681,2,0,P|277:366|241:360,1,111.019995426117,14|0,0:2|1:2,0:0:0:0:
375,162,56992,1,0,1:2:0:0:
209,244,57147,1,10,0:2:0:0:
427,314,57303,1,0,1:2:0:0:
270,81,57458,102,0,P|263:164|257:259,1,152.880001866211,14|0,0:2|0:2,0:0:0:0:
257,325,57769,6,0,P|215:364|139:345,1,111.930001707916,8|0,0:3|0:2,0:0:0:0:
94,308,58080,102,0,P|99:265|105:227,1,70.9799995667725,6|0,0:3|0:2,0:0:0:0:
178,208,58391,2,0,P|183:243|187:278,1,70.9799995667725,2|0,1:2|0:2,0:0:0:0:
191,282,58702,102,0,P|252:270|301:261,1,101.920001244141,6|0,1:2|0:2,0:0:0:0:
407,148,59012,1,10,0:2:0:0:
343,370,59168,2,0,P|293:360|242:350,1,101.920001244141,2|0,0:2|1:2,0:0:0:0:
166,162,59479,1,6,1:3:0:0:
58,324,59634,1,8,0:2:0:0:
286,233,59790,2,0,P|271:129|254:29,1,203.840002488281,2|8,1:2|1:3,0:0:0:0:
152,238,60256,1,8,0:2:0:0:
359,118,60411,1,0,1:2:0:0:
175,45,60567,2,0,P|112:62|68:74,1,101.920001244141,2|0,1:2|0:2,0:0:0:0:
71,298,60878,2,0,P|120:311|169:324,1,101.920001244141,10|0,0:2|1:2,0:0:0:0:
237,276,61111,1,0,1:2:0:0:
241,280,61189,38,0,P|246:216|251:156,1,101.920001244141,2|0,1:2|0:2,0:0:0:0:
359,24,61499,1,10,0:2:0:0:
152,238,61655,2,0,P|147:174|142:114,1,101.920001244141,2|0,0:2|1:2,0:0:0:0:
317,241,61966,1,4,1:3:0:0:
72,170,62121,1,10,0:2:0:0:
243,1,62277,2,0,B|312:28|389:57|389:57|396:91|400:121,1,203.840002488281,2|8,1:2|1:3,0:0:0:0:
346,312,62743,2,0,P|253:323|219:327,1,101.920001244141,8|0,0:2|1:2,0:0:0:0:
168,354,62976,1,0,1:2:0:0:
168,354,63054,2,0,P|174:275|178:231,1,101.920001244141,2|0,1:2|0:2,0:0:0:0:
318,117,63365,2,0,P|322:167|325:218,1,101.920001244141,10|0,0:2|0:2,0:0:0:0:
209,69,63676,70,0,P|158:63|107:57,1,101.920001244141,6|0,1:2|0:2,0:0:0:0:
206,237,63987,1,10,0:2:0:0:
295,29,64142,1,2,0:2:0:0:
356,254,64297,2,0,P|406:248|457:242,1,101.920001244141,2|0,1:2|1:2,0:0:0:0:
482,223,64531,1,0,1:2:0:0:
482,223,64608,1,10,0:2:0:0:
197,109,64764,2,0,P|142:129|94:152,1,101.920001244141,6|0,1:2|0:2,0:0:0:0:
356,254,65075,2,0,P|366:196|370:143,1,101.920001244141,2|8,1:2|0:2,0:0:0:0:
119,314,65386,2,0,P|163:351|207:381,1,101.920001244141,2|0,1:2|0:2,0:0:0:0:
222,226,65696,1,2,1:3:0:0:
77,134,65852,1,10,0:2:0:0:
247,305,66007,1,2,0:2:0:0:
270,74,66163,38,0,B|335:58|402:47,1,101.920001244141,6|0,1:2|0:2,0:0:0:0:
329,279,66474,1,10,0:2:0:0:
189,138,66629,1,2,0:2:0:0:
253,345,66784,2,0,B|287:350|352:366,1,101.920001244141,2|0,1:2|1:2,0:0:0:0:
462,147,67095,1,10,0:2:0:0:
202,253,67251,70,0,B|142:233|85:210|85:210|60:229|35:248,1,166.529993139176,14|0,0:2|0:2,0:0:0:0:
55,239,67562,2,0,P|63:162|67:118,1,101.920001244141,10|0,0:2|0:2,0:0:0:0:
126,313,67873,37,10,1:2:0:0:
129,316,67950,1,8,1:2:0:0:
133,320,68028,1,8,0:2:0:0:
189,138,68183,1,8,0:2:0:0:
281,272,68339,1,8,1:3:0:0:
187,232,68494,1,4,1:3:0:0:
268,357,68650,70,0,P|340:359|396:251,1,203.840002488281,6|8,1:2|0:2,0:0:0:0:
294,82,69116,2,0,P|285:141|277:218,1,101.920001244141,2|0,0:2|1:2,0:0:0:0:
387,103,69427,1,6,1:3:0:0:
237,11,69582,1,8,0:2:0:0:
437,208,69738,2,0,P|419:83|402:-22,1,203.840002488281,2|8,1:2|1:3,0:0:0:0:
305,162,70204,1,8,0:2:0:0:
469,78,70360,1,0,1:2:0:0:
294,82,70515,2,0,P|235:96|163:114,1,101.920001244141,2|0,1:2|0:2,0:0:0:0:
320,308,70826,2,0,P|369:319|419:331,1,101.920001244141,10|0,0:2|1:2,0:0:0:0:
437,243,71059,1,0,1:2:0:0:
437,243,71137,38,0,B|316:220|373:334|206:292,1,203.840002488281,6|10,1:2|0:2,0:0:0:0:
96,246,71603,2,0,P|103:192|112:131,1,101.920001244141,2|0,0:2|1:2,0:0:0:0:
289,40,71914,1,6,1:3:0:0:
207,209,72069,1,10,0:2:0:0:
24,80,72225,2,0,B|97:56|172:30|172:30|199:53|240:91,1,203.840002488281,2|8,1:2|1:3,0:0:0:0:
315,244,72691,1,8,0:2:0:0:
137,134,72847,1,0,1:2:0:0:
289,40,73002,2,0,P|283:110|276:179,1,101.920001244141,2|0,1:2|0:2,0:0:0:0:
146,235,73313,2,0,P|141:184|136:133,1,101.920001244141,10|0,0:2|0:2,0:0:0:0:
337,338,73624,69,6,1:2:0:0:
240,153,73779,1,2,0:2:0:0:
188,350,73935,1,8,0:2:0:0:
352,204,74090,1,2,0:2:0:0:
146,235,74246,2,0,P|66:224|25:219,1,101.920001244141,2|4,1:2|1:3,0:0:0:0:
208,56,74556,1,10,0:2:0:0:
284,279,74712,38,0,B|359:251|425:225|425:225|450:246|477:273,1,203.840002488281,6|10,1:2|1:3,0:0:0:0:
329,72,75178,1,10,0:2:0:0:
196,307,75334,2,0,P|127:340|36:254,1,203.840002488281,2|4,1:2|1:3,0:0:0:0:
133,40,75800,2,0,P|145:112|155:166,1,101.920001244141,10|0,0:2|0:2,0:0:0:0:
284,279,76111,69,2,1:2:0:0:
230,95,76266,1,2,1:2:0:0:
129,254,76422,1,8,0:2:0:0:
319,165,76577,1,2,0:2:0:0:
167,331,76733,2,0,P|88:343|47:348,1,101.920001244141,2|0,1:2|1:2,0:0:0:0:
154,136,77044,1,10,0:2:0:0:
293,333,77199,38,0,P|372:274|438:297,1,166.529993139176,10|0,0:2|0:2,0:0:0:0:
434,295,77510,2,0,P|439:228|442:175,1,101.920001244141,10|0,0:2|0:2,0:0:0:0:
385,356,77821,69,10,1:2:0:0:
385,356,77899,1,8,1:2:0:0:
385,356,77976,1,8,0:2:0:0:
287,153,78132,1,8,0:2:0:0:
191,307,78287,1,10,0:3:0:0:
306,244,78443,1,0,0:3:0:0:
111,102,78598,102,0,P|106:195|101:281,1,139.230000849792,2|0,1:2|0:2,0:0:0:0:
188,196,78909,2,0,P|184:126|180:56,1,139.230000849792,0|0,1:2|0:2,0:0:0:0:
263,129,79220,2,0,P|258:209|254:253,1,92.8200005665283,8|0,0:2|3:2,0:0:0:0:
255,261,79453,1,0,3:2:0:0:
255,261,79531,1,2,1:2:0:0:
346,52,79686,2,0,P|422:52|449:129,1,139.230000849792,2|0,1:2|0:2,0:0:0:0:
457,137,79997,1,8,0:2:0:0:
359,319,80152,2,0,B|288:294|232:278|232:278|201:297|178:311,1,185.640001133057,0|8,1:2|0:2,0:0:0:0:
311,201,80619,69,0,3:2:0:0:
311,201,80696,1,0,3:2:0:0:
311,201,80774,1,2,1:2:0:0:
148,90,80930,1,10,0:2:0:0:
220,241,81085,1,0,1:2:0:0:
248,50,81240,1,8,0:2:0:0:
162,172,81396,2,0,P|257:172|341:176,1,139.230000849792,0|0,1:2|0:2,0:0:0:0:
357,128,81707,37,8,0:2:0:0:
130,246,81862,1,8,0:2:0:0:
311,311,82018,1,6,0:3:0:0:
180,72,82173,70,0,P|112:48|25:140,1,185.640001133057,2|8,1:2|0:2,0:0:0:0:
93,330,82639,2,0,P|167:319|205:313,1,92.8200005665283,0|0,1:2|1:2,0:0:0:0:
213,294,82873,1,0,1:2:0:0:
213,294,82950,1,10,0:2:0:0:
110,143,83106,1,8,0:3:0:0:
296,268,83261,2,0,P|365:278|434:288,1,139.230000849792,4|0,0:3|0:2,0:0:0:0:
434,288,83572,38,0,P|422:219|414:178,1,101.920001244141,6|0,1:2|0:2,0:0:0:0:
237,63,83883,2,0,P|227:113|218:163,1,101.920001244141,8|0,0:2|0:2,0:0:0:0:
314,294,84194,1,0,1:2:0:0:
390,154,84349,1,4,1:3:0:0:
212,250,84505,1,8,0:2:0:0:
465,204,84660,2,0,P|482:116|369:52,1,203.840002488281,6|10,1:2|1:3,0:0:0:0:
314,294,85126,2,0,P|387:283|434:276,1,101.920001244141,10|0,0:2|1:2,0:0:0:0:
384,199,85360,1,0,1:2:0:0:
384,199,85437,2,0,P|311:188|264:181,1,101.920001244141,0|4,1:2|1:3,0:0:0:0:
167,48,85748,2,0,P|217:40|267:32,1,101.920001244141,10|0,0:2|0:2,0:0:0:0:
200,284,86059,69,14,0:2:0:0:
330,101,86215,1,0,1:2:0:0:
208,319,86370,1,2,1:2:0:0:
155,78,86525,37,10,0:2:0:0:
345,250,86681,1,0,1:2:0:0:
104,247,86836,1,2,1:2:0:0:
306,76,86992,1,8,0:2:0:0:
58,154,87147,70,0,B|137:112|220:196|176:210|254:296|347:247,1,331.239997978272,6|0,1:2|0:2,0:0:0:0:
414,162,88546,6,0,P|343:154|289:147,1,112.839995523316,2|0,0:2|0:2,0:0:0:0:
150,347,89168,2,0,P|206:340|262:333,1,112.839995523316,2|0,3:2|0:2,0:0:0:0:
262,333,89634,1,0,3:2:0:0:
198,261,89790,2,0,P|201:204|204:148,1,112.839995523316,2|0,0:2|0:2,0:0:0:0:
149,75,90256,2,0,P|180:66|208:61,1,56.4199977616578,2|8,0:2|0:2,0:0:0:0:
283,35,90567,2,0,P|285:91|289:147,1,112.839995523316,2|0,0:2|0:2,0:0:0:0:
357,322,91033,6,0,P|286:330|232:337,1,112.839995523316,2|0,1:2|0:2,0:0:0:0:
93,137,91655,2,0,P|149:143|205:150,1,112.839995523316,2|0,3:2|0:2,0:0:0:0:
205,150,92121,1,0,3:2:0:0:
143,223,92277,2,0,P|151:264|157:299,1,56.4199977616578,2|0,0:2|0:2,0:0:0:0:
239,291,92588,2,0,P|233:263|228:235,1,56.4199977616578,0|0,0:2|0:2,0:0:0:0:
295,180,92898,1,10,0:2:0:0:
295,180,93054,2,0,B|364:168|332:214|420:200,1,112.839995523316,0|0,1:2|0:2,0:0:0:0:
460,122,93520,102,0,P|411:114|386:112,1,56.4199977616578,2|0,1:2|0:2,0:0:0:0:
348,25,93831,2,0,P|375:19|403:16,1,56.4199977616578,0|0,0:2|0:2,0:0:0:0:
321,104,94142,1,2,3:2:0:0:
111,35,94453,1,2,0:2:0:0:
167,90,94608,2,0,P|165:130|164:154,1,56.4199977616578,0|0,3:2|0:2,0:0:0:0:
162,231,94919,2,0,P|116:209|49:226,1,112.839995523316,0|0,3:2|0:2,0:0:0:0:
106,309,95386,1,10,0:2:0:0:
106,309,95541,2,0,B|175:297|143:343|231:329,1,112.839995523316,0|0,1:2|0:2,0:0:0:0:
319,308,96007,6,0,P|366:237|261:147,1,225.679991046631,2|2,1:2|3:2,0:0:0:0:
284,145,96940,1,0,0:2:0:0:
232,204,97095,1,0,3:2:0:0:
232,204,97251,2,0,P|180:193|160:191,1,56.4199977616578,2|0,0:2|0:2,0:0:0:0:
123,121,97562,2,0,P|175:110|195:108,1,56.4199977616578,0|0,0:2|0:2,0:0:0:0:
96,206,97873,1,10,0:2:0:0:
96,206,98028,2,0,B|115:273|66:246|89:332,1,112.839995523316,0|0,1:2|0:2,0:0:0:0:
241,158,98494,102,0,P|295:164|395:180,1,131.040003199219,6|0,0:2|0:2,0:0:0:0:
451,124,98961,1,0,0:2:0:0:
418,252,99116,2,0,P|374:262|331:272,1,65.5200015996094,0|0,3:2|0:2,0:0:0:0:
248,335,99427,2,0,P|279:342|311:349,1,65.5200015996094,2|0,0:2|0:2,0:0:0:0:
134,219,99738,6,0,P|122:300|115:365,1,131.040003199219,2|2,0:2|0:2,0:0:0:0:
205,265,100204,1,2,0:2:0:0:
81,305,100360,1,8,0:2:0:0:
205,265,100515,2,0,P|196:199|187:135,1,131.040003199219,2|2,1:2|0:2,0:0:0:0:
44,50,100981,102,0,B|89:59|135:71|135:71|160:60|180:53,1,131.040003199219,0|0,1:2|0:2,0:0:0:0:
249,13,101448,1,0,0:2:0:0:
338,57,101603,2,0,P|346:101|351:133,1,65.5200015996094,0|0,3:2|0:2,0:0:0:0:
263,100,101914,1,2,0:2:0:0:
397,135,102069,1,2,0:2:0:0:
294,224,102225,2,0,P|246:214|214:208,1,65.5200015996094,2|0,0:2|0:2,0:0:0:0:
132,141,102536,1,2,0:2:0:0:
199,248,102691,1,2,0:2:0:0:
78,305,102847,1,8,0:2:0:0:
121,219,103002,2,0,P|131:303|137:365,1,131.040003199219,2|0,1:2|0:2,0:0:0:0:
268,376,103468,6,0,P|308:340|391:337,1,131.040003199219,2|0,1:2|0:2,0:0:0:0:
474,199,104090,2,0,P|434:163|351:160,1,131.040003199219,0|0,3:2|0:2,0:0:0:0:
296,212,104556,1,0,3:2:0:0:
213,157,104712,2,0,P|209:202|204:250,1,65.5200015996094,2|0,0:2|3:2,0:0:0:0:
180,299,105023,1,2,0:2:0:0:
125,206,105178,2,0,P|129:251|134:299,1,65.5200015996094,2|8,0:2|0:2,0:0:0:0:
85,351,105489,1,2,0:2:0:0:
180,299,105645,1,2,0:2:0:0:
54,251,105800,1,2,0:2:0:0:
217,368,105955,102,0,P|257:358|295:352,1,65.5200015996094,2|0,1:2|0:2,0:0:0:0:
307,204,106266,2,0,P|267:194|229:188,1,65.5200015996094,2|0,0:2|0:2,0:0:0:0:
355,295,106577,2,0,B|402:281|449:265|449:265|473:279|498:298,1,131.040003199219,2|2,3:2|0:2,0:0:0:0:
404,184,107044,2,0,P|410:136|414:103,1,65.5200015996094,2|0,3:2|0:2,0:0:0:0:
289,74,107354,2,0,P|302:168|307:213,1,131.040003199219,2|0,3:2|0:2,0:0:0:0:
227,321,107821,1,8,0:2:0:0:
169,236,107976,2,0,P|226:222|290:277,1,131.040003199219,0|0,1:2|0:2,0:0:0:0:
31,89,108443,6,0,B|93:43|168:99|144:112|195:173|293:121,1,262.080006398438,6|0,1:2|3:2,0:0:0:0:
344,60,109220,1,0,0:2:0:0:
424,113,109375,2,0,P|420:157|417:204,1,65.5200015996094,2|0,0:2|0:2,0:0:0:0:
330,274,109686,2,0,P|318:173|311:120,1,131.040003199219,2|2,0:2|0:2,0:0:0:0:
167,271,110152,101,10,1:2:0:0:
167,271,110230,1,8,1:2:0:0:
167,271,110308,1,8,0:2:0:0:
235,44,110463,1,10,0:2:0:0:
305,295,110619,1,8,0:2:0:0:
142,94,110774,22,0,P|85:102|26:114,1,92.8200005665283,4|0,1:2|0:2,0:0:0:0:
156,301,111085,1,0,1:2:0:0:
311,138,111240,2,0,P|368:146|427:158,1,92.8200005665283,0|0,1:2|0:2,0:0:0:0:
371,370,111551,2,0,P|325:378|279:384,1,92.8200005665283,8|0,0:2|1:2,0:0:0:0:
238,371,111784,1,8,0:2:0:0:
238,371,111862,1,2,1:2:0:0:
420,241,112018,1,8,0:2:0:0:
224,145,112173,2,0,P|215:212|208:266,1,92.8200005665283,6|8,1:2|0:2,0:0:0:0:
383,98,112484,1,2,1:2:0:0:
128,26,112639,2,0,P|134:71|140:118,1,92.8200005665283,2|8,1:2|0:2,0:0:0:0:
292,34,112950,1,10,0:3:0:0:
106,189,113106,1,4,0:3:0:0:
393,255,113261,6,0,B|324:236|263:215|263:215|240:233|219:252,1,185.640001133057,6|8,1:2|0:2,0:0:0:0:
361,134,113727,2,0,P|435:123|476:119,1,92.8200005665283,0|0,1:2|0:2,0:0:0:0:
400,350,114038,2,0,P|326:339|285:335,1,92.8200005665283,8|0,0:2|1:2,0:0:0:0:
234,372,114272,1,8,0:2:0:0:
234,372,114349,2,0,P|228:324|219:264,1,92.8200005665283,2|8,1:2|0:2,0:0:0:0:
117,119,114660,2,0,P|110:164|104:210,1,92.8200005665283,6|8,1:2|0:2,0:0:0:0:
262,120,114971,1,2,1:2:0:0:
121,32,115126,1,2,1:2:0:0:
233,218,115282,1,8,0:2:0:0:
344,47,115437,1,10,0:3:0:0:
159,135,115593,1,4,0:3:0:0:
328,266,115748,102,0,P|421:252|519:238,1,185.640001133057,6|8,1:2|0:2,0:0:0:0:
262,120,116215,2,0,P|258:188|254:246,1,92.8200005665283,0|0,1:2|0:2,0:0:0:0:
432,146,116525,2,0,P|429:99|426:53,1,92.8200005665283,8|0,0:2|0:2,0:0:0:0:
343,242,116836,1,2,1:2:0:0:
243,88,116992,1,8,0:2:0:0:
175,276,117147,2,0,P|106:293|67:302,1,92.8200005665283,6|8,1:2|0:2,0:0:0:0:
158,114,117458,1,2,1:2:0:0:
262,306,117613,2,0,P|331:323|370:332,1,92.8200005665283,2|8,0:2|0:2,0:0:0:0:
400,136,117924,1,8,0:2:0:0:
238,204,118080,1,10,0:3:0:0:
368,229,118235,1,4,0:3:0:0:
263,97,118391,70,0,B|211:75|177:110|189:120|151:152|93:127,1,167.439994379151,6|2,1:2|1:2,0:0:0:0:
21,71,118857,2,0,P|11:128|3:171,1,83.7199971895753,2|0,0:2|1:2,0:0:0:0:
141,253,119168,2,0,P|133:211|126:170,1,83.7199971895753,2|0,0:2|1:2,0:0:0:0:
39,325,119479,1,2,1:2:0:0:
39,325,119556,1,0,1:2:0:0:
39,325,119634,2,0,P|104:331|148:337,1,83.7199971895753,0|0,1:2|0:2,0:0:0:0:
251,208,119945,2,0,P|209:211|167:216,1,83.7199971895753,0|0,1:2|0:2,0:0:0:0:
268,335,120256,2,0,B|330:318|385:299|385:299|408:315|434:331,1,167.439994379151,0|2,1:2|1:2,0:0:0:0:
449,199,120722,1,0,1:2:0:0:
449,199,120800,1,0,1:2:0:0:
449,199,120878,102,0,P|441:137|435:87,1,83.7199971895753,6|0,1:2|0:2,0:0:0:0:
317,26,121189,1,2,1:2:0:0:
316,25,121344,2,0,P|311:67|306:109,1,83.7199971895753,2|0,0:2|1:2,0:0:0:0:
274,248,121655,1,2,0:2:0:0:
170,96,121810,1,0,1:2:0:0:
331,150,121966,1,2,0:2:0:0:
124,274,122121,1,0,1:2:0:0:
238,52,122277,5,8,0:2:0:0:
324,304,122432,2,0,L|316:253,1,41.8599985947876,8|8,0:2|0:2,0:0:0:0:
117,186,122588,2,0,L|110:227,1,41.8599985947876,8|8,0:2|0:2,0:0:0:0:
331,150,122743,2,0,L|324:108,1,41.8599985947876,10|8,0:2|0:2,0:0:0:0:
214,21,122898,1,8,0:3:0:0:
214,21,122976,1,8,0:3:0:0:
214,21,123054,1,4,0:3:0:0:
214,21,123132,1,4,0:3:0:0:
214,21,123209,86,0,P|223:126|230:232,1,185.640001133057,6|0,1:2|1:2,0:0:0:0:
397,340,123676,2,0,P|399:294|404:226,1,92.8200005665283,8|0,0:2|0:2,0:0:0:0:
274,315,123987,1,0,1:2:0:0:
480,235,124142,1,4,1:3:0:0:
299,107,124297,1,8,0:2:0:0:
371,233,124453,1,0,1:2:0:0:
470,116,124608,6,0,P|456:61|443:17,1,92.8200005665283,0|0,1:2|1:2,0:0:0:0:
259,195,124920,1,8,0:2:0:0:
389,134,125075,1,0,1:2:0:0:
238,14,125230,2,0,P|225:58|213:103,1,92.8200005665283,0|0,1:2|0:2,0:0:0:0:
293,293,125541,1,8,0:2:0:0:
41,209,125696,86,0,B|106:193|174:172|174:172|196:192|226:219,1,185.640001133057,4|0,1:2|1:2,0:0:0:0:
225,384,126163,2,0,P|162:377|119:373,1,92.8200005665283,8|0,0:2|0:2,0:0:0:0:
291,208,126474,1,0,1:2:0:0:
344,376,126629,1,4,1:3:0:0:
164,266,126784,1,8,0:2:0:0:
360,127,126940,2,0,P|369:191|374:242,1,92.8200005665283,0|0,1:2|0:2,0:0:0:0:
160,142,127251,2,0,P|165:95|171:49,1,92.8200005665283,0|8,1:2|0:2,0:0:0:0:
285,173,127562,1,0,1:2:0:0:
140,295,127717,2,0,P|73:282|34:274,1,92.8200005665283,0|0,1:2|0:2,0:0:0:0:
181,169,128028,1,8,0:2:0:0:
343,347,128183,6,0,P|416:329|413:199,1,185.640001133057,4|0,1:2|1:2,0:0:0:0:
279,133,128650,1,8,0:2:0:0:
349,266,128805,1,0,0:2:0:0:
368,89,128961,1,0,1:2:0:0:
265,217,129116,1,4,1:3:0:0:
397,99,129272,1,8,0:2:0:0:
234,61,129427,1,0,1:2:0:0:
398,197,129582,5,0,0:2:0:0:
248,33,129738,1,4,1:3:0:0:
247,257,129893,1,8,0:2:0:0:
368,89,130049,1,0,1:2:0:0:
149,169,130204,1,0,1:2:0:0:
397,99,130360,1,4,1:3:0:0:
121,195,130515,1,8,0:2:0:0:
436,244,130670,86,0,B|366:226|307:207|307:207|282:227|247:254,1,185.640001133057,4|0,1:2|0:2,0:0:0:0:
34,275,131137,2,0,P|116:283|137:352,1,139.230000849792,4|0,1:3|0:2,0:0:0:0:
138,327,131448,6,0,P|143:269|152:193,1,92.8200005665283,8|0,1:3|0:2,0:0:0:0:
258,146,131759,2,0,P|262:192|265:238,1,92.8200005665283,4|0,1:3|0:2,0:0:0:0:
265,238,132069,6,0,P|341:227|430:215,1,139.230000849792,4|0,1:3|0:2,0:0:0:0:
266,11,132380,2,0,P|334:20|403:30,1,139.230000849792,4|0,1:3|0:2,0:0:0:0:
468,84,132691,85,8,1:2:0:0:
395,353,132847,1,8,1:2:0:0:
489,60,133002,1,8,1:2:0:0:
296,309,133158,22,0,P|218:320|160:217,1,185.640001133057,4|0,1:2|1:2,0:0:0:0:
261,88,133624,2,0,P|270:156|279:218,1,92.8200005665283,10|0,0:2|0:2,0:0:0:0:
161,90,133935,1,2,1:2:0:0:
345,126,134090,1,2,1:2:0:0:
192,226,134246,1,8,0:2:0:0:
379,46,134401,2,0,P|371:170|367:268,1,185.640001133057,2|0,1:2|1:2,0:0:0:0:
273,58,134867,1,10,0:2:0:0:
193,193,135023,2,0,P|125:182|89:177,1,92.8200005665283,2|0,1:2|0:2,0:0:0:0:
38,27,135334,2,0,P|83:19|129:12,1,92.8200005665283,2|8,1:2|0:2,0:0:0:0:
260,262,135645,6,0,B|190:244|133:228|133:228|103:251|79:270,1,185.640001133057,6|0,1:2|1:2,0:0:0:0:
266,142,136111,1,8,0:2:0:0:
189,338,136266,1,2,0:2:0:0:
336,207,136422,2,0,P|392:215|448:223,1,92.8200005665283,2|0,1:2|1:2,0:0:0:0:
325,369,136733,1,10,0:2:0:0:
193,193,136888,2,0,P|137:201|81:209,1,92.8200005665283,2|0,1:2|0:2,0:0:0:0:
282,97,137199,1,2,1:2:0:0:
260,262,137354,1,8,0:2:0:0:
71,113,137510,2,0,P|58:221|47:313,1,185.640001133057,2|0,1:2|1:2,0:0:0:0:
193,151,137976,1,10,0:2:0:0:
245,348,138132,1,2,1:2:0:0:
87,229,138287,102,0,B|204:194|146:303|299:250,1,185.640001133057,6|10,1:2|0:2,0:0:0:0:
402,151,138753,2,0,P|390:85|381:40,1,92.8200005665283,2|0,1:2|0:2,0:0:0:0:
229,172,139064,1,2,1:2:0:0:
373,287,139220,1,8,0:2:0:0:
269,78,139375,2,0,P|198:98|166:108,1,92.8200005665283,2|0,1:2|0:2,0:0:0:0:
187,319,139686,1,2,1:2:0:0:
337,213,139841,1,8,0:2:0:0:
118,237,139997,2,0,P|109:282|101:328,1,92.8200005665283,2|0,0:2|1:2,0:0:0:0:
313,359,140308,1,2,1:2:0:0:
246,202,140463,1,8,0:2:0:0:
187,319,140619,1,0,0:2:0:0:
437,211,140774,6,0,P|420:115|402:14,1,185.640001133057,6|8,1:2|0:2,0:0:0:0:
404,28,141396,1,0,1:2:0:0:
330,226,141551,1,2,1:2:0:0:
240,45,141707,1,8,0:2:0:0:
404,301,141862,2,0,B|335:282|278:265|278:265|254:284|229:304,1,185.640001133057,6|0,1:2|1:2,0:0:0:0:
86,153,142329,2,0,P|149:163|189:170,1,92.8200005665283,8|0,0:2|0:2,0:0:0:0:
127,292,142639,1,10,0:2:0:0:
293,149,142795,1,0,0:2:0:0:
137,258,142950,1,10,0:3:0:0:
297,346,143106,1,4,0:3:0:0:
213,104,143261,102,0,P|269:52|384:83,1,185.640001133057,6|0,1:2|1:2,0:0:0:0:
410,329,143883,2,0,P|328:318|309:316,1,92.8200005665283,8|0,0:2|0:2,0:0:0:0:
206,204,144194,1,0,1:2:0:0:
372,105,144349,2,0,P|418:99|464:92,1,92.8200005665283,0|0,1:2|0:0,0:0:0:0:
362,239,144660,1,8,0:2:0:0:
212,110,144816,2,0,P|165:104|119:97,1,92.8200005665283,0|0,1:2|0:2,0:0:0:0:
87,304,145126,1,8,0:2:0:0:
241,216,145282,1,0,1:2:0:0:
100,137,145437,1,0,1:2:0:0:
216,295,145593,1,8,0:2:0:0:
305,118,145748,5,2,1:2:0:0:
162,218,145904,1,8,0:2:0:0:
328,303,146059,2,0,P|374:297|420:290,1,92.8200005665283,0|0,1:2|0:2,0:0:0:0:
228,154,146370,1,8,0:2:0:0:
450,86,146525,1,8,0:2:0:0:
207,187,146681,1,4,0:3:0:0:
469,245,146836,102,0,B|419:271|374:237|390:228|335:193|272:234,1,185.640001133057,4|8,1:2|0:2,0:0:0:0:
102,332,147303,2,0,P|114:267|120:230,1,92.8200005665283,0|0,1:2|1:2,0:0:0:0:
108,204,147536,1,0,1:2:0:0:
108,204,147613,1,8,0:2:0:0:
259,350,147769,1,8,0:2:0:0:
177,107,147924,1,8,0:2:0:0:
222,346,148080,1,8,0:2:0:0:
315,65,148235,6,0,P|372:73|413:79,1,92.8200005665283,6|0,1:2|0:2,0:0:0:0:
312,243,148546,1,0,1:2:0:0:
216,108,148702,1,0,1:2:0:0:
381,177,148857,1,8,0:2:0:0:
234,299,149012,2,0,P|177:307|136:313,1,92.8200005665283,0|0,1:2|0:2,0:0:0:0:
47,128,149323,102,0,P|166:138|263:147,1,185.640001133057,6|8,1:2|0:2,0:0:0:0:
409,22,149790,2,0,P|352:30|311:36,1,92.8200005665283,0|0,1:2|0:2,0:0:0:0:
195,228,150101,1,8,0:2:0:0:
389,120,150256,1,8,0:3:0:0:
222,53,150411,1,4,0:3:0:0:
389,268,150567,102,0,P|395:215|404:137,1,111.019995426117,14|0,0:2|0:2,0:0:0:0:
249,318,150878,1,0,1:2:0:0:
475,229,151033,1,0,1:2:0:0:
242,76,151189,2,0,P|248:129|257:207,1,111.019995426117,14|0,0:2|1:2,0:0:0:0:
368,90,151500,1,0,1:2:0:0:
134,149,151655,1,10,0:2:0:0:
356,235,151810,1,0,1:2:0:0:
47,270,151966,102,0,B|123:233|178:296|151:311|223:374|298:326,1,260.259998411499,14|0,1:2|0:0,0:0:0:0:
345,274,152898,6,0,P|342:257|339:239,1,28.2099988808289,2|2,0:0|0:0,0:0:0:0:
234,216,153054,2,0,P|231:229|229:243,1,28.2099988808289,2|2,0:0|0:0,0:0:0:0:
312,357,153209,86,0,P|379:345|431:338,1,101.920001244141,6|0,1:2|0:2,0:0:0:0:
305,131,153520,1,10,0:2:0:0:
193,359,153676,2,0,P|142:349|92:342,1,101.920001244141,2|0,0:2|1:2,0:0:0:0:
185,139,153987,1,6,1:3:0:0:
291,321,154142,1,8,0:2:0:0:
425,63,154297,2,0,B|354:84|284:108|284:108|257:88|220:63,1,203.840002488281,2|8,1:2|1:3,0:0:0:0:
391,217,154764,1,8,0:2:0:0:
306,24,154919,1,0,1:2:0:0:
188,202,155075,2,0,P|199:283|205:332,1,101.920001244141,2|0,1:2|0:2,0:0:0:0:
456,321,155386,2,0,P|462:270|469:219,1,101.920001244141,10|0,0:2|1:2,0:0:0:0:
435,146,155619,1,0,1:2:0:0:
439,150,155696,38,0,P|375:158|312:166,1,101.920001244141,2|0,1:2|0:2,0:0:0:0:
294,349,156007,1,10,0:2:0:0:
136,125,156163,2,0,P|200:133|263:141,1,101.920001244141,2|0,0:2|1:2,0:0:0:0:
116,286,156474,1,4,1:3:0:0:
208,59,156629,1,10,0:2:0:0:
308,275,156784,2,0,P|414:256|510:240,1,203.840002488281,2|8,1:2|1:3,0:0:0:0:
360,118,157251,1,8,0:2:0:0:
441,328,157406,1,0,1:2:0:0:
226,179,157562,2,0,P|219:269|216:303,1,101.920001244141,2|0,1:2|0:2,0:0:0:0:
453,172,157873,2,0,P|448:121|444:70,1,101.920001244141,10|0,0:2|0:2,0:0:0:0:
129,51,158183,70,0,P|192:135|290:108,1,203.840002488281,6|10,1:2|0:2,0:0:0:0:
101,209,158650,1,2,0:2:0:0:
235,60,158805,2,0,P|316:72|360:79,1,101.920001244141,2|0,1:2|1:2,0:0:0:0:
364,95,159038,1,0,1:2:0:0:
364,95,159116,1,10,0:2:0:0:
204,340,159272,2,0,P|185:272|170:220,1,101.920001244141,6|0,1:2|0:2,0:0:0:0:
439,273,159582,2,0,P|414:317|389:361,1,101.920001244141,2|8,1:2|0:2,0:0:0:0:
248,145,159893,2,0,P|316:126|368:111,1,101.920001244141,2|0,0:2|1:2,0:0:0:0:
314,255,160204,1,2,1:3:0:0:
235,60,160360,1,10,0:2:0:0:
324,221,160515,1,2,0:2:0:0:
138,104,160670,38,0,P|126:179|119:234,1,101.920001244141,6|0,1:2|0:2,0:0:0:0:
252,321,160981,1,10,0:2:0:0:
216,168,161137,1,2,0:2:0:0:
154,354,161292,1,2,1:2:0:0:
314,255,161448,1,0,1:2:0:0:
145,222,161603,1,10,0:2:0:0:
315,368,161759,70,0,B|369:344|422:318|422:318|447:331|481:348,1,166.529993139176,14|0,0:2|0:2,0:0:0:0:
465,340,162069,2,0,P|472:271|480:210,1,101.920001244141,10|0,0:2|0:2,0:0:0:0:
308,95,162380,1,10,1:2:0:0:
308,95,162458,1,8,1:2:0:0:
308,95,162536,1,8,0:2:0:0:
362,294,162691,1,8,0:2:0:0:
249,166,162847,1,8,1:3:0:0:
392,201,163002,1,4,1:3:0:0:
222,314,163158,38,0,B|166:348|115:316|138:306|80:256|5:317,1,203.840002488281,6|8,1:2|0:2,0:0:0:0:
183,134,163624,2,0,P|192:193|200:270,1,101.920001244141,2|0,0:2|1:2,0:0:0:0:
89,146,163935,1,6,1:3:0:0:
260,61,164090,1,8,0:2:0:0:
71,222,164246,2,0,P|5:163|64:52,1,203.840002488281,2|8,1:2|1:3,0:0:0:0:
200,222,164712,1,8,0:2:0:0:
158,26,164868,1,0,1:2:0:0:
297,185,165023,2,0,P|289:262|282:311,1,101.920001244141,2|0,1:2|0:2,0:0:0:0:
100,247,165334,2,0,P|93:196|88:145,1,101.920001244141,10|0,0:2|1:2,0:0:0:0:
161,112,165567,1,0,1:2:0:0:
161,112,165645,70,0,B|229:129|303:150|303:150|333:127|372:98,1,203.840002488281,6|10,1:2|0:2,0:0:0:0:
200,222,166111,2,0,P|192:272|186:322,1,101.920001244141,2|0,0:2|1:2,0:0:0:0:
327,193,166422,1,6,1:3:0:0:
99,274,166577,1,10,0:2:0:0:
366,303,166733,2,0,P|376:186|383:98,1,203.840002488281,2|8,1:2|1:3,0:0:0:0:
274,254,167199,1,8,0:2:0:0:
456,308,167355,1,0,1:2:0:0:
282,126,167510,2,0,P|194:141|177:144,1,101.920001244141,2|0,1:2|0:2,0:0:0:0:
211,340,167821,2,0,P|261:348|311:357,1,101.920001244141,10|0,0:2|0:2,0:0:0:0:
368,80,168132,37,6,1:2:0:0:
274,254,168287,1,2,0:2:0:0:
215,62,168443,1,8,0:2:0:0:
382,160,168598,1,2,0:2:0:0:
182,238,168753,2,0,P|121:226|62:216,1,101.920001244141,2|4,1:2|1:3,0:0:0:0:
279,137,169064,1,10,0:2:0:0:
72,282,169220,2,0,P|240:258|298:251,1,203.840002488281,6|10,1:2|1:3,0:0:0:0:
179,82,169686,2,0,P|168:160|162:200,1,101.920001244141,10|2,0:2|1:2,0:0:0:0:
382,160,169997,2,0,P|374:109|367:59,1,101.920001244141,2|4,1:2|1:3,0:0:0:0:
271,168,170308,1,10,0:2:0:0:
271,168,170619,69,2,1:2:0:0:
452,107,170774,1,2,1:2:0:0:
283,134,170930,1,8,0:2:0:0:
463,231,171085,1,2,0:2:0:0:
271,168,171240,2,0,P|206:186|156:202,1,101.920001244141,2|0,1:2|1:2,0:0:0:0:
310,323,171551,1,10,0:2:0:0:
362,113,171707,2,0,P|259:41|171:81,1,203.840002488281,2|10,1:2|1:3,0:0:0:0:
226,273,172173,1,8,0:0:0:0:
405,184,172329,1,2,1:2:0:0:
210,302,172484,1,0,1:2:0:0:
210,302,172795,2,0,P|127:292|57:286,1,152.880001866211,10|0,0:2|0:0,0:0:0:0:
19,309,173106,37,6,1:2:0:0:
261,207,173261,1,2,0:2:0:0:
99,118,173417,1,10,0:2:0:0:
252,315,173572,1,2,0:2:0:0:
328,70,173727,2,0,P|386:80|450:92,1,101.920001244141,2|0,1:2|1:2,0:0:0:0:
359,273,174038,1,10,0:2:0:0:
188,72,174194,2,0,P|182:142|177:203,1,101.920001244141,2|0,1:2|0:2,0:0:0:0:
85,343,174505,2,0,P|80:292|76:241,1,101.920001244141,2|8,1:2|0:2,0:0:0:0:
314,351,174816,2,0,B|368:388|428:343|404:335|451:292|527:339,1,203.840002488281,2|0,1:2|0:2,0:0:0:0:
384,110,175282,1,10,0:2:0:0:
266,262,175437,1,0,0:2:0:0:
501,152,175593,70,0,B|421:182|364:206|364:206|331:183|300:163,1,203.840002488281,6|8,1:2|0:2,0:0:0:0:
186,50,176059,1,0,1:2:0:0:
186,50,176137,1,0,1:2:0:0:
186,50,176215,2,0,P|250:40|305:33,1,101.920001244141,0|0,1:2|1:2,0:0:0:0:
234,249,176525,1,10,0:2:0:0:
43,107,176681,2,0,P|34:234|28:325,1,203.840002488281,14|0,0:2|1:2,0:0:0:0:
152,165,177147,1,8,0:2:0:0:
216,342,177303,2,0,P|266:348|316:356,1,101.920001244141,4|2,1:2|0:2,0:0:0:0:
447,240,177613,2,0,P|382:251|368:254,1,50.9600006220703,8|8,0:2|0:2,0:0:0:0:
239,211,177768,1,8,0:2:0:0:
239,211,177846,1,8,0:3:0:0:
239,211,177924,1,6,0:3:0:0:
239,211,178002,1,4,0:3:0:0:
239,211,178080,22,0,B|183:204|136:177|136:177|77:203|12:204,1,222.039990852234,6|0,1:2|0:2,0:0:0:0:
231,73,178546,2,0,B|292:39|346:82|331:95|390:140|454:99,1,222.039990852234,4|0,1:2|0:2,0:0:0:0:
467,307,179012,2,0,B|381:279|316:255|316:255|288:275|237:306,1,222.039990852234,4|0,1:2|0:2,0:0:0:0:
66,95,179479,2,0,P|77:218|86:325,1,222.039990852234,4|0,1:2|0:2,0:0:0:0:
279,142,179945,69,6,1:2:0:0:
189,366,180101,1,8,0:2:0:0:
204,103,180256,1,10,0:2:0:0:
287,323,180411,1,4,0:3:0:0:
334,40,180567,38,0,P|423:34|478:156,1,222.039990852234,6|0,1:2|0:2,0:0:0:0:
146,283,181033,2,0,B|232:255|297:231|297:231|325:251|376:282,1,222.039990852234,4|0,1:2|0:2,0:0:0:0:
140,45,181500,2,0,B|91:-16|-3:93|75:166|128:195,1,222.039990852234,4|0,1:2|0:2,0:0:0:0:
382,341,181966,2,0,P|390:231|401:90,1,222.039990852234,4|0,1:2|0:2,0:0:0:0:
287,323,182432,1,0,1:2:0:0:
218,85,182588,1,8,0:2:0:0:
151,275,182743,2,0,P|91:266|79:265,1,55.5099977130586,8|0,0:2|1:2,0:0:0:0:
315,162,182898,2,0,P|342:158|369:153,2,55.5099977130586,0|0|0,1:2|1:2|1:2,0:0:0:0:
141,44,183209,69,10,0:2:0:0:
259,292,183365,1,8,0:2:0:0:
368,35,183520,2,0,P|439:50|490:60,1,111.019995426117,6|8,1:2|0:2,0:0:0:0:
374,323,183831,1,8,0:2:0:0:
175,161,183987,2,0,P|104:176|53:186,1,111.019995426117,6|8,1:2|0:2,0:0:0:0:
211,384,184297,1,8,0:2:0:0:
371,233,184453,2,0,P|442:248|493:258,1,111.019995426117,6|8,1:2|0:2,0:0:0:0:
319,119,184764,1,8,0:2:0:0:
405,341,184919,1,6,1:2:0:0:
451,79,185075,1,8,0:2:0:0:
451,79,185152,1,8,0:2:0:0:
451,79,185230,2,0,B|380:119|316:157|316:157|271:141|222:121,1,222.039990852234,8|0,0:2|1:2,0:0:0:0:
99,51,185696,37,10,0:2:0:0:
197,293,185852,1,8,0:2:0:0:
317,61,186007,2,0,P|250:51|189:42,1,111.019995426117,6|8,1:2|0:2,0:0:0:0:
88,198,186318,1,8,0:2:0:0:
357,193,186474,2,0,P|302:201|247:209,1,111.019995426117,6|8,1:2|0:2,0:0:0:0:
143,369,186784,1,8,0:2:0:0:
403,283,186940,2,0,P|352:305|301:327,1,111.019995426117,6|8,1:2|0:2,0:0:0:0:
378,116,187251,1,8,0:2:0:0:
179,237,187406,1,4,1:2:0:0:
234,73,187562,1,8,0:2:0:0:
237,76,187639,1,8,0:2:0:0:
241,80,187717,1,10,0:2:0:0:
332,287,187873,1,4,1:3:0:0:
173,152,188028,54,0,P|111:165|79:172,1,83.7199971895753,4|0,1:3|0:2,0:0:0:0:
91,169,188339,1,0,1:2:0:0:
55,353,188494,2,0,P|117:366|149:373,1,83.7199971895753,4|0,1:3|0:2,0:0:0:0:
136,370,188805,1,0,1:2:0:0:
263,254,188961,2,0,P|304:245|345:237,1,83.7199971895753,4|0,1:3|0:2,0:0:0:0:
345,236,189272,1,0,1:2:0:0:
439,374,189427,2,0,P|398:365|357:356,1,83.7199971895753,4|0,1:3|0:2,0:0:0:0:
357,355,189738,1,0,1:2:0:0:
253,85,189893,54,0,P|334:69|384:60,1,111.019995426117,14|0,1:2|1:2,0:0:0:0:
398,135,190126,1,0,1:2:0:0:
398,135,190204,2,0,B|332:121|274:108|274:108|212:152,1,166.529993139176,14|0,1:2|0:2,0:0:0:0:
167,189,190515,54,0,P|160:137|154:93,1,83.7199971895753,4|0,1:3|0:2,0:0:0:0:
155,106,190826,1,0,1:2:0:0:
0,149,190981,2,0,P|7:97|13:53,1,83.7199971895753,4|0,1:3|0:2,0:0:0:0:
11,66,191292,1,0,1:2:0:0:
156,273,191448,2,0,P|209:263|253:256,1,83.7199971895753,4|0,1:3|0:2,0:0:0:0:
238,258,191759,1,0,1:2:0:0:
241,40,191914,2,0,P|188:30|144:23,1,83.7199971895753,4|0,1:3|0:2,0:0:0:0:
158,25,192225,1,0,1:2:0:0:
354,226,192380,54,0,P|379:219|418:210,1,55.5099977130586,6|0,1:2|0:2,0:0:0:0:
379,63,192536,2,0,P|354:56|315:47,1,55.5099977130586,10|0,1:2|0:2,0:0:0:0:
254,157,192691,2,0,B|207:185|157:155|173:144|120:109|47:167,1,180.179999450134,14|0,0:2|0:2,0:0:0:0:
31,201,193002,102,0,P|40:266|48:339,1,101.920001244141,6|8,1:2|0:2,0:0:0:0:
40,334,193235,1,8,0:2:0:0:
40,334,193313,1,8,0:2:0:0:
212,145,193468,2,0,P|203:210|195:283,1,101.920001244141,6|8,1:2|0:2,0:0:0:0:
203,278,193701,1,8,0:2:0:0:
203,278,193779,1,8,0:2:0:0:
481,302,193935,2,0,P|472:237|464:164,1,101.920001244141,6|8,1:2|0:2,0:0:0:0:
472,169,194168,1,8,0:2:0:0:
472,169,194246,1,8,0:2:0:0:
300,358,194401,2,0,P|309:293|317:220,1,101.920001244141,6|8,1:2|0:2,0:0:0:0:
309,225,194634,1,8,0:2:0:0:
309,225,194712,1,8,0:2:0:0:
166,359,194867,1,6,1:2:0:0:
394,223,195023,1,0,1:2:0:0:
394,223,195101,1,0,1:2:0:0:
394,223,195178,1,10,0:2:0:0:
168,108,195334,1,4,1:3:0:0:
410,355,195489,21,10,0:2:0:0:
410,355,195645,1,10,0:2:0:0:
26,197,195955,85,10,0:2:0:0:
26,197,196111,1,10,0:2:0:0:
405,18,196422,21,10,0:2:0:0:
405,18,196578,1,10,0:2:0:0:
434,59,197976,22,0,B|318:4|241:121|274:134|182:239|56:177,1,420.4199871698,6|2,0:2|0:2,0:0:0:0:
138,77,199841,5,2,0:2:0:0:
312,227,200075,85,2,0:2:0:0:
84,317,200308,5,2,0:2:0:0:
171,175,200463,6,0,P|239:181|293:191,1,114.659996500855,2|0,1:2|0:2,0:0:0:0:
331,310,201085,2,0,P|263:316|209:326,1,114.659996500855,2|0,0:2|0:2,0:0:0:0:
369,152,201707,2,0,P|427:178|439:234,1,114.659996500855,2|0,0:2|0:2,0:0:0:0:
390,290,202329,2,0,P|332:264|320:208,1,114.659996500855,2|0,0:2|0:2,0:0:0:0:
433,37,202950,86,0,B|354:56|282:34|282:34|239:101|164:133,1,305.759990668946,6|0,1:2|0:2,0:0:0:0:
348,156,204505,5,2,0:2:0:0:
167,48,204816,5,2,0:2:0:0:
150,241,205126,85,2,0:2:0:0:
195,180,205282,1,0,1:2:0:0:
108,116,205437,6,0,P|101:207|96:279,1,152.879995334473,6|0,1:2|0:2,0:0:0:0:
389,324,206370,5,2,0:2:0:0:
327,247,206525,1,2,0:2:0:0:
297,341,206681,1,4,0:2:0:0:
297,341,206992,85,10,0:2:0:0:
419,231,207147,1,8,0:2:0:0:
275,170,207303,1,10,0:3:0:0:
404,311,207458,1,8,0:3:0:0:
304,259,207613,1,6,0:3:0:0:
390,199,207769,1,4,0:3:0:0:
310,366,207924,54,0,P|263:360|214:355,1,83.7199971895753,6|0,1:2|0:2,0:0:0:0:
162,203,208235,2,0,P|209:197|258:192,1,83.7199971895753,0|0,1:2|0:2,0:0:0:0:
63,325,208546,2,0,P|54:252|40:142,1,167.439994379151,8|0,0:2|1:2,0:0:0:0:
126,54,209012,1,8,0:2:0:0:
7,130,209168,1,0,1:2:0:0:
139,183,209323,1,8,0:2:0:0:
268,109,209479,2,0,P|367:121|438:132,1,167.439994379151,2|10,1:2|0:2,0:0:0:0:
240,23,210023,1,2,0:2:0:0:
449,178,210256,1,10,0:2:0:0:
191,297,210411,102,0,P|107:306|25:319,1,167.439994379151,2|0,1:2|0:2,0:0:0:0:
142,167,210878,1,2,1:2:0:0:
295,280,211033,2,0,P|281:349|276:378,1,83.7199971895753,8|0,0:2|0:2,0:0:0:0:
165,264,211344,1,2,1:2:0:0:
363,185,211499,2,0,P|377:254|382:283,1,83.7199971895753,8|0,0:2|1:2,0:0:0:0:
260,140,211810,1,8,0:2:0:0:
338,25,211966,2,0,P|391:39|428:50,1,83.7199971895753,0|0,1:2|1:2,0:0:0:0:
430,126,212199,1,0,1:2:0:0:
430,126,212277,2,0,P|389:114|349:103,1,83.7199971895753,8|0,0:2|1:2,0:0:0:0:
194,216,212588,1,10,0:3:0:0:
341,149,212743,1,6,0:3:0:0:
208,44,212898,6,0,B|105:26|157:108|32:88,1,167.439994379151,6|0,1:2|0:2,0:0:0:0:
192,137,213365,1,0,1:2:0:0:
47,64,213520,2,0,P|37:127|31:165,1,83.7199971895753,8|0,0:2|0:2,0:0:0:0:
112,253,213831,1,2,1:2:0:0:
230,149,213987,2,0,P|223:107|216:66,1,83.7199971895753,8|2,0:2|1:2,0:0:0:0:
117,160,214297,1,8,0:2:0:0:
222,274,214453,2,0,P|305:258|408:239,1,167.439994379151,2|10,1:2|0:2,0:0:0:0:
448,110,214919,1,0,1:2:0:0:
448,110,214997,1,8,0:2:0:0:
448,110,215075,1,2,1:2:0:0:
334,207,215230,1,8,0:2:0:0:
477,296,215386,1,6,1:2:0:0:
348,116,215541,102,0,B|245:98|297:180|172:160,1,167.439994379151,8|0,0:2|1:2,0:0:0:0:
26,100,216007,1,8,0:2:0:0:
170,130,216163,1,8,0:2:0:0:
71,214,216318,1,2,1:2:0:0:
166,48,216474,2,0,P|232:59|265:65,1,83.7199971895753,10|0,0:2|1:2,0:0:0:0:
318,233,216784,1,8,0:2:0:0:
407,114,216940,2,0,P|366:120|325:128,1,83.7199971895753,2|0,1:2|1:2,0:0:0:0:
300,147,217173,1,8,0:2:0:0:
300,147,217251,1,10,0:2:0:0:
372,39,217406,1,8,0:3:0:0:
438,194,217562,1,6,0:3:0:0:
491,102,217717,1,4,0:3:0:0:
318,233,217873,6,0,P|263:226|221:220,1,83.7199971895753,6|0,1:2|0:2,0:0:0:0:
165,87,218183,2,0,P|206:81|248:76,1,83.7199971895753,0|0,1:2|0:2,0:0:0:0:
128,210,218494,1,8,0:2:0:0:
128,210,218805,1,2,1:2:0:0:
36,181,218961,2,0,P|43:123|48:73,1,83.7199971895753,10|0,0:2|1:2,0:0:0:0:
215,160,219272,2,0,P|226:256|238:356,1,167.439994379151,8|0,0:2|0:2,0:0:0:0:
333,205,219738,2,0,P|385:166|458:184,1,125.579995784363,8|8,0:2|0:2,0:0:0:0:
466,196,220049,1,2,1:2:0:0:
350,83,220204,1,10,0:2:0:0:
320,245,220360,101,2,1:2:0:0:
215,160,220515,2,0,B|112:145|172:225|48:204,1,167.439994379151,8|0,0:2|0:2,0:0:0:0:
43,54,220981,2,0,P|126:61|196:71,1,125.579995784363,8|8,0:2|0:2,0:0:0:0:
208,48,221292,1,2,1:2:0:0:
81,129,221448,1,10,0:2:0:0:
199,245,221603,1,0,1:2:0:0:
158,168,221759,2,0,P|108:216|125:309,1,167.439994379151,8|0,0:2|1:2,0:0:0:0:
197,337,222147,1,8,0:2:0:0:
197,337,222225,2,0,P|263:329|305:326,1,83.7199971895753,10|8,0:2|0:3,0:0:0:0:
325,175,222536,2,0,P|259:167|217:164,1,83.7199971895753,4|4,0:3|0:3,0:0:0:0:
426,275,222847,6,0,B|446:220|469:160|469:160|450:135|433:109,1,167.439994379151,6|0,1:2|0:2,0:0:0:0:
310,43,223313,1,0,1:2:0:0:
222,231,223468,2,0,P|137:212|165:58,1,251.159991568726,8|0,0:2|0:2,0:0:0:0:
314,152,224090,1,2,1:2:0:0:
142,262,224246,2,0,P|244:274|329:284,1,167.439994379151,8|0,0:2|1:2,0:0:0:0:
440,345,224712,2,0,P|385:353|343:360,1,83.7199971895753,8|0,0:2|1:2,0:0:0:0:
328,369,224945,1,8,0:2:0:0:
328,369,225023,1,0,1:2:0:0:
421,250,225178,1,8,0:2:0:0:
243,172,225334,101,6,1:2:0:0:
333,239,225489,1,8,0:2:0:0:
333,239,225567,1,8,0:2:0:0:
333,239,225645,1,8,0:2:0:0:
361,141,225800,1,8,0:3:0:0:
211,270,225955,5,8,0:2:0:0:
289,103,226111,1,8,0:2:0:0:
315,206,226266,1,4,0:3:0:0:
224,65,226422,1,8,0:2:0:0:
50,228,226577,86,0,B|174:136|265:260|243:275|348:385|474:280,1,451.359982093262,6|4,1:2|0:2,0:0:0:0:
468,68,230308,102,0,B|321:34|402:154|251:123,1,240.240007331543,2|0,0:2|0:2,0:0:0:0:
41,51,232795,6,0,P|53:129|73:295,1,240.240007331543,2|0,0:2|0:2,0:0:0:0:
298,344,235282,102,0,P|380:327|409:220,1,200.200006109619,2|0,0:2|0:2,0:0:0:0:
230,95,236992,5,8,0:2:0:0:
230,95,237069,1,8,0:2:0:0:
230,95,237147,1,8,1:2:0:0:
313,270,237303,1,8,1:2:0:0:
373,82,237458,1,8,1:3:0:0:
195,210,237613,1,4,1:3:0:0:
423,164,237769,86,0,P|416:215|410:258,1,83.7199971895753,6|0,1:2|0:2,0:0:0:0:
266,139,238080,2,0,P|271:181|277:222,1,83.7199971895753,0|0,1:2|0:2,0:0:0:0:
97,277,238391,2,0,P|102:235|108:194,1,83.7199971895753,8|0,0:2|1:2,0:0:0:0:
101,162,238624,1,8,0:2:0:0:
101,162,238702,1,0,1:2:0:0:
238,306,238857,2,0,P|307:288|333:281,1,83.7199971895753,8|0,0:2|1:2,0:0:0:0:
221,144,239168,1,8,0:2:0:0:
121,362,239323,2,0,P|52:344|26:337,1,83.7199971895753,0|0,1:2|0:2,0:0:0:0:
250,223,239634,5,8,0:2:0:0:
76,138,239790,1,8,0:2:0:0:
248,125,239945,1,8,0:3:0:0:
140,187,240101,1,4,0:3:0:0:
329,89,240256,102,0,P|324:130|320:172,1,83.7199971895753,6|0,1:2|0:2,0:0:0:0:
198,64,240567,1,0,1:2:0:0:
357,12,240722,1,0,0:2:0:0:
221,185,240878,2,0,P|217:143|212:101,1,83.7199971895753,8|0,0:2|0:2,0:0:0:0:
338,215,241189,1,0,1:2:0:0:
284,65,241344,1,8,0:2:0:0:
198,215,241499,1,0,1:2:0:0:
358,140,241655,1,8,0:2:0:0:
212,101,241810,1,0,1:2:0:0:
331,245,241966,5,0,1:2:0:0:
331,245,242044,1,0,1:2:0:0:
331,245,242121,1,8,0:2:0:0:
320,45,242277,1,8,0:2:0:0:
262,284,242432,1,4,0:3:0:0:
405,79,242588,1,8,0:2:0:0:
384,311,242743,102,0,P|445:300|492:293,1,83.7199971895753,6|0,1:2|0:2,0:0:0:0:
328,132,243054,2,0,P|286:124|245:117,1,83.7199971895753,0|0,1:2|0:2,0:0:0:0:
237,319,243365,1,8,0:2:0:0:
360,224,243520,1,0,1:2:0:0:
360,224,243598,1,8,0:2:0:0:
360,224,243676,1,0,1:2:0:0:
89,187,243831,2,0,B|152:172|210:155|210:155|231:177|261:205,1,167.439994379151,6|8,1:2|0:2,0:0:0:0:
110,290,244297,2,0,P|47:283|13:280,1,83.7199971895753,0|0,1:2|0:2,0:0:0:0:
158,120,244608,1,8,0:2:0:0:
204,322,244764,1,8,0:2:0:0:
255,150,244919,2,0,P|318:143|352:140,1,83.7199971895753,4|4,0:3|0:3,0:0:0:0:
409,306,245230,85,14,0:2:0:0:
292,55,245386,1,0,1:2:0:0:
223,287,245541,1,0,1:2:0:0:
451,98,245696,1,12,0:2:0:0:
161,189,245852,1,0,1:2:0:0:
430,133,246007,1,0,1:2:0:0:
179,15,246163,1,8,0:2:0:0:
316,301,246318,1,6,1:2:0:0:
316,301,246784,54,0,P|253:315|207:335,1,110.110003360291,2|0,0:2|0:2,0:0:0:0:
96,250,247717,86,0,B|187:282|241:211|215:203|281:143|357:174,1,283.91999826709,6|2,1:2|0:2,0:0:0:0:
131,127,248961,1,2,0:2:0:0:
328,274,249272,1,2,0:2:0:0:
343,25,249582,37,4,0:2:0:0:
229,172,249738,2,0,P|211:120|205:111,1,46.4100002832642,8|8,0:2|0:2,0:0:0:0:
336,60,249893,2,0,P|357:68|376:81,1,46.4100002832642,8|8,0:2|0:2,0:0:0:0:
370,218,250049,2,0,P|347:223|326:232,1,46.4100002832642,4|4,0:3|0:3,0:0:0:0:
311,141,250204,6,0,P|361:131|411:123,1,101.920001244141,2|0,1:2|0:2,0:0:0:0:
318,315,250515,1,10,0:2:0:0:
201,194,250670,2,0,P|151:184|101:176,1,101.920001244141,2|0,0:2|1:2,0:0:0:0:
223,326,250981,1,4,1:3:0:0:
164,112,251137,1,10,0:2:0:0:
318,315,251292,2,0,B|392:289|453:264|453:264|478:283|503:302,1,203.840002488281,2|8,1:2|1:3,0:0:0:0:
357,148,251759,1,8,0:2:0:0:
416,362,251915,1,0,1:2:0:0:
468,118,252069,2,0,P|414:109|357:103,1,101.920001244141,2|0,1:2|0:2,0:0:0:0:
288,287,252380,2,0,P|338:281|388:272,1,101.920001244141,10|0,0:2|0:2,0:0:0:0:
233,145,252691,38,0,B|167:121|127:164|147:174|90:223|11:181,1,203.840002488281,6|10,1:2|0:2,0:0:0:0:
222,236,253158,1,2,0:2:0:0:
68,120,253313,2,0,P|75:58|80:7,1,101.920001244141,2|0,1:2|1:2,0:0:0:0:
106,0,253546,1,0,1:2:0:0:
106,0,253624,1,10,0:2:0:0:
222,236,253779,2,0,P|278:215|353:198,1,101.920001244141,6|0,1:2|0:2,0:0:0:0:
170,52,254090,2,0,P|160:110|137:184,1,101.920001244141,2|8,1:2|0:2,0:0:0:0:
363,94,254401,2,0,P|316:56|264:0,1,101.920001244141,2|0,1:2|0:2,0:0:0:0:
248,138,254712,1,2,1:3:0:0:
442,56,254867,1,10,0:2:0:0:
268,109,255023,1,2,0:2:0:0:
512,150,255178,70,0,P|497:265|486:363,1,203.840002488281,6|10,1:2|0:2,0:0:0:0:
380,150,255645,1,2,0:2:0:0:
270,323,255800,1,2,1:2:0:0:
456,246,255955,1,0,1:2:0:0:
260,135,256111,1,10,0:2:0:0:
349,326,256266,38,0,B|234:282|234:282|172:319,1,166.529993139176,14|0,0:2|0:2,0:0:0:0:
196,304,256577,2,0,P|132:296|67:290,1,101.920001244141,10|0,0:2|0:2,0:0:0:0:
278,167,256888,1,10,1:2:0:0:
278,167,256966,1,8,1:2:0:0:
278,167,257044,1,8,0:2:0:0:
77,263,257199,1,8,0:2:0:0:
297,194,257354,1,8,1:3:0:0:
121,153,257510,1,4,1:3:0:0:
374,266,257665,70,0,P|439:183|390:85,1,203.840002488281,6|8,1:2|0:2,0:0:0:0:
198,253,258132,2,0,P|107:235|75:228,1,101.920001244141,2|0,0:2|1:2,0:0:0:0:
261,107,258443,1,6,1:3:0:0:
307,311,258598,1,8,0:2:0:0:
160,158,258753,2,0,P|171:80|180:28,1,101.920001244141,2|0,1:2|0:0,0:0:0:0:
344,187,259064,1,8,1:3:0:0:
169,321,259220,1,8,0:2:0:0:
273,146,259375,1,0,1:2:0:0:
348,344,259531,2,0,P|298:354|248:363,1,101.920001244141,2|0,1:2|0:2,0:0:0:0:
372,112,259841,2,0,P|421:122|471:131,1,101.920001244141,10|0,0:2|1:2,0:0:0:0:
503,216,260075,1,0,1:2:0:0:
503,216,260152,38,0,B|446:191|400:232|425:243|368:295|287:254,1,203.840002488281,6|10,1:2|0:2,0:0:0:0:
149,112,260619,2,0,P|141:166|132:224,1,101.920001244141,2|0,0:2|1:2,0:0:0:0:
206,331,260930,1,6,1:3:0:0:
343,188,261085,1,10,0:2:0:0:
224,66,261240,2,0,P|232:120|241:178,1,101.920001244141,2|0,1:2|0:0,0:0:0:0:
334,298,261551,1,8,1:3:0:0:
418,110,261707,1,8,0:2:0:0:
245,211,261862,1,0,1:2:0:0:
412,315,262018,2,0,P|472:302|528:292,1,101.920001244141,2|0,1:2|0:2,0:0:0:0:
352,153,262329,2,0,P|292:140|236:130,1,101.920001244141,10|0,0:2|0:2,0:0:0:0:
107,268,262639,69,6,1:2:0:0:
164,57,262795,1,2,0:2:0:0:
267,272,262950,1,8,0:2:0:0:
150,96,263106,1,2,0:2:0:0:
95,300,263261,1,2,1:2:0:0:
269,156,263417,1,4,1:3:0:0:
69,148,263572,1,10,0:2:0:0:
281,308,263727,38,0,P|358:294|415:284,1,101.920001244141,6|0,1:2|0:0,0:0:0:0:
304,83,264038,1,10,1:3:0:0:
191,243,264194,1,10,0:2:0:0:
449,175,264349,2,0,B|376:143|318:117|318:117|290:140|260:163,1,203.840002488281,2|4,1:2|1:3,0:0:0:0:
122,326,264816,2,0,P|114:259|108:204,1,101.920001244141,10|0,0:2|0:2,0:0:0:0:
247,49,265126,1,6,1:2:0:0:
191,243,265282,1,2,1:2:0:0:
93,70,265437,1,8,0:2:0:0:
268,175,265593,1,2,0:2:0:0:
94,111,265748,1,2,1:2:0:0:
258,19,265904,1,0,1:2:0:0:
93,147,266059,1,10,0:2:0:0:
363,42,266215,70,0,P|440:63|443:179,1,166.529993139176,10|0,0:2|0:2,0:0:0:0:
467,143,266525,2,0,P|412:137|350:131,1,101.920001244141,10|0,0:2|0:0,0:0:0:0:
194,267,266836,1,10,1:2:0:0:
348,175,266992,1,8,0:2:0:0:
185,97,267147,1,8,0:2:0:0:
310,291,267303,1,10,0:3:0:0:
222,114,267458,1,0,0:3:0:0:
172,340,267613,102,0,P|87:328|22:322,1,139.230000849792,2|0,1:2|0:2,0:0:0:0:
38,284,267924,2,0,P|107:291|176:301,1,139.230000849792,0|0,1:2|0:2,0:0:0:0:
253,328,268235,2,0,P|259:266|263:211,1,92.8200005665283,8|0,0:2|3:2,0:0:0:0:
245,194,268468,1,0,3:2:0:0:
245,194,268546,1,2,1:2:0:0:
402,292,268702,2,0,P|394:206|384:122,1,139.230000849792,2|0,1:2|0:2,0:0:0:0:
395,121,269012,1,8,0:2:0:0:
201,271,269168,2,0,P|128:257|88:249,1,92.8200005665283,0|0,1:2|0:0,0:0:0:0:
70,65,269479,2,0,P|115:56|161:47,1,92.8200005665283,8|0,0:2|3:2,0:0:0:0:
194,55,269712,1,0,3:2:0:0:
198,59,269790,1,2,1:2:0:0:
43,197,269945,69,10,0:2:0:0:
277,103,270101,1,0,1:2:0:0:
68,162,270256,1,8,0:2:0:0:
239,292,270411,2,0,P|316:275|403:258,1,139.230000849792,0|0,1:2|0:2,0:0:0:0:
397,233,270722,1,8,0:2:0:0:
194,167,270878,1,8,0:2:0:0:
421,93,271033,1,6,0:3:0:0:
123,268,271189,38,0,P|118:222|115:176,1,92.8200005665283,2|0,1:2|0:0,0:0:0:0:
255,28,271499,1,8,0:2:0:0:
357,236,271655,2,0,P|353:282|349:328,1,92.8200005665283,0|0,1:2|1:2,0:0:0:0:
331,358,271888,1,0,1:2:0:0:
335,362,271966,1,10,0:2:0:0:
303,146,272121,1,8,0:3:0:0:
461,295,272277,2,0,P|446:178|438:118,1,139.230000849792,4|0,0:3|0:2,0:0:0:0:
443,156,272588,70,0,P|374:148|324:144,1,101.920001244141,6|0,1:2|0:0,0:0:0:0:
132,207,272898,2,0,P|182:200|233:196,1,101.920001244141,8|0,0:2|0:2,0:0:0:0:
152,92,273209,1,0,1:2:0:0:
242,289,273365,1,4,1:3:0:0:
341,96,273520,1,8,0:2:0:0:
172,346,273676,2,0,B|245:324|317:299|317:299|346:317|380:337,1,203.840002488281,6|10,1:2|1:3,0:0:0:0:
237,95,274142,2,0,P|229:166|223:220,1,101.920001244141,10|0,0:2|1:2,0:0:0:0:
152,244,274375,1,0,1:2:0:0:
156,248,274453,2,0,P|150:197|144:146,1,101.920001244141,0|4,1:2|1:3,0:0:0:0:
328,216,274764,1,10,0:2:0:0:
107,148,274919,1,0,0:2:0:0:
339,24,275075,37,14,0:2:0:0:
265,289,275230,1,0,1:2:0:0:
162,54,275386,1,2,1:2:0:0:
402,170,275541,1,10,0:2:0:0:
167,88,275696,1,0,1:2:0:0:
429,142,275852,1,2,1:2:0:0:
156,267,276007,1,8,0:2:0:0:
375,47,276163,38,0,P|448:43|493:175,1,203.840002488281,4|0,1:2|1:2,0:0:0:0:
420,317,276629,1,8,0:2:0:0:
207,131,276784,2,0,P|134:127|89:259,1,203.840002488281,4|0,1:2|1:2,0:0:0:0:
165,371,277251,1,8,0:2:0:0:
302,119,277406,2,0,P|403:132|504:146,1,203.840002488281,4|0,1:2|1:2,0:0:0:0:
402,290,277873,1,8,0:2:0:0:
178,213,278028,2,0,P|121:222|50:236,1,101.920001244141,4|0,1:2|0:2,0:0:0:0:
219,30,278339,1,8,0:2:0:0:
265,10,278416,1,8,0:2:0:0:
314,22,278494,1,8,0:3:0:0:
346,60,278572,1,4,0:3:0:0:
350,110,278650,102,0,B|296:97|248:144|248:144|196:106|106:132,1,222.039990852234,6|0,1:2|0:2,0:0:0:0:
37,277,279116,1,8,0:2:0:0:
313,217,279272,2,0,B|448:196|373:297|521:279,1,222.039990852234,6|0,1:2|1:2,0:0:0:0:
344,384,279738,1,8,0:2:0:0:
500,194,279893,2,0,P|458:103|329:132,1,222.039990852234,6|0,1:2|1:2,0:0:0:0:
205,302,280360,1,8,0:2:0:0:
420,191,280515,1,6,1:2:0:0:
205,89,280670,1,0,1:2:0:0:
306,334,280826,1,8,0:2:0:0:
308,295,280903,1,8,0:2:0:0:
310,256,280981,1,8,0:3:0:0:
313,217,281059,1,4,0:3:0:0:
315,178,281137,54,0,B|234:152|172:129|172:129|143:152|104:181,1,203.840002488281,4|0,1:2|1:2,0:0:0:0:
27,362,281603,2,0,P|36:293|49:176,1,152.880001866211,10|0,0:2|0:2,0:0:0:0:
11,132,281914,2,0,P|80:115|127:106,1,101.920001244141,2|0,1:2|0:2,0:0:0:0:
215,310,282225,2,0,P|165:299|115:286,1,101.920001244141,8|0,0:2|0:2,0:0:0:0:
255,58,282536,1,2,1:2:0:0:
363,250,282691,1,0,1:0:0:0:
167,186,282847,1,10,0:2:0:0:
337,42,283002,2,0,P|325:124|316:188,1,101.920001244141,2|0,1:2|1:2,0:0:0:0:
397,335,283313,1,10,0:2:0:0:
427,316,283390,1,8,0:2:0:0:
446,286,283468,1,8,0:3:0:0:
452,252,283546,1,4,0:3:0:0:
443,217,283624,102,0,B|394:187|342:237|358:245|309:285|249:262,1,203.840002488281,6|0,1:2|1:2,0:0:0:0:
112,87,284090,2,0,P|194:70|295:54,1,152.880001866211,10|0,0:2|0:2,0:0:0:0:
334,34,284401,2,0,P|327:103|320:169,1,101.920001244141,2|0,1:2|0:2,0:0:0:0:
178,302,284712,2,0,P|172:251|167:200,1,101.920001244141,8|0,0:2|0:2,0:0:0:0:
339,285,285023,1,2,1:2:0:0:
141,181,285178,1,0,1:0:0:0:
349,116,285334,1,10,0:2:0:0:
59,227,285489,2,0,P|64:176|69:125,1,101.920001244141,2|0,1:2|1:2,0:0:0:0:
268,18,285800,1,10,0:2:0:0:
271,53,285877,1,8,0:2:0:0:
274,89,285955,1,8,0:3:0:0:
278,124,286033,1,4,0:3:0:0:
281,160,286111,70,0,P|363:125|440:206,1,203.840002488281,6|0,1:2|1:2,0:0:0:0:
330,330,286577,2,0,P|263:319|215:314,1,101.920001244141,10|0,0:2|0:0,0:0:0:0:
115,120,286888,2,0,P|165:111|215:105,1,101.920001244141,10|0,0:2|0:2,0:0:0:0:
124,299,287199,1,8,0:2:0:0:
336,214,287354,1,0,0:2:0:0:
53,236,287510,2,0,B|124:215|193:192|193:192|241:231,1,203.840002488281,2|10,1:2|0:2,0:0:0:0:
419,347,287976,2,0,P|427:276|433:224,1,101.920001244141,2|0,1:2|1:2,0:0:0:0:
283,71,288287,1,10,0:2:0:0:
292,105,288364,1,8,0:2:0:0:
316,130,288442,1,8,0:3:0:0:
350,141,288520,1,4,0:3:0:0:
385,135,288598,102,0,P|419:44|330:10,1,203.840002488281,6|0,1:2|1:2,0:0:0:0:
194,247,289064,1,10,0:2:0:0:
453,186,289220,1,0,1:2:0:0:
196,74,289375,1,10,0:2:0:0:
327,324,289531,1,0,1:2:0:0:
230,84,289686,1,8,0:2:0:0:
156,340,289841,1,0,1:2:0:0:
411,185,289997,1,10,0:2:0:0:
162,261,290152,1,0,1:2:0:0:
162,261,290230,1,0,1:2:0:0:
162,261,290308,1,10,0:2:0:0:
467,326,290463,101,6,1:2:0:0:
51,208,290774,5,6,1:2:0:0:
411,0,291085,101,6,1:2:0:0:
