osu file format v14

[General]
AudioFilename: audio.mp3
AudioLeadIn: 0
PreviewTime: 226853
Countdown: 1
SampleSet: Soft
StackLeniency: 0.5
Mode: 0
LetterboxInBreaks: 0
WidescreenStoryboard: 0

[Editor]
DistanceSpacing: 0.8
BeatDivisor: 4
GridSize: 32
TimelineZoom: 1.9

[Metadata]
Title:Wonder Stella
TitleUnicode:ワンダーステラ
Artist:fhana
ArtistUnicode:fhána
Creator:Nelliel
Version:Prisma
Source:Fate/kaleid liner プリズマ☆イリヤ ツヴァイ ヘルツ!
Tags:Prisma☆Illya 2wei Herz! Illya Prisma
BeatmapID:1957799
BeatmapSetID:937222

[Difficulty]
HPDrainRate:5.4
CircleSize:3.8
OverallDifficulty:9.3
ApproachRate:9.4
SliderMultiplier:1.8
SliderTickRate:1

[Events]
//Background and Video events
0,0,"fate.jpg",0,0
//Break Periods
2,197630,205795
//Storyboard Layer 0 (Background)
//Storyboard Layer 1 (Fail)
//Storyboard Layer 2 (Pass)
//Storyboard Layer 3 (Foreground)
//Storyboard Sound Samples

[TimingPoints]
1154,310.880829015544,4,2,0,40,1,0
1154,-142.857142857143,4,2,0,40,0,0
10324,-111.111111111111,4,2,0,40,0,0
11102,-100,4,2,0,40,0,0
20894,-125,4,2,0,40,0,0
25869,-111.111111111111,4,2,0,40,0,0
30998,-125,4,2,0,40,0,0
35817,-111.111111111111,4,2,0,40,0,0
38304,-99.9999999999999,4,2,0,40,0,0
48407,-125,4,2,0,40,0,0
58356,-90.9090909090909,4,2,0,40,0,1
78252,-111.111111111111,4,2,0,40,0,1
86801,-333.333333333333,4,2,0,40,0,0
88200,-142.857142857143,4,2,0,40,0,0
108097,-125,4,2,0,40,0,0
110428,-111.111111111111,4,2,0,40,0,0
130324,-111.111111111111,4,2,0,40,0,0
132812,-100,4,2,0,40,0,0
142915,-125,4,2,0,40,0,0
152863,-90.9090909090909,4,2,0,40,0,1
177734,-90.9090909090909,4,2,0,40,0,0

[HitObjects]
81,91,1154,6,0,L|229:100,1,125.999996154785
308,47,1621,2,0,P|267:85|250:172,1,125.999996154785
294,254,2087,1,0,0:0:0:0:
294,254,2242,2,0,L|95:266,1,188.999994232178
8,60,3020,1,0,0:0:0:0:
234,78,3330,1,0,0:0:0:0:
25,166,3641,6,0,L|156:171,1,125.999996154785
204,271,4108,1,0,0:0:0:0:
204,271,4263,2,0,P|172:218|181:138,1,125.999996154785
240,62,4729,2,0,B|346:54|300:145|427:132,1,188.999994232178
402,360,5507,1,0,0:0:0:0:
206,244,5817,1,0,2:0:0:0:
405,133,6128,6,0,P|353:134|273:153,1,125.999996154785
206,244,6595,1,0,0:0:0:0:
104,193,6750,2,0,L|106:277,1,62.9999980773926
109,369,7061,1,0,0:0:0:0:
0,337,7216,5,0,0:0:0:0:
207,244,7527,1,0,0:0:0:0:
0,151,7838,1,0,0:0:0:0:
207,58,8149,1,0,0:0:0:0:
205,88,8304,1,0,0:0:0:0:
203,118,8460,1,0,0:0:0:0:
274,161,8615,6,0,L|142:168,1,125.999996154785
37,142,9082,1,0,0:0:0:0:
148,167,9237,2,0,P|198:198|234:256,1,125.999996154785
266,144,9703,5,0,0:0:0:0:
95,294,10014,1,0,0:0:0:0:
50,70,10325,1,0,0:0:0:0:
50,87,10403,1,0,0:0:0:0:
50,104,10481,1,0,0:0:0:0:
7,273,10636,1,0,0:0:0:0:
198,174,10792,1,0,0:0:0:0:
6,290,10947,1,0,0:0:0:0:
229,260,11102,6,0,P|281:279|324:314,1,90
436,145,11413,2,0,P|384:164|341:199,1,90
276,39,11724,1,0,0:0:0:0:
488,78,11880,1,0,0:0:0:0:
253,150,12035,2,0,L|137:145,1,90
32,55,12346,5,0,0:0:0:0:
5,236,12501,1,0,0:0:0:0:
126,57,12657,2,0,B|135:212,1,135
142,272,12968,1,0,0:0:0:0:
329,135,13123,1,0,0:0:0:0:
129,280,13279,2,0,P|184:289|248:356,1,135
278,380,13589,6,0,P|267:306|268:191,1,180
319,47,14056,1,0,0:0:0:0:
430,164,14211,2,0,B|412:171|390:186|355:213,1,90
416,63,14522,1,0,0:0:0:0:
219,27,14678,1,0,0:0:0:0:
355,213,14833,5,0,0:0:0:0:
320,0,14988,1,0,0:0:0:0:
254,240,15144,1,0,0:0:0:0:
219,27,15299,1,0,0:0:0:0:
219,27,15377,1,0,0:0:0:0:
219,27,15455,1,0,0:0:0:0:
88,205,15610,1,0,0:0:0:0:
290,161,15766,1,0,0:0:0:0:
61,213,15921,1,0,0:0:0:0:
250,94,16076,6,0,P|298:110|394:125,1,135
456,94,16387,2,0,P|423:144|416:263,1,180
460,364,16854,1,0,0:0:0:0:
254,240,17009,2,0,L|148:253,1,90
27,331,17320,5,0,0:0:0:0:
133,146,17475,1,0,0:0:0:0:
199,373,17631,1,0,0:0:0:0:
7,195,17942,5,0,0:0:0:0:
270,166,18097,1,0,0:0:0:0:
32,59,18253,1,0,0:0:0:0:
350,204,18564,5,0,0:0:0:0:
202,38,18719,1,0,0:0:0:0:
227,244,18874,1,0,0:0:0:0:
384,50,19030,1,0,0:0:0:0:
309,302,19185,1,0,0:0:0:0:
128,142,19341,1,0,0:0:0:0:
214,345,19496,1,0,0:0:0:0:
442,200,19652,6,0,P|348:203|293:216,1,135
227,244,19963,1,0,0:0:0:0:
305,67,20118,1,0,0:0:0:0:
88,160,20273,1,0,0:0:0:0:
88,160,20351,1,0,0:0:0:0:
88,160,20429,1,0,0:0:0:0:
331,172,20584,1,0,0:0:0:0:
166,9,20740,1,0,0:0:0:0:
106,285,20895,5,0,0:0:0:0:
362,263,21206,1,0,0:0:0:0:
362,263,21361,2,0,L|358:163,1,72
351,75,21672,1,0,0:0:0:0:
237,309,21983,1,0,0:0:0:0:
452,199,22294,5,0,0:0:0:0:
175,137,22605,1,0,0:0:0:0:
175,137,22760,2,0,L|171:212,1,72
4,133,23071,2,0,L|7:204,1,72
126,55,23382,5,0,0:0:0:0:
65,279,23693,1,0,0:0:0:0:
65,279,23849,2,0,L|136:282,1,72
252,341,24159,1,0,0:0:0:0:
365,168,24470,1,0,0:0:0:0:
164,360,24781,5,0,0:0:0:0:
353,368,24937,1,0,0:0:0:0:
136,282,25092,2,0,P|181:261|228:251,1,72
397,298,25403,1,0,0:0:0:0:
179,166,25558,1,0,0:0:0:0:
353,368,25714,1,0,0:0:0:0:
365,168,25869,6,0,L|378:36,1,121.499996292114
382,0,26180,1,0,0:0:0:0:
496,131,26336,1,0,0:0:0:0:
277,194,26491,1,0,0:0:0:0:
457,49,26646,2,0,L|354:46,1,80.9999975280763
176,104,26957,1,0,0:0:0:0:
398,207,27113,1,0,0:0:0:0:
166,280,27268,6,0,L|171:198,1,80.9999975280763
287,354,27579,2,0,L|282:272,1,80.9999975280763
70,359,27890,1,0,0:0:0:0:
255,195,28045,1,0,0:0:0:0:
86,281,28201,1,0,0:0:0:0:
339,211,28356,6,0,P|406:238|451:313,1,161.999995056153
479,356,28823,2,0,L|489:256,1,80.9999975280763
462,115,29133,1,0,0:0:0:0:
274,242,29289,1,0,0:0:0:0:
405,29,29444,1,0,0:0:0:0:
175,31,29600,6,0,L|54:43,1,121.499996292114
13,50,29911,1,0,0:0:0:0:
141,147,30066,2,0,L|61:154,1,80.9999975280763
216,270,30377,1,0,0:0:0:0:
175,48,30532,1,0,0:0:0:0:
216,270,30688,1,0,0:0:0:0:
175,48,30843,1,0,0:0:0:0:
109,252,30999,6,0,P|204:248|254:257,1,144
418,368,31621,1,0,0:0:0:0:
418,368,31776,1,0,0:0:0:0:
289,152,32087,2,0,L|300:295,1,144
263,384,32553,1,0,0:0:0:0:
389,181,32864,2,0,L|395:253,1,72
483,60,33175,1,0,0:0:0:0:
483,60,33330,6,0,L|475:147,1,72
376,0,33641,1,0,0:0:0:0:
289,152,33797,2,0,L|283:80,1,72
191,241,34108,1,0,0:0:0:0:
224,33,34263,1,0,0:0:0:0:
78,196,34418,1,0,0:0:0:0:
299,243,34574,5,0,0:0:0:0:
21,335,34885,1,0,0:0:0:0:
21,335,35040,1,0,0:0:0:0:
315,350,35351,1,0,0:0:0:0:
290,115,35507,1,0,0:0:0:0:
316,359,35662,1,0,0:0:0:0:
289,103,35817,6,0,P|236:110|204:121,1,80.9999975280763
37,42,36128,1,0,0:0:0:0:
37,42,36284,2,0,P|90:49|122:60,1,80.9999975280763
236,194,36595,2,0,P|215:144|209:111,1,80.9999975280763
93,278,36906,2,0,P|113:228|119:195,1,80.9999975280763
236,362,37216,6,0,P|215:312|209:279,1,80.9999975280763
288,133,37527,2,0,P|255:175|229:197,1,80.9999975280763
63,202,37838,1,0,0:0:0:0:
293,258,37994,1,0,0:0:0:0:
55,200,38149,1,0,0:0:0:0:
299,261,38304,6,0,L|497:248,1,180
510,119,38771,2,0,P|486:179|479:262,1,135
494,328,39082,1,0,0:0:0:0:
382,211,39237,1,0,0:0:0:0:
396,381,39393,1,0,0:0:0:0:
288,201,39548,5,0,0:0:0:0:
288,201,39703,2,0,L|302:17,1,180
183,160,40170,2,0,L|176:70,1,90
76,308,40481,2,0,L|150:257,1,90
331,275,40792,6,0,B|431:273|394:354|497:347,1,180
319,380,41258,1,0,0:0:0:0:
487,247,41413,1,0,0:0:0:0:
487,247,41569,2,0,L|498:109,1,135
512,72,41880,2,0,P|458:85|412:86,1,90
301,22,42190,5,0,0:0:0:0:
290,222,42346,2,0,P|305:168|327:128,1,90
194,334,42657,2,0,P|165:238|126:166,1,180
19,73,43123,1,0,0:0:0:0:
0,248,43279,1,0,0:0:0:0:
104,73,43434,6,0,P|146:75|198:95,1,90
376,204,43745,1,0,0:0:0:0:
376,204,43900,2,0,P|334:206|282:226,1,90
497,343,44211,2,0,P|462:314|438:276,1,90
499,102,44522,6,0,P|491:146|471:186,1,90
367,27,44833,1,0,0:0:0:0:
376,204,44988,1,0,0:0:0:0:
281,49,45144,2,0,L|174:61,1,90
5,155,45455,2,0,L|112:167,1,90
213,180,45766,1,0,0:0:0:0:
42,323,45921,6,0,L|225:302,1,180
412,363,46543,1,0,0:0:0:0:
412,363,46698,1,0,0:0:0:0:
480,227,46854,1,0,0:0:0:0:
480,227,47009,6,0,L|476:44,1,180
329,145,47475,1,0,0:0:0:0:
329,145,47631,1,0,0:0:0:0:
197,308,47786,1,0,0:0:0:0:
228,116,47942,1,0,0:0:0:0:
195,325,48097,1,0,0:0:0:0:
226,133,48253,1,0,0:0:0:0:
34,247,48408,6,0,L|185:237,1,144
358,321,49030,1,0,0:0:0:0:
402,223,49185,1,0,0:0:0:0:
295,232,49341,1,0,0:0:0:0:
446,125,49496,5,0,0:0:0:0:
446,125,49652,2,0,L|353:114,1,72
188,49,49963,2,0,L|281:38,1,72
209,208,50273,2,0,L|237:141,1,72
258,300,50584,2,0,L|165:311,1,72
323,207,50895,5,0,0:0:0:0:
112,161,51051,1,0,0:0:0:0:
345,290,51206,1,0,0:0:0:0:
237,141,51361,1,0,0:0:0:0:
186,308,51517,1,0,0:0:0:0:
160,83,51672,1,0,0:0:0:0:
187,320,51828,1,0,0:0:0:0:
156,70,51983,6,0,L|268:71,1,108
310,71,52294,2,0,P|296:116|296:161,1,72
337,279,52605,1,0,0:0:0:0:
337,279,52683,1,0,0:0:0:0:
337,279,52760,1,0,0:0:0:0:
415,97,52916,1,0,0:0:0:0:
208,221,53071,1,0,0:0:0:0:
449,214,53227,1,0,0:0:0:0:
227,343,53382,6,0,L|72:329,1,144
4,248,53849,1,0,0:0:0:0:
208,221,54004,1,0,0:0:0:0:
6,95,54159,2,0,P|53:103|105:142,1,108
96,177,54470,6,0,P|136:140|236:101,1,144
318,94,54937,1,0,0:0:0:0:
346,328,55247,1,0,0:0:0:0:
346,328,55403,2,0,P|360:265|398:211,1,108
466,188,55714,1,0,0:0:0:0:
466,188,56025,5,0,0:0:0:0:
281,57,56180,1,0,0:0:0:0:
427,309,56336,1,0,0:0:0:0:
424,54,56491,1,0,0:0:0:0:
207,212,56646,1,0,0:0:0:0:
496,101,56802,1,0,0:0:0:0:
187,4,56957,1,0,0:0:0:0:
218,331,57113,1,0,0:0:0:0:
218,331,57735,5,0,0:0:0:0:
218,331,58045,1,0,0:0:0:0:
358,146,58356,6,0,L|353:249,1,99.0000030212403
225,77,58667,1,0,0:0:0:0:
460,203,58823,2,0,L|455:104,1,99.0000030212403
303,0,59133,2,0,L|391:45,1,99.0000030212403,0|0,0:3|0:3,0:3:0:0:
262,166,59444,6,0,B|147:157|187:242|73:225,1,198.000006042481
2,157,59911,1,0,0:0:0:0:
168,308,60066,1,0,0:0:0:0:
80,98,60222,2,0,L|93:-5,1,99.0000030212403
262,166,60532,2,0,L|249:63,1,99.0000030212403
374,212,60843,6,0,P|298:204|197:276,1,198.000006042481
157,364,61310,1,0,0:0:0:0:
173,163,61465,1,0,0:0:0:0:
69,354,61621,1,0,0:0:0:0:
308,376,61776,1,0,0:0:0:0:
27,212,61931,6,0,P|103:204|204:276,1,198.000006042481
234,372,62398,1,0,0:0:0:0:
286,189,62553,1,0,0:0:0:0:
142,340,62709,1,0,0:0:0:0:
85,160,62864,1,0,0:0:0:0:
306,299,63020,1,0,0:0:0:0:
363,119,63175,1,0,0:0:0:0:
158,57,63330,6,0,L|49:65,1,99.0000030212403
189,207,63641,1,0,0:0:0:0:
189,207,63797,2,0,L|90:199,1,99.0000030212403
12,257,64108,1,0,0:0:0:0:
245,321,64263,1,0,0:0:0:0:
244,124,64418,6,0,P|234:201|246:328,1,198.000006042481
400,275,64885,1,0,0:0:0:0:
157,235,65040,2,0,L|45:252,1,99.0000030212403
107,113,65351,1,0,0:0:0:0:
36,337,65507,1,0,0:0:0:0:
273,291,65662,1,0,0:0:0:0:
134,33,65817,6,0,B|240:33|200:123|317:108,1,198.000006042481
418,31,66284,1,0,0:0:0:0:
260,206,66439,2,0,P|304:244|342:300,1,99.0000030212403
366,384,66750,1,0,0:0:0:0:
464,179,66906,5,0,0:0:0:0:
122,317,67216,2,0,P|140:255|173:202,1,99.0000030212403
344,116,67527,1,0,0:0:0:0:
344,116,67605,1,0,0:0:0:0:
344,116,67683,1,0,0:0:0:0:
102,73,67838,1,0,0:0:0:0:
356,118,67994,1,0,0:0:0:0:
89,70,68149,1,0,0:0:0:0:
276,149,68304,6,0,P|309:187|334:237,1,99.0000030212403
341,343,68615,1,0,0:0:0:0:
278,75,68771,2,0,P|245:113|220:163,1,99.0000030212403
62,239,69082,2,0,P|111:248|167:245,1,99.0000030212403
312,344,69393,1,0,0:0:0:0:
434,221,69548,6,0,L|318:202,1,99.0000030212403
187,63,69859,2,0,L|228:172,1,99.0000030212403
91,29,70170,1,0,0:0:0:0:
43,213,70325,1,0,0:0:0:0:
278,75,70481,1,0,0:0:0:0:
326,259,70636,1,0,0:0:0:0:
111,164,70792,6,0,P|47:183|3:193,1,99.0000030212403
278,75,71102,1,0,0:0:0:0:
278,75,71258,2,0,P|342:94|386:104,1,99.0000030212403
474,271,71569,2,0,P|458:206|445:162,1,99.0000030212403
286,260,71880,6,0,B|183:251|225:346|112:336,1,198.000006042481
79,327,72268,1,0,0:0:0:0:
79,327,72346,1,0,0:0:0:0:
186,160,72501,1,0,0:0:0:0:
18,260,72657,2,0,L|10:152,1,99.0000030212403
178,61,72968,2,0,L|186:169,1,99.0000030212403
55,39,73279,5,0,0:0:0:0:
281,9,73434,1,0,0:0:0:0:
77,116,73589,1,0,0:0:0:0:
310,188,73745,1,0,0:0:0:0:
99,300,73900,2,0,L|106:201,1,99.0000030212403
174,355,74211,1,0,0:0:0:0:
412,274,74367,6,0,L|254:281,1,148.50000453186
224,283,74678,1,0,0:0:0:0:
361,133,74833,1,0,0:0:0:0:
117,93,74988,1,0,0:0:0:0:
416,192,75144,1,0,0:0:0:0:
165,192,75299,1,0,0:0:0:0:
336,54,75455,2,0,L|484:64,1,148.50000453186
511,52,75766,6,0,P|489:110|488:176,1,99.0000030212403
503,261,76076,1,0,0:0:0:0:
290,318,76232,1,0,0:0:0:0:
290,318,76387,2,0,P|351:327|408:360,1,99.0000030212403
185,374,76698,1,0,0:0:0:0:
301,187,76854,5,0,0:0:0:0:
48,297,77165,1,0,0:0:0:0:
129,113,77320,1,0,0:0:0:0:
252,291,77475,1,0,0:0:0:0:
252,291,77553,1,0,0:0:0:0:
252,291,77631,1,0,0:0:0:0:
206,70,77786,1,0,0:0:0:0:
139,295,77942,1,0,0:0:0:0:
261,141,78097,1,0,0:0:0:0:
261,141,78253,6,0,L|437:153,2,161.999995056153
132,159,79185,1,0,0:0:0:0:
132,159,79341,2,0,B|141:42|141:42|91:83,1,161.999995056153
55,209,79807,1,0,0:0:0:0:
235,54,80118,1,0,0:0:0:0:
280,287,80429,2,0,P|225:294|181:306,1,80.9999975280763
324,197,80740,5,0,0:0:0:0:
106,140,80895,1,0,0:0:0:0:
280,287,81051,2,0,P|269:224|267:113,1,161.999995056153
314,23,81517,1,0,0:0:0:0:
177,183,81672,1,0,0:0:0:0:
419,139,81828,6,0,L|281:127,1,121.499996292114
266,126,82139,1,0,0:0:0:0:
410,249,82294,1,0,0:0:0:0:
432,41,82450,1,0,0:0:0:0:
432,41,82527,1,0,0:0:0:0:
432,41,82605,1,0,0:0:0:0:
291,242,82760,1,0,0:0:0:0:
511,133,82916,1,0,0:0:0:0:
245,17,83071,1,0,0:0:0:0:
437,232,83227,6,0,P|375:245|280:298,1,161.999995056153
502,321,83849,1,0,0:0:0:0:
275,167,84159,1,0,0:0:0:0:
275,167,84315,6,0,L|186:186,1,80.9999975280763
54,70,84626,1,0,0:0:0:0:
54,70,84781,2,0,L|114:137,1,80.9999975280763
80,309,85092,1,0,0:0:0:0:
80,309,85247,1,0,0:0:0:0:
274,292,85403,1,0,0:0:0:0:
59,208,85558,1,0,0:0:0:0:
228,369,85714,5,0,0:0:0:0:
254,145,85869,1,0,0:0:0:0:
349,353,86025,1,0,0:0:0:0:
105,289,86180,1,0,0:0:0:0:
352,180,86336,1,0,0:0:0:0:
119,87,86491,1,0,0:0:0:0:
313,275,86646,1,0,0:0:0:0:
276,13,86802,6,0,L|275:206,1,188.999994232178
397,51,88201,6,0,L|396:201,1,125.999996154785
276,13,88823,2,0,L|275:163,1,125.999996154785
253,237,89289,1,0,0:0:0:0:
55,188,89444,6,0,P|119:167|188:173,1,125.999996154785
291,285,89911,2,0,P|265:262|251:231,1,62.9999980773926
126,307,90222,1,0,0:0:0:0:
126,307,90377,2,0,P|151:284|165:253,1,62.9999980773926
232,371,90688,6,0,L|383:374,1,125.999996154785
252,236,91310,2,0,L|377:233,1,125.999996154785
232,94,91776,1,0,0:0:0:0:
232,94,91931,2,0,L|357:97,1,125.999996154785
169,175,92398,2,0,L|106:176,1,62.9999980773926
0,95,92709,1,0,0:0:0:0:
0,95,92864,2,0,L|62:93,1,62.9999980773926
173,49,93175,6,0,L|168:183,1,125.999996154785
352,222,93797,2,0,L|357:97,1,125.999996154785
233,287,94418,2,0,P|201:293|174:307,1,62.9999980773926
73,358,94729,1,0,0:0:0:0:
73,358,94885,2,0,P|105:364|132:378,1,62.9999980773926
42,259,95196,1,0,0:0:0:0:
42,259,95351,2,0,P|69:244|100:239,1,62.9999980773926
352,222,95662,6,0,P|290:190|223:178,1,125.999996154785
359,13,96284,2,0,P|297:44|230:56,1,125.999996154785
192,62,96750,1,0,0:0:0:0:
192,62,96906,2,0,P|205:123|234:178,1,125.999996154785
352,222,97372,2,0,P|342:262|323:299,1,62.9999980773926
257,367,97683,1,0,0:0:0:0:
257,367,97838,2,0,P|245:337|239:306,1,62.9999980773926
115,333,98149,6,0,L|116:183,1,125.999996154785
236,371,98771,2,0,L|237:221,1,125.999996154785
259,147,99237,1,0,0:0:0:0:
457,196,99393,6,0,P|393:217|324:211,1,125.999996154785
221,99,99859,2,0,P|247:122|261:153,1,62.9999980773926
386,77,100170,1,0,0:0:0:0:
386,77,100325,2,0,P|361:100|347:131,1,62.9999980773926
280,13,100636,6,0,L|129:10,1,125.999996154785
260,148,101258,2,0,L|135:151,1,125.999996154785
280,290,101724,1,0,0:0:0:0:
280,290,101880,2,0,L|155:287,1,125.999996154785
343,209,102346,2,0,L|406:208,1,62.9999980773926
512,289,102657,1,0,0:0:0:0:
512,289,102812,2,0,L|450:291,1,62.9999980773926
339,335,103123,6,0,L|343:200,1,125.999996154785
159,161,103745,2,0,L|155:287,1,125.999996154785
279,97,104367,2,0,P|311:91|338:77,1,62.9999980773926
439,26,104678,1,0,0:0:0:0:
439,26,104833,2,0,P|407:20|380:6,1,62.9999980773926
470,125,105144,1,0,0:0:0:0:
470,125,105299,2,0,P|442:139|411:144,1,62.9999980773926
160,162,105610,6,0,P|221:193|288:205,1,125.999996154785
153,371,106232,2,0,P|214:339|281:327,1,125.999996154785
320,322,106698,1,0,0:0:0:0:
320,322,106854,2,0,P|306:260|277:205,1,125.999996154785
160,162,107320,2,0,P|169:121|188:84,1,62.9999980773926
255,17,107631,1,0,0:0:0:0:
255,17,107786,2,0,P|266:46|272:77,1,62.9999980773926
173,245,108097,6,0,L|177:91,1,144
76,210,108563,1,0,0:0:0:0:
76,210,108718,2,0,L|77:138,1,72
174,316,109029,2,0,L|172:244,1,72
106,375,109340,6,0,B|171:354|171:354|261:370,1,144
395,303,109806,1,0,0:0:0:0:
393,320,109884,1,0,0:0:0:0:
391,337,109962,1,0,0:0:0:0:
266,188,110117,1,0,0:0:0:0:
475,262,110273,1,0,0:0:0:0:
441,55,110428,6,0,B|362:53|388:119|287:108,1,161.999995056153
196,27,110894,1,0,0:0:0:0:
180,217,111050,1,0,0:0:0:0:
72,26,111205,1,0,0:0:0:0:
266,188,111361,1,0,0:0:0:0:
266,188,111438,1,0,0:0:0:0:
266,188,111516,2,0,P|232:235|221:304,1,121.499996292114
177,344,111827,6,0,P|232:319|338:336,1,161.999995056153
418,373,112293,1,0,0:0:0:0:
373,152,112449,1,0,0:0:0:0:
512,356,112604,1,0,0:0:0:0:
464,139,112760,1,0,0:0:0:0:
512,356,112915,6,0,P|444:340|338:333,1,161.999995056153
200,377,113381,2,0,P|214:337|217:276,1,80.9999975280763
161,146,113692,1,0,0:0:0:0:
68,295,113848,1,0,0:0:0:0:
68,295,113926,1,0,0:0:0:0:
68,295,114003,1,0,0:0:0:0:
117,76,114159,1,0,0:0:0:0:
200,218,114314,6,0,L|305:223,1,80.9999975280763
396,176,114625,1,0,0:0:0:0:
324,336,114780,1,0,0:0:0:0:
299,109,114936,1,0,0:0:0:0:
481,242,115091,1,0,0:0:0:0:
280,221,115247,1,0,0:0:0:0:
512,125,115402,6,0,B|422:115|455:194|351:181,1,161.999995056153
299,109,115869,2,0,P|320:167|323:273,1,161.999995056153
166,367,116490,1,0,0:0:0:0:
408,341,116801,5,0,0:0:0:0:
149,234,117112,1,0,0:0:0:0:
149,234,117267,1,0,0:0:0:0:
238,133,117423,5,0,0:0:0:0:
203,318,117578,1,0,0:0:0:0:
238,133,117734,1,0,0:0:0:0:
203,318,117889,1,0,0:0:0:0:
94,94,118045,6,0,P|147:156|147:237,1,161.999995056153
418,94,118666,2,0,P|364:156|365:237,1,161.999995056153
256,32,119288,5,0,0:0:0:0:
256,32,119599,1,0,0:0:0:0:
256,288,119910,1,0,0:0:0:0:
256,288,120221,1,0,0:0:0:0:
256,256,120299,1,0,0:0:0:0:
256,224,120376,1,0,0:0:0:0:
256,192,120454,1,0,0:0:0:0:
256,160,120532,5,0,0:0:0:0:
64,256,120843,1,0,0:0:0:0:
256,64,121153,1,0,0:0:0:0:
0,32,121464,1,0,0:0:0:0:
256,224,121775,5,0,0:0:0:0:
192,0,121931,1,0,0:0:0:0:
128,224,122086,1,0,0:0:0:0:
320,96,122242,1,0,0:0:0:0:
64,64,122397,1,0,0:0:0:0:
352,192,122552,1,0,0:0:0:0:
0,192,122708,1,0,0:0:0:0:
256,320,122863,6,0,L|425:306,1,161.999995056153
509,359,123330,2,0,P|472:307|473:208,1,161.999995056153
512,123,123796,1,0,0:0:0:0:
275,76,123951,1,0,0:0:0:0:
471,211,124107,1,0,0:0:0:0:
234,273,124262,5,0,0:0:0:0:
372,78,124418,1,0,0:0:0:0:
377,323,124573,1,0,0:0:0:0:
181,150,124729,1,0,0:0:0:0:
464,111,124884,1,0,0:0:0:0:
296,323,125040,1,0,0:0:0:0:
275,76,125195,1,0,0:0:0:0:
231,268,125350,6,0,P|169:248|83:299,1,161.999995056153
16,362,125817,2,0,P|42:315|50:206,1,161.999995056153
1,113,126283,1,0,0:0:0:0:
211,225,126438,1,0,0:0:0:0:
70,60,126594,1,0,0:0:0:0:
297,35,126749,5,0,0:0:0:0:
125,253,126905,1,0,0:0:0:0:
374,177,127060,1,0,0:0:0:0:
177,18,127216,1,0,0:0:0:0:
266,297,127371,1,0,0:0:0:0:
50,208,127527,1,0,0:0:0:0:
364,265,127682,1,0,0:0:0:0:
108,133,127837,6,0,P|97:229|98:297,1,161.999995056153
24,362,128304,2,0,P|98:338|202:363,1,161.999995056153
275,384,128770,1,0,0:0:0:0:
209,173,128926,1,0,0:0:0:0:
357,363,129081,1,0,0:0:0:0:
433,154,129236,5,0,0:0:0:0:
217,263,129392,1,0,0:0:0:0:
476,319,129547,1,0,0:0:0:0:
209,173,129703,1,0,0:0:0:0:
472,83,129858,1,0,0:0:0:0:
383,312,130014,1,0,0:0:0:0:
324,53,130169,1,0,0:0:0:0:
223,281,130324,6,0,P|276:274|308:263,1,80.9999975280763
475,342,130635,1,0,0:0:0:0:
475,342,130791,2,0,P|422:335|390:324,1,80.9999975280763
276,190,131102,2,0,P|297:240|303:273,1,80.9999975280763
419,106,131413,2,0,P|399:156|393:189,1,80.9999975280763
276,22,131723,6,0,P|297:72|303:105,1,80.9999975280763
224,251,132034,2,0,P|257:209|283:187,1,80.9999975280763
449,182,132345,1,0,0:0:0:0:
219,126,132501,1,0,0:0:0:0:
457,184,132656,1,0,0:0:0:0:
213,123,132811,6,0,L|15:136,1,161.999995056153
2,265,133278,2,0,P|26:205|33:122,1,135
18,56,133589,1,0,0:0:0:0:
130,173,133744,1,0,0:0:0:0:
116,3,133900,1,0,0:0:0:0:
224,183,134055,5,0,0:0:0:0:
224,183,134210,2,0,L|210:367,1,180
329,224,134677,2,0,L|336:314,1,90
436,76,134988,2,0,L|362:127,1,90
181,109,135299,6,0,B|81:111|118:30|15:37,1,180
193,4,135765,1,0,0:0:0:0:
25,137,135920,1,0,0:0:0:0:
25,137,136076,2,0,L|14:275,1,135
0,312,136387,2,0,P|54:299|100:298,1,90
211,362,136697,5,0,0:0:0:0:
222,162,136853,2,0,P|207:216|185:256,1,90
318,50,137164,2,0,P|347:146|386:218,1,180
493,311,137630,1,0,0:0:0:0:
512,136,137786,1,0,0:0:0:0:
408,311,137941,6,0,P|366:309|314:289,1,90
136,180,138252,1,0,0:0:0:0:
136,180,138407,2,0,P|178:178|230:158,1,90
15,41,138718,2,0,P|50:70|74:108,1,90
13,282,139029,6,0,P|21:238|41:198,1,90
145,357,139340,1,0,0:0:0:0:
136,180,139495,1,0,0:0:0:0:
231,335,139651,2,0,L|338:323,1,90
507,229,139962,2,0,L|400:217,1,90
299,204,140273,1,0,0:0:0:0:
470,61,140428,6,0,L|287:82,1,180
100,21,141050,1,0,0:0:0:0:
100,21,141205,1,0,0:0:0:0:
32,157,141361,1,0,0:0:0:0:
32,157,141516,6,0,L|36:340,1,180
183,239,141982,1,0,0:0:0:0:
183,239,142138,1,0,0:0:0:0:
315,76,142293,1,0,0:0:0:0:
284,268,142449,1,0,0:0:0:0:
317,59,142604,1,0,0:0:0:0:
286,251,142760,1,0,0:0:0:0:
478,137,142915,6,0,L|327:147,1,144
154,63,143537,1,0,0:0:0:0:
110,161,143692,1,0,0:0:0:0:
217,152,143848,1,0,0:0:0:0:
66,259,144003,5,0,0:0:0:0:
66,259,144159,2,0,L|159:270,1,72
324,335,144470,2,0,L|231:346,1,72
303,176,144780,2,0,L|275:243,1,72
254,84,145091,2,0,L|347:73,1,72
189,177,145402,5,0,0:0:0:0:
400,223,145558,1,0,0:0:0:0:
167,94,145713,1,0,0:0:0:0:
275,243,145868,1,0,0:0:0:0:
326,76,146024,1,0,0:0:0:0:
352,301,146179,1,0,0:0:0:0:
325,64,146335,1,0,0:0:0:0:
356,314,146490,6,0,L|244:313,1,108
202,313,146801,2,0,P|216:268|216:223,1,72
175,105,147112,1,0,0:0:0:0:
175,105,147190,1,0,0:0:0:0:
175,105,147267,1,0,0:0:0:0:
97,287,147423,1,0,0:0:0:0:
304,163,147578,1,0,0:0:0:0:
63,170,147734,1,0,0:0:0:0:
285,41,147889,6,0,L|440:55,1,144
508,136,148356,1,0,0:0:0:0:
304,163,148511,1,0,0:0:0:0:
506,289,148666,2,0,P|459:281|407:242,1,108
416,207,148977,6,0,P|376:244|276:283,1,144
194,290,149444,1,0,0:0:0:0:
166,56,149754,1,0,0:0:0:0:
166,56,149910,2,0,P|152:119|114:173,1,108
46,196,150221,1,0,0:0:0:0:
46,196,150532,5,0,0:0:0:0:
231,327,150687,1,0,0:0:0:0:
85,75,150843,1,0,0:0:0:0:
88,330,150998,1,0,0:0:0:0:
305,172,151153,1,0,0:0:0:0:
16,283,151309,1,0,0:0:0:0:
325,380,151464,1,0,0:0:0:0:
294,53,151620,1,0,0:0:0:0:
294,53,152242,5,0,0:0:0:0:
294,53,152552,1,0,0:0:0:0:
154,238,152863,6,0,L|159:135,1,99.0000030212403
287,307,153174,1,0,0:0:0:0:
52,181,153330,2,0,L|57:280,1,99.0000030212403
209,384,153640,2,0,L|121:339,1,99.0000030212403,0|0,0:3|0:3,0:3:0:0:
250,218,153951,6,0,B|365:227|325:142|439:159,1,198.000006042481
510,227,154418,1,0,0:0:0:0:
344,76,154573,1,0,0:0:0:0:
432,286,154729,2,0,L|419:389,1,99.0000030212403
250,218,155039,2,0,L|263:321,1,99.0000030212403
138,172,155350,6,0,P|214:180|315:108,1,198.000006042481
355,20,155817,1,0,0:0:0:0:
339,221,155972,1,0,0:0:0:0:
443,30,156128,1,0,0:0:0:0:
204,8,156283,1,0,0:0:0:0:
485,172,156438,6,0,P|409:180|308:108,1,198.000006042481
278,12,156905,1,0,0:0:0:0:
226,195,157060,1,0,0:0:0:0:
370,44,157216,1,0,0:0:0:0:
427,224,157371,1,0,0:0:0:0:
206,85,157527,1,0,0:0:0:0:
149,265,157682,1,0,0:0:0:0:
354,327,157837,6,0,L|463:319,1,99.0000030212403
323,177,158148,1,0,0:0:0:0:
323,177,158304,2,0,L|422:185,1,99.0000030212403
500,127,158615,1,0,0:0:0:0:
267,63,158770,1,0,0:0:0:0:
268,260,158925,6,0,P|278:183|266:56,1,198.000006042481
112,109,159392,1,0,0:0:0:0:
355,149,159547,2,0,L|467:132,1,99.0000030212403
405,271,159858,1,0,0:0:0:0:
476,47,160014,1,0,0:0:0:0:
239,93,160169,1,0,0:0:0:0:
378,351,160324,6,0,B|272:351|312:261|195:276,1,198.000006042481
94,353,160791,1,0,0:0:0:0:
252,178,160946,2,0,P|208:140|170:84,1,99.0000030212403
146,0,161257,1,0,0:0:0:0:
48,205,161413,5,0,0:0:0:0:
390,67,161723,2,0,P|372:129|339:182,1,99.0000030212403
168,268,162034,1,0,0:0:0:0:
168,268,162112,1,0,0:0:0:0:
168,268,162190,1,0,0:0:0:0:
410,311,162345,1,0,0:0:0:0:
156,266,162501,1,0,0:0:0:0:
423,314,162656,1,0,0:0:0:0:
236,235,162811,6,0,P|203:197|178:147,1,99.0000030212403
171,41,163122,1,0,0:0:0:0:
234,309,163278,2,0,P|267:271|292:221,1,99.0000030212403
450,145,163589,2,0,P|401:136|345:139,1,99.0000030212403
200,40,163900,1,0,0:0:0:0:
78,163,164055,6,0,L|194:182,1,99.0000030212403
325,321,164366,2,0,L|284:212,1,99.0000030212403
421,355,164677,1,0,0:0:0:0:
469,171,164832,1,0,0:0:0:0:
234,309,164988,1,0,0:0:0:0:
186,125,165143,1,0,0:0:0:0:
401,220,165299,6,0,P|465:201|509:191,1,99.0000030212403
234,309,165609,1,0,0:0:0:0:
234,309,165765,2,0,P|170:290|126:280,1,99.0000030212403
38,113,166076,2,0,P|54:178|67:222,1,99.0000030212403
226,124,166387,6,0,B|329:133|287:38|400:48,1,198.000006042481
433,57,166775,1,0,0:0:0:0:
433,57,166853,1,0,0:0:0:0:
326,224,167008,1,0,0:0:0:0:
494,124,167164,2,0,L|502:232,1,99.0000030212403
334,323,167475,2,0,L|326:215,1,99.0000030212403
457,345,167786,5,0,0:0:0:0:
231,375,167941,1,0,0:0:0:0:
435,268,168096,1,0,0:0:0:0:
202,196,168252,1,0,0:0:0:0:
413,84,168407,2,0,L|406:183,1,99.0000030212403
338,29,168718,1,0,0:0:0:0:
100,110,168874,6,0,L|258:103,1,148.50000453186
288,101,169185,1,0,0:0:0:0:
151,251,169340,1,0,0:0:0:0:
395,291,169495,1,0,0:0:0:0:
96,192,169651,1,0,0:0:0:0:
347,192,169806,1,0,0:0:0:0:
176,330,169962,2,0,L|28:320,1,148.50000453186
1,332,170273,6,0,P|23:274|24:208,1,99.0000030212403
9,123,170583,1,0,0:0:0:0:
222,66,170739,1,0,0:0:0:0:
222,66,170894,2,0,P|161:57|104:24,1,99.0000030212403
327,10,171205,1,0,0:0:0:0:
211,197,171361,5,0,0:0:0:0:
464,87,171672,1,0,0:0:0:0:
383,271,171827,1,0,0:0:0:0:
260,93,171982,1,0,0:0:0:0:
260,93,172060,1,0,0:0:0:0:
260,93,172138,1,0,0:0:0:0:
306,314,172293,1,0,0:0:0:0:
373,89,172449,2,0,P|428:115|463:151,1,99.0000030212403
386,359,172760,6,0,P|441:333|476:297,1,99.0000030212403
211,197,173071,1,0,0:0:0:0:
474,227,173226,1,0,0:0:0:0:
232,329,173381,1,0,0:0:0:0:
281,89,173537,1,0,0:0:0:0:
137,283,173692,1,0,0:0:0:0:
27,61,173848,5,0,0:0:0:0:
40,363,174159,1,0,0:0:0:0:
304,177,174470,2,0,P|378:197|449:301,1,198.000006042481
242,250,174936,2,0,P|258:157|257:66,1,148.50000453186
286,66,175247,6,0,B|178:42|199:126|82:100,1,198.000006042481
16,52,175713,1,0,0:0:0:0:
144,239,175869,1,0,0:0:0:0:
136,21,176024,1,0,0:0:0:0:
20,228,176179,1,0,0:0:0:0:
242,122,176335,6,0,L|454:146,1,198.000006042481
241,231,176801,1,0,0:0:0:0:
373,50,176957,1,0,0:0:0:0:
420,295,177112,1,0,0:0:0:0:
158,135,177267,1,0,0:0:0:0:
156,184,177344,1,0,0:0:0:0:
155,233,177423,2,0,L|218:244,1,49.5000015106202
278,329,177578,2,0,L|214:340,1,49.5000015106202
343,237,177734,5,0,0:0:0:0:
89,310,177889,1,0,0:0:0:0:
245,137,178045,1,0,0:0:0:0:
153,372,178200,5,0,0:0:0:0:
31,148,178355,1,0,0:0:0:0:
319,208,178511,1,0,0:0:0:0:
4,239,178666,5,0,0:0:0:0:
181,11,178822,1,0,0:0:0:0:
267,295,178977,1,0,0:0:0:0:
66,50,179132,5,0,0:0:0:0:
344,53,179288,1,0,0:0:0:0:
136,270,179444,1,0,0:0:0:0:
266,15,179599,5,0,0:0:0:0:
458,252,179755,1,0,0:0:0:0:
95,157,179910,1,0,0:0:0:0:
436,66,180065,1,0,0:0:0:0:
361,311,180221,5,0,0:0:0:0:
344,53,180376,1,0,0:0:0:0:
137,232,180532,1,0,0:0:0:0:
424,167,180687,5,0,0:0:0:0:
174,75,180843,1,0,0:0:0:0:
250,350,180998,1,0,0:0:0:0:
72,134,181153,5,0,0:0:0:0:
346,54,181309,1,0,0:0:0:0:
165,320,181464,1,0,0:0:0:0:
200,50,181620,5,0,0:0:0:0:
431,196,181775,1,0,0:0:0:0:
117,231,181931,1,0,0:0:0:0:
418,105,182086,5,0,0:0:0:0:
291,350,182242,2,0,L|296:294,1,49.5000015106202
230,229,182397,2,0,L|225:173,1,49.5000015106202
293,109,182552,2,0,L|298:53,1,49.5000015106202
157,78,182708,5,0,0:0:0:0:
48,195,182863,2,0,L|52:265,1,49.5000015106202
60,361,183019,1,0,0:0:0:0:
306,167,183174,2,0,L|236:163,1,49.5000015106202
137,165,183330,1,0,0:0:0:0:
386,61,183485,1,0,0:0:0:0:
131,62,183641,2,0,L|197:58,1,49.5000015106202
326,6,183796,5,0,0:0:0:0:
137,165,183951,1,0,0:0:0:0:
445,181,184107,1,0,0:0:0:0:
246,13,184262,1,0,0:0:0:0:
311,265,184418,1,0,0:0:0:0:
69,125,184573,1,0,0:0:0:0:
160,330,184729,1,0,0:0:0:0:
160,330,184806,1,0,0:0:0:0:
160,330,184884,1,0,0:0:0:0:
345,168,185040,1,0,0:0:0:0:
345,168,185117,1,0,0:0:0:0:
345,168,185195,5,0,0:0:0:0:
414,275,185350,2,0,L|408:343,1,49.5000015106202
484,181,185506,1,0,0:0:0:0:
314,335,185661,2,0,L|320:403,1,49.5000015106202
244,241,185817,1,0,0:0:0:0:
58,332,185972,1,0,0:0:0:0:
131,137,186128,2,0,L|194:142,1,49.5000015106202
293,151,186283,1,0,0:0:0:0:
142,30,186438,5,0,0:0:0:0:
198,277,186594,1,0,0:0:0:0:
259,42,186749,1,0,0:0:0:0:
3,184,186905,1,0,0:0:0:0:
311,243,187061,1,0,0:0:0:0:
56,365,187216,1,0,0:0:0:0:
56,365,187293,1,0,0:0:0:0:
56,365,187371,1,0,0:0:0:0:
157,151,187527,1,0,0:0:0:0:
229,319,187682,5,0,0:0:0:0:
8,266,187837,1,0,0:0:0:0:
188,239,187993,1,0,0:0:0:0:
1,99,188149,5,0,0:0:0:0:
250,161,188304,1,0,0:0:0:0:
96,60,188459,1,0,0:0:0:0:
104,304,188615,5,0,0:0:0:0:
205,55,188770,1,0,0:0:0:0:
188,239,188926,1,0,0:0:0:0:
6,131,189081,5,0,0:0:0:0:
298,153,189236,1,0,0:0:0:0:
93,208,189392,1,0,0:0:0:0:
328,32,189547,5,0,0:0:0:0:
231,325,189703,1,0,0:0:0:0:
231,325,189780,1,0,0:0:0:0:
231,325,189858,1,0,0:0:0:0:
236,77,190014,1,0,0:0:0:0:
416,253,190169,5,0,0:0:0:0:
147,269,190324,1,0,0:0:0:0:
343,198,190480,1,0,0:0:0:0:
146,364,190635,5,0,0:0:0:0:
286,138,190791,1,0,0:0:0:0:
254,336,190946,1,0,0:0:0:0:
51,168,191102,5,0,0:0:0:0:
296,266,191257,1,0,0:0:0:0:
158,150,191413,1,0,0:0:0:0:
36,366,191568,5,0,0:0:0:0:
93,74,191723,1,0,0:0:0:0:
131,318,191879,1,0,0:0:0:0:
246,93,192034,1,0,0:0:0:0:
296,266,192190,1,0,0:0:0:0:
296,266,192267,1,0,0:0:0:0:
296,266,192345,1,0,0:0:0:0:
61,200,192501,1,0,0:0:0:0:
361,144,192656,5,0,0:0:0:0:
203,46,192812,1,0,0:0:0:0:
203,46,192889,1,0,0:0:0:0:
203,46,192967,2,0,L|139:50,1,49.5000015106202
26,90,193122,5,0,0:0:0:0:
186,201,193278,1,0,0:0:0:0:
186,201,193356,1,0,0:0:0:0:
186,201,193433,2,0,L|178:266,1,49.5000015106202
167,364,193589,5,0,0:0:0:0:
358,276,193744,1,0,0:0:0:0:
358,276,193822,1,0,0:0:0:0:
358,276,193900,2,0,L|429:285,1,49.5000015106202
511,291,194055,5,0,0:0:0:0:
410,137,194210,1,0,0:0:0:0:
410,137,194288,1,0,0:0:0:0:
410,137,194366,2,0,L|339:146,1,49.5000015106202
257,152,194521,1,0,0:0:0:0:
140,30,194677,1,0,0:0:0:0:
140,30,194755,1,0,0:0:0:0:
140,30,194833,2,0,L|211:39,1,49.5000015106202
293,45,194988,1,0,0:0:0:0:
45,195,195143,5,0,0:0:0:0:
394,44,195299,1,0,0:0:0:0:
22,0,195609,5,0,0:0:0:0:
173,349,195765,1,0,0:0:0:0:
383,174,196076,5,0,0:0:0:0:
34,325,196232,1,0,0:0:0:0:
127,141,206335,6,0,L|236:149,1,99.0000030212403
