osu file format v14

[General]
AudioFilename: Wonder Stella.mp3
AudioLeadIn: 0
PreviewTime: 152079
Countdown: 0
SampleSet: Soft
StackLeniency: 0.7
Mode: 0
LetterboxInBreaks: 1
WidescreenStoryboard: 0

[Editor]
DistanceSpacing: 1
BeatDivisor: 4
GridSize: 4
TimelineZoom: 1

[Metadata]
Title:Wonder Stella
TitleUnicode:ワンダーステラ
Artist:fhana
ArtistUnicode:fhána
Creator:CelsiusLK
Version:Normal
Source:Fate/kaleid liner プリズマイリヤ ツヴァイ ヘルツ!
Tags:Prisma Illya 2wei! Herz lantis towana opening full
BeatmapID:843143
BeatmapSetID:383242

[Difficulty]
HPDrainRate:5
CircleSize:3.5
OverallDifficulty:5
ApproachRate:5
SliderMultiplier:1.16
SliderTickRate:1

[Events]
//Background and Video events
0,0,"girl.jpg",0,0
//Break Periods
2,197823,205128
//Storyboard Layer 0 (Background)
//Storyboard Layer 1 (Fail)
//Storyboard Layer 2 (Pass)
//Storyboard Layer 3 (Foreground)
//Storyboard Sound Samples

[TimingPoints]
1147,310.880829015544,4,2,2,50,1,0
10317,-100,4,2,1,65,0,0
20887,-100,4,2,1,60,0,0
37209,-100,4,2,1,70,0,0
38297,-100,4,2,1,75,0,0
48400,-100,4,2,1,65,0,0
58349,-100,4,2,1,85,0,1
78245,-100,4,2,1,70,0,0
88193,-100,4,2,2,50,0,0
109799,-100,4,2,1,65,0,0
131716,-100,4,2,1,70,0,0
132805,-100,4,2,1,75,0,0
142908,-100,4,2,1,65,0,0
152856,-100,4,2,1,85,0,1
177727,-100,4,2,1,75,0,0
206328,-100,4,2,1,60,0,0
227468,-100,4,2,2,50,0,0
236639,-100,4,2,1,50,0,0
237416,-100,4,2,1,70,0,0
247364,-100,4,2,1,85,0,1
247442,-100,4,2,1,70,0,0
249851,-100,4,2,1,85,0,1
267260,-100,4,2,1,75,0,0
280784,-100,4,2,1,80,0,0

[Colours]
Combo1 : 255,170,85
Combo2 : 128,255,128
Combo3 : 128,128,255
Combo4 : 255,128,128

[HitObjects]
256,208,1147,6,0,P|208:224|160:276,1,116,4|2,0:0|0:0,0:0:0:0:
120,308,1613,2,0,L|104:168,1,116,2|0,0:0|0:0,0:0:0:0:
99,136,2079,1,2,0:0:0:0:
192,72,2390,2,0,L|316:68,1,116,2|2,0:0|0:0,0:0:0:0:
424,56,3012,1,0,1:0:0:0:
376,164,3323,1,2,0:0:0:0:
408,276,3634,6,0,L|272:272,1,116,4|0,0:0|0:0,0:0:0:0:
252,228,4100,2,0,P|240:288|228:356,1,116,2|0,0:0|0:0,0:0:0:0:
176,364,4566,2,0,P|164:324|140:284,1,58,2|2,0:0|0:0,0:0:0:0:
68,232,5033,1,2,0:0:0:0:
68,232,5188,2,0,P|124:220|192:160,1,116,2|0,0:0|1:0,0:0:0:0:
220,80,5810,1,2,0:0:0:0:
324,132,6121,6,0,B|364:148|364:148|448:156,1,116,4|2,0:0|0:0,0:0:0:0:
400,264,6742,2,0,L|252:260,1,116,2|0,0:0|0:0,0:0:0:0:
244,216,7209,2,0,P|212:180|124:160,1,116,4|2,0:0|0:0,0:0:0:0:
64,236,7830,2,0,P|48:184|52:100,1,116,2|2,0:0|0:0,0:0:0:0:
76,72,8297,1,2,0:0:0:0:
188,44,8608,6,0,L|336:40,1,116,4|2,0:0|0:0,0:0:0:0:
420,52,9229,2,0,P|426:112|424:188,1,116,2|0,0:0|0:0,0:0:0:0:
420,224,9696,2,0,P|368:224|296:228,1,116,4|2,0:0|0:0,0:0:0:0:
192,248,10317,1,8,0:0:0:0:
192,248,10473,2,0,L|180:176,1,58,8|8,0:0|0:0,0:0:0:0:
128,176,10784,2,0,L|136:104,1,58,8|8,0:0|0:0,0:0:0:0:
152,64,11095,6,0,P|204:84|272:80,1,116,4|2,0:0|0:0,0:0:0:0:
376,52,11716,2,0,P|400:96|412:180,1,116,8|2,0:0|0:0,0:0:0:0:
388,212,12183,1,4,0:0:0:0:
388,212,12338,2,0,L|248:208,1,116,2|2,0:0|0:0,0:0:0:0:
156,184,12960,2,0,L|148:92,2,58,8|2|2,0:0|0:0|0:0,0:0:0:0:
108,292,13582,6,0,L|248:288,1,116,4|2,0:0|0:0,0:0:0:0:
336,320,14203,2,0,P|352:256|356:192,1,116,8|2,0:0|0:0,0:0:0:0:
312,168,14670,1,8,0:0:0:0:
312,168,14825,2,0,P|296:112|296:48,1,116,2|2,0:0|0:0,0:0:0:0:
408,28,15447,1,8,0:0:0:0:
428,144,15758,1,8,0:0:0:0:
312,168,16069,6,0,L|172:172,1,116,4|2,0:0|0:0,0:0:0:0:
80,160,16691,2,0,P|108:208|124:276,1,116,8|2,0:0|0:0,0:0:0:0:
100,320,17157,1,2,0:0:0:0:
100,320,17312,2,0,L|228:308,1,116,2|2,0:0|0:0,0:0:0:0:
328,280,17934,2,0,B|372:264|372:264|396:288|456:304,1,116,8|2,0:0|0:0,0:0:0:0:
496,200,18556,6,0,B|504:160|504:160|496:52,1,116,4|2,0:0|0:0,0:0:0:0:
460,40,19022,1,4,0:0:0:0:
356,84,19333,2,0,L|272:72,1,58,2|2,0:0|0:0,0:0:0:0:
248,48,19644,2,0,L|104:60,1,116,4|2,0:0|0:0,0:0:0:0:
84,88,20110,1,8,0:0:0:0:
120,200,20421,2,0,L|108:284,2,58,8|8|8,0:0|0:0|0:0,0:0:0:0:
164,164,20887,6,0,P|200:212|224:288,1,116,4|0,0:0|0:0,0:0:0:0:
232,320,21354,1,2,0:0:0:0:
348,312,21665,2,0,P|380:248|396:188,1,116,8|2,0:0|0:0,0:0:0:0:
396,88,22286,2,0,P|348:96|248:100,1,116,2|2,0:0|0:0,0:0:0:0:
172,60,22908,2,0,L|67:45,1,58,8|2,0:0|0:0,0:0:0:0:
48,148,23374,6,0,P|132:188|140:264,1,174,4|2,0:0|0:0,0:0:0:0:
84,360,24152,2,0,P|156:348|216:348,1,116,8|2,0:0|0:0,0:0:0:0:
312,364,24773,2,0,P|372:363|456:356,1,116,2|2,0:0|0:0,0:0:0:0:
468,248,25395,1,8,0:0:0:0:
468,248,25551,2,0,L|460:164,1,58,8|2,0:0|0:0,0:0:0:0:
412,160,25862,6,0,P|376:200|296:216,1,116,4|0,0:0|0:0,0:0:0:0:
272,184,26328,2,0,P|224:176|140:176,1,116,2|8,0:0|0:0,0:0:0:0:
52,224,26950,1,2,0:0:0:0:
132,308,27260,2,0,P|168:328|248:340,1,116,2|2,0:0|0:0,0:0:0:0:
356,320,27882,2,0,L|368:184,1,116,8|8,0:0|0:0,0:0:0:0:
376,148,28349,6,0,B|316:132|316:132|268:156|200:152,1,174,4|2,0:0|0:0,0:0:0:0:
92,140,29126,2,0,L|71:194,2,58,8|8|2,0:0|0:0|0:0,0:0:0:0:
96,80,29592,2,0,P|152:56|224:52,1,116,4|2,0:0|0:0,0:0:0:0:
260,72,30058,1,2,0:0:0:0:
296,184,30369,2,0,L|308:276,1,58,8|8,0:0|0:0,0:0:0:0:
336,292,30680,2,0,L|328:368,1,58,8|8,0:0|0:0,0:0:0:0:
272,364,30991,6,0,P|224:348|128:336,1,116,4|2,0:0|0:0,0:0:0:0:
44,340,31613,2,0,L|48:224,1,116,8|0,0:0|0:0,0:0:0:0:
64,168,32079,2,0,B|124:172|124:148|192:156,1,116,4|0,0:0|0:0,0:0:0:0:
224,192,32545,1,2,0:0:0:0:
328,144,32856,2,0,P|368:180|408:248,1,116,8|2,0:0|0:0,0:0:0:0:
396,292,33323,6,0,P|344:296|268:292,1,116,4|0,0:0|0:0,0:0:0:0:
232,264,33789,1,2,0:0:0:0:
124,300,34100,2,0,L|120:172,1,116,8|2,0:0|0:0,0:0:0:0:
104,128,34566,2,0,P|152:84|208:92,1,116,4|2,0:0|0:0,0:0:0:0:
244,124,35033,1,2,0:0:0:0:
356,88,35343,1,8,0:0:0:0:
356,88,35499,2,0,L|364:168,1,58,8|2,0:0|0:0,0:0:0:0:
396,192,35810,6,0,P|388:248|372:324,1,116,4|0,0:0|0:0,0:0:0:0:
328,340,36276,1,2,0:0:0:0:
220,300,36587,2,0,L|88:292,1,116,2|2,0:0|0:0,0:0:0:0:
8,228,37209,1,2,0:0:0:0:
104,164,37520,1,2,0:0:0:0:
216,192,37830,2,0,L|296:208,2,58,8|8|8,0:0|0:0|0:0,0:0:0:0:
196,136,38297,6,0,B|208:88|208:88|248:36,1,116,4|0,0:0|0:0,0:0:0:0:
308,36,38763,1,8,0:0:0:0:
344,148,39074,2,0,L|492:144,1,116,2|8,0:0|0:0,0:0:0:0:
488,260,39696,2,0,P|440:316|420:360,1,116,2|8,0:0|0:0,0:0:0:0:
364,356,40162,2,0,P|320:304|264:280,1,116,2|2,0:0|0:0,0:0:0:0:
196,200,40784,6,0,L|396:192,1,174,4|8,0:0|0:0,0:0:0:0:
416,160,41406,1,2,0:0:0:0:
416,160,41561,2,0,P|416:112|396:48,1,116,2|8,0:0|0:0,0:0:0:0:
348,16,42027,1,2,0:0:0:0:
252,80,42338,1,2,0:0:0:0:
140,44,42649,2,0,P|112:80|84:160,1,116,2|2,0:0|0:0,0:0:0:0:
84,204,43115,2,0,L|168:200,1,58,8|2,0:0|0:0,0:0:0:0:
196,176,43426,6,0,L|328:184,1,116,4|8,0:0|0:0,0:0:0:0:
360,216,43893,1,2,0:0:0:0:
472,192,44203,2,0,L|480:134,1,58,2|8,0:0|0:0,0:0:0:0:
472,76,44514,2,0,P|408:79|340:80,1,116,2|2,0:0|0:0,0:0:0:0:
300,64,44981,1,8,0:0:0:0:
184,76,45292,2,0,L|176:16,2,58,2|2|8,0:0|0:0|0:0,0:0:0:0:
164,192,45913,6,0,P|124:248|100:312,1,116,4|8,0:0|0:0,0:0:0:0:
200,360,46535,2,0,L|344:352,1,116,2|8,0:0|0:0,0:0:0:0:
368,332,47001,2,0,B|388:264|388:264|348:224|364:160,1,174,4|8,0:0|0:0,0:0:0:0:
388,56,47779,1,8,0:0:0:0:
276,84,48090,1,8,0:0:0:0:
168,40,48400,6,0,P|112:44|52:53,1,116,4|0,0:0|0:0,0:0:0:0:
24,164,49022,2,0,P|92:176|136:192,1,116,8|2,0:0|0:0,0:0:0:0:
168,240,49488,2,0,P|252:240|312:176,1,174,4|2,0:0|0:0,0:0:0:0:
408,112,50266,2,0,P|410:160|398:228,1,116,8|2,0:0|0:0,0:0:0:0:
336,324,50887,6,0,L|208:312,1,116,4|0,0:0|0:0,0:0:0:0:
132,240,51509,2,0,L|60:248,2,58,8|8|2,0:0|0:0|0:0,0:0:0:0:
176,200,51976,2,0,B|216:184|216:184|248:196|248:196|291:191,1,116,4|8,0:0|0:0,0:0:0:0:
344,196,52442,2,0,P|356:140|360:72,1,116,2|8,0:0|0:0,0:0:0:0:
268,12,53064,1,8,0:0:0:0:
184,92,53374,6,0,L|60:84,1,116,4|2,0:0|0:0,0:0:0:0:
12,188,53996,2,0,P|64:220|136:232,1,116,8|2,0:0|0:0,0:0:0:0:
168,204,54463,2,0,B|248:184|248:244|348:208,1,174,4|8,0:0|0:0,0:0:0:0:
428,140,55240,1,8,0:0:0:0:
428,140,55395,2,0,P|440:168|456:216,1,58,2|2,0:0|0:0,0:0:0:0:
476,244,55706,6,0,L|460:364,1,116,4|2,0:0|0:0,0:0:0:0:
356,316,56328,2,0,P|312:324|244:346,1,116,8|2,0:0|0:0,0:0:0:0:
192,368,56794,1,8,0:0:0:0:
96,304,57105,2,0,P|84:252|92:172,1,116,4|0,0:0|0:0,0:0:0:0:
148,92,57727,2,0,L|280:88,1,116
380,72,58349,6,0,P|392:136|392:196,1,116,4|8,0:0|0:0,0:0:0:0:
360,236,58815,2,0,P|304:224|216:228,1,116,2|2,0:0|0:0,0:0:0:0:
192,244,59281,1,8,0:0:0:0:
88,192,59592,2,0,L|108:68,1,116,2|8,0:0|0:0,0:0:0:0:
216,36,60214,1,2,0:0:0:0:
324,80,60525,1,8,0:0:0:0:
432,36,60836,6,0,B|452:86|452:86|448:158,1,116,4|8,0:0|0:0,0:0:0:0:
400,180,61302,2,0,B|380:232|380:232|384:308,1,116,2|2,0:0|0:0,0:0:0:0:
416,340,61768,1,8,0:0:0:0:
416,340,61924,2,0,B|324:304|324:356|242:350,1,174,2|8,0:0|0:0,0:0:0:0:
132,348,62701,1,2,0:0:0:0:
44,272,63012,1,8,0:0:0:0:
120,184,63323,6,0,L|244:176,1,116,4|8,0:0|0:0,0:0:0:0:
344,132,63944,2,0,P|340:196|356:252,1,116,2|8,0:0|0:0,0:0:0:0:
380,296,64411,2,0,P|436:280|512:280,2,116,4|2|2,0:0|0:0|0:0,0:0:0:0:
272,336,65343,1,2,0:0:0:0:
272,336,65499,2,0,L|172:328,1,58,8|2,0:0|0:0,0:0:0:0:
160,352,65810,6,0,P|156:316|160:216,1,116,4|8,0:0|0:0,0:0:0:0:
192,124,66431,2,0,P|252:156|328:164,1,116,2|8,0:0|0:0,0:0:0:0:
348,136,66898,1,4,0:0:0:0:
460,160,67209,1,4,0:0:0:0:
424,272,67520,2,0,L|432:340,2,58,8|8|2,0:0|0:0|0:0,0:0:0:0:
376,244,67986,1,8,0:0:0:0:
348,136,68297,6,0,B|308:120|308:120|216:116,1,116,4|8,0:0|0:0,0:0:0:0:
184,92,68763,2,0,L|160:284,1,174,2|8,0:0|0:0,0:0:0:0:
140,320,69385,2,0,P|241:302|313:326,1,174,2|8,0:0|0:0,0:0:0:0:
420,356,70162,1,2,0:0:0:0:
460,248,70473,1,8,0:0:0:0:
360,188,70784,6,0,L|352:44,1,116,4|8,0:0|0:0,0:0:0:0:
300,48,71250,2,0,P|268:96|216:128,1,116,2|2,0:0|0:0,0:0:0:0:
164,104,71716,1,8,0:0:0:0:
164,104,71872,2,0,P|92:140|64:232,1,174,4|8,0:0|0:0,0:0:0:0:
144,308,72649,2,0,L|260:300,1,116,2|8,0:0|0:0,0:0:0:0:
372,268,73271,6,0,P|396:212|400:148,2,116,4|10|2,0:0|0:0|0:0,0:0:0:0:
268,220,74203,1,8,0:0:0:0:
268,220,74359,2,0,P|228:180|200:120,1,116,4|2,0:0|0:0,0:0:0:0:
224,72,74825,2,0,L|108:64,1,116,8|2,0:0|0:0,0:0:0:0:
20,140,75447,1,8,0:0:0:0:
108,212,75758,6,0,L|112:332,1,116,4|8,0:0|0:0,0:0:0:0:
224,292,76380,2,0,P|288:280|368:284,1,116,2|8,0:0|0:0,0:0:0:0:
392,304,76846,1,4,0:0:0:0:
468,216,77157,1,4,0:0:0:0:
400,120,77468,2,0,L|416:40,2,58,2|2|2,0:0|0:0|0:0,0:0:0:0:
356,160,77934,1,8,0:0:0:0:
308,264,78245,6,0,P|260:264|192:253,1,116,4|2,0:0|0:0,0:0:0:0:
124,156,78867,2,0,P|186:149|248:146,1,116,8|2,0:0|0:0,0:0:0:0:
356,160,79488,2,0,P|372:104|408:36,1,116,2|2,0:0|0:0,0:0:0:0:
476,140,80110,2,0,L|476:276,1,116,8|2,0:0|0:0,0:0:0:0:
480,316,80577,1,8,0:0:0:0:
480,316,80732,6,0,B|436:324|436:324|364:308,1,116,4|2,0:0|0:0,0:0:0:0:
252,280,81354,2,0,L|240:348,2,58,8|8|2,0:0|0:0|0:0,0:0:0:0:
280,228,81820,2,0,L|276:84,1,116,4|8,0:0|0:0,0:0:0:0:
260,56,82286,1,2,0:0:0:0:
188,148,82597,2,0,P|132:164|56:164,1,116,2|2,0:0|0:0,0:0:0:0:
32,60,83219,6,0,P|84:44|160:44,1,116,4|8,0:0|0:0,0:0:0:0:
260,56,83841,1,2,0:0:0:0:
376,44,84152,1,8,0:0:0:0:
376,44,84307,2,0,B|408:72|408:72|416:188,1,116,4|0,0:0|0:0,0:0:0:0:
396,200,84773,2,0,P|344:228|292:280,1,116,8|2,0:0|0:0,0:0:0:0:
220,348,85395,1,8,0:0:0:0:
108,316,85706,6,0,L|91:201,1,116,8|2,0:0|0:0,0:0:0:0:
44,168,86172,2,0,L|56:44,1,116,8|2,0:0|0:0,0:0:0:0:
160,108,86794,2,0,B|176:155|214:170|214:170|312:116|312:196|412:124|412:124|444:172|432:256,1,406,4|0,0:0|0:0,0:0:0:0:
352,312,88193,6,0,P|235:309|108:304,1,232,4|2,0:0|0:0,0:0:0:0:
40,220,89126,1,2,0:0:0:0:
88,112,89437,2,0,P|160:100|220:100,1,116,2|2,0:0|0:0,0:0:0:0:
308,144,90058,2,0,P|324:92|360:24,1,116,2|2,0:0|0:0,0:0:0:0:
460,80,90680,6,0,P|456:192|448:328,1,232,2|2,0:0|0:0,0:0:0:0:
340,348,91613,1,2,0:0:0:0:
240,288,91924,2,0,L|104:284,1,116,2|2,0:0|0:0,0:0:0:0:
36,212,92545,2,0,P|20:148|28:76,1,116,2|2,0:0|0:0,0:0:0:0:
128,48,93167,6,0,B|192:36|192:36|284:68|284:68|360:56,1,232,2|2,0:0|0:0,0:0:0:0:
468,40,94100,1,2,0:0:0:0:
408,140,94411,2,0,P|406:206|420:284,1,116,2|2,0:0|0:0,0:0:0:0:
444,304,94877,1,0,0:0:0:0:
444,304,95033,2,0,P|372:324|328:344,1,116,2|2,0:0|0:0,0:0:0:0:
220,340,95654,6,0,P|216:284|208:196,1,116,2|2,0:0|0:0,0:0:0:0:
172,116,96276,1,2,0:0:0:0:
80,184,96587,2,0,P|68:244|64:308,1,116,2|2,0:0|0:0,0:0:0:0:
160,364,97209,1,2,0:0:0:0:
264,312,97520,2,0,L|356:292,1,58,2|0,0:0|0:0,0:0:0:0:
376,320,97830,2,0,L|468:300,1,58,2|0,0:0|0:0,0:0:0:0:
476,268,98141,6,0,P|476:204|464:128,1,116,4|2,0:0|0:0,0:0:0:0:
408,52,98763,2,0,P|360:52|272:68,1,116,2|2,0:0|0:0,0:0:0:0:
220,152,99385,2,0,P|284:160|348:184,1,116,2|2,0:0|0:0,0:0:0:0:
356,228,99851,2,0,B|352:264|340:284|340:284|280:276|224:304,1,174,2|2,0:0|0:0,0:0:0:0:
120,340,100628,6,0,P|96:292|96:208,1,116,4|2,0:0|0:0,0:0:0:0:
144,128,101250,1,2,0:0:0:0:
248,180,101561,2,0,L|320:176,1,58,2|0,0:0|0:0,0:0:0:0:
360,196,101872,2,0,P|364:144|360:64,1,116,2|2,0:0|0:0,0:0:0:0:
320,40,102338,2,0,L|192:28,1,116,2|0,0:0|0:0,0:0:0:0:
148,44,102805,1,2,0:0:0:0:
64,124,103115,6,0,P|76:184|84:248,1,116,4|2,0:0|0:0,0:0:0:0:
184,300,103737,2,0,P|191:242|203:185,1,116,2|2,0:0|0:0,0:0:0:0:
276,96,104359,2,0,P|344:108|400:104,1,116,2|2,0:0|0:0,0:0:0:0:
448,108,104825,2,0,P|400:172|396:268,1,174,2|2,0:0|0:0,0:0:0:0:
420,376,105602,5,4,0:0:0:0:
316,328,105913,1,2,0:0:0:0:
200,344,106224,2,0,L|80:332,1,116,2|2,0:0|0:0,0:0:0:0:
44,288,106691,2,0,P|76:216|88:112,1,174,4|2,0:0|0:0,0:0:0:0:
32,24,107468,2,0,L|168:20,1,116,2|2,0:0|0:0,0:0:0:0:
256,56,108090,6,0,P|376:44|452:116,1,232,4|2,0:0|0:0,0:0:0:0:
460,232,109022,1,2,0:0:0:0:
352,268,109333,2,0,L|236:274,1,116,2|2,0:0|0:0,0:0:0:0:
184,248,109799,2,0,L|200:188,2,58,8|8|8,0:0|0:0|0:0,0:0:0:0:
148,292,110266,1,8,0:0:0:0:
148,292,110421,6,0,P|80:224|84:140,1,174,4|2,0:0|0:0,0:0:0:0:
164,72,111198,2,0,P|236:64|279:61,1,116,8|2,0:0|0:0,0:0:0:0:
396,44,111820,2,0,P|404:100|420:172,1,116,4|2,0:0|0:0,0:0:0:0:
432,272,112442,1,8,0:0:0:0:
432,272,112597,2,0,P|392:265|360:264,1,58,2|2,0:0|0:0,0:0:0:0:
340,216,112908,6,0,L|216:224,1,116,4|8,0:0|0:0,0:0:0:0:
172,248,113374,2,0,P|184:184|184:116,1,116,2|8,0:0|0:0,0:0:0:0:
92,64,113996,1,2,0:0:0:0:
12,148,114307,2,0,L|36:280,1,116,4|2,0:0|0:0,0:0:0:0:
116,344,114929,1,8,0:0:0:0:
116,344,115084,2,0,L|204:348,1,58,2|2,0:0|0:0,0:0:0:0:
224,316,115395,6,0,B|312:280|312:340|397:308,1,174,4|2,0:0|0:0,0:0:0:0:
480,232,116172,2,0,L|472:112,1,116,8|2,0:0|0:0,0:0:0:0:
432,76,116639,1,2,0:0:0:0:
432,76,116794,2,0,P|392:96|304:92,1,116,4|2,0:0|0:0,0:0:0:0:
220,40,117416,2,0,P|184:88|158:158,1,116,8|2,0:0|0:0,0:0:0:0:
156,256,118038,5,4,0:0:0:0:
268,220,118349,2,0,L|400:204,1,116,2|2,0:0|0:0,0:0:0:0:
468,288,118970,1,2,0:0:0:0:
372,356,119281,2,0,L|248:344,1,116,2|2,0:0|0:0,0:0:0:0:
152,296,119903,1,2,0:0:0:0:
48,344,120214,1,2,0:0:0:0:
60,228,120525,6,0,L|52:104,1,116,4|2,0:0|0:0,0:0:0:0:
152,52,121146,2,0,P|196:76|260:92,1,116,2|2,0:0|0:0,0:0:0:0:
372,68,121768,1,4,0:0:0:0:
372,68,121924,2,0,P|396:44|460:8,2,58,8|8|8,0:0|0:0|0:0,0:0:0:0:
352,124,122390,2,0,L|356:252,1,116,8|8,0:0|0:0,0:0:0:0:
352,296,122856,6,0,B|304:308|304:308|172:292,1,174,4|8,0:0|0:0,0:0:0:0:
72,252,123634,1,2,0:0:0:0:
104,140,123944,1,8,0:0:0:0:
208,192,124255,2,0,P|248:144|280:64,1,116,2|8,0:0|0:0,0:0:0:0:
372,36,124877,2,0,P|360:100|368:180,1,116,2|8,0:0|0:0,0:0:0:0:
420,164,125343,6,0,P|424:256|400:356,1,174,4|8,0:0|0:0,0:0:0:0:
304,284,126121,2,0,L|296:224,2,58,2|2|8,0:0|0:0|0:0,0:0:0:0:
276,336,126587,2,0,L|160:324,1,116,2|2,0:0|0:0,0:0:0:0:
108,300,127053,1,8,0:0:0:0:
108,300,127209,2,0,P|100:232|120:112,1,174,2|8,0:0|0:0,0:0:0:0:
160,92,127830,6,0,P|240:104|360:104,1,174,4|8,0:0|0:0,0:0:0:0:
436,52,128608,2,0,P|450:92|462:164,1,116,2|8,0:0|0:0,0:0:0:0:
408,268,129229,2,0,P|356:260|292:252,1,116,4|8,0:0|0:0,0:0:0:0:
184,208,129851,2,0,L|204:124,2,58,2|2|8,0:0|0:0|0:0,0:0:0:0:
164,264,130317,6,0,B|124:272|124:272|32:256,1,116,4|2,0:0|0:0,0:0:0:0:
24,208,130784,2,0,P|28:146|48:84,1,116,2|2,0:0|0:0,0:0:0:0:
148,48,131406,2,0,P|172:92|192:176,1,116,2|2,0:0|0:0,0:0:0:0:
252,256,132027,1,2,0:0:0:0:
364,228,132338,2,0,L|432:232,2,58,8|8|8,0:0|0:0|0:0,0:0:0:0:
324,184,132805,6,0,P|316:120|276:16,1,174,4|8,0:0|0:0,0:0:0:0:
168,60,133582,1,2,0:0:0:0:
168,60,133737,2,0,L|96:64,1,58,2|8,0:0|0:0,0:0:0:0:
36,152,134203,2,0,L|168:156,1,116,2|8,0:0|0:0,0:0:0:0:
212,148,134670,1,2,0:0:0:0:
324,116,134981,2,0,L|328:200,1,58,2|8,0:0|0:0,0:0:0:0:
348,228,135292,6,0,B|264:228|264:272|176:240,1,174,4|8,0:0|0:0,0:0:0:0:
124,224,135913,1,2,0:0:0:0:
124,224,136069,2,0,P|120:292|128:360,1,116,2|8,0:0|0:0,0:0:0:0:
180,356,136535,2,0,L|316:348,1,116,2|2,0:0|0:0,0:0:0:0:
336,240,137157,2,0,L|472:232,1,116,2|2,0:0|0:0,0:0:0:0:
488,188,137623,2,0,L|501:107,1,58,8|2,0:0|0:0,0:0:0:0:
500,72,137934,6,0,P|448:76|364:40,1,116,4|8,0:0|0:0,0:0:0:0:
276,28,138556,2,0,P|248:72|224:131,1,116,2|8,0:0|0:0,0:0:0:0:
184,172,139022,2,0,P|152:116|96:60,1,116,2|2,0:0|0:0,0:0:0:0:
68,44,139488,1,8,0:0:0:0:
16,148,139799,2,0,L|28:276,1,116,2|8,0:0|0:0,0:0:0:0:
116,340,140421,6,0,P|176:320|232:312,1,116,4|8,0:0|0:0,0:0:0:0:
340,340,141043,1,2,0:0:0:0:
340,340,141198,2,0,P|364:308|384:264,1,58,2|8,0:0|0:0,0:0:0:0:
392,236,141509,2,0,L|188:220,1,174,4|8,0:0|0:0,0:0:0:0:
140,136,142286,2,0,L|268:124,1,116,8|8,0:0|0:0,0:0:0:0:
352,64,142908,6,0,P|415:86|464:132,1,116,4|2,0:0|0:0,0:0:0:0:
468,232,143530,2,0,L|324:224,1,116,8|2,0:0|0:0,0:0:0:0:
304,196,143996,2,0,P|308:260|296:372,1,174,2|2,0:0|0:0,0:0:0:0:
188,332,144773,1,8,0:0:0:0:
76,364,145084,1,2,0:0:0:0:
12,268,145395,6,0,L|20:144,1,116,2|2,0:0|0:0,0:0:0:0:
104,72,146017,2,0,L|108:12,2,58,8|8|8,0:0|0:0|0:0,0:0:0:0:
132,124,146483,2,0,P|184:112|272:108,1,116,4|8,0:0|0:0,0:0:0:0:
304,116,146950,1,2,0:0:0:0:
396,188,147260,2,0,L|384:324,1,116,2|8,0:0|0:0,0:0:0:0:
276,268,147882,6,0,P|220:268|160:279,1,116,4|2,0:0|0:0,0:0:0:0:
48,304,148504,2,0,P|40:244|48:176,1,116,8|0,0:0|0:0,0:0:0:0:
76,140,148970,2,0,P|161:153|240:108,1,174,4|2,0:0|0:0,0:0:0:0:
332,48,149748,1,8,0:0:0:0:
332,48,149903,2,0,L|336:128,1,58,2|2,0:0|0:0,0:0:0:0:
356,160,150214,6,0,L|340:280,1,116,4|2,0:0|0:0,0:0:0:0:
248,344,150836,2,0,P|224:332|116:308,1,116,8|2,0:0|0:0,0:0:0:0:
80,296,151302,2,0,P|74:264|76:208,1,58,8|2,0:0|0:0,0:0:0:0:
108,192,151613,2,0,L|240:184,1,116,4|0,0:0|0:0,0:0:0:0:
296,92,152235,2,0,L|152:76,1,116
76,32,152856,6,0,P|60:92|52:168,1,116,4|8,0:0|0:0,0:0:0:0:
88,192,153323,2,0,P|108:244|128:324,1,116,2|2,0:0|0:0,0:0:0:0:
120,360,153789,1,8,0:0:0:0:
228,316,154100,2,0,P|289:313|343:318,1,116,2|8,0:0|0:0,0:0:0:0:
456,344,154722,1,2,0:0:0:0:
424,248,155033,1,8,0:0:0:0:
464,140,155343,6,0,P|480:92|488:4,1,116,4|8,0:0|0:0,0:0:0:0:
428,24,155810,2,0,L|296:32,1,116,2|2,0:0|0:0,0:0:0:0:
256,20,156276,1,8,0:0:0:0:
256,20,156431,2,0,P|248:124|224:216,1,174,2|8,0:0|0:0,0:0:0:0:
120,156,157209,1,2,0:0:0:0:
32,232,157520,1,8,0:0:0:0:
104,320,157830,6,0,L|224:312,1,116,4|8,0:0|0:0,0:0:0:0:
332,280,158452,2,0,P|336:208|328:144,1,116,2|8,0:0|0:0,0:0:0:0:
280,136,158919,2,0,P|272:80|272:12,2,116,4|2|2,0:0|0:0|0:0,0:0:0:0:
388,100,159851,1,2,0:0:0:0:
388,100,160007,2,0,L|464:116,1,58,8|2,0:0|0:0,0:0:0:0:
488,148,160317,6,0,P|484:208|472:284,1,116,4|8,0:0|0:0,0:0:0:0:
392,344,160939,2,0,P|340:340|260:340,1,116,2|8,0:0|0:0,0:0:0:0:
220,352,161406,1,4,0:0:0:0:
116,296,161716,1,4,0:0:0:0:
148,184,162027,2,0,L|140:92,2,58,8|8|2,0:0|0:0|0:0,0:0:0:0:
192,220,162494,1,8,0:0:0:0:
300,176,162805,6,0,L|436:164,1,116,4|8,0:0|0:0,0:0:0:0:
460,128,163271,2,0,B|472:88|464:64|464:64|408:72|348:56,1,174,2|8,0:0|0:0,0:0:0:0:
304,36,163893,2,0,P|208:48|132:64,1,174,2|8,0:0|0:0,0:0:0:0:
32,124,164670,1,2,0:0:0:0:
64,236,164981,1,8,0:0:0:0:
164,180,165292,6,0,P|217:175|316:176,1,116,4|8,0:0|0:0,0:0:0:0:
324,212,165758,2,0,L|328:336,1,116,2|2,0:0|0:0,0:0:0:0:
368,368,166224,1,8,0:0:0:0:
368,368,166380,2,0,P|424:272|436:192,1,174,4|8,0:0|0:0,0:0:0:0:
420,96,167157,1,2,0:0:0:0:
308,128,167468,1,8,0:0:0:0:
200,84,167779,6,0,P|144:52|88:36,2,116,4|8|2,0:0|0:0|0:0,0:0:0:0:
232,196,168711,1,8,0:0:0:0:
232,196,168867,2,0,B|244:264|244:264|236:368,1,174,4|8,0:0|0:0,0:0:0:0:
128,324,169644,1,2,0:0:0:0:
12,340,169955,1,8,0:0:0:0:
56,232,170266,6,0,L|44:108,2,116,4|8|2,0:0|0:0|0:0,0:0:0:0:
128,324,171198,1,8,0:0:0:0:
128,324,171354,2,0,P|200:308|264:304,1,116,2|2,0:0|0:0,0:0:0:0:
296,280,171820,2,0,P|240:248|204:208,1,116,8|2,0:0|0:0,0:0:0:0:
172,100,172442,1,8,0:0:0:0:
276,44,172753,6,0,L|281:159,1,116,4|8,0:0|0:0,0:0:0:0:
392,200,173374,2,0,P|400:136|412:68,1,116,2|8,0:0|0:0,0:0:0:0:
464,64,173841,2,0,P|492:112|500:172,1,116,2|2,0:0|0:0,0:0:0:0:
484,228,174307,1,8,0:0:0:0:
400,308,174618,2,0,L|252:296,1,116,2|8,0:0|0:0,0:0:0:0:
168,280,175240,6,0,P|176:216|168:160,1,116,4|8,0:0|0:0,0:0:0:0:
96,76,175862,2,0,P|76:52|60:16,2,58,2|2|8,0:0|0:0|0:0,0:0:0:0:
152,68,176328,2,0,P|224:52|344:48,1,174,4|8,0:0|0:0,0:0:0:0:
436,72,177105,2,0,P|404:116|396:176,1,116,2|2,0:0|0:0,0:0:0:0:
436,284,177727,6,0,P|368:228|280:212,2,174,4|4|4,0:0|0:0|0:0,0:0:0:0:
340,348,178970,1,2,0:0:0:0:
340,348,179126,2,0,L|166:340,1,174,4|4,0:0|0:0,0:0:0:0:
60,292,179903,1,8,0:0:0:0:
136,200,180214,6,0,L|128:48,1,116,4|2,0:0|0:0,0:0:0:0:
164,36,180680,2,0,B|208:48|208:48|288:40,1,116,4|2,0:0|0:0,0:0:0:0:
336,28,181146,1,4,0:0:0:0:
436,88,181457,1,2,0:0:0:0:
436,88,181613,2,0,B|440:144|440:144|416:264,1,174,4|4,0:0|0:0,0:0:0:0:
312,308,182390,2,0,L|296:208,1,58,8|8,0:0|0:0,0:0:0:0:
288,196,182701,6,0,L|172:201,1,116,4|2,0:0|0:0,0:0:0:0:
124,236,183167,2,0,P|80:208|48:148,1,116,4|2,0:0|0:0,0:0:0:0:
56,96,183634,1,4,0:0:0:0:
160,48,183944,1,2,0:0:0:0:
160,48,184100,2,0,L|304:60,1,116,4|2,0:0|0:0,0:0:0:0:
332,44,184566,1,4,0:0:0:0:
436,96,184877,1,4,0:0:0:0:
368,192,185188,6,0,P|349:240|332:316,1,116,4|2,0:0|0:0,0:0:0:0:
316,356,185654,2,0,P|260:372|200:370,1,116,4|2,0:0|0:0,0:0:0:0:
156,332,186121,1,4,0:0:0:0:
196,224,186431,1,2,0:0:0:0:
196,224,186587,2,0,L|188:88,1,116,4|2,0:0|0:0,0:0:0:0:
160,60,187053,2,0,P|228:64|304:56,1,116,4|8,0:0|0:0,0:0:0:0:
388,32,187675,6,0,L|392:156,1,116,8|2,0:0|0:0,0:0:0:0:
428,196,188141,2,0,L|424:320,1,116,4|2,0:0|0:0,0:0:0:0:
384,352,188608,1,4,0:0:0:0:
276,308,188919,1,2,0:0:0:0:
276,308,189074,2,0,B|224:292|224:292|148:300,1,116,4|2,0:0|0:0,0:0:0:0:
108,320,189540,1,4,0:0:0:0:
40,224,189851,1,8,0:0:0:0:
152,196,190162,6,0,P|160:140|160:76,1,116,8|2,0:0|0:0,0:0:0:0:
132,32,190628,2,0,L|280:28,1,116,8|2,0:0|0:0,0:0:0:0:
300,56,191095,1,8,0:0:0:0:
412,28,191406,1,2,0:0:0:0:
412,28,191561,2,0,B|420:80|420:80|412:160,1,116,8|2,0:0|0:0,0:0:0:0:
380,192,192027,2,0,L|384:260,2,58,8|2|8,0:0|0:0|0:0,0:0:0:0:
272,152,192649,6,0,L|120:140,1,116,4|8,0:0|0:0,0:0:0:0:
104,120,193115,2,0,P|88:204|80:256,1,116,4|8,0:0|0:0,0:0:0:0:
76,292,193582,1,4,0:0:0:0:
188,328,193893,1,8,0:0:0:0:
188,328,194048,2,0,P|248:340|320:324,1,116,4|8,0:0|0:0,0:0:0:0:
352,300,194514,2,0,B|360:244|360:244|352:184,1,116,4|8,0:0|0:0,0:0:0:0:
244,144,195136,6,0,L|248:72,1,58,4|8,0:0|0:0,0:0:0:0:
148,148,195602,2,0,L|156:208,1,58,4|8,0:0|0:0,0:0:0:0:
224,300,196069,2,0,L|312:284,1,58,4|8,0:0|0:0,0:0:0:0:
256,200,197623,5,4,0:0:0:0:
256,200,206328,5,2,3:0:0:0:
144,164,206639,2,0,P|124:112|112:28,1,116,8|8,0:0|3:0,0:0:0:0:
224,16,207260,1,8,0:0:0:0:
320,84,207571,6,0,P|372:108|436:124,1,116,4|2,0:0|0:0,0:0:0:0:
496,216,208193,2,0,P|440:240|380:276,1,116,8|2,0:0|0:0,0:0:0:0:
304,344,208815,1,2,0:0:0:0:
192,320,209126,2,0,B|176:272|176:272|172:184,1,116,8|8,0:0|0:0,0:0:0:0:
216,100,209748,1,2,0:0:0:0:
304,172,210058,6,0,P|368:164|440:136,1,116,4|2,0:0|0:0,0:0:0:0:
392,32,210680,2,0,P|334:16|276:12,1,116,8|2,0:0|0:0,0:0:0:0:
172,64,211302,2,0,L|52:76,1,116,2|2,0:0|0:0,0:0:0:0:
16,184,211924,1,8,0:0:0:0:
84,280,212235,2,0,L|160:264,1,58,2|0,0:0|0:0,0:0:0:0:
184,232,212545,6,0,P|197:286|212:372,1,116,4|0,0:0|0:0,0:0:0:0:
324,364,213167,2,0,P|336:304|364:220,1,116,8|2,0:0|0:0,0:0:0:0:
404,148,213789,2,0,P|340:152|272:152,1,116,4|8,0:0|0:0,0:0:0:0:
188,92,214411,1,8,0:0:0:0:
80,136,214722,1,2,0:0:0:0:
152,228,215033,6,0,L|168:352,1,116,4|2,0:0|0:0,0:0:0:0:
272,292,215654,2,0,L|424:288,1,116,8|8,0:0|0:0,0:0:0:0:
444,308,216121,2,0,P|472:224|468:116,1,174,2|2,0:0|0:0,0:0:0:0:
384,64,216898,1,8,0:0:0:0:
284,124,217209,1,2,0:0:0:0:
200,44,217520,6,0,P|144:48|84:57,1,116,4|0,0:0|0:0,0:0:0:0:
12,148,218141,1,8,0:0:0:0:
80,244,218452,1,2,0:0:0:0:
80,244,218608,2,0,P|196:256|280:256,1,174,8|2,0:0|0:0,0:0:0:0:
352,196,219385,1,8,0:0:0:0:
468,204,219696,2,0,L|464:268,1,58,2|8,0:0|0:0,0:0:0:0:
444,316,220007,6,0,P|396:324|324:348,1,116,4|2,0:0|0:0,0:0:0:0:
216,332,220628,2,0,P|160:312|72:292,1,116,8|2,0:0|0:0,0:0:0:0:
64,256,221095,2,0,L|244:232,1,174,8|2,0:0|0:0,0:0:0:0:
304,140,221872,2,0,L|300:68,2,58,8|8|8,0:0|0:0|0:0,0:0:0:0:
388,220,222494,6,0,B|432:188|432:188|460:116,1,116,4|0,0:0|0:0,0:0:0:0:
392,32,223115,2,0,P|344:24|277:16,1,116,8|0,0:0|0:0,0:0:0:0:
164,36,223737,2,0,L|168:152,1,116,4|0,0:0|0:0,0:0:0:0:
252,232,224359,2,0,L|240:368,1,116,8|2,0:0|0:0,0:0:0:0:
128,360,224981,6,0,P|108:308|100:232,1,116,4|8,0:0|0:0,0:0:0:0:
167,151,225602,2,0,L|259:143,1,58,8|8,0:0|0:0,0:0:0:0:
276,172,225913,1,2,0:0:0:0:
356,88,226224,2,0,P|480:92|368:176,1,348,4|0,0:0|0:0,0:0:0:0:
260,140,227468,6,0,B|232:136|192:104|192:104|168:176|168:176|104:128|24:144|24:144|28:188|68:264,2,406,4|0|0,0:0|0:0|0:0,0:0:0:0:
372,112,229955,6,0,B|440:104|480:68|480:68|440:204|528:204|464:356,2,406,2|0|0,0:0|0:0|0:0,0:0:0:0:
260,84,232442,6,0,B|188:104|92:52|92:52|64:92|96:152|96:152|56:192|56:288,2,406,2|0|0,0:0|0:0|0:0,0:0:0:0:
368,40,234929,6,0,B|396:104|396:104|360:176|372:280,1,232,2|2,0:0|0:0,0:0:0:0:
440,356,235862,1,2,0:0:0:0:
440,356,236017,2,0,L|300:364,1,116,2|2,0:0|0:0,0:0:0:0:
208,344,236639,2,0,P|200:280|184:200,1,116,8|8,0:0|0:0,0:0:0:0:
160,180,237105,1,8,0:0:0:0:
56,232,237416,6,0,P|63:172|76:96,1,116,4|2,0:0|0:0,0:0:0:0:
180,72,238038,2,0,P|232:68|312:52,1,116,8|2,0:0|0:0,0:0:0:0:
348,36,238504,1,2,0:0:0:0:
348,36,238659,2,0,L|364:176,1,116,4|2,0:0|0:0,0:0:0:0:
392,264,239281,2,0,L|381:335,2,58,8|8|2,0:0|0:0|0:0,0:0:0:0:
284,216,239903,6,0,P|236:232|172:268,1,116,4|2,0:0|0:0,0:0:0:0:
68,304,240525,2,0,P|60:236|68:148,1,116,8|2,0:0|0:0,0:0:0:0:
92,76,241146,2,0,L|224:68,1,116,4|2,0:0|0:0,0:0:0:0:
264,84,241613,1,2,0:0:0:0:
264,84,241768,2,0,P|300:80|360:72,1,58,8|8,0:0|0:0,0:0:0:0:
372,108,242079,2,0,P|408:100|464:92,1,58,2|8,0:0|0:0,0:0:0:0:
484,116,242390,6,0,P|480:172|472:244,1,116,4|2,0:0|0:0,0:0:0:0:
396,316,243012,2,0,P|388:268|364:200,1,116,8|2,0:0|0:0,0:0:0:0:
312,188,243478,2,0,P|244:220|132:208,1,174,4|2,0:0|0:0,0:0:0:0:
88,116,244255,2,0,L|100:36,2,58,8|8|2,0:0|0:0|0:0,0:0:0:0:
20,212,244877,6,0,L|28:348,1,116,4|2,0:0|0:0,0:0:0:0:
84,328,245343,2,0,P|140:332|198:345,1,116,8|2,0:0|0:0,0:0:0:0:
256,360,245810,2,0,L|264:280,1,58,2|4,0:0|0:0,0:0:0:0:
368,32,246742,6,0,L|356:152,1,116
248,184,247364,6,0,B|140:204|140:140|12:181,1,232,4|0,0:0|0:0,0:0:0:0:
4,296,248297,1,2,0:0:0:0:
116,332,248608,2,0,P|185:328|252:316,1,116,2|2,0:0|0:0,0:0:0:0:
344,288,249229,2,0,P|376:304|424:336,2,58,2|8|8,0:0|0:0|0:0,0:0:0:0:
264,204,249851,6,0,L|260:60,1,116,4|8,0:0|0:0,0:0:0:0:
220,48,250317,2,0,P|172:56|96:60,1,116,2|2,0:0|0:0,0:0:0:0:
48,52,250784,1,8,0:0:0:0:
48,52,250939,2,0,P|40:152|48:244,1,174,2|8,0:0|0:0,0:0:0:0:
120,316,251716,1,2,0:0:0:0:
228,276,252027,1,8,0:0:0:0:
336,316,252338,6,0,L|464:304,1,116,4|8,0:0|0:0,0:0:0:0:
492,196,252960,2,0,L|364:184,1,116,2|8,0:0|0:0,0:0:0:0:
324,160,253426,2,0,P|284:112|216:72,2,116,4|2|2,0:0|0:0|0:0,0:0:0:0:
252,252,254359,1,2,0:0:0:0:
252,252,254514,2,0,L|192:248,1,58,8|0,0:0|0:0,0:0:0:0:
136,240,254825,6,0,P|120:172|112:92,1,116,4|8,0:0|0:0,0:0:0:0:
168,24,255447,2,0,P|220:56|256:104,1,116,2|8,0:0|0:0,0:0:0:0:
276,152,255913,1,4,0:0:0:0:
380,104,256224,1,4,0:0:0:0:
472,172,256535,2,0,L|484:108,2,58,8|8|2,0:0|0:0|0:0,0:0:0:0:
460,228,257001,1,8,0:0:0:0:
352,188,257312,6,0,L|216:192,1,116,4|8,0:0|0:0,0:0:0:0:
176,184,257779,2,0,B|180:248|180:248|172:298,1,116,2|2,0:0|0:0,0:0:0:0:
132,344,258245,1,8,0:0:0:0:
56,256,258556,2,0,B|56:200|56:200|72:140,1,116,2|8,0:0|0:0,0:0:0:0:
148,52,259178,2,0,P|200:68|264:72,1,116,2|8,0:0|0:0,0:0:0:0:
376,60,259799,6,0,P|360:112|340:192,1,116,4|8,0:0|0:0,0:0:0:0:
364,228,260266,2,0,P|382:287|394:345,1,116,2|2,0:0|0:0,0:0:0:0:
340,364,260732,1,8,0:0:0:0:
340,364,260887,2,0,B|264:328|264:368|164:340,1,174,4|8,0:0|0:0,0:0:0:0:
96,252,261665,1,2,0:0:0:0:
136,144,261976,1,8,0:0:0:0:
248,180,262286,6,0,P|309:184|392:176,1,116,4|8,0:0|0:0,0:0:0:0:
412,148,262753,1,2,0:0:0:0:
412,148,262908,2,0,P|440:192|448:264,1,116,2|8,0:0|0:0,0:0:0:0:
420,304,263374,2,0,B|372:316|372:316|216:304,1,174,4|8,0:0|0:0,0:0:0:0:
136,280,264152,2,0,L|120:144,1,116,2|8,0:0|0:0,0:0:0:0:
88,56,264773,6,0,P|152:40|216:36,1,116,4|8,0:0|0:0,0:0:0:0:
288,112,265395,2,0,P|344:124|408:128,1,116,2|8,0:0|0:0,0:0:0:0:
456,104,265862,1,4,0:0:0:0:
436,220,266172,1,4,0:0:0:0:
352,300,266483,2,0,L|360:364,2,58,8|8|2,0:0|0:0|0:0,0:0:0:0:
324,248,266950,1,8,0:0:0:0:
232,316,267260,6,0,L|104:312,1,116,4|2,0:0|0:0,0:0:0:0:
28,232,267882,2,0,L|164:220,1,116,8|2,0:0|0:0,0:0:0:0:
192,188,268349,1,2,0:0:0:0:
192,188,268504,2,0,P|208:136|216:72,1,116,2|2,0:0|0:0,0:0:0:0:
320,24,269126,2,0,P|320:80|332:140,1,116,8|2,0:0|0:0,0:0:0:0:
388,156,269592,1,2,0:0:0:0:
388,156,269748,6,0,P|392:224|376:288,1,116,4|8,0:0|0:0,0:0:0:0:
268,272,270369,2,0,P|256:240|252:184,2,58,8|2|2,0:0|0:0|0:0,0:0:0:0:
300,320,270836,2,0,P|208:332|127:345,1,174,4|8,0:0|0:0,0:0:0:0:
48,260,271613,2,0,P|36:204|36:132,1,116,2|2,0:0|0:0,0:0:0:0:
120,68,272235,5,4,0:0:0:0:
228,112,272545,1,8,0:0:0:0:
336,68,272856,2,0,B|384:64|384:64|456:80,1,116,2|8,0:0|0:0,0:0:0:0:
496,116,273323,2,0,P|496:196|488:296,1,174,4|8,0:0|0:0,0:0:0:0:
380,336,274100,1,2,0:0:0:0:
280,280,274411,2,0,L|216:272,1,58,8|0,0:0|0:0,0:0:0:0:
160,284,274722,6,0,P|192:224|208:172,1,116,4|2,0:0|0:0,0:0:0:0:
156,148,275188,2,0,P|128:96|112:28,1,116,4|2,0:0|0:0,0:0:0:0:
228,28,275810,6,0,B|316:72|316:16|420:48,1,174,4|8,0:0|0:0,0:0:0:0:
444,76,276431,2,0,L|428:268,1,174,4|8,0:0|0:0,0:0:0:0:
416,304,277053,1,4,0:0:0:0:
304,268,277364,2,0,P|272:262|244:259,1,58,2|8,0:0|0:0,0:0:0:0:
200,292,277675,2,0,P|148:296|72:288,1,116,4|8,0:0|0:0,0:0:0:0:
56,240,278141,1,8,0:0:0:0:
56,240,278297,6,0,L|64:56,1,174,4|8,0:0|0:0,0:0:0:0:
116,44,278919,2,0,B|164:64|164:64|320:48,1,174,4|8,0:0|0:0,0:0:0:0:
340,36,279540,2,0,B|324:116|324:116|325:209,1,174,4|8,0:0|0:0,0:0:0:0:
356,256,280162,2,0,P|412:248|488:252,1,116,4|8,0:0|0:0,0:0:0:0:
404,348,280784,6,0,L|230:351,1,174,4|8,0:0|0:0,0:0:0:0:
132,292,281561,2,0,P|112:236|116:156,1,116,2|8,0:0|0:0,0:0:0:0:
152,72,282183,1,2,0:0:0:0:
264,108,282494,2,0,L|392:100,1,116,8|0,0:0|0:0,0:0:0:0:
432,80,282960,1,8,0:0:0:0:
496,176,283271,6,0,P|492:248|472:360,1,174,4|8,0:0|0:0,0:0:0:0:
380,284,284048,2,0,P|324:264|265:264,1,116,2|8,0:0|0:0,0:0:0:0:
156,304,284670,1,2,0:0:0:0:
48,260,284981,1,8,0:0:0:0:
48,260,285136,2,0,L|40:140,1,116,2|8,0:0|0:0,0:0:0:0:
108,48,285758,6,0,P|156:80|216:88,1,116,4|0,0:0|0:0,0:0:0:0:
268,68,286224,2,0,P|328:72|400:80,1,116,8|8,0:0|0:0,0:0:0:0:
492,120,286846,1,8,0:0:0:0:
448,228,287157,2,0,P|392:232|324:228,1,116,4|8,0:0|0:0,0:0:0:0:
276,212,287623,2,0,P|268:156|244:76,1,116,2|8,0:0|0:0,0:0:0:0:
148,148,288245,6,0,P|132:204|116:280,1,116,4|2,0:0|0:0,0:0:0:0:
132,316,288711,2,0,L|280:312,1,116,8|8,0:0|0:0,0:0:0:0:
360,284,289333,1,8,0:0:0:0:
464,332,289644,2,0,L|468:212,1,116,4|2,0:0|0:0,0:0:0:0:
472,160,290110,1,4,0:0:0:0:
376,96,290421,1,4,0:0:0:0:
280,160,290732,1,4,0:0:0:0:
