osu file format v14

[General]
AudioFilename: Wonder Stella.mp3
AudioLeadIn: 0
PreviewTime: 152079
Countdown: 0
SampleSet: Soft
StackLeniency: 0.7
Mode: 0
LetterboxInBreaks: 1
WidescreenStoryboard: 0

[Editor]
DistanceSpacing: 1
BeatDivisor: 4
GridSize: 4
TimelineZoom: 1

[Metadata]
Title:Wonder Stella
TitleUnicode:ワンダーステラ
Artist:fhana
ArtistUnicode:fhána
Creator:CelsiusLK
Version:Insane
Source:Fate/kaleid liner プリズマイリヤ ツヴァイ ヘルツ!
Tags:Prisma Illya 2wei! Herz lantis towana opening full
BeatmapID:837876
BeatmapSetID:383242

[Difficulty]
HPDrainRate:7
CircleSize:4
OverallDifficulty:7.5
ApproachRate:9
SliderMultiplier:1.8
SliderTickRate:2

[Events]
//Background and Video events
0,0,"girl.jpg",0,0
//Break Periods
2,197823,205728
//Storyboard Layer 0 (Background)
//Storyboard Layer 1 (Fail)
//Storyboard Layer 2 (Pass)
//Storyboard Layer 3 (Foreground)
//Storyboard Sound Samples

[TimingPoints]
1147,310.880829015544,4,2,2,50,1,0
1147,-166.666666666667,4,2,2,50,0,0
6121,-133.333333333333,4,2,2,50,0,0
10317,-133.333333333333,4,2,1,65,0,0
11095,-111.111111111111,4,2,1,65,0,0
20887,-133.333333333333,4,2,1,60,0,0
35810,-111.111111111111,4,2,1,60,0,0
37209,-111.111111111111,4,2,1,70,0,0
38297,-111.111111111111,4,2,1,75,0,0
48400,-166.666666666667,4,2,1,65,0,0
53374,-111.111111111111,4,2,1,65,0,0
58349,-100,4,2,1,85,0,1
78245,-111.111111111111,4,2,1,70,0,0
86794,-200,4,2,1,70,0,0
88193,-166.666666666667,4,2,2,50,0,0
109799,-166.666666666667,4,2,1,65,0,0
110421,-133.333333333333,4,2,1,65,0,0
122856,-111.111111111111,4,2,1,65,0,0
131716,-111.111111111111,4,2,1,70,0,0
132805,-111.111111111111,4,2,1,75,0,0
142908,-166.666666666667,4,2,1,65,0,0
147882,-111.111111111111,4,2,1,65,0,0
152856,-100,4,2,1,85,0,1
177727,-100,4,2,1,75,0,0
206328,-133.333333333333,4,2,1,60,0,0
227468,-200,4,2,2,50,0,0
236639,-200,4,2,1,50,0,0
237416,-133.333333333333,4,2,1,70,0,0
247364,-133.333333333333,4,2,1,85,0,1
247442,-133.333333333333,4,2,1,70,0,0
249851,-100,4,2,1,85,0,1
267260,-100,4,2,1,75,0,0
280784,-100,4,2,1,80,0,0

[Colours]
Combo1 : 255,170,85
Combo2 : 128,255,128
Combo3 : 128,128,255
Combo4 : 255,128,128

[HitObjects]
196,280,1147,6,0,L|200:168,1,107.999996704102,4|2,0:0|0:0,0:0:0:0:
292,48,1613,2,0,L|300:172,1,107.999996704102,2|0,0:0|0:0,0:0:0:0:
360,292,2079,2,0,L|368:224,1,53.9999983520508,2|2,0:0|0:0,0:0:0:0:
248,352,2390,6,0,P|216:356|136:340,1,107.999996704102,2|2,0:0|0:0,0:0:0:0:
52,204,3012,1,0,1:0:0:0:
176,176,3167,1,2,0:0:0:0:
56,96,3323,2,0,L|40:36,1,53.9999983520508,2|0,0:0|0:0,0:0:0:0:
222,54,3634,6,0,P|222:114|206:162,1,107.999996704102,4|0,0:0|0:0,0:0:0:0:
76,284,4100,2,0,P|144:272|208:276,1,107.999996704102,2|0,0:0|0:0,0:0:0:0:
320,344,4566,1,2,0:0:0:0:
320,344,4722,2,0,P|292:300|300:232,1,107.999996704102,2|0,0:0|0:0,0:0:0:0:
432,196,5188,2,0,P|428:232|412:268,1,53.9999983520508,2|0,0:0|0:0,0:0:0:0:
308,104,5499,2,0,P|312:128|328:180,1,53.9999983520508,0|0,1:0|0:0,0:0:0:0:
236,44,5810,2,0,P|206:44|160:48,1,53.9999983520508,2|0,0:0|0:0,0:0:0:0:
52,196,6121,6,0,B|88:204|88:204|196:192,1,135.000005149842,4|2,0:0|0:0,0:0:0:0:
328,88,6587,1,0,0:0:0:0:
328,88,6742,2,0,L|308:236,1,135.000005149842,2|0,0:0|0:0,0:0:0:0:
192,368,7209,6,0,P|180:332|164:300,1,67.5000025749208,4|0,0:0|0:0,0:0:0:0:
104,152,7520,2,0,P|120:124|140:80,1,67.5000025749208,2|0,0:0|0:0,0:0:0:0:
84,268,7830,2,0,L|218:264,1,135.000005149842,2|2,0:0|0:0,0:0:0:0:
348,156,8297,1,2,0:0:0:0:
348,156,8452,1,2,0:0:0:0:
236,300,8608,6,0,P|236:336|244:380,1,67.5000025749208,4|0,0:0|0:0,0:0:0:0:
384,260,8919,2,0,P|376:220|368:184,1,67.5000025749208,2|2,0:0|0:0,0:0:0:0:
208,108,9229,2,0,P|272:116|340:92,1,135.000005149842,2|0,0:0|0:0,0:0:0:0:
128,52,9696,6,0,P|119:91|115:143,1,67.5000025749208,4|0,0:0|0:0,0:0:0:0:
152,288,10007,2,0,L|236:280,1,67.5000025749208,2|0,0:0|0:0,0:0:0:0:
364,208,10317,1,8,0:0:0:0:
380,188,10395,1,8,0:0:0:0:
396,172,10473,1,8,0:0:0:0:
248,128,10628,1,8,0:0:0:0:
316,288,10784,1,8,0:0:0:0:
344,88,10939,1,8,0:0:0:0:
219,281,11095,6,0,L|224:368,1,80.9999975280763,4|0,0:0|0:0,0:0:0:0:
292,188,11406,2,0,L|211:184,1,80.9999975280763,2|2,0:0|0:2,0:0:0:0:
48,100,11716,1,8,0:0:0:0:
208,28,11872,1,2,0:0:0:0:
208,28,11950,1,2,0:0:0:0:
208,28,12027,1,2,0:0:0:0:
108,196,12183,6,0,P|91:241|76:360,1,161.999995056153,4|2,0:0|0:0,0:0:0:0:
281,239,12649,2,0,P|265:203|237:159,1,80.9999975280763,2|0,0:0|0:0,0:0:0:0:
72,88,12960,1,8,0:0:0:0:
184,228,13115,1,2,0:0:0:0:
328,104,13271,1,2,0:0:0:0:
160,140,13426,1,2,0:0:0:0:
344,208,13582,6,0,L|520:204,1,161.999995056153,4|2,0:0|0:0,0:0:0:0:
360,312,14048,1,0,0:0:0:0:
220,192,14203,2,0,P|208:156|200:88,1,80.9999975280763,8|2,0:0|0:0,0:0:0:0:
272,288,14514,2,0,P|260:324|228:380,1,80.9999975280763,2|8,0:0|0:0,0:0:0:0:
80,248,14825,6,0,L|72:160,1,80.9999975280763,2|0,0:0|0:0,0:0:0:0:
36,8,15136,1,2,0:0:0:0:
160,108,15292,1,2,0:0:0:0:
160,108,15369,1,2,0:0:0:0:
160,108,15447,1,8,0:0:0:0:
312,56,15602,1,8,0:0:0:0:
140,20,15758,1,8,0:0:0:0:
328,12,15913,1,8,0:0:0:0:
380,204,16069,6,0,P|304:200|252:128,1,161.999995056153,4|2,0:0|0:0,0:0:0:0:
416,56,16535,1,2,0:0:0:0:
416,56,16691,2,0,L|424:140,1,80.9999975280763,8|2,0:0|0:0,0:0:0:0:
423,136,16924,1,2,0:0:0:0:
423,136,17001,1,2,0:0:0:0:
464,288,17157,1,2,0:0:0:0:
292,244,17312,6,0,P|260:236|176:228,1,80.9999975280763,2|2,0:0|0:0,0:0:0:0:
52,144,17623,2,0,P|92:132|144:120,1,80.9999975280763,2|0,0:0|0:0,0:0:0:0:
312,96,17934,1,8,0:0:0:0:
212,229,18090,1,2,0:0:0:0:
136,72,18245,1,2,0:0:0:0:
136,72,18400,1,2,0:0:0:0:
288,184,18556,6,0,L|384:176,1,80.9999975280763,4|0,0:0|0:0,0:0:0:0:
216,124,18867,1,2,0:0:0:0:
268,288,19022,2,0,L|364:296,1,80.9999975280763,4|0,0:0|0:0,0:0:0:0:
188,249,19333,1,2,0:0:0:0:
188,249,19488,1,2,0:0:0:0:
64,380,19644,6,0,P|56:300|64:204,1,161.999995056153,4|2,0:0|0:0,0:0:0:0:
144,60,20110,2,0,P|160:92|176:152,1,80.9999975280763,8|2,0:0|0:0,0:0:0:0:
173,135,20343,1,2,0:0:0:0:
173,135,20421,1,8,0:0:0:0:
48,52,20577,1,8,0:0:0:0:
228,28,20732,1,8,0:0:0:0:
286,209,20887,6,0,L|152:220,1,135.000005149842,4|0,0:0|0:0,0:0:0:0:
252,332,21354,2,0,P|288:320|336:312,1,67.5000025749208,2|0,0:0|0:0,0:0:0:0:
436,240,21665,2,0,L|432:152,1,67.5000025749208,8|0,0:0|0:0,0:0:0:0:
340,48,21976,2,0,L|332:140,1,67.5000025749208,2|0,0:0|0:0,0:0:0:0:
256,256,22286,6,0,L|112:256,1,135.000005149842,2|2,0:0|0:0,0:0:0:0:
40,136,22753,1,2,0:0:0:0:
212,88,22908,2,0,P|208:128|200:168,1,67.5000025749208,8|2,0:0|0:0,0:0:0:0:
132,32,23219,1,2,0:0:0:0:
304,156,23374,6,0,P|372:148|428:96,1,135.000005149842,4|0,0:0|0:0,0:0:0:0:
468,252,23841,2,0,L|460:332,1,67.5000025749208,2|0,0:0|0:0,0:0:0:0:
312,248,24152,2,0,L|300:168,1,67.5000025749208,8|0,0:0|0:0,0:0:0:0:
168,268,24463,2,0,P|160:300|152:352,1,67.5000025749208,2|0,0:0|0:0,0:0:0:0:
316,368,24773,5,2,0:0:0:0:
200,248,24929,2,0,L|125:246,1,67.5000025749208,2|0,0:0|0:0,0:0:0:0:
56,128,25240,1,2,0:0:0:0:
232,104,25395,1,8,0:0:0:0:
132,246,25551,1,8,0:0:0:0:
144,80,25706,1,2,0:0:0:0:
288,184,25862,6,0,L|424:192,1,135.000005149842,4|0,0:0|0:0,0:0:0:0:
240,264,26328,2,0,L|316:288,1,67.5000025749208,2|0,0:0|0:0,0:0:0:0:
136,352,26639,2,0,L|69:361,1,67.5000025749208,8|0,0:0|0:0,0:0:0:0:
152,224,26950,2,0,L|80:208,1,67.5000025749208,2|0,0:0|0:0,0:0:0:0:
236,148,27260,6,0,L|248:64,1,67.5000025749208,2|0,0:0|0:0,0:0:0:0:
356,204,27571,2,0,L|348:112,1,67.5000025749208,2|0,0:0|0:0,0:0:0:0:
240,264,27882,2,0,P|231:299|224:352,1,67.5000025749208,8|0,0:0|0:0,0:0:0:0:
372,296,28193,1,8,0:0:0:0:
240,176,28349,6,0,L|80:168,1,135.000005149842,4|0,0:0|0:0,0:0:0:0:
180,24,28815,2,0,P|212:28|264:52,1,67.5000025749208,2|0,0:0|0:0,0:0:0:0:
380,156,29126,1,8,0:0:0:0:
248,128,29281,1,8,0:0:0:0:
404,60,29437,1,2,0:0:0:0:
300,204,29592,6,0,L|312:352,1,135.000005149842,4|2,0:0|0:0,0:0:0:0:
440,232,30058,2,0,P|448:188|452:148,1,67.5000025749208,2|2,0:0|0:0,0:0:0:0:
450,165,30292,1,2,0:0:0:0:
450,165,30369,1,8,0:0:0:0:
320,72,30525,1,8,0:0:0:0:
376,188,30680,1,8,0:0:0:0:
452,40,30836,1,8,0:0:0:0:
288,164,30991,6,0,B|252:168|252:168|128:140,1,135.000005149842,4|2,0:0|0:0,0:0:0:0:
155,146,31613,1,8,0:0:0:0:
155,146,31768,2,0,L|156:240,1,67.5000025749208,2|0,0:0|0:0,0:0:0:0:
264,348,32079,6,0,P|296:292|296:208,1,135.000005149842,4|0,0:0|0:0,0:0:0:0:
232,96,32545,1,2,0:0:0:0:
232,96,32856,1,8,0:0:0:0:
232,96,33012,2,0,L|312:92,1,67.5000025749208,2|2,0:0|0:0,0:0:0:0:
472,200,33323,6,0,L|337:186,1,135.000005149842,4|0,0:0|0:0,0:0:0:0:
188,168,33789,1,2,0:0:0:0:
268,276,33944,1,2,0:0:0:0:
360,168,34100,2,0,P|368:132|376:84,1,67.5000025749208,8|0,0:0|0:0,0:0:0:0:
260,28,34411,1,2,0:0:0:0:
144,136,34566,6,0,P|152:216|172:288,1,135.000005149842,4|2,0:0|0:0,0:0:0:0:
336,352,35033,2,0,P|352:316|364:264,1,67.5000025749208,2|0,0:0|0:0,0:0:0:0:
256,160,35343,1,8,0:0:0:0:
340,276,35499,1,8,0:0:0:0:
448,172,35654,1,2,0:0:0:0:
256,256,35810,6,0,P|180:216|172:136,1,161.999995056153,4|0,0:0|0:0,0:0:0:0:
344,120,36276,2,0,P|344:160|328:208,1,80.9999975280763,2|0,0:0|0:0,0:0:0:0:
268,32,36587,2,0,P|296:20|348:8,1,80.9999975280763,2|0,0:0|0:0,0:0:0:0:
500,100,36898,2,0,L|420:88,1,80.9999975280763,2|0,0:0|0:0,0:0:0:0:
232,120,37209,6,0,L|224:220,1,80.9999975280763,2|0,0:0|0:0,0:0:0:0:
332,344,37520,2,0,L|340:252,1,80.9999975280763,2|0,0:0|0:0,0:0:0:0:
392,76,37830,1,8,0:0:0:0:
472,232,37986,1,8,0:0:0:0:
320,136,38141,1,8,0:0:0:0:
244,304,38297,6,0,B|204:312|204:312|180:300|180:300|134:319|74:299,1,161.999995056153,4|0,0:0|0:0,0:0:0:0:
16,168,38763,2,0,P|55:157|103:149,1,80.9999975280763,8|0,0:0|0:0,0:0:0:0:
256,204,39074,1,2,0:0:0:0:
168,80,39229,1,2,0:0:0:0:
328,32,39385,2,0,P|372:40|432:60,1,80.9999975280763,8|0,0:0|0:0,0:0:0:0:
472,208,39696,5,2,0:0:0:0:
320,136,39851,1,2,0:0:0:0:
488,72,40007,1,8,0:0:0:0:
372,212,40162,2,0,P|356:256|344:300,1,80.9999975280763,2|0,0:0|0:0,0:0:0:0:
184,352,40473,2,0,P|172:308|156:260,1,80.9999975280763,2|8,0:0|0:0,0:0:0:0:
0,180,40784,6,0,L|168:162,1,161.999995056153,4|2,0:0|0:0,0:0:0:0:
320,88,41250,2,0,L|240:76,1,80.9999975280763,8|2,0:0|0:0,0:0:0:0:
264,240,41561,1,2,0:0:0:0:
384,136,41716,1,2,0:0:0:0:
232,28,41872,1,8,0:0:0:0:
232,28,42027,6,0,L|224:116,1,80.9999975280763,2|0,0:0|0:0,0:0:0:0:
144,252,42338,2,0,L|156:344,1,80.9999975280763,2|8,0:0|0:0,0:0:0:0:
332,360,42649,2,0,P|360:284|356:196,1,161.999995056153,2|2,0:0|0:0,0:0:0:0:
264,64,43115,1,8,0:0:0:0:
264,64,43271,1,2,0:0:0:0:
176,224,43426,6,0,L|4:212,1,161.999995056153,4|8,0:0|0:0,0:0:0:0:
152,124,43893,2,0,P|205:120|248:120,1,80.9999975280763,2|0,0:0|0:0,0:0:0:0:
400,152,44203,1,2,0:0:0:0:
252,252,44359,1,8,0:0:0:0:
404,360,44514,6,0,P|416:288|420:188,1,161.999995056153,2|2,0:0|0:0,0:0:0:0:
340,48,44981,2,0,P|328:100|332:145,1,80.9999975280763,8|0,0:0|0:0,0:0:0:0:
224,20,45292,2,0,L|140:32,1,80.9999975280763,2|2,0:0|0:0,0:0:0:0:
36,152,45602,1,8,0:0:0:0:
204,184,45758,1,2,0:0:0:0:
46,71,45913,6,0,L|34:163,1,80.9999975280763,4|0,0:0|0:0,0:0:0:0:
112,300,46224,2,0,P|152:312|204:308,1,80.9999975280763,8|0,0:0|0:0,0:0:0:0:
352,256,46535,1,2,0:0:0:0:
204,184,46691,1,2,0:0:0:0:
288,332,46846,1,8,0:0:0:0:
432,224,47001,6,0,B|424:108|424:108|400:64,1,161.999995056153,4|2,0:0|0:0,0:0:0:0:
232,16,47468,2,0,B|220:52|220:52|216:120,1,80.9999975280763,8|2,0:0|0:0,0:0:0:0:
264,264,47779,1,8,0:0:0:0:
296,164,47934,1,2,0:0:0:0:
217,94,48090,1,8,0:0:0:0:
128,140,48245,1,2,0:0:0:0:
264,264,48400,6,0,L|375:250,1,107.999996704102,4|0,0:0|0:0,0:0:0:0:
160,192,49022,2,0,L|236:180,1,53.9999983520508,8|2,0:0|0:0,0:0:0:0:
213,183,49255,1,2,0:0:0:0:
213,183,49333,1,2,0:0:0:0:
288,56,49488,6,0,P|292:108|292:163,1,107.999996704102,4|8,0:0|0:0,0:0:0:0:
372,28,49955,2,0,P|380:64|384:104,1,53.9999983520508,2|0,0:0|0:0,0:0:0:0:
360,240,50266,2,0,P|344:272|324:292,1,53.9999983520508,8|0,0:0|0:0,0:0:0:0:
188,344,50577,1,2,0:0:0:0:
188,344,50732,1,8,0:0:0:0:
132,176,50887,6,0,P|116:228|100:296,1,107.999996704102,4|0,0:0|0:0,0:0:0:0:
256,244,51354,1,2,0:0:0:0:
108,160,51509,1,8,0:0:0:0:
212,128,51665,1,8,0:0:0:0:
320,112,51820,1,2,0:0:0:0:
372,280,51976,6,0,L|380:168,1,107.999996704102,4|8,0:0|0:0,0:0:0:0:
464,56,52442,2,0,P|460:84|440:128,1,53.9999983520508,2|2,0:0|0:0,0:0:0:0:
451,108,52675,1,2,0:0:0:0:
451,108,52753,1,8,0:0:0:0:
332,24,52908,1,8,0:0:0:0:
264,176,53064,1,8,0:0:0:0:
424,120,53219,1,8,0:0:0:0:
224,64,53374,6,0,L|24:52,1,161.999995056153,4|2,0:0|0:0,0:0:0:0:
176,156,53841,1,2,0:0:0:0:
176,156,53996,2,0,P|184:200|192:252,1,80.9999975280763,8|0,0:0|0:0,0:0:0:0:
52,144,54307,1,2,0:0:0:0:
112,312,54463,6,0,P|200:320|280:320,1,161.999995056153,4|2,0:0|0:0,0:0:0:0:
436,224,54929,2,0,P|396:216|352:212,1,80.9999975280763,8|0,0:0|0:0,0:0:0:0:
176,240,55240,1,8,0:0:0:0:
336,192,55395,1,2,0:0:0:0:
196,96,55551,1,2,0:0:0:0:
272,256,55706,6,0,L|263:336,1,80.9999975280763,4|0,0:0|0:0,0:0:0:0:
92,296,56017,1,2,0:0:0:0:
92,296,56172,1,2,0:0:0:0:
240,168,56328,2,0,L|332:160,1,80.9999975280763,8|2,0:0|0:0,0:0:0:0:
448,264,56639,1,2,0:0:0:0:
400,88,56794,1,8,0:0:0:0:
328,256,56950,1,2,0:0:0:0:
504,104,57105,1,4,0:0:0:0:
504,104,57727,5,0,0:0:0:0:
312,72,58038,1,0,0:0:0:0:
104,40,58349,6,0,P|105:128|108:232,1,180,4|8,0:0|0:0,0:0:0:0:
222,81,58815,2,0,P|262:73|330:73,1,90,0|2,0:0|0:0,0:0:0:0:
456,228,59126,1,2,0:0:0:0:
280,168,59281,1,8,0:0:0:0:
448,72,59437,6,0,P|440:160|432:252,1,180,2|2,0:0|0:0,0:0:0:0:
272,344,59903,2,0,L|172:332,1,90,8|0,0:0|0:0,0:0:0:0:
64,208,60214,2,0,P|53:166|48:100,1,90,2|2,0:0|0:0,0:0:0:0:
232,56,60525,2,0,P|232:100|220:156,1,90,8|2,0:0|0:0,0:0:0:0:
172,208,60758,1,2,0:0:0:0:
172,208,60836,6,0,P|264:164|336:188,1,180,4|8,0:0|0:0,0:0:0:0:
400,352,61302,2,0,L|412:236,1,90,2|0,0:0|0:0,0:0:0:0:
432,80,61613,1,2,0:0:0:0:
496,248,61768,1,8,0:0:0:0:
308,140,61924,6,0,B|264:123|264:123|120:131,1,180,2|2,0:0|0:0,0:0:0:0:
272,224,62390,2,0,B|232:240|232:240|176:292,1,90,8|0,0:0|0:0,0:0:0:0:
340,352,62701,1,2,0:0:0:0:
340,352,62856,1,2,0:0:0:0:
448,208,63012,2,0,P|453:159|457:111,1,90,8|2,0:0|0:0,0:0:0:0:
279,44,63323,6,0,P|271:153|272:249,1,180,4|8,0:0|0:0,0:0:0:0:
448,208,63789,1,2,0:0:0:0:
280,320,63944,2,0,P|236:316|184:308,1,90,2|0,0:0|0:0,0:0:0:0:
64,200,64255,1,8,0:0:0:0:
244,120,64411,6,0,P|240:168|224:232,1,90,4|0,0:0|0:0,0:0:0:0:
100,100,64722,2,0,P|93:54|92:4,1,90,2|8,0:0|0:0,0:0:0:0:
244,120,65033,2,0,P|336:140|396:64,1,180,2|2,0:0|0:0,0:0:0:0:
231,208,65499,2,0,L|223:308,1,90,8|2,0:0|0:0,0:0:0:0:
416,368,65810,6,0,L|412:256,1,90,4|0,0:0|0:0,0:0:0:0:
392,84,66121,1,8,0:0:0:0:
488,220,66276,1,2,0:0:0:0:
300,176,66431,2,0,L|188:164,1,90,2|0,0:0|0:0,0:0:0:0:
48,104,66742,1,8,0:0:0:0:
276,52,66898,5,4,0:0:0:0:
288,68,67209,1,4,0:0:0:0:
292,88,67520,5,8,0:0:0:0:
288,120,67597,1,8,0:0:0:0:
284,152,67675,1,8,0:0:0:0:
164,256,67830,1,2,0:0:0:0:
328,228,67986,1,8,0:0:0:0:
152,168,68141,1,8,0:0:0:0:
288,312,68297,6,0,P|376:304|416:212,1,180,4|8,0:0|0:0,0:0:0:0:
264,68,68763,2,0,P|257:115|253:167,1,90,2|0,0:0|0:0,0:0:0:0:
408,76,69074,1,2,0:0:0:0:
232,36,69229,1,8,0:0:0:0:
328,228,69385,6,0,L|148:243,1,180,2|2,0:0|0:0,0:0:0:0:
56,80,69851,2,0,P|96:112|136:168,1,90,8|0,0:0|0:0,0:0:0:0:
72,328,70162,1,2,0:0:0:0:
72,328,70317,1,2,0:0:0:0:
236,252,70473,2,0,L|244:140,1,90,8|0,0:0|0:0,0:0:0:0:
388,20,70784,6,0,P|392:112|396:216,1,180,4|8,0:0|0:0,0:0:0:0:
280,340,71250,2,0,L|172:328,1,90,2|0,0:0|0:0,0:0:0:0:
64,216,71561,1,2,0:0:0:0:
242,162,71716,1,8,0:0:0:0:
96,312,71872,6,0,P|99:232|108:132,1,180,4|2,0:0|0:0,0:0:0:0:
269,247,72338,2,0,P|257:207|237:147,1,90,8|0,0:0|0:0,0:0:0:0:
128,24,72649,1,2,0:0:0:0:
128,24,72805,1,2,0:0:0:0:
296,88,72960,2,0,L|396:72,1,90,8|0,0:0|0:0,0:0:0:0:
504,228,73271,6,0,B|424:264|424:204|324:228,1,180,4|10,0:0|0:0,0:0:0:0:
212,352,73737,1,2,0:0:0:0:
72,240,73893,2,0,L|60:124,1,90,2|0,0:0|0:0,0:0:0:0:
180,36,74203,1,8,0:0:0:0:
312,176,74359,6,0,P|224:200|144:136,1,180,4|2,0:0|0:0,0:0:0:0:
320,280,74825,2,0,L|316:384,1,90,8|2,0:0|0:0,0:0:0:0:
160,244,75136,2,0,L|153:148,1,90,2|0,0:0|0:0,0:0:0:0:
288,40,75447,2,0,P|328:32|392:28,1,90,8|0,0:0|0:0,0:0:0:0:
480,196,75758,5,4,0:0:0:0:
320,280,75913,2,0,P|316:232|308:184,1,90,2|8,0:0|0:0,0:0:0:0:
184,72,76224,1,2,0:0:0:0:
184,72,76302,1,2,0:0:0:0:
184,72,76380,2,0,P|160:120|144:160,1,90,2|0,0:0|0:0,0:0:0:0:
92,320,76691,1,8,0:0:0:0:
320,280,76846,5,4,0:0:0:0:
320,280,77157,2,0,L|220:288,1,90,4|8,0:0|0:0,0:0:0:0:
68,192,77468,1,2,0:0:0:0:
64,160,77545,1,2,0:0:0:0:
60,128,77623,1,2,0:0:0:0:
200,40,77779,1,2,0:0:0:0:
152,232,77934,1,8,0:0:0:0:
80,104,78090,1,2,0:0:0:0:
300,120,78245,6,0,P|384:131|496:152,1,161.999995056153,4|2,0:0|0:0,0:0:0:0:
224,192,78867,2,0,P|139:203|28:224,1,161.999995056153,8|2,0:0|0:0,0:0:0:0:
188,356,79333,1,0,0:0:0:0:
188,356,79488,6,0,P|208:320|224:268,1,80.9999975280763,2|8,0:0|0:0,0:0:0:0:
292,104,79799,2,0,P|304:152|328:196,1,80.9999975280763,2|0,0:0|0:0,0:0:0:0:
444,312,80110,1,8,0:0:0:0:
476,152,80266,1,2,0:0:0:0:
476,152,80343,1,2,0:0:0:0:
476,152,80421,1,2,0:0:0:0:
348,276,80577,1,8,0:0:0:0:
196,184,80732,6,0,L|88:176,1,80.9999975280763,4|8,0:0|0:0,0:0:0:0:
240,56,81043,2,0,P|312:60|360:144,1,161.999995056153,2|8,0:0|0:0,0:0:0:0:
244,284,81509,1,8,0:0:0:0:
272,136,81665,1,2,0:0:0:0:
336,340,81820,6,0,L|160:320,1,161.999995056153,4|8,0:0|0:0,0:0:0:0:
52,212,82286,1,2,0:0:0:0:
212,168,82442,1,2,0:0:0:0:
216,140,82520,1,2,0:0:0:0:
220,112,82597,1,2,0:0:0:0:
80,64,82753,1,2,0:0:0:0:
144,228,82908,1,2,0:0:0:0:
292,144,83064,1,2,0:0:0:0:
148,16,83219,6,0,B|128:60|128:60|124:196,1,161.999995056153,4|8,0:0|0:0,0:0:0:0:
320,244,83841,2,0,L|316:140,1,80.9999975280763,2|0,0:0|0:0,0:0:0:0:
208,76,84152,1,8,0:0:0:0:
84,208,84307,6,0,L|260:200,1,161.999995056153,4|0,0:0|0:0,0:0:0:0:
384,88,84773,2,0,P|344:76|304:72,1,80.9999975280763,8|2,0:0|0:0,0:0:0:0:
232,48,85007,1,2,0:0:0:0:
232,48,85084,2,0,P|216:88|200:144,1,80.9999975280763,2|2,0:0|0:0,0:0:0:0:
176,296,85395,1,8,0:0:0:0:
332,248,85551,1,0,0:0:0:0:
204,124,85706,6,0,L|104:112,1,80.9999975280763,8|2,0:0|0:0,0:0:0:0:
44,248,86017,1,2,0:0:0:0:
192,332,86172,2,0,L|295:319,1,80.9999975280763,8|2,0:0|0:0,0:0:0:0:
416,260,86483,1,2,0:0:0:0:
280,156,86639,1,2,0:0:0:0:
352,316,86794,6,0,B|416:272|500:288|500:288|452:224|436:140,1,315,4|0,0:0|0:0,0:0:0:0:
496,8,88193,6,0,P|488:40|476:76,1,53.9999983520508,4|0,0:0|0:0,0:0:0:0:
348,168,88504,2,0,P|352:205|368:244,1,53.9999983520508,2|0,0:0|0:0,0:0:0:0:
248,80,88815,2,0,P|220:72|180:68,1,53.9999983520508,2|0,0:0|0:0,0:0:0:0:
60,136,89126,1,2,0:0:0:0:
60,136,89281,1,2,0:0:0:0:
160,272,89437,6,0,L|169:202,1,53.9999983520508,2|0,0:0|0:0,0:0:0:0:
288,100,89748,2,0,L|284:176,1,53.9999983520508,2|0,0:0|0:0,0:0:0:0:
148,60,90058,2,0,L|141:6,1,53.9999983520508,2|0,0:0|0:0,0:0:0:0:
204,148,90369,1,2,0:0:0:0:
204,148,90525,1,2,0:0:0:0:
344,52,90680,6,0,P|397:50|472:56,1,107.999996704102,2|2,0:0|0:0,0:0:0:0:
472,200,91147,1,0,0:0:0:0:
472,200,91302,2,0,P|418:199|364:196,1,107.999996704102,2|2,0:0|0:0,0:0:0:0:
232,112,91768,1,2,0:0:0:0:
232,112,91924,6,0,P|225:140|220:184,1,53.9999983520508,2|0,0:0|0:0,0:0:0:0:
264,308,92235,2,0,L|340:288,1,53.9999983520508,2|0,0:0|0:0,0:0:0:0:
396,156,92545,1,2,0:0:0:0:
256,208,92701,1,2,0:0:0:0:
404,272,92856,2,0,L|457:275,1,53.9999983520508,2|0,0:0|0:0,0:0:0:0:
296,340,93167,6,0,P|244:336|172:324,1,107.999996704102,2|2,0:0|0:0,0:0:0:0:
64,220,93789,2,0,P|124:204|184:196,1,107.999996704102,2|2,0:0|0:0,0:0:0:0:
320,244,94255,1,2,0:0:0:0:
320,244,94411,6,0,P|284:196|272:136,1,107.999996704102,2|2,0:0|0:0,0:0:0:0:
372,32,94877,1,2,0:0:0:0:
440,184,95033,2,0,L|432:248,1,53.9999983520508,2|0,0:0|0:0,0:0:0:0:
324,344,95343,2,0,L|256:332,1,53.9999983520508,2|0,0:0|0:0,0:0:0:0:
112,264,95654,6,0,L|232:252,1,107.999996704102,2|2,0:0|0:0,0:0:0:0:
328,144,96121,1,2,0:0:0:0:
328,144,96276,2,0,P|316:168|304:212,1,53.9999983520508,2|0,0:0|0:0,0:0:0:0:
420,312,96587,1,2,0:0:0:0:
420,312,96742,1,2,0:0:0:0:
307,193,96898,6,0,L|239:185,1,53.9999983520508,2|0,0:0|0:0,0:0:0:0:
148,96,97209,2,0,P|160:62|172:36,1,53.9999983520508,2|0,0:0|0:0,0:0:0:0:
216,184,97520,2,0,P|236:164|272:140,1,53.9999983520508,2|0,0:0|0:0,0:0:0:0:
240,296,97830,2,0,L|276:292|312:288,1,53.9999983520508,2|0,0:0|0:0,0:0:0:0:
452,312,98141,6,0,P|404:300|364:244,1,107.999996704102,4|2,0:0|0:0,0:0:0:0:
444,120,98763,2,0,L|448:244,1,107.999996704102,2|2,0:0|0:0,0:0:0:0:
364,104,99229,1,2,0:0:0:0:
248,212,99385,6,0,L|116:196,1,107.999996704102,2|2,0:0|0:0,0:0:0:0:
40,112,99851,1,2,0:0:0:0:
204,68,100007,2,0,L|188:144,1,53.9999983520508,2|0,0:0|0:0,0:0:0:0:
112,240,100317,2,0,L|121:316,1,53.9999983520508,2|0,0:0|0:0,0:0:0:0:
252,376,100628,6,0,P|264:336|272:268,1,107.999996704102,4|2,0:0|0:0,0:0:0:0:
152,176,101095,1,2,0:0:0:0:
152,176,101250,2,0,L|212:172,1,53.9999983520508,2|0,0:0|0:0,0:0:0:0:
352,132,101561,1,2,0:0:0:0:
216,72,101716,1,2,0:0:0:0:
304,216,101872,6,0,P|312:264|312:340,1,107.999996704102,2|2,0:0|0:0,0:0:0:0:
176,252,102338,2,0,P|208:260|244:272,1,53.9999983520508,2|0,0:0|0:0,0:0:0:0:
400,300,102649,1,2,0:0:0:0:
400,300,102805,2,0,L|416:236,1,53.9999983520508,2|2,0:0|0:0,0:0:0:0:
448,72,103115,6,0,P|464:120|476:192,1,107.999996704102,4|2,0:0|0:0,0:0:0:0:
360,64,103737,2,0,L|240:68,1,107.999996704102,2|2,0:0|0:0,0:0:0:0:
112,36,104203,1,2,0:0:0:0:
112,36,104359,6,0,P|72:88|52:132,1,107.999996704102,2|2,0:0|0:0,0:0:0:0:
160,240,104825,2,0,P|140:208|116:184,1,53.9999983520508,2|0,0:0|0:0,0:0:0:0:
72,340,105136,1,2,0:0:0:0:
236,300,105292,1,2,0:0:0:0:
129,195,105447,1,2,0:0:0:0:
184,360,105602,6,0,L|312:352,1,107.999996704102,4|2,0:0|0:0,0:0:0:0:
400,232,106224,2,0,L|280:224,1,107.999996704102,2|2,0:0|0:0,0:0:0:0:
140,280,106691,6,0,P|152:220|160:148,1,107.999996704102,4|2,0:0|0:0,0:0:0:0:
80,52,107157,2,0,L|92:128,1,53.9999983520508,2|0,0:0|0:0,0:0:0:0:
244,140,107468,2,0,L|253:82,1,53.9999983520508,2|0,0:0|0:0,0:0:0:0:
352,192,107779,2,0,L|343:138,1,53.9999983520508,2|0,0:0|0:0,0:0:0:0:
472,48,108090,6,0,B|484:88|484:88|480:156,1,107.999996704102,4|2,0:0|0:0,0:0:0:0:
404,296,108711,2,0,P|352:288|288:284,1,107.999996704102,2|2,0:0|0:0,0:0:0:0:
148,324,109178,1,2,0:0:0:0:
148,324,109333,6,0,P|175:332|212:336,1,53.9999983520508,2|0,0:0|0:0,0:0:0:0:
304,260,109644,1,2,0:0:0:0:
160,180,109799,1,8,0:0:0:0:
140,180,109877,1,8,0:0:0:0:
120,180,109955,1,8,0:0:0:0:
196,256,110110,1,8,0:0:0:0:
272,140,110266,1,8,0:0:0:0:
153,45,110421,6,0,L|161:201,1,135.000005149842,4|0,0:0|0:0,0:0:0:0:
269,72,110887,2,0,P|269:108|273:152,1,67.5000025749208,2|0,0:0|0:0,0:0:0:0:
372,248,111198,2,0,L|456:240,1,67.5000025749208,8|2,0:0|0:0,0:0:0:0:
439,241,111431,1,2,0:0:0:0:
439,241,111509,1,2,0:0:0:0:
368,136,111665,1,2,0:0:0:0:
272,252,111820,6,0,L|124:244,1,135.000005149842,4|2,0:0|0:0,0:0:0:0:
240,156,112286,2,0,P|248:120|248:72,1,67.5000025749208,2|8,0:0|0:0,0:0:0:0:
112,32,112597,1,2,0:0:0:0:
160,168,112753,1,2,0:0:0:0:
288,64,112908,6,0,L|428:60,1,135.000005149842,4|8,0:0|0:0,0:0:0:0:
500,208,113374,2,0,L|416:192,1,67.5000025749208,2|0,0:0|0:0,0:0:0:0:
264,176,113685,2,0,L|412:160,1,135.000005149842,8|2,0:0|0:0,0:0:0:0:
436,320,114152,1,2,0:0:0:0:
436,320,114307,6,0,P|368:300|332:228,1,135.000005149842,4|2,0:0|0:0,0:0:0:0:
360,88,114773,1,2,0:0:0:0:
476,228,114929,1,8,0:0:0:0:
304,168,115084,1,2,0:0:0:0:
468,120,115240,1,2,0:0:0:0:
334,248,115395,6,0,B|280:264|280:264|199:248,1,135.000005149842,4|8,0:0|0:0,0:0:0:0:
56,176,115862,2,0,B|88:160|88:160|144:152,1,67.5000025749208,2|0,0:0|0:0,0:0:0:0:
136,324,116172,2,0,B|120:288|120:288|115:231,1,67.5000025749208,8|0,0:0|0:0,0:0:0:0:
224,144,116483,1,2,0:0:0:0:
224,144,116639,1,2,0:0:0:0:
348,256,116794,6,0,P|275:262|196:252,1,135.000005149842,4|2,0:0|0:0,0:0:0:0:
320,168,117260,2,0,L|330:101,1,67.5000025749208,2|8,0:0|0:0,0:0:0:0:
460,32,117571,1,2,0:0:0:0:
316,88,117727,1,2,0:0:0:0:
452,124,117882,1,2,0:0:0:0:
312,8,118038,6,0,P|280:4|244:5,1,67.5000025749208,4|0,0:0|0:0,0:0:0:0:
148,120,118349,2,0,P|108:116|56:104,1,67.5000025749208,2|0,0:0|0:0,0:0:0:0:
148,248,118659,2,0,P|184:240|224:236,1,67.5000025749208,2|0,0:0|0:0,0:0:0:0:
360,208,118970,2,0,L|352:288,1,67.5000025749208,2|0,0:0|0:0,0:0:0:0:
208,384,119281,6,0,P|200:336|200:304,1,67.5000025749208,2|0,0:0|0:0,0:0:0:0:
284,188,119592,2,0,P|290:160|290:120,1,67.5000025749208,2|0,0:0|0:0,0:0:0:0:
128,76,119903,2,0,P|144:120|160:148,1,67.5000025749208,2|0,0:0|0:0,0:0:0:0:
280,36,120214,2,0,P|244:44|216:68,1,67.5000025749208,2|0,0:0|0:0,0:0:0:0:
308,212,120525,6,0,L|468:213,1,135.000005149842,4|2,0:0|0:0,0:0:0:0:
372,84,120991,1,0,0:0:0:0:
232,172,121146,2,0,L|224:248,1,67.5000025749208,2|0,0:0|0:0,0:0:0:0:
124,352,121457,2,0,L|112:272,1,67.5000025749208,2|0,0:0|0:0,0:0:0:0:
64,148,121768,5,4,0:0:0:0:
200,80,121924,1,8,0:0:0:0:
136,212,122079,1,8,0:0:0:0:
104,64,122235,1,8,0:0:0:0:
232,172,122390,2,0,L|292:176,1,33.7500012874604,8|0,0:0|0:0,0:0:0:0:
384,96,122545,2,0,L|332:88,1,33.7500012874604,8|0,0:0|0:0,0:0:0:0:
352,232,122701,2,0,L|356:198,1,33.7500012874604,8|0,0:0|0:0,0:0:0:0:
332,12,122856,6,0,L|335:173,1,161.999995056153,4|2,0:0|0:0,0:0:0:0:
248,336,123323,2,0,P|251:295|261:256,1,80.9999975280763,8|0,0:0|0:0,0:0:0:0:
428,224,123634,1,2,0:0:0:0:
428,224,123789,1,2,0:0:0:0:
261,256,123944,2,0,L|173:252,1,80.9999975280763,8|0,0:0|0:0,0:0:0:0:
60,144,124255,6,0,P|100:136|152:132,1,80.9999975280763,2|2,0:0|0:0,0:0:0:0:
308,172,124566,2,0,P|276:156|244:116,1,80.9999975280763,8|2,0:0|0:0,0:0:0:0:
384,32,124877,1,2,0:0:0:0:
488,132,125033,1,2,0:0:0:0:
308,172,125188,1,8,0:0:0:0:
464,56,125343,6,0,P|452:160|424:244,1,161.999995056153,4|2,0:0|0:0,0:0:0:0:
288,336,125810,2,0,P|280:288|280:236,1,80.9999975280763,8|0,0:0|0:0,0:0:0:0:
320,88,126121,1,2,0:0:0:0:
360,244,126276,1,2,0:0:0:0:
360,244,126431,1,8,0:0:0:0:
224,144,126587,6,0,L|112:136,1,80.9999975280763,2|2,0:0|0:0,0:0:0:0:
60,288,126898,2,0,L|172:280,1,80.9999975280763,0|8,0:0|0:0,0:0:0:0:
312,252,127209,2,0,P|248:236|280:300,1,161.999995056153,2|2,0:0|0:0,0:0:0:0:
440,308,127675,1,8,0:0:0:0:
488,136,127830,6,0,B|436:124|436:124|312:136,1,161.999995056153,4|2,0:0|0:0,0:0:0:0:
468,36,128297,2,0,L|368:24,1,80.9999975280763,8|0,0:0|0:0,0:0:0:0:
224,44,128608,1,2,0:0:0:0:
328,136,128763,1,2,0:0:0:0:
228,272,128919,2,0,L|232:172,1,80.9999975280763,8|2,0:0|0:0,0:0:0:0:
312,44,129229,5,4,0:0:0:0:
404,164,129385,1,2,0:0:0:0:
236,108,129540,2,0,L|138:103,1,80.9999975280763,8|0,0:0|0:0,0:0:0:0:
32,204,129851,1,2,0:0:0:0:
184,196,130007,1,2,0:0:0:0:
48,108,130162,1,8,0:0:0:0:
128,280,130317,6,0,P|204:288|272:216,1,161.999995056153,4|2,0:0|0:0,0:0:0:0:
196,72,130784,2,0,P|193:115|198:152,1,80.9999975280763,2|0,0:0|0:0,0:0:0:0:
368,216,131095,2,0,P|379:172|384:116,1,80.9999975280763,2|0,0:0|0:0,0:0:0:0:
336,312,131406,2,0,L|425:301,1,80.9999975280763,2|0,0:0|0:0,0:0:0:0:
480,136,131716,6,0,P|472:96|452:51,1,80.9999975280763,2|0,0:0|0:0,0:0:0:0:
288,120,132027,2,0,L|200:104,1,80.9999975280763,2|0,0:0|0:0,0:0:0:0:
40,44,132338,1,8,0:0:0:0:
196,24,132494,1,8,0:0:0:0:
72,144,132649,1,8,0:0:0:0:
244,216,132805,6,0,L|436:204,1,161.999995056153,4|2,0:0|0:0,0:0:0:0:
248,324,133271,2,0,L|152:312,1,80.9999975280763,8|0,0:0|0:0,0:0:0:0:
24,232,133582,1,2,0:0:0:0:
172,164,133737,1,2,0:0:0:0:
64,300,133893,2,0,P|56:256|56:204,1,80.9999975280763,8|0,0:0|0:0,0:0:0:0:
108,68,134203,5,2,0:0:0:0:
192,192,134359,1,2,0:0:0:0:
40,136,134514,1,8,0:0:0:0:
208,96,134670,2,0,L|285:71,1,80.9999975280763,2|0,0:0|0:0,0:0:0:0:
412,180,134981,2,0,P|352:168|312:152,1,80.9999975280763,2|8,0:0|0:0,0:0:0:0:
476,292,135292,6,0,L|276:280,1,161.999995056153,4|0,0:0|0:0,0:0:0:0:
160,232,135758,2,0,P|208:220|252:212,1,80.9999975280763,8|0,0:0|0:0,0:0:0:0:
412,180,136069,1,2,0:0:0:0:
314,282,136224,1,2,0:0:0:0:
248,132,136380,1,8,0:0:0:0:
418,99,136535,6,0,L|410:195,1,80.9999975280763,2|0,0:0|0:0,0:0:0:0:
308,332,136846,2,0,L|296:244,1,80.9999975280763,2|8,0:0|0:0,0:0:0:0:
280,56,137157,2,0,P|232:116|136:108,1,161.999995056153,2|2,0:0|0:0,0:0:0:0:
12,36,137623,1,8,0:0:0:0:
12,36,137779,1,2,0:0:0:0:
40,204,137934,6,0,L|120:194,1,80.9999975280763,4|0,0:0|0:0,0:0:0:0:
300,144,138245,1,8,0:0:0:0:
144,208,138400,2,0,P|128:260|120:308,1,80.9999975280763,2|0,0:0|0:0,0:0:0:0:
296,244,138711,2,0,P|284:204|268:160,1,80.9999975280763,2|8,0:0|0:0,0:0:0:0:
240,360,139022,6,0,L|424:348,1,161.999995056153,2|2,0:0|0:0,0:0:0:0:
480,216,139488,1,8,0:0:0:0:
336,124,139644,2,0,L|324:236,1,80.9999975280763,2|0,0:0|0:0,0:0:0:0:
444,100,139955,1,2,0:0:0:0:
276,52,140110,1,8,0:0:0:0:
420,20,140266,1,0,0:0:0:0:
252,148,140421,6,0,L|148:148,1,80.9999975280763,4|0,0:0|0:0,0:0:0:0:
72,16,140732,2,0,L|84:112,1,80.9999975280763,8|2,0:0|0:0,0:0:0:0:
128,256,141043,1,2,0:0:0:0:
252,148,141198,1,2,0:0:0:0:
308,312,141354,1,8,0:0:0:0:
176,184,141509,6,0,L|368:176,1,161.999995056153,4|2,0:0|0:0,0:0:0:0:
480,272,141976,2,0,L|390:259,1,80.9999975280763,8|2,0:0|0:0,0:0:0:0:
232,360,142286,1,8,0:0:0:0:
316,296,142442,1,8,0:0:0:0:
328,192,142597,1,8,0:0:0:0:
272,104,142753,1,8,0:0:0:0:
136,244,142908,6,0,L|252:240,1,107.999996704102,4|2,0:0|0:0,0:0:0:0:
364,128,143530,2,0,L|296:124,1,53.9999983520508,8|2,0:0|0:0,0:0:0:0:
304,128,143763,1,2,0:0:0:0:
300,132,143841,1,2,0:0:0:0:
212,28,143996,6,0,P|208:88|216:156,1,107.999996704102,2|8,0:0|0:0,0:0:0:0:
300,256,144463,2,0,P|288:228|276:208,1,53.9999983520508,2|0,0:0|0:0,0:0:0:0:
136,280,144773,1,8,0:0:0:0:
268,344,144929,1,2,0:0:0:0:
268,344,145007,1,2,0:0:0:0:
268,344,145084,1,2,0:0:0:0:
400,268,145240,1,8,0:0:0:0:
280,152,145395,6,0,L|272:216,1,53.9999983520508,2|0,0:0|0:0,0:0:0:0:
356,88,145706,2,0,L|348:16,1,53.9999983520508,2|0,0:0|0:0,0:0:0:0:
216,76,146017,1,8,0:0:0:0:
376,108,146172,1,8,0:0:0:0:
232,168,146328,1,8,0:0:0:0:
384,240,146483,6,0,L|496:228,1,107.999996704102,4|8,0:0|0:0,0:0:0:0:
292,240,146950,2,0,P|268:268|248:296,1,53.9999983520508,2|2,0:0|0:0,0:0:0:0:
257,281,147183,1,2,0:0:0:0:
257,281,147260,1,2,0:0:0:0:
164,380,147416,1,8,0:0:0:0:
44,288,147571,1,8,0:0:0:0:
188,240,147727,1,8,0:0:0:0:
96,96,147882,6,0,P|76:168|68:268,1,161.999995056153,4|2,0:0|0:0,0:0:0:0:
184,136,148349,1,2,0:0:0:0:
184,136,148504,2,0,P|220:144|268:168,1,80.9999975280763,8|2,0:0|0:0,0:0:0:0:
372,272,148815,1,2,0:0:0:0:
192,344,148970,6,0,L|30:336,1,161.999995056153,4|2,0:0|0:0,0:0:0:0:
188,240,149437,2,0,L|100:236,1,80.9999975280763,2|0,0:0|0:0,0:0:0:0:
24,100,149748,1,8,0:0:0:0:
200,64,149903,1,2,0:0:0:0:
60,20,150058,1,2,0:0:0:0:
216,160,150214,6,0,L|304:152,1,80.9999975280763,4|0,0:0|0:0,0:0:0:0:
436,64,150525,1,2,0:0:0:0:
436,64,150680,1,2,0:0:0:0:
312,192,150836,2,0,P|300:228|296:284,1,80.9999975280763,8|2,0:0|0:0,0:0:0:0:
428,176,151147,1,2,0:0:0:0:
260,84,151302,1,8,0:0:0:0:
404,48,151457,1,2,0:0:0:0:
295,270,151613,1,4,0:0:0:0:
295,270,152235,5,0,0:0:0:0:
104,244,152545,1,0,0:0:0:0:
220,64,152856,6,0,P|300:64|396:112,1,180,4|8,0:0|0:0,0:0:0:0:
212,160,153323,2,0,P|240:207|256:251,1,90,2|0,0:0|0:0,0:0:0:0:
120,344,153634,1,2,0:0:0:0:
36,176,153789,1,8,0:0:0:0:
196,304,153944,6,0,P|280:300|392:292,1,180,2|2,0:0|0:0,0:0:0:0:
456,136,154411,1,8,0:0:0:0:
456,136,154566,1,2,0:0:0:0:
288,208,154722,2,0,P|292:168|308:100,1,90,2|0,0:0|0:0,0:0:0:0:
472,220,155033,2,0,L|372:212,1,90,8|2,0:0|0:0,0:0:0:0:
196,120,155343,6,0,B|128:96|128:96|96:136|108:200,1,180,4|8,0:0|0:0,0:0:0:0:
248,328,155810,2,0,L|240:212,1,90,2|0,0:0|0:0,0:0:0:0:
268,64,156121,1,2,0:0:0:0:
376,216,156276,1,8,0:0:0:0:
196,148,156431,6,0,P|276:108|368:132,1,180,2|2,0:0|0:0,0:0:0:0:
364,324,156898,2,0,P|312:300|280:268,1,90,8|2,0:0|0:0,0:0:0:0:
436,160,157209,1,2,0:0:0:0:
436,160,157364,1,2,0:0:0:0:
460,340,157520,2,0,L|468:232,1,90,8|0,0:0|0:0,0:0:0:0:
404,44,157830,6,0,P|332:104|292:192,1,180,4|8,0:0|0:0,0:0:0:0:
360,336,158297,1,2,0:0:0:0:
208,232,158452,2,0,P|164:220|108:216,1,90,2|0,0:0|0:0,0:0:0:0:
224,352,158763,1,8,0:0:0:0:
360,224,158919,6,0,L|376:124,1,90,4|0,0:0|0:0,0:0:0:0:
232,48,159229,2,0,L|245:144,1,90,2|8,0:0|0:0,0:0:0:0:
384,288,159540,2,0,L|405:109,1,180,2|2,0:0|0:0,0:0:0:0:
276,248,160007,1,8,0:0:0:0:
276,248,160162,1,2,0:0:0:0:
120,168,160317,6,0,L|28:176,1,90,4|0,0:0|0:0,0:0:0:0:
104,324,160628,1,8,0:0:0:0:
208,192,160784,1,2,0:0:0:0:
344,304,160939,2,0,L|452:316,1,90,2|0,0:0|0:0,0:0:0:0:
488,160,161250,1,8,0:0:0:0:
240,88,161406,5,4,0:0:0:0:
232,104,161716,1,4,0:0:0:0:
224,120,162027,5,8,0:0:0:0:
256,124,162105,1,8,0:0:0:0:
288,124,162183,1,8,0:0:0:0:
424,44,162338,1,2,0:0:0:0:
352,192,162494,1,8,0:0:0:0:
504,120,162649,1,8,0:0:0:0:
320,48,162805,6,0,L|312:227,1,180,4|8,0:0|0:0,0:0:0:0:
464,332,163271,2,0,P|452:294|424:250,1,90,2|2,0:0|0:0,0:0:0:0:
272,308,163582,1,2,0:0:0:0:
388,180,163737,1,8,0:0:0:0:
212,104,163893,6,0,P|128:106|8:112,1,180,2|2,0:0|0:0,0:0:0:0:
104,280,164359,1,8,0:0:0:0:
104,280,164514,1,2,0:0:0:0:
252,196,164670,2,0,P|300:188|356:180,1,90,2|0,0:0|0:0,0:0:0:0:
268,356,164981,2,0,P|228:348|180:336,1,90,8|0,0:0|0:0,0:0:0:0:
120,148,165292,6,0,P|157:233|154:338,1,180,4|8,0:0|0:0,0:0:0:0:
8,212,165758,2,0,P|16:176|48:112,1,90,2|0,0:0|0:0,0:0:0:0:
200,68,166069,1,2,0:0:0:0:
16,32,166224,1,8,0:0:0:0:
148,180,166380,6,0,B|200:196|200:196|328:180,1,180,4|2,0:0|0:0,0:0:0:0:
172,296,166846,2,0,L|276:280,1,90,8|0,0:0|0:0,0:0:0:0:
436,216,167157,1,2,0:0:0:0:
308,104,167312,1,2,0:0:0:0:
484,32,167468,2,0,P|475:80|456:132,1,90,8|0,0:0|0:0,0:0:0:0:
344,272,167779,5,4,0:0:0:0:
212,168,167934,2,0,L|84:156,1,90,2|8,0:0|0:0,0:0:0:0:
32,296,168245,1,2,0:0:0:0:
32,296,168400,2,0,P|84:296|140:280,1,90,2|2,0:0|0:0,0:0:0:0:
288,208,168711,1,8,0:0:0:0:
204,384,168867,6,0,P|197:296|196:192,1,180,4|2,0:0|0:0,0:0:0:0:
280,36,169333,2,0,P|276:86|268:132,1,90,8|2,0:0|0:0,0:0:0:0:
92,76,169644,2,0,P|140:72|204:80,1,90,2|0,0:0|0:0,0:0:0:0:
360,160,169955,2,0,L|456:156,1,90,8|0,0:0|0:0,0:0:0:0:
280,36,170266,5,4,0:0:0:0:
188,180,170421,2,0,L|192:288,1,90,2|8,0:0|0:0,0:0:0:0:
344,348,170732,1,2,0:0:0:0:
440,188,170887,2,0,P|392:200|336:224,1,90,2|0,0:0|0:0,0:0:0:0:
244,344,171198,1,8,0:0:0:0:
88,248,171354,6,0,P|80:208|80:144,1,90,2|0,0:0|0:0,0:0:0:0:
252,108,171665,2,0,P|240:156|216:200,1,90,2|8,0:0|0:0,0:0:0:0:
96,28,171976,2,0,L|280:20,1,180,2|2,0:0|0:0,0:0:0:0:
472,60,172442,2,0,L|368:72,1,90,8|0,0:0|0:0,0:0:0:0:
176,124,172753,5,4,0:0:0:0:
324,192,172908,1,2,0:0:0:0:
275,20,173064,1,8,0:0:0:0:
236,188,173219,1,2,0:0:0:0:
408,124,173374,2,0,L|416:20,1,90,2|0,0:0|0:0,0:0:0:0:
324,192,173685,1,8,0:0:0:0:
160,84,173841,6,0,L|60:72,1,90,2|0,0:0|0:0,0:0:0:0:
28,252,174152,2,0,L|124:232,1,90,2|8,0:0|0:0,0:0:0:0:
272,116,174463,1,2,0:0:0:0:
136,236,174618,2,0,P|120:272|100:328,1,90,2|0,0:0|0:0,0:0:0:0:
288,224,174929,2,0,P|276:176|260:128,1,90,8|0,0:0|0:0,0:0:0:0:
224,348,175240,6,0,P|316:360|396:300,1,180,4|8,0:0|0:0,0:0:0:0:
452,164,175706,1,0,0:0:0:0:
304,64,175862,2,0,L|292:168,1,90,2|2,0:0|0:0,0:0:0:0:
424,40,176172,1,8,0:0:0:0:
344,216,176328,6,0,L|156:200,1,180,4|2,0:0|0:0,0:0:0:0:
44,88,176794,1,8,0:0:0:0:
224,56,176950,1,8,0:0:0:0:
140,224,177105,1,2,0:0:0:0:
128,44,177260,1,10,0:0:0:0:
160,40,177338,1,10,0:0:0:0:
192,36,177416,1,8,0:0:0:0:
224,36,177494,1,10,0:0:0:0:
256,36,177571,1,10,0:0:0:0:
288,40,177649,1,10,0:0:0:0:
320,48,177727,6,0,P|328:138|332:244,1,180,4|2,0:0|0:0,0:0:0:0:
188,368,178193,2,0,P|176:288|168:180,1,180,4|2,0:0|0:0,0:0:0:0:
352,240,178659,2,0,P|320:244|252:240,1,90,4|0,0:0|0:0,0:0:0:0:
84,192,178970,5,2,0:0:0:0:
220,72,179126,2,0,P|220:116|208:192,1,90,4|0,0:0|0:0,0:0:0:0:
76,64,179437,1,2,0:0:0:0:
256,40,179592,1,4,0:0:0:0:
164,224,179748,1,8,0:0:0:0:
164,224,179903,2,0,L|176:316,1,90,8|8,0:0|0:0,0:0:0:0:
312,136,180214,6,0,P|229:104|143:127,1,180,4|2,0:0|0:0,0:0:0:0:
328,252,180680,2,0,P|396:196|416:80,1,180,4|2,0:0|0:0,0:0:0:0:
232,232,181146,2,0,L|240:336,1,90,4|0,0:0|0:0,0:0:0:0:
296,148,181457,5,2,0:0:0:0:
148,44,181613,2,0,L|40:32,1,90,4|0,0:0|0:0,0:0:0:0:
236,84,181924,1,2,0:0:0:0:
116,224,182079,2,0,P|132:176|156:136,1,90,4|8,0:0|0:0,0:0:0:0:
151,142,182312,1,8,0:0:0:0:
151,142,182390,1,8,0:0:0:0:
304,176,182545,1,8,0:0:0:0:
224,328,182701,6,0,L|112:320,1,90,4|2,0:0|0:0,0:0:0:0:
32,180,183012,1,2,0:0:0:0:
212,128,183167,1,4,0:0:0:0:
56,68,183323,1,2,0:0:0:0:
232,104,183478,1,2,0:0:0:0:
104,252,183634,2,0,L|97:341,1,90,4|2,0:0|0:0,0:0:0:0:
268,368,183944,5,2,0:0:0:0:
192,204,184100,1,4,0:0:0:0:
364,272,184255,2,0,L|264:264,1,90,2|2,0:0|0:0,0:0:0:0:
128,140,184566,1,4,0:0:0:0:
300,112,184722,1,2,0:0:0:0:
300,112,184799,1,2,0:0:0:0:
300,112,184877,1,2,0:0:0:0:
136,76,185033,1,2,0:0:0:0:
132,108,185110,1,2,0:0:0:0:
128,140,185188,6,0,L|136:252,1,90,4|0,0:0|0:0,0:0:0:0:
232,368,185499,1,2,0:0:0:0:
408,308,185654,1,4,0:0:0:0:
284,200,185810,2,0,P|244:224|204:268,1,90,2|2,0:0|0:0,0:0:0:0:
392,192,186121,2,0,P|376:148|344:100,1,90,4|2,0:0|0:0,0:0:0:0:
200,40,186431,5,2,0:0:0:0:
92,180,186587,2,0,L|204:176,1,90,4|2,0:0|0:0,0:0:0:0:
336,128,186898,1,2,0:0:0:0:
408,308,187053,1,4,0:0:0:0:
240,276,187209,1,8,0:0:0:0:
248,248,187286,1,8,0:0:0:0:
256,216,187364,1,8,0:0:0:0:
392,192,187520,1,2,0:0:0:0:
272,352,187675,6,0,P|224:356|164:320,1,90,8|2,0:0|0:0,0:0:0:0:
180,332,187908,1,2,0:0:0:0:
176,324,187986,1,2,0:0:0:0:
92,180,188141,2,0,L|92:294,1,90,4|0,0:0|0:0,0:0:0:0:
196,129,188452,1,2,0:0:0:0:
196,129,188608,2,0,L|200:33,1,90,4|0,0:0|0:0,0:0:0:0:
176,212,188919,5,2,0:0:0:0:
320,104,189074,2,0,P|372:107|432:120,1,90,4|0,0:0|0:0,0:0:0:0:
480,268,189385,1,2,0:0:0:0:
296,220,189540,1,4,0:0:0:0:
456,184,189696,1,2,0:0:0:0:
484,172,189773,1,2,0:0:0:0:
512,160,189851,1,8,0:0:0:0:
396,60,190007,1,2,0:0:0:0:
296,220,190162,6,0,L|284:336,1,90,8|2,0:0|0:0,0:0:0:0:
286,309,190395,1,2,0:0:0:0:
286,309,190473,1,2,0:0:0:0:
140,240,190628,2,0,P|96:224|32:216,1,90,8|2,0:0|0:0,0:0:0:0:
136,364,190939,1,2,0:0:0:0:
220,200,191095,2,0,P|232:144|240:80,1,90,8|2,0:0|0:0,0:0:0:0:
64,52,191406,5,2,0:0:0:0:
64,52,191561,2,0,P|116:80|152:84,1,90,8|2,0:0|0:0,0:0:0:0:
312,32,191872,1,2,0:0:0:0:
388,200,192027,1,8,0:0:0:0:
252,116,192183,1,2,0:0:0:0:
220,112,192260,1,2,0:0:0:0:
188,108,192338,1,8,0:0:0:0:
84,204,192494,1,2,0:0:0:0:
216,328,192649,6,0,L|236:212,1,90,4|8,0:0|0:0,0:0:0:0:
231,239,192882,1,8,0:0:0:0:
231,239,192960,1,8,0:0:0:0:
152,80,193115,2,0,L|156:212,1,90,4|8,0:0|0:0,0:0:0:0:
154,169,193349,1,8,0:0:0:0:
154,169,193426,1,8,0:0:0:0:
332,140,193582,2,0,L|424:128,1,90,4|8,0:0|0:0,0:0:0:0:
421,128,193815,1,8,0:0:0:0:
421,128,193893,1,8,0:0:0:0:
432,308,194048,6,0,P|384:304|320:280,1,90,4|8,0:0|0:0,0:0:0:0:
336,288,194281,1,8,0:0:0:0:
328,284,194359,1,8,0:0:0:0:
244,152,194514,1,4,0:0:0:0:
388,220,194670,1,2,0:0:0:0:
388,220,194748,1,0,0:0:0:0:
388,220,194825,1,8,0:0:0:0:
212,272,194981,1,8,0:0:0:0:
328,108,195136,5,4,0:0:0:0:
432,308,195292,1,8,0:0:0:0:
428,328,195602,5,4,0:0:0:0:
176,296,195758,1,8,0:0:0:0:
168,308,196069,5,4,0:0:0:0:
248,44,196224,1,8,0:0:0:0:
248,44,197623,5,4,0:0:0:0:
236,200,206328,5,2,3:0:0:0:
236,200,206639,2,0,L|152:196,1,67.5000025749208,8|2,0:0|0:0,0:0:0:0:
68,116,206950,2,0,L|148:108,1,67.5000025749208,8|8,3:0|3:0,0:0:0:0:
260,48,207260,2,0,L|268:136,1,67.5000025749208,8|2,0:0|0:0,0:0:0:0:
320,300,207571,6,0,P|336:232|348:144,1,135.000005149842,4|2,0:0|0:0,0:0:0:0:
156,84,208193,2,0,P|172:152|204:224,1,135.000005149842,8|2,0:0|0:0,0:0:0:0:
197,211,208659,1,8,0:0:0:0:
296,96,208815,6,0,L|384:92,1,67.5000025749208,2|0,0:0|0:0,0:0:0:0:
480,188,209126,2,0,L|392:184,1,67.5000025749208,8|0,0:0|0:0,0:0:0:0:
272,252,209437,2,0,P|264:300|260:372,1,101.250003862381,8|2,0:0|0:0,0:0:0:0:
264,368,209748,1,2,0:0:0:0:
404,312,209903,1,2,0:0:0:0:
260,172,210058,6,0,P|232:164|172:156,1,67.5000025749208,4|0,0:0|0:0,0:0:0:0:
100,264,210369,2,0,P|120:296|136:332,1,67.5000025749208,2|0,0:0|0:0,0:0:0:0:
32,192,210680,2,0,P|52:120|80:60,1,135.000005149842,8|2,0:0|0:0,0:0:0:0:
172,192,211146,1,8,0:0:0:0:
172,192,211302,6,0,L|264:184,1,67.5000025749208,2|8,0:0|0:0,0:0:0:0:
356,112,211613,2,0,L|448:128,1,67.5000025749208,2|8,0:0|0:0,0:0:0:0:
422,123,211846,1,8,0:0:0:0:
422,123,211924,1,8,0:0:0:0:
464,252,212079,1,2,0:0:0:0:
320,232,212235,1,2,0:0:0:0:
488,176,212390,1,2,0:0:0:0:
344,344,212545,6,0,L|340:184,1,135.000005149842,4|0,0:0|0:0,0:0:0:0:
264,24,213167,2,0,L|252:164,1,135.000005149842,8|2,0:0|0:0,0:0:0:0:
236,256,213634,1,2,0:0:0:0:
236,256,213789,6,0,P|208:264|152:292,1,67.5000025749208,4|0,0:0|0:0,0:0:0:0:
44,316,214100,2,0,P|36:280|32:224,1,67.5000025749208,8|0,0:0|0:0,0:0:0:0:
144,128,214411,2,0,P|148:168|140:224,1,67.5000025749208,8|2,0:0|0:0,0:0:0:0:
56,72,214722,1,2,0:0:0:0:
56,72,214877,1,8,0:0:0:0:
240,112,215033,6,0,L|307:120,1,67.5000025749208,4|8,0:0|0:0,0:0:0:0:
184,220,215343,2,0,L|328:216,1,135.000005149842,2|8,0:0|0:0,0:0:0:0:
472,152,215810,1,2,0:0:0:0:
372,132,215965,1,8,0:0:0:0:
318,216,216121,1,2,0:0:0:0:
400,296,216276,6,0,P|420:264|432:224,1,67.5000025749208,4|0,0:0|0:0,0:0:0:0:
340,88,216587,1,2,0:0:0:0:
232,196,216742,1,2,0:0:0:0:
232,220,216820,1,2,0:0:0:0:
232,244,216898,1,8,0:0:0:0:
296,348,217053,1,2,0:0:0:0:
148,304,217209,1,2,0:0:0:0:
312,256,217364,1,2,0:0:0:0:
128,332,217520,6,0,P|123:250|116:188,1,135.000005149842,4|0,0:0|0:0,0:0:0:0:
20,24,218141,2,0,P|94:30|174:34,1,135.000005149842,8|2,0:0|0:0,0:0:0:0:
287,20,218608,6,0,P|274:79|264:153,1,135.000005149842,8|2,0:0|0:0,0:0:0:0:
352,260,219074,2,0,L|364:296|380:344,1,67.5000025749208,2|0,0:0|0:0,0:0:0:0:
168,252,219385,2,0,L|288:240,1,101.250003862381,8|2,0:0|0:0,0:0:0:0:
280,232,219696,1,2,0:0:0:0:
168,136,219851,1,8,0:0:0:0:
32,248,220007,6,0,P|36:312|48:404,1,135.000005149842,4|2,0:0|0:0,0:0:0:0:
172,336,220473,1,0,0:0:0:0:
172,336,220628,2,0,P|221:328|296:328,1,101.250003862381,8|0,0:0|0:0,0:0:0:0:
288,336,220939,1,2,0:0:0:0:
420,268,221095,1,8,0:0:0:0:
336,128,221250,6,0,B|272:112|272:160|192:132,1,135.000005149842,4|2,0:0|0:0,0:0:0:0:
100,40,221716,1,2,0:0:0:0:
100,40,221794,1,2,0:0:0:0:
100,40,221872,1,8,0:0:0:0:
48,176,222027,1,8,0:0:0:0:
166,268,222183,2,0,L|174:364,1,67.5000025749208,8|0,0:0|0:0,0:0:0:0:
328,376,222494,6,0,B|352:328|352:328|360:224,1,135.000005149842,4|0,0:0|0:0,0:0:0:0:
272,108,222960,1,0,0:0:0:0:
272,108,223115,2,0,B|272:200|272:200|284:268,1,135.000005149842,8|0,0:0|0:0,0:0:0:0:
432,180,223582,1,2,0:0:0:0:
432,180,223737,6,0,L|408:32,1,135.000005149842,4|0,0:0|0:0,0:0:0:0:
276,12,224203,1,2,0:0:0:0:
236,184,224359,2,0,P|284:188|344:160,1,101.250003862381,8|2,0:0|0:0,0:0:0:0:
340,156,224670,1,2,0:0:0:0:
200,72,224825,1,8,0:0:0:0:
128,240,224981,6,0,P|120:274|116:316,1,67.5000025749208,4|8,0:0|0:0,0:0:0:0:
116,306,225214,1,8,0:0:0:0:
116,306,225292,1,8,0:0:0:0:
248,352,225447,1,8,0:0:0:0:
216,208,225602,1,8,0:0:0:0:
352,312,225758,1,8,0:0:0:0:
420,176,225913,1,2,0:0:0:0:
292,256,226069,1,8,0:0:0:0:
512,192,226224,5,4,0:0:0:0:
512,192,227468,6,0,B|344:240|344:128|204:184,2,315,4|0|0,0:0|0:0|0:0,0:0:0:0:
492,104,229955,6,0,B|484:56|464:28|464:28|376:76|300:28|300:28|276:52|240:68,2,315,2|0|0,0:0|0:0|0:0,0:0:0:0:
432,172,232442,6,0,B|388:184|360:156|360:156|288:192|284:136|224:136|224:136|188:168|128:176,2,315,2|0|0,0:0|0:0|0:0,0:0:0:0:
460,256,234929,6,0,B|412:272|368:316|368:316|344:308|296:312,1,180,2|2,0:0|0:0,0:0:0:0:
299,311,235862,1,2,0:0:0:0:
92,268,236017,1,2,0:0:0:0:
104,280,236328,6,0,L|124:224,1,45,2|2,0:0|0:0,0:0:0:0:
172,116,236639,1,8,0:0:0:0:
176,128,236716,1,8,0:0:0:0:
180,140,236794,1,8,0:0:0:0:
324,176,236950,1,8,0:0:0:0:
192,88,237105,1,8,0:0:0:0:
352,56,237260,1,8,0:0:0:0:
232,236,237416,6,0,L|140:244,1,67.5000025749208,4|0,0:0|0:0,0:0:0:0:
320,308,237727,2,0,L|253:318,1,67.5000025749208,2|0,0:0|0:0,0:0:0:0:
360,200,238038,2,0,P|403:200|484:216,1,101.250003862381,8|2,0:0|0:0,0:0:0:0:
472,220,238349,1,2,0:0:0:0:
412,336,238504,1,2,0:0:0:0:
268,208,238659,6,0,P|271:173|279:141,1,67.5000025749208,4|0,0:0|0:0,0:0:0:0:
184,304,238970,2,0,P|180:272|168:216,1,67.5000025749208,2|0,0:0|0:0,0:0:0:0:
72,96,239281,1,8,0:0:0:0:
152,220,239437,1,8,0:0:0:0:
204,64,239592,1,2,0:0:0:0:
60,128,239748,1,2,0:0:0:0:
256,160,239903,6,0,P|316:156|416:144,1,135.000005149842,4|2,0:0|0:0,0:0:0:0:
496,32,240369,1,0,0:0:0:0:
496,32,240525,2,0,L|484:104,1,67.5000025749208,8|0,0:0|0:0,0:0:0:0:
448,272,240836,1,2,0:0:0:0:
296,196,240991,1,2,0:0:0:0:
332,360,241146,6,0,L|348:294,1,67.5000025749208,4|0,0:0|0:0,0:0:0:0:
376,140,241457,1,2,0:0:0:0:
448,272,241613,1,2,0:0:0:0:
448,272,241691,1,2,0:0:0:0:
448,272,241768,1,8,0:0:0:0:
296,196,241924,1,8,0:0:0:0:
456,176,242079,1,2,0:0:0:0:
456,176,242235,1,8,0:0:0:0:
308,60,242390,6,0,P|248:72|168:104,1,135.000005149842,4|2,0:0|0:0,0:0:0:0:
76,232,242856,1,0,0:0:0:0:
76,232,243012,2,0,P|136:240|184:232,1,101.250003862381,8|2,0:0|0:0,0:0:0:0:
192,224,243323,1,2,0:0:0:0:
308,140,243478,6,0,L|320:276,1,135.000005149842,4|8,0:0|0:0,0:0:0:0:
420,152,243944,2,0,L|428:72,1,67.5000025749208,2|0,0:0|0:0,0:0:0:0:
480,224,244255,1,8,0:0:0:0:
480,224,244411,1,8,0:0:0:0:
319,274,244566,1,2,0:0:0:0:
420,152,244722,1,2,0:0:0:0:
436,316,244877,6,0,L|424:396,1,67.5000025749208,4|2,0:0|0:0,0:0:0:0:
396,232,245188,1,2,0:0:0:0:
256,332,245343,2,0,L|188:336,1,67.5000025749208,8|2,0:0|0:0,0:0:0:0:
72,240,245654,1,2,0:0:0:0:
240,192,245810,1,2,0:0:0:0:
24,104,245965,1,4,0:0:0:0:
24,104,246742,5,0,0:0:0:0:
184,92,247053,1,0,0:0:0:0:
344,72,247364,6,0,L|480:80,1,135.000005149842,4|0,0:0|0:0,0:0:0:0:
368,200,247986,2,0,L|520:192,1,135.000005149842,0|2,0:0|0:0,0:0:0:0:
380,300,248608,6,0,P|304:280|264:228,1,135.000005149842,2|2,0:0|0:0,0:0:0:0:
292,80,249229,1,2,0:0:0:0:
192,228,249385,1,8,0:0:0:0:
176,244,249463,1,8,0:0:0:0:
156,252,249540,1,8,0:0:0:0:
132,256,249618,1,8,0:0:0:0:
108,252,249696,1,8,0:0:0:0:
88,240,249773,1,8,0:0:0:0:
72,224,249851,6,0,L|88:36,1,180,4|8,0:0|0:0,0:0:0:0:
264,120,250317,2,0,P|232:136|152:144,1,90,2|0,0:0|0:0,0:0:0:0:
320,28,250628,1,2,0:0:0:0:
464,168,250784,1,8,0:0:0:0:
320,312,250939,6,0,P|330:220|358:136,1,180,2|2,0:0|0:0,0:0:0:0:
296,328,251406,2,0,P|252:328|192:320,1,90,8|0,0:0|0:0,0:0:0:0:
48,252,251716,1,2,0:0:0:0:
204,208,251872,1,2,0:0:0:0:
104,60,252027,2,0,P|96:108|96:156,1,90,8|2,0:0|0:0,0:0:0:0:
128,224,252260,1,2,0:0:0:0:
128,224,252338,6,0,B|224:240|224:204|312:220,1,180,4|8,0:0|0:0,0:0:0:0:
452,332,252805,1,2,0:0:0:0:
324,192,252960,2,0,P|328:136|336:100,1,90,2|0,0:0|0:0,0:0:0:0:
464,224,253271,1,8,0:0:0:0:
284,328,253426,6,0,L|156:320,1,90,4|0,0:0|0:0,0:0:0:0:
44,184,253737,2,0,L|160:172,1,90,2|8,0:0|0:0,0:0:0:0:
336,104,254048,2,0,P|268:120|220:212,1,180,2|2,0:0|0:0,0:0:0:0:
360,368,254514,2,0,P|369:330|360:276,1,90,8|0,0:0|0:0,0:0:0:0:
140,264,254825,6,0,L|151:353,1,90,4|0,0:0|0:0,0:0:0:0:
296,244,255136,1,8,0:0:0:0:
136,176,255292,1,2,0:0:0:0:
308,100,255447,2,0,P|358:98|397:103,1,90,2|0,0:0|0:0,0:0:0:0:
464,268,255758,1,8,0:0:0:0:
248,168,255913,5,4,0:0:0:0:
236,188,256224,1,4,0:0:0:0:
224,208,256535,5,8,0:0:0:0:
224,240,256613,1,8,0:0:0:0:
228,272,256691,1,8,0:0:0:0:
368,348,256846,1,2,0:0:0:0:
160,336,257001,1,8,0:0:0:0:
324,268,257157,1,8,0:0:0:0:
196,124,257312,6,0,P|116:96|20:112,1,180,4|8,0:0|0:0,0:0:0:0:
120,284,257779,2,0,L|132:188,1,90,2|0,0:0|0:0,0:0:0:0:
200,28,258090,1,2,0:0:0:0:
352,124,258245,1,8,0:0:0:0:
144,84,258400,6,0,P|239:83|323:87,1,180,2|2,0:0|0:0,0:0:0:0:
160,176,258867,1,8,0:0:0:0:
332,164,259022,1,2,0:0:0:0:
192,288,259178,2,0,P|185:237|188:192,1,90,2|0,0:0|0:0,0:0:0:0:
347,75,259488,2,0,P|342:119|331:167,1,90,8|0,0:0|0:0,0:0:0:0:
268,352,259799,6,0,P|328:288|416:248,1,180,4|8,0:0|0:0,0:0:0:0:
512,144,260266,2,0,P|472:140|404:132,1,90,2|0,0:0|0:0,0:0:0:0:
228,72,260577,1,2,0:0:0:0:
404,44,260732,1,8,0:0:0:0:
264,208,260887,6,0,B|224:228|224:228|68:228,1,180,4|2,0:0|0:0,0:0:0:0:
248,112,261354,2,0,B|204:124|204:124|144:128,1,90,8|2,0:0|0:0,0:0:0:0:
324,40,261665,1,2,0:0:0:0:
324,40,261820,1,2,0:0:0:0:
432,184,261976,2,0,L|436:276,1,90,8|0,0:0|0:0,0:0:0:0:
264,328,262286,6,0,P|212:304|152:296,1,90,4|0,0:0|0:0,0:0:0:0:
0,336,262597,1,8,0:0:0:0:
124,228,262753,1,2,0:0:0:0:
124,228,262908,2,0,P|136:176|140:112,1,90,2|0,0:0|0:0,0:0:0:0:
4,40,263219,1,8,0:0:0:0:
36,252,263374,6,0,L|216:260,1,180,4|2,0:0|0:0,0:0:0:0:
372,152,263841,1,8,0:0:0:0:
296,296,263996,2,0,P|284:340|276:388,1,90,2|0,0:0|0:0,0:0:0:0:
408,280,264307,1,2,0:0:0:0:
264,160,264463,2,0,P|226:163|175:174,1,90,8|0,0:0|0:0,0:0:0:0:
364,212,264773,5,4,0:0:0:0:
464,76,264929,1,2,0:0:0:0:
296,0,265084,2,0,P|300:48|316:100,1,90,8|2,0:0|0:0,0:0:0:0:
380,132,265317,1,2,0:0:0:0:
380,132,265395,2,0,P|392:192|384:248,1,90,2|0,0:0|0:0,0:0:0:0:
252,324,265706,1,8,0:0:0:0:
464,264,265862,5,4,0:0:0:0:
464,264,266172,1,4,0:0:0:0:
300,196,266328,2,0,L|196:192,1,90,2|2,0:0|0:0,0:0:0:0:
40,228,266639,1,8,0:0:0:0:
164,344,266794,1,2,0:0:0:0:
120,172,266950,2,0,L|132:72,1,90,8|8,0:0|0:0,0:0:0:0:
320,20,267260,6,0,L|328:208,1,180,4|2,0:0|0:0,0:0:0:0:
472,20,267882,2,0,L|460:112|448:204,1,180,8|2,0:0|0:0,0:0:0:0:
392,336,268349,1,0,0:0:0:0:
220,280,268504,5,2,0:0:0:0:
404,228,268659,1,8,0:0:0:0:
264,144,268815,2,0,L|168:148,1,90,2|0,0:0|0:0,0:0:0:0:
40,260,269126,1,8,0:0:0:0:
168,348,269281,1,2,0:0:0:0:
184,320,269359,1,2,0:0:0:0:
192,288,269437,1,2,0:0:0:0:
84,168,269592,1,2,0:0:0:0:
224,32,269748,6,0,L|212:148,1,90,4|2,0:0|0:0,0:0:0:0:
300,296,270058,2,0,L|296:184,1,90,8|0,0:0|0:0,0:0:0:0:
344,32,270369,1,8,0:0:0:0:
392,188,270525,1,2,0:0:0:0:
214,121,270680,1,2,0:0:0:0:
432,96,270836,6,0,P|424:168|400:284,1,180,4|2,0:0|0:0,0:0:0:0:
228,232,271302,1,8,0:0:0:0:
336,136,271457,1,2,0:0:0:0:
336,136,271535,1,2,0:0:0:0:
336,136,271613,1,2,0:0:0:0:
184,96,271768,1,2,0:0:0:0:
320,224,271924,1,2,0:0:0:0:
272,52,272079,1,2,0:0:0:0:
144,200,272235,6,0,L|136:304,1,90,4|0,0:0|0:0,0:0:0:0:
40,136,272545,2,0,P|29:94|33:46,1,90,8|0,0:0|0:0,0:0:0:0:
204,120,272856,1,2,0:0:0:0:
60,32,273012,1,2,0:0:0:0:
236,12,273167,1,8,0:0:0:0:
164,220,273323,6,0,P|152:148|152:24,1,180,4|2,0:0|0:0,0:0:0:0:
312,204,273789,2,0,P|304:247|292:312,1,90,8|2,0:0|0:0,0:0:0:0:
292,300,274022,1,2,0:0:0:0:
288,308,274100,1,2,0:0:0:0:
140,304,274255,1,2,0:0:0:0:
236,164,274411,1,8,0:0:0:0:
388,260,274566,1,2,0:0:0:0:
164,220,274722,6,0,L|52:212,1,90,4|2,0:0|0:0,0:0:0:0:
236,164,275033,1,2,0:0:0:0:
256,344,275188,2,0,L|268:248,1,90,4|2,0:0|0:0,0:0:0:0:
304,88,275499,1,2,0:0:0:0:
304,88,275654,1,2,0:0:0:0:
388,260,275810,6,0,B|420:212|420:212|424:80,1,180,4|2,0:0|0:0,0:0:0:0:
276,8,276276,1,8,0:0:0:0:
144,124,276431,2,0,B|112:172|112:172|108:294,1,180,4|2,0:0|0:0,0:0:0:0:
268,360,276898,1,8,0:0:0:0:
328,184,277053,6,0,L|508:176,1,180,4|2,0:0|0:0,0:0:0:0:
388,304,277520,1,8,0:0:0:0:
224,232,277675,2,0,P|216:188|224:136,1,90,4|0,0:0|0:0,0:0:0:0:
356,40,277986,1,8,0:0:0:0:
328,56,278064,1,8,0:0:0:0:
296,64,278141,1,8,0:0:0:0:
264,68,278219,1,8,0:0:0:0:
232,56,278297,6,0,P|152:48|56:88,1,180,4|2,0:0|0:0,0:0:0:0:
104,244,278763,1,8,0:0:0:0:
268,160,278919,2,0,P|348:152|444:192,1,180,4|0,0:0|0:0,0:0:0:0:
364,336,279385,1,8,0:0:0:0:
192,252,279540,6,0,L|180:64,1,180,4|0,0:0|0:0,0:0:0:0:
344,28,280007,1,8,0:0:0:0:
440,188,280162,2,0,L|424:296,1,90,4|0,0:0|0:0,0:0:0:0:
272,156,280473,1,8,0:0:0:0:
304,148,280551,1,8,0:0:0:0:
332,160,280628,1,8,0:0:0:0:
348,188,280706,1,8,0:0:0:0:
336,216,280784,6,0,L|332:20,1,180,4|2,0:0|0:0,0:0:0:0:
224,224,281250,2,0,L|220:328,1,90,8|2,0:0|0:0,0:0:0:0:
120,176,281561,1,2,0:0:0:0:
292,148,281716,1,2,0:0:0:0:
144,60,281872,2,0,P|96:68|56:88,1,90,8|0,0:0|0:0,0:0:0:0:
112,265,282183,6,0,L|120:169,1,90,2|2,0:0|0:0,0:0:0:0:
240,40,282494,1,8,0:0:0:0:
340,196,282649,2,0,L|236:184,1,90,2|0,0:0|0:0,0:0:0:0:
424,84,282960,1,8,0:0:0:0:
456,88,283038,1,8,0:0:0:0:
488,92,283115,1,8,0:0:0:0:
496,264,283271,6,0,L|304:284,1,180,4|2,0:0|0:0,0:0:0:0:
144,224,283737,2,0,L|248:228,1,90,8|0,0:0|0:0,0:0:0:0:
392,156,284048,1,2,0:0:0:0:
224,116,284203,1,2,0:0:0:0:
400,48,284359,2,0,P|393:96|381:136,1,90,8|2,0:0|0:0,0:0:0:0:
244,264,284670,6,0,P|243:222|247:174,1,90,2|0,0:0|0:0,0:0:0:0:
396,240,284981,1,8,0:0:0:0:
276,360,285136,2,0,L|184:352,1,90,2|2,0:0|0:0,0:0:0:0:
64,236,285447,1,8,0:0:0:0:
80,208,285525,1,8,0:0:0:0:
92,180,285602,1,8,0:0:0:0:
100,148,285680,1,8,0:0:0:0:
104,116,285758,6,0,P|176:144|312:152,1,180,4|0,0:0|0:0,0:0:0:0:
436,60,286224,2,0,P|396:68|348:84,1,90,8|2,0:0|0:0,0:0:0:0:
260,240,286535,1,8,0:0:0:0:
412,208,286691,1,2,0:0:0:0:
272,328,286846,2,0,P|231:318|175:282,1,90,8|2,0:0|0:0,0:0:0:0:
100,128,287157,6,0,L|103:217,1,90,4|2,0:0|0:0,0:0:0:0:
244,120,287468,1,8,0:0:0:0:
96,24,287623,2,0,L|6:29,1,90,2|0,0:0|0:0,0:0:0:0:
188,88,287934,1,8,0:0:0:0:
220,88,288012,1,8,0:0:0:0:
252,88,288090,1,8,0:0:0:0:
284,88,288167,1,8,0:0:0:0:
312,76,288245,6,0,B|332:132|332:132|320:256,1,180,4|2,0:0|0:0,0:0:0:0:
172,360,288711,2,0,L|168:240,1,90,8|2,0:0|0:0,0:0:0:0:
188,88,289022,1,8,0:0:0:0:
332,160,289178,1,2,0:0:0:0:
148,184,289333,2,0,L|32:172,1,90,8|2,0:0|0:0,0:0:0:0:
244,252,289644,5,4,0:0:0:0:
424,176,289799,1,2,0:0:0:0:
424,176,289877,1,2,0:0:0:0:
424,176,289955,1,2,0:0:0:0:
264,64,290110,2,0,P|256:115|252:168,1,90,4|0,0:0|0:0,0:0:0:0:
360,328,290421,2,0,P|352:280|336:228,1,90,4|0,0:0|0:0,0:0:0:0:
120,100,290732,1,4,0:0:0:0:
