osu file format v14

[General]
AudioFilename: Wonder Stella.mp3
AudioLeadIn: 0
PreviewTime: 152079
Countdown: 0
SampleSet: Soft
StackLeniency: 0.7
Mode: 0
LetterboxInBreaks: 1
WidescreenStoryboard: 0

[Editor]
DistanceSpacing: 0.7
BeatDivisor: 4
GridSize: 4
TimelineZoom: 1

[Metadata]
Title:Wonder Stella
TitleUnicode:ワンダーステラ
Artist:fhana
ArtistUnicode:fhána
Creator:CelsiusLK
Version:Hard
Source:Fate/kaleid liner プリズマイリヤ ツヴァイ ヘルツ!
Tags:Prisma Illya 2wei! Herz lantis towana opening full
BeatmapID:840553
BeatmapSetID:383242

[Difficulty]
HPDrainRate:6
CircleSize:3.7
OverallDifficulty:6
ApproachRate:7.5
SliderMultiplier:1.52
SliderTickRate:2

[Events]
//Background and Video events
0,0,"girl.jpg",0,0
//Break Periods
2,197823,205503
//Storyboard Layer 0 (Background)
//Storyboard Layer 1 (Fail)
//Storyboard Layer 2 (Pass)
//Storyboard Layer 3 (Foreground)
//Storyboard Sound Samples

[TimingPoints]
1147,310.880829015544,4,2,2,50,1,0
1147,-166.666666666667,4,2,2,50,0,0
6121,-133.333333333333,4,2,2,50,0,0
10317,-133.333333333333,4,2,1,65,0,0
11095,-111.111111111111,4,2,1,65,0,0
20887,-133.333333333333,4,2,1,60,0,0
35810,-111.111111111111,4,2,1,60,0,0
37209,-111.111111111111,4,2,1,70,0,0
38297,-111.111111111111,4,2,1,75,0,0
48400,-166.666666666667,4,2,1,65,0,0
53374,-111.111111111111,4,2,1,65,0,0
58349,-100,4,2,1,85,0,1
78245,-111.111111111111,4,2,1,70,0,0
86794,-200,4,2,1,70,0,0
88193,-166.666666666667,4,2,2,50,0,0
109799,-166.666666666667,4,2,1,65,0,0
110421,-133.333333333333,4,2,1,65,0,0
122856,-111.111111111111,4,2,1,65,0,0
131716,-111.111111111111,4,2,1,70,0,0
132805,-111.111111111111,4,2,1,75,0,0
142908,-166.666666666667,4,2,1,65,0,0
147882,-111.111111111111,4,2,1,65,0,0
152856,-100,4,2,1,85,0,1
177727,-100,4,2,1,75,0,0
206328,-133.333333333333,4,2,1,60,0,0
227468,-200,4,2,2,50,0,0
236639,-200,4,2,1,50,0,0
237416,-133.333333333333,4,2,1,70,0,0
247364,-133.333333333333,4,2,1,85,0,1
247442,-133.333333333333,4,2,1,70,0,0
249851,-100,4,2,1,85,0,1
267260,-100,4,2,1,75,0,0
280784,-100,4,2,1,80,0,0

[Colours]
Combo1 : 255,170,85
Combo2 : 128,255,128
Combo3 : 128,128,255
Combo4 : 255,128,128

[HitObjects]
112,144,1147,6,0,L|212:152,1,91.199997216797,4|2,0:0|0:0,0:0:0:0:
276,208,1613,2,0,P|324:208|364:188,1,91.199997216797,2|0,0:0|0:0,0:0:0:0:
432,128,2079,2,0,P|443:146|451:169,1,45.5999986083985,2|2,0:0|0:0,0:0:0:0:
432,284,2390,6,0,L|372:276,1,45.5999986083985,2|0,0:0|0:0,0:0:0:0:
304,316,2701,2,0,L|244:320,1,45.5999986083985,2|0,0:0|0:0,0:0:0:0:
168,308,3012,2,0,L|176:260,1,45.5999986083985,0|0,1:0|0:0,0:0:0:0:
104,204,3323,2,0,L|96:144,1,45.5999986083985,2|0,0:0|0:0,0:0:0:0:
180,68,3634,6,0,L|176:160,1,91.199997216797,4|0,0:0|0:0,0:0:0:0:
252,208,4100,2,0,P|292:204|344:214,1,91.199997216797,2|0,0:0|0:0,0:0:0:0:
420,260,4566,1,2,0:0:0:0:
420,260,4722,6,0,P|452:220|468:168,1,91.199997216797,2|0,0:0|0:0,0:0:0:0:
396,124,5188,2,0,P|368:88|348:40,1,91.199997216797,2|0,0:0|1:0,0:0:0:0:
268,84,5654,1,0,0:0:0:0:
268,84,5810,2,0,L|216:80,1,45.5999986083985,2|0,0:0|0:0,0:0:0:0:
128,176,6121,6,0,L|252:168,1,114.000004348755,4|2,0:0|0:0,0:0:0:0:
328,168,6587,1,0,0:0:0:0:
328,168,6742,2,0,P|308:220|304:288,1,114.000004348755,2|0,0:0|0:0,0:0:0:0:
440,336,7209,6,0,P|408:320|368:312,1,57.0000021743775,4|0,0:0|0:0,0:0:0:0:
316,360,7520,2,0,P|284:364|244:356,1,57.0000021743775,2|0,0:0|0:0,0:0:0:0:
179,330,7830,2,0,L|175:215,1,114.750004377365,2|0,0:0|0:0,0:0:0:0:
172,132,8297,1,2,0:0:0:0:
172,132,8452,1,2,0:0:0:0:
252,160,8608,6,0,B|280:176|280:176|376:172,1,114.000004348755,4|2,0:0|0:0,0:0:0:0:
424,116,9074,1,2,0:0:0:0:
472,188,9229,2,0,L|464:308,1,114.000004348755,2|0,0:0|0:0,0:0:0:0:
380,276,9696,6,0,P|353:281|325:294,1,57.0000021743775,4|0,0:0|0:0,0:0:0:0:
246,340,10007,2,0,P|245:314|240:284,1,57.0000021743775,2|0,0:0|0:0,0:0:0:0:
188,216,10317,1,8,0:0:0:0:
188,216,10395,1,8,0:0:0:0:
188,216,10473,1,8,0:0:0:0:
220,136,10628,1,8,0:0:0:0:
304,156,10784,2,0,P|328:180|352:208,1,57.0000021743775,8|8,0:0|0:0,0:0:0:0:
428,176,11095,6,0,L|416:32,1,136.799995825195,4|2,0:0|0:0,0:0:0:0:
328,36,11561,1,2,0:2:0:0:
328,36,11716,2,0,L|232:40,1,68.8499978988648,8|2,0:0|0:0,0:0:0:0:
180,76,12027,1,2,0:0:0:0:
180,76,12183,1,8,0:0:0:0:
200,164,12338,6,0,L|276:160,1,68.3999979125977,2|0,0:0|0:0,0:0:0:0:
356,184,12649,2,0,P|364:148|376:116,1,68.3999979125977,2|0,0:0|0:0,0:0:0:0:
460,88,12960,2,0,P|456:48|440:8,2,68.3999979125977,8|2|2,0:0|0:0|0:0,0:0:0:0:
420,264,13582,6,0,B|352:284|352:248|272:276,1,136.799995825195,4|2,0:0|0:0,0:0:0:0:
208,320,14048,1,0,0:0:0:0:
208,320,14203,2,0,P|192:268|188:176,1,136.799995825195,8|2,0:0|0:0,0:0:0:0:
236,112,14670,1,8,0:0:0:0:
320,144,14825,6,0,L|396:136,1,68.3999979125977,2|0,0:0|0:0,0:0:0:0:
472,48,15136,2,0,L|396:40,1,68.3999979125977,2|2,0:0|0:0,0:0:0:0:
316,24,15447,2,0,P|284:12|236:12,1,68.3999979125977,8|8,0:0|0:0,0:0:0:0:
196,80,15758,2,0,P|160:96|116:100,1,68.3999979125977,8|8,0:0|0:0,0:0:0:0:
32,12,16069,6,0,P|52:84|60:168,1,136.799995825195,4|2,0:0|0:0,0:0:0:0:
40,232,16535,1,2,0:0:0:0:
112,288,16691,2,0,L|272:268,1,136.799995825195,8|2,0:0|0:0,0:0:0:0:
324,224,17157,1,2,0:0:0:0:
396,276,17312,6,0,L|400:356,1,68.3999979125977,2|2,0:0|0:0,0:0:0:0:
480,248,17623,2,0,L|484:172,1,68.3999979125977,2|0,0:0|0:0,0:0:0:0:
440,104,17934,1,8,0:0:0:0:
440,104,18090,1,2,0:0:0:0:
368,156,18245,2,0,P|332:164|288:160,1,68.3999979125977,2|2,0:0|0:0,0:0:0:0:
172,128,18556,6,0,P|199:152|223:180,1,68.3999979125977,4|0,0:0|0:0,0:0:0:0:
244,264,18867,1,2,0:0:0:0:
160,240,19022,2,0,L|76:236,1,68.3999979125977,4|0,0:0|0:0,0:0:0:0:
52,316,19333,1,2,0:0:0:0:
52,316,19488,1,2,0:0:0:0:
136,352,19644,6,0,B|176:368|176:368|204:356|204:356|236:364|280:360,1,136.799995825195,4|2,0:0|0:0,0:0:0:0:
340,312,20110,1,8,0:0:0:0:
284,244,20266,1,2,0:0:0:0:
284,244,20343,1,2,0:0:0:0:
284,244,20421,2,0,L|280:164,1,68.3999979125977,8|8,0:0|0:0,0:0:0:0:
324,96,20732,1,8,0:0:0:0:
404,124,20887,6,0,L|392:240,1,114.000004348755,4|0,0:0|0:0,0:0:0:0:
328,348,21354,2,0,L|324:280,1,57.0000021743775,2|0,0:0|0:0,0:0:0:0:
264,232,21665,1,8,0:0:0:0:
100,284,21976,1,2,0:0:0:0:
8,140,22286,6,0,L|140:132,1,114.000004348755,2|2,0:0|0:0,0:0:0:0:
196,92,22753,1,2,0:0:0:0:
232,168,22908,2,0,L|312:160,1,57.0000021743775,8|2,0:0|0:0,0:0:0:0:
348,100,23219,1,0,0:0:0:0:
400,168,23374,6,0,P|408:224|408:304,1,114.000004348755,4|0,0:0|0:0,0:0:0:0:
316,372,23841,2,0,P|304:344|304:296,1,57.0000021743775,2|0,0:0|0:0,0:0:0:0:
316,232,24152,1,8,0:0:0:0:
196,108,24463,1,2,0:0:0:0:
60,212,24773,6,0,L|64:328,1,114.000004348755,2|0,0:0|0:0,0:0:0:0:
144,296,25240,1,2,0:0:0:0:
204,356,25395,2,0,P|238:352|264:344,1,57.0000021743775,8|8,0:0|0:0,0:0:0:0:
332,300,25706,1,2,0:0:0:0:
408,340,25862,6,0,L|420:220,1,114.000004348755,4|0,0:0|0:0,0:0:0:0:
396,144,26328,2,0,P|372:132|332:116,1,57.0000021743775,2|0,0:0|0:0,0:0:0:0:
280,180,26639,2,0,P|257:186|210:191,1,57.0000021743775,8|0,0:0|0:0,0:0:0:0:
144,216,26950,2,0,L|136:148,1,57.0000021743775,2|0,0:0|0:0,0:0:0:0:
60,124,27260,6,0,L|52:200,1,57.0000021743775,2|0,0:0|0:0,0:0:0:0:
20,260,27571,2,0,L|75:271,1,57.0000021743775,2|0,0:0|0:0,0:0:0:0:
184,328,27882,2,0,L|128:339,1,57.0000021743775,8|0,0:0|0:0,0:0:0:0:
75,271,28193,1,8,0:0:0:0:
144,216,28349,6,0,P|212:204|258:209,1,114.000004348755,4|0,0:0|0:0,0:0:0:0:
324,260,28815,2,0,P|361:255|392:240,1,57.0000021743775,2|0,0:0|0:0,0:0:0:0:
424,176,29126,2,0,P|416:140|400:100,1,57.0000021743775,8|8,0:0|0:0,0:0:0:0:
344,68,29437,1,2,0:0:0:0:
263,94,29592,6,0,L|255:226,1,114.750004377365,4|2,0:0|0:0,0:0:0:0:
188,256,30058,2,0,P|176:236|164:192,1,57.0000021743775,2|2,0:0|0:0,0:0:0:0:
92,160,30369,2,0,P|88:196|80:224,1,57.0000021743775,8|8,0:0|0:0,0:0:0:0:
52,296,30680,2,0,P|84:292|124:292,1,57.0000021743775,8|8,0:0|0:0,0:0:0:0:
208,348,30991,6,0,P|268:342|344:328,1,114.000004348755,4|2,0:0|0:0,0:0:0:0:
408,184,31613,1,8,0:0:0:0:
408,184,31768,2,0,L|404:256,1,57.0000021743775,2|0,0:0|0:0,0:0:0:0:
400,328,32079,1,4,0:0:0:0:
400,328,32390,5,0,0:0:0:0:
400,328,32545,2,0,L|344:314,1,57.3750021886826,2|0,0:0|0:0,0:0:0:0:
264,292,32856,2,0,L|256:208,1,57.0000021743775,8|2,0:0|0:0,0:0:0:0:
220,160,33167,1,2,0:0:0:0:
168,228,33323,6,0,L|153:358,1,114.750004377365,4|0,0:0|0:0,0:0:0:0:
72,276,33789,2,0,P|62:248|56:208,1,57.0000021743775,2|2,0:0|0:0,0:0:0:0:
60,136,34100,1,8,0:0:0:0:
144,152,34255,2,0,L|224:144,1,57.0000021743775,2|0,0:0|0:0,0:0:0:0:
296,100,34566,6,0,L|280:236,1,114.750004377365,4|0,0:0|0:0,0:0:0:0:
336,280,35033,2,0,L|416:264,1,57.0000021743775,2|0,0:0|0:0,0:0:0:0:
456,212,35343,2,0,L|464:136,1,57.0000021743775,8|8,0:0|0:0,0:0:0:0:
476,72,35654,1,2,0:0:0:0:
412,8,35810,6,0,P|348:40|300:104,1,136.799995825195,4|0,0:0|0:0,0:0:0:0:
236,144,36276,2,0,P|228:112|200:72,1,68.3999979125977,2|0,0:0|0:0,0:0:0:0:
136,132,36587,2,0,P|124:172|117:198,1,68.3999979125977,2|0,0:0|0:0,0:0:0:0:
156,276,36898,2,0,P|192:280|232:272,1,68.3999979125977,2|0,0:0|0:0,0:0:0:0:
348,208,37209,6,0,P|307:194|276:196,1,68.3999979125977,2|0,0:0|0:0,0:0:0:0:
304,280,37520,2,0,L|312:352,1,68.3999979125977,2|0,0:0|0:0,0:0:0:0:
388,300,37830,2,0,P|428:292|468:272,1,68.3999979125977,8|8,0:0|0:0,0:0:0:0:
464,192,38141,1,8,0:0:0:0:
416,116,38297,6,0,L|252:128,1,137.69999579773,4|0,0:0|0:0,0:0:0:0:
176,216,38763,2,0,P|216:212|264:188,1,68.3999979125977,8|0,0:0|0:0,0:0:0:0:
188,132,39074,1,2,0:0:0:0:
188,132,39229,2,0,P|172:100|144:72,1,68.3999979125977,2|8,0:0|0:0,0:0:0:0:
60,60,39540,1,0,0:0:0:0:
24,144,39696,6,0,L|36:280,1,136.799995825195,2|8,0:0|0:0,0:0:0:0:
120,256,40162,2,0,L|100:352,1,68.3999979125977,2|0,0:0|0:0,0:0:0:0:
204,360,40473,2,0,L|192:268,1,68.3999979125977,2|8,0:0|0:0,0:0:0:0:
159,176,40784,6,0,P|232:200|300:192,1,136.799995825195,4|2,0:0|0:0,0:0:0:0:
372,160,41250,2,0,P|414:157|456:164,1,68.3999979125977,8|2,0:0|0:0,0:0:0:0:
472,244,41561,2,0,P|444:268|416:304,1,68.3999979125977,2|2,0:0|0:0,0:0:0:0:
380,368,41872,1,8,0:0:0:0:
304,324,42027,6,0,L|224:320,1,68.3999979125977,2|0,0:0|0:0,0:0:0:0:
164,268,42338,2,0,L|84:264,1,68.3999979125977,2|8,0:0|0:0,0:0:0:0:
24,168,42649,2,0,L|160:174,1,136.799995825195,2|2,0:0|0:0,0:0:0:0:
248,152,43115,1,8,0:0:0:0:
248,152,43271,1,2,0:0:0:0:
320,204,43426,6,0,P|352:160|376:56,1,136.799995825195,4|8,0:0|0:0,0:0:0:0:
448,136,43893,2,0,L|452:228,1,68.3999979125977,2|0,0:0|0:0,0:0:0:0:
436,292,44203,1,2,0:0:0:0:
436,292,44359,1,8,0:0:0:0:
356,328,44514,6,0,L|268:320,1,68.3999979125977,2|0,0:0|0:0,0:0:0:0:
204,288,44825,2,0,L|200:376,1,68.3999979125977,2|8,0:0|0:0,0:0:0:0:
116,332,45136,2,0,L|108:252,1,68.3999979125977,2|0,0:0|0:0,0:0:0:0:
100,176,45447,1,2,0:0:0:0:
100,176,45602,2,0,P|144:176|184:164,1,68.3999979125977,8|2,0:0|0:0,0:0:0:0:
284,88,45913,6,0,P|252:148|240:224,1,136.799995825195,4|8,0:0|0:0,0:0:0:0:
288,292,46380,1,0,0:0:0:0:
376,272,46535,2,0,P|380:228|376:184,1,68.3999979125977,2|2,0:0|0:0,0:0:0:0:
364,116,46846,1,8,0:0:0:0:
264,188,47001,6,0,L|124:192,1,136.799995825195,4|2,0:0|0:0,0:0:0:0:
44,160,47468,2,0,L|52:232,1,68.3999979125977,8|2,0:0|0:0,0:0:0:0:
104,340,47779,2,0,P|116:304|136:268,1,68.3999979125977,8|2,0:0|0:0,0:0:0:0:
220,272,48090,1,8,0:0:0:0:
220,272,48245,1,2,0:0:0:0:
300,320,48400,6,0,L|408:312,1,91.199997216797,4|0,0:0|0:0,0:0:0:0:
476,152,49022,1,8,0:0:0:0:
412,88,49178,2,0,P|392:112|380:128,1,45.5999986083985,2|2,0:0|0:0,0:0:0:0:
328,196,49488,6,0,L|233:189,1,91.199997216797,4|8,0:0|0:0,0:0:0:0:
160,144,49955,2,0,L|100:156,1,45.5999986083985,2|0,0:0|0:0,0:0:0:0:
48,216,50266,2,0,L|108:228,1,45.5999986083985,8|0,0:0|0:0,0:0:0:0:
152,296,50577,2,0,L|92:308,1,45.5999986083985,2|8,0:0|0:0,0:0:0:0:
220,356,50887,6,0,P|232:320|232:252,1,91.199997216797,4|0,0:0|0:0,0:0:0:0:
200,180,51354,1,2,0:0:0:0:
200,180,51509,2,0,L|260:176,1,45.5999986083985,8|8,0:0|0:0,0:0:0:0:
332,152,51820,1,2,0:0:0:0:
428,224,51976,6,0,L|420:336,1,91.199997216797,4|8,0:0|0:0,0:0:0:0:
340,356,52442,1,2,0:0:0:0:
268,300,52597,1,2,0:0:0:0:
268,300,52675,1,2,0:0:0:0:
268,300,52753,2,0,L|208:304,1,45.5999986083985,8|8,0:0|0:0,0:0:0:0:
132,324,53064,1,8,0:0:0:0:
44,340,53219,1,8,0:0:0:0:
72,256,53374,6,0,B|72:204|72:204|84:168|84:168|80:116,1,136.799995825195,4|2,0:0|0:0,0:0:0:0:
48,40,53841,1,2,0:0:0:0:
48,40,53996,2,0,B|84:32|84:32|144:44,1,68.3999979125977,8|0,0:0|0:0,0:0:0:0:
176,104,54307,1,2,0:0:0:0:
252,56,54463,6,0,P|320:48|388:49,1,136.799995825195,4|2,0:0|0:0,0:0:0:0:
468,152,54929,2,0,P|436:163|402:170,1,68.3999979125977,8|0,0:0|0:0,0:0:0:0:
320,136,55240,1,8,0:0:0:0:
252,192,55395,2,0,L|244:260,1,68.3999979125977,2|2,0:0|0:0,0:0:0:0:
180,384,55706,6,0,P|168:316|140:236,1,136.799995825195,4|2,0:0|0:0,0:0:0:0:
76,196,56172,1,2,0:0:0:0:
76,196,56328,2,0,P|112:180|160:144,1,68.3999979125977,8|2,0:0|0:0,0:0:0:0:
192,92,56639,1,2,0:0:0:0:
136,24,56794,2,0,P|112:60|104:92,1,68.3999979125977,8|2,0:0|0:0,0:0:0:0:
220,176,57105,1,4,0:0:0:0:
220,176,57727,5,0,0:0:0:0:
380,132,58038,1,0,0:0:0:0:
476,288,58349,6,0,P|400:292|332:216,1,152,4|8,0:0|0:0,0:0:0:0:
300,164,58815,1,2,0:0:0:0:
248,240,58970,2,0,L|232:320,1,76,2|0,0:0|0:0,0:0:0:0:
148,348,59281,1,8,0:0:0:0:
76,292,59437,6,0,P|72:200|84:104,1,152,2|2,0:0|0:0,0:0:0:0:
124,60,59903,2,0,L|224:44,1,76,8|0,0:0|0:0,0:0:0:0:
252,124,60214,2,0,P|257:172|272:208,1,76,2|2,0:0|0:0,0:0:0:0:
356,224,60525,2,0,P|400:208|440:176,1,76,8|2,0:0|0:0,0:0:0:0:
436,168,60758,1,2,0:0:0:0:
436,168,60836,6,0,L|424:336,1,152,4|8,0:0|0:0,0:0:0:0:
348,268,61302,2,0,P|276:264|192:280,1,152,2|2,0:0|0:0,0:0:0:0:
120,324,61768,1,8,0:0:0:0:
64,252,61924,6,0,B|48:200|48:200|50:100,1,152,2|2,0:0|0:0,0:0:0:0:
136,28,62390,2,0,B|136:68|136:68|128:104,1,76,8|2,0:0|0:0,0:0:0:0:
132,196,62701,2,0,L|216:184,1,76,2|0,0:0|0:0,0:0:0:0:
276,244,63012,2,0,L|368:252,1,76,8|2,0:0|0:0,0:0:0:0:
436,336,63323,6,0,P|400:268|408:188,1,152,4|8,0:0|0:0,0:0:0:0:
456,120,63789,1,2,0:0:0:0:
456,120,63944,2,0,L|372:112,1,76,2|0,0:0|0:0,0:0:0:0:
296,80,64255,1,8,0:0:0:0:
228,168,64411,6,0,L|224:256,1,76,4|0,0:0|0:0,0:0:0:0:
132,244,64722,2,0,L|120:152,1,76,2|8,0:0|0:0,0:0:0:0:
40,276,65033,2,0,P|92:332|184:328,1,152,2|2,0:0|0:0,0:0:0:0:
236,280,65499,1,8,0:0:0:0:
236,280,65654,1,2,0:0:0:0:
316,324,65810,6,0,B|328:280|328:280|324:168,1,152,4|8,0:0|0:0,0:0:0:0:
272,100,66276,1,2,0:0:0:0:
272,100,66431,2,0,B|244:112|244:112|180:108,1,76,2|0,0:0|0:0,0:0:0:0:
120,60,66742,1,8,0:0:0:0:
48,152,66898,6,0,L|56:236,1,76,4|0,0:0|0:0,0:0:0:0:
144,320,67209,2,0,L|152:228,1,76,4|0,0:0|0:0,0:0:0:0:
228,200,67520,1,8,0:0:0:0:
228,200,67597,1,8,0:0:0:0:
228,200,67675,2,0,L|316:196,1,76,8|2,0:0|0:0,0:0:0:0:
392,212,67986,2,0,L|476:208,1,76,8|8,0:0|0:0,0:0:0:0:
464,76,68297,6,0,P|396:72|328:132,1,152,4|8,0:0|0:0,0:0:0:0:
248,152,68763,2,0,P|240:112|220:72,1,76,2|0,0:0|0:0,0:0:0:0:
140,116,69074,1,2,0:0:0:0:
56,80,69229,1,8,0:0:0:0:
8,156,69385,6,0,L|24:336,1,152,2|2,0:0|0:0,0:0:0:0:
100,352,69851,2,0,P|112:312|136:280,1,76,8|0,0:0|0:0,0:0:0:0:
224,296,70162,2,0,P|264:300|308:292,1,76,2|2,0:0|0:0,0:0:0:0:
380,340,70473,2,0,P|392:296|400:240,1,76,8|0,0:0|0:0,0:0:0:0:
308,192,70784,6,0,P|300:120|308:24,1,152,4|8,0:0|0:0,0:0:0:0:
452,8,71250,2,0,P|457:83|449:159,1,152,2|2,0:0|0:0,0:0:0:0:
432,248,71716,1,8,0:0:0:0:
324,208,71872,6,0,L|148:196,1,152,4|2,0:0|0:0,0:0:0:0:
56,128,72338,2,0,P|80:164|96:212,1,76,8|0,0:0|0:0,0:0:0:0:
64,280,72649,2,0,L|144:276,1,76,2|2,0:0|0:0,0:0:0:0:
220,324,72960,2,0,L|308:328,1,76,8|0,0:0|0:0,0:0:0:0:
432,248,73271,6,0,P|361:244|256:240,1,152,4|10,0:0|0:0,0:0:0:0:
196,200,73737,1,2,0:0:0:0:
196,200,73893,2,0,P|172:148|168:108,1,76,2|0,0:0|0:0,0:0:0:0:
224,60,74203,1,8,0:0:0:0:
296,116,74359,6,0,L|468:104,1,152,4|2,0:0|0:0,0:0:0:0:
500,180,74825,1,8,0:0:0:0:
456,260,74981,2,0,L|284:248,1,152,2|2,0:0|0:0,0:0:0:0:
216,220,75447,2,0,P|180:236|144:264,1,76,8|0,0:0|0:0,0:0:0:0:
80,316,75758,5,4,0:0:0:0:
28,240,75913,2,0,L|24:164,1,76,2|8,0:0|0:0,0:0:0:0:
68,84,76224,1,2,0:0:0:0:
152,116,76380,2,0,P|184:120|232:120,1,76,2|0,0:0|0:0,0:0:0:0:
308,80,76691,1,8,0:0:0:0:
380,132,76846,6,0,L|376:216,1,76,4|0,0:0|0:0,0:0:0:0:
344,296,77157,2,0,P|312:292|268:272,1,76,4|8,0:0|0:0,0:0:0:0:
180,292,77468,1,2,0:0:0:0:
180,292,77545,1,2,0:0:0:0:
180,292,77623,2,0,L|100:288,1,76,2|2,0:0|0:0,0:0:0:0:
24,244,77934,2,0,P|15:200|16:164,1,76,8|2,0:0|0:0,0:0:0:0:
144,72,78245,6,0,P|136:152|96:216,1,136.799995825195,4|2,0:0|0:0,0:0:0:0:
228,68,78867,2,0,P|308:56|384:64,1,136.799995825195,8|2,0:0|0:0,0:0:0:0:
444,96,79333,1,2,0:0:0:0:
444,96,79488,6,0,L|464:24,2,68.3999979125977,2|8|2,0:0|0:0|0:0,0:0:0:0:
396,268,80110,1,8,0:0:0:0:
224,224,80421,2,0,P|184:220|140:224,1,68.3999979125977,2|8,0:0|0:0,0:0:0:0:
72,320,80732,6,0,L|164:312,1,68.3999979125977,4|8,0:0|0:0,0:0:0:0:
228,304,81043,2,0,L|240:392,1,68.3999979125977,2|0,0:0|0:0,0:0:0:0:
328,368,81354,2,0,P|360:344|388:300,1,68.3999979125977,8|8,0:0|0:0,0:0:0:0:
396,236,81665,1,2,0:0:0:0:
396,236,81820,6,0,P|332:224|260:188,1,136.799995825195,4|8,0:0|0:0,0:0:0:0:
224,116,82286,1,2,0:0:0:0:
152,168,82442,1,2,0:0:0:0:
152,168,82597,2,0,L|140:80,1,68.3999979125977,2|2,0:0|0:0,0:0:0:0:
64,140,82908,2,0,L|61:208,1,68.3999979125977,2|2,0:0|0:0,0:0:0:0:
88,292,83219,6,0,P|156:268|236:256,1,136.799995825195,4|8,0:0|0:0,0:0:0:0:
372,348,83841,2,0,P|404:356|438:361,2,68.3999979125977,2|2|8,0:0|0:0|0:0,0:0:0:0:
308,284,84307,6,0,L|304:136,1,136.799995825195,4|0,0:0|0:0,0:0:0:0:
228,100,84773,2,0,L|216:196,1,68.3999979125977,8|2,0:0|0:0,0:0:0:0:
148,116,85084,2,0,L|72:108,1,68.3999979125977,2|2,0:0|0:0,0:0:0:0:
24,180,85395,1,8,0:0:0:0:
24,180,85551,1,0,0:0:0:0:
48,264,85706,6,0,P|120:272|188:248,1,136.799995825195,8|2,0:0|0:0,0:0:0:0:
256,204,86172,2,0,P|264:236|268:276,1,68.3999979125977,8|2,0:0|0:0,0:0:0:0:
336,352,86483,2,0,P|340:316|356:280,1,68.3999979125977,2|2,0:0|0:0,0:0:0:0:
452,248,86794,6,0,P|348:236|420:144,1,266,4|0,0:0|0:0,0:0:0:0:
256,224,88193,6,0,L|152:216,1,91.199997216797,4|0,0:0|0:0,0:0:0:0:
28,100,88815,2,0,L|132:92,1,91.199997216797,2|0,0:0|0:0,0:0:0:0:
192,36,89281,1,2,0:0:0:0:
192,36,89437,6,0,L|200:132,1,91.199997216797,2|2,0:0|0:0,0:0:0:0:
284,288,90058,2,0,L|296:228,1,45.5999986083985,2|0,0:0|0:0,0:0:0:0:
372,196,90369,2,0,L|380:240,1,45.5999986083985,2|2,0:0|0:0,0:0:0:0:
448,340,90680,6,0,L|340:332,1,91.199997216797,2|2,0:0|0:0,0:0:0:0:
188,260,91302,2,0,P|156:264|100:284,1,91.199997216797,2|2,0:0|0:0,0:0:0:0:
24,336,91768,1,2,0:0:0:0:
24,336,91924,6,0,L|16:236,1,91.199997216797,2|2,0:0|0:0,0:0:0:0:
84,76,92545,2,0,L|92:12,1,45.5999986083985,2|0,0:0|0:0,0:0:0:0:
168,80,92856,2,0,L|216:36,1,45.5999986083985,2|0,0:0|0:0,0:0:0:0:
248,140,93167,6,0,P|252:184|248:248,1,91.199997216797,2|2,0:0|0:0,0:0:0:0:
68,228,93789,1,2,0:0:0:0:
68,228,94100,2,0,P|104:220|124:216,1,45.5999986083985,2|2,0:0|0:0,0:0:0:0:
172,288,94411,6,0,P|212:312|264:320,1,91.199997216797,2|2,0:0|0:0,0:0:0:0:
420,244,95033,1,2,0:0:0:0:
420,244,95343,2,0,L|416:184,1,45.5999986083985,2|0,0:0|0:0,0:0:0:0:
344,120,95654,6,0,L|332:224,1,91.199997216797,2|2,0:0|0:0,0:0:0:0:
152,200,96276,2,0,L|140:100,1,91.199997216797,2|2,0:0|0:0,0:0:0:0:
152,20,96742,1,2,0:0:0:0:
152,20,96898,6,0,L|212:0,1,45.5999986083985,2|0,0:0|0:0,0:0:0:0:
244,80,97209,2,0,L|304:60,1,45.5999986083985,2|0,0:0|0:0,0:0:0:0:
400,80,97520,2,0,P|371:99|356:120,1,45.5999986083985,2|0,0:0|0:0,0:0:0:0:
428,172,97830,2,0,P|416:192|408:212,1,45.5999986083985,2|0,0:0|0:0,0:0:0:0:
456,308,98141,6,0,L|352:312,1,91.199997216797,4|2,0:0|0:0,0:0:0:0:
188,364,98763,2,0,P|184:308|168:264,1,91.199997216797,2|2,0:0|0:0,0:0:0:0:
116,204,99229,1,2,0:0:0:0:
116,204,99385,6,0,P|164:200|224:188,1,91.199997216797,2|2,0:0|0:0,0:0:0:0:
288,148,99851,2,0,L|292:256,1,91.199997216797,2|0,0:0|0:0,0:0:0:0:
384,236,100317,2,0,L|376:280,1,45.5999986083985,2|0,0:0|0:0,0:0:0:0:
472,216,100628,6,0,P|464:172|448:112,1,91.199997216797,4|2,0:0|0:0,0:0:0:0:
308,16,101250,2,0,P|258:22|200:24,1,91.199997216797,2|2,0:0|0:0,0:0:0:0:
124,20,101716,1,0,0:0:0:0:
124,20,101872,6,0,P|108:60|100:108,1,91.199997216797,2|2,0:0|0:0,0:0:0:0:
156,180,102338,2,0,P|172:226|180:282,1,91.199997216797,2|0,0:0|0:0,0:0:0:0:
232,344,102805,2,0,P|252:324|276:304,1,45.5999986083985,2|2,0:0|0:0,0:0:0:0:
356,264,103115,6,0,L|348:372,1,91.199997216797,4|2,0:0|0:0,0:0:0:0:
252,200,103737,1,2,0:0:0:0:
416,116,104048,2,0,L|412:176,1,45.5999986083985,2|2,0:0|0:0,0:0:0:0:
328,132,104359,6,0,P|292:104|248:96,1,91.199997216797,2|2,0:0|0:0,0:0:0:0:
164,132,104825,2,0,P|136:156|76:180,1,91.199997216797,2|2,0:0|0:0,0:0:0:0:
4,216,105292,2,0,L|12:276,1,45.5999986083985,2|2,0:0|0:0,0:0:0:0:
88,332,105602,6,0,L|136:320,1,45.5999986083985,4|0,0:0|0:0,0:0:0:0:
184,244,105913,2,0,L|244:252,1,45.5999986083985,2|0,0:0|0:0,0:0:0:0:
308,296,106224,2,0,L|312:344,1,45.5999986083985,2|0,0:0|0:0,0:0:0:0:
400,360,106535,1,2,0:0:0:0:
456,288,106691,6,0,B|460:252|460:252|452:176,1,91.199997216797,4|2,0:0|0:0,0:0:0:0:
388,132,107157,2,0,L|396:84,1,45.5999986083985,2|0,0:0|0:0,0:0:0:0:
304,144,107468,2,0,L|244:140,1,45.5999986083985,2|0,0:0|0:0,0:0:0:0:
184,88,107779,2,0,L|124:84,1,45.5999986083985,2|0,0:0|0:0,0:0:0:0:
96,196,108090,6,0,P|144:192|192:164,1,91.199997216797,4|2,0:0|0:0,0:0:0:0:
348,92,108711,2,0,L|343:187,1,91.199997216797,2|2,0:0|0:0,0:0:0:0:
296,360,109333,6,0,P|254:346|206:342,1,91.199997216797,2|2,0:0|0:0,0:0:0:0:
116,356,109799,1,8,0:0:0:0:
116,356,109877,1,8,0:0:0:0:
116,356,109955,1,8,0:0:0:0:
40,308,110110,2,0,L|32:248,1,45.5999986083985,8|8,0:0|0:0,0:0:0:0:
64,184,110421,6,0,P|136:192|200:184,1,114.000004348755,4|0,0:0|0:0,0:0:0:0:
288,148,110887,2,0,P|272:168|248:204,1,57.0000021743775,2|0,0:0|0:0,0:0:0:0:
232,276,111198,1,8,0:0:0:0:
232,276,111354,1,2,0:0:0:0:
304,320,111509,2,0,P|348:324|384:332,1,57.0000021743775,2|0,0:0|0:0,0:0:0:0:
468,368,111820,6,0,L|460:240,1,114.000004348755,4|2,0:0|0:0,0:0:0:0:
404,188,112286,2,0,P|386:215|380:248,1,57.0000021743775,2|8,0:0|0:0,0:0:0:0:
296,220,112597,2,0,P|286:195|274:167,1,57.0000021743775,2|2,0:0|0:0,0:0:0:0:
200,72,112908,6,0,L|189:185,1,114.000004348755,4|8,0:0|0:0,0:0:0:0:
124,244,113374,2,0,L|128:308,1,57.0000021743775,2|0,0:0|0:0,0:0:0:0:
196,352,113685,1,8,0:0:0:0:
196,352,113996,2,0,P|228:340|272:332,1,57.0000021743775,2|2,0:0|0:0,0:0:0:0:
368,364,114307,6,0,P|336:316|328:244,1,114.000004348755,4|2,0:0|0:0,0:0:0:0:
364,184,114773,2,0,L|424:180,1,57.0000021743775,2|8,0:0|0:0,0:0:0:0:
408,96,115084,2,0,L|344:88,1,57.0000021743775,2|2,0:0|0:0,0:0:0:0:
252,24,115395,6,0,P|252:80|244:160,1,114.000004348755,4|8,0:0|0:0,0:0:0:0:
176,184,115862,2,0,P|160:156|148:116,1,57.0000021743775,2|0,0:0|0:0,0:0:0:0:
116,56,116172,1,8,0:0:0:0:
116,56,116483,2,0,P|84:76|68:108,1,57.0000021743775,2|2,0:0|0:0,0:0:0:0:
12,192,116794,6,0,L|125:186,1,114.000004348755,4|2,0:0|0:0,0:0:0:0:
204,148,117260,2,0,L|280:156,1,57.0000021743775,2|8,0:0|0:0,0:0:0:0:
344,128,117571,1,2,0:0:0:0:
408,184,117727,2,0,L|404:256,1,57.0000021743775,2|2,0:0|0:0,0:0:0:0:
328,340,118038,6,0,L|324:276,1,57.0000021743775,4|0,0:0|0:0,0:0:0:0:
264,224,118349,2,0,L|272:156,1,57.0000021743775,2|0,0:0|0:0,0:0:0:0:
308,92,118659,2,0,P|284:76|248:68,1,57.0000021743775,2|0,0:0|0:0,0:0:0:0:
188,120,118970,2,0,P|152:116|128:112,1,57.0000021743775,2|0,0:0|0:0,0:0:0:0:
24,48,119281,6,0,P|20:84|20:112,1,57.0000021743775,2|0,0:0|0:0,0:0:0:0:
56,184,119592,2,0,L|68:208|81:234,1,57.0000021743775,2|0,0:0|0:0,0:0:0:0:
88,320,119903,2,0,P|124:308|164:300,1,57.0000021743775,2|0,0:0|0:0,0:0:0:0:
232,356,120214,2,0,P|224:328|220:292,1,57.0000021743775,2|0,0:0|0:0,0:0:0:0:
296,200,120525,6,0,L|288:260,1,57.0000021743775,4|0,0:0|0:0,0:0:0:0:
208,224,120836,1,2,0:0:0:0:
208,224,120991,2,0,L|204:156,1,57.0000021743775,0|2,0:0|0:0,0:0:0:0:
192,84,121302,1,0,0:0:0:0:
272,108,121457,2,0,L|352:104,1,57.0000021743775,2|0,0:0|0:0,0:0:0:0:
408,72,121768,5,4,0:0:0:0:
452,144,121924,2,0,L|448:224,1,57.0000021743775,8|8,0:0|0:0,0:0:0:0:
408,276,122235,1,8,0:0:0:0:
332,240,122390,2,0,L|280:240,5,28.5000010871888,8|2|8|2|8|2,0:0|0:0|0:0|0:0|0:0|0:0,0:0:0:0:
268,264,122856,6,0,P|236:204|176:176,1,136.799995825195,4|2,0:0|0:0,0:0:0:0:
96,216,123323,2,0,L|88:284,1,68.3999979125977,8|0,0:0|0:0,0:0:0:0:
152,348,123634,2,0,P|188:340|232:336,1,68.3999979125977,2|2,0:0|0:0,0:0:0:0:
308,352,123944,2,0,L|320:276,1,68.3999979125977,8|0,0:0|0:0,0:0:0:0:
364,208,124255,6,0,L|432:200,1,68.3999979125977,2|2,0:0|0:0,0:0:0:0:
380,128,124566,2,0,L|448:120,1,68.3999979125977,8|2,0:0|0:0,0:0:0:0:
368,48,124877,2,0,L|276:40,1,68.3999979125977,2|2,0:0|0:0,0:0:0:0:
212,20,125188,1,8,0:0:0:0:
140,72,125343,6,0,B|124:120|124:120|124:224,1,136.799995825195,4|2,0:0|0:0,0:0:0:0:
204,248,125810,2,0,P|220:220|252:188,1,68.3999979125977,8|0,0:0|0:0,0:0:0:0:
332,220,126121,2,0,L|424:216,1,68.3999979125977,2|2,0:0|0:0,0:0:0:0:
480,260,126431,1,8,0:0:0:0:
416,320,126587,6,0,L|324:308,1,68.3999979125977,2|2,0:0|0:0,0:0:0:0:
264,284,126898,2,0,L|255:360,1,68.3999979125977,2|8,0:0|0:0,0:0:0:0:
172,320,127209,2,0,P|165:262|164:184,1,136.799995825195,2|2,0:0|0:0,0:0:0:0:
204,104,127675,1,8,0:0:0:0:
264,168,127830,6,0,B|336:180|336:140|408:172,1,136.799995825195,4|2,0:0|0:0,0:0:0:0:
484,192,128297,2,0,P|496:156|504:100,1,68.3999979125977,8|0,0:0|0:0,0:0:0:0:
444,60,128608,1,2,0:0:0:0:
444,60,128763,1,2,0:0:0:0:
356,76,128919,2,0,L|280:68,1,68.3999979125977,8|2,0:0|0:0,0:0:0:0:
204,104,129229,6,0,P|188:136|176:172,1,68.3999979125977,4|0,0:0|0:0,0:0:0:0:
120,236,129540,2,0,P|152:264|184:276,1,68.3999979125977,8|0,0:0|0:0,0:0:0:0:
304,212,129851,2,0,P|268:216|232:232,1,68.3999979125977,2|2,0:0|0:0,0:0:0:0:
276,308,130162,1,8,0:0:0:0:
360,280,130317,6,0,P|384:216|356:140,1,136.799995825195,4|2,0:0|0:0,0:0:0:0:
284,112,130784,2,0,L|188:120,1,68.3999979125977,2|0,0:0|0:0,0:0:0:0:
132,92,131095,2,0,L|140:176,1,68.3999979125977,2|0,0:0|0:0,0:0:0:0:
104,244,131406,2,0,L|184:236,1,68.3999979125977,2|0,0:0|0:0,0:0:0:0:
292,192,131716,6,0,L|288:280,1,68.3999979125977,2|0,0:0|0:0,0:0:0:0:
352,324,132027,2,0,P|364:292|388:260,1,68.3999979125977,2|0,0:0|0:0,0:0:0:0:
460,216,132338,2,0,P|432:200|400:168,1,68.3999979125977,8|8,0:0|0:0,0:0:0:0:
340,116,132649,1,8,0:0:0:0:
292,192,132805,6,0,L|132:184,1,136.799995825195,4|2,0:0|0:0,0:0:0:0:
80,112,133271,2,0,L|164:104,1,68.3999979125977,8|0,0:0|0:0,0:0:0:0:
220,52,133582,1,2,0:0:0:0:
304,84,133737,2,0,P|339:91|376:92,1,68.3999979125977,2|8,0:0|0:0,0:0:0:0:
456,72,134048,1,2,0:0:0:0:
456,72,134203,6,0,L|436:212,1,136.799995825195,2|8,0:0|0:0,0:0:0:0:
380,276,134670,2,0,P|344:256|316:248,1,68.3999979125977,2|0,0:0|0:0,0:0:0:0:
244,300,134981,2,0,P|240:264|220:216,1,68.3999979125977,2|8,0:0|0:0,0:0:0:0:
144,140,135292,6,0,L|136:304,1,136.799995825195,4|0,0:0|0:0,0:0:0:0:
64,328,135758,2,0,P|47:290|44:252,1,68.3999979125977,8|0,0:0|0:0,0:0:0:0:
52,176,136069,2,0,P|60:140|64:76,1,68.3999979125977,2|2,0:0|0:0,0:0:0:0:
44,20,136380,1,8,0:0:0:0:
44,20,136535,6,0,L|128:16,1,68.3999979125977,2|0,0:0|0:0,0:0:0:0:
184,68,136846,2,0,L|268:64,1,68.3999979125977,2|8,0:0|0:0,0:0:0:0:
332,20,137157,2,0,P|332:92|340:164,1,136.799995825195,2|2,0:0|0:0,0:0:0:0:
408,212,137623,1,8,0:0:0:0:
408,212,137779,1,2,0:0:0:0:
360,288,137934,6,0,P|293:292|223:291,1,136.799995825195,4|8,0:0|0:0,0:0:0:0:
140,256,138400,1,2,0:0:0:0:
56,288,138556,2,0,L|48:220,1,68.3999979125977,0|2,0:0|0:0,0:0:0:0:
64,132,138867,1,8,0:0:0:0:
144,168,139022,6,0,L|224:160,1,68.3999979125977,2|0,0:0|0:0,0:0:0:0:
288,116,139333,2,0,P|324:96|376:88,1,68.3999979125977,2|8,0:0|0:0,0:0:0:0:
428,132,139644,2,0,L|424:200,1,68.3999979125977,2|0,0:0|0:0,0:0:0:0:
372,272,139955,1,2,0:0:0:0:
372,272,140110,2,0,P|340:248|288:228,1,68.3999979125977,8|0,0:0|0:0,0:0:0:0:
228,340,140421,6,0,P|235:279|235:203,1,136.799995825195,4|8,0:0|0:0,0:0:0:0:
88,104,141043,2,0,P|75:74|67:38,2,68.3999979125977,2|2|8,0:0|0:0|0:0,0:0:0:0:
176,120,141509,6,0,L|320:108,1,136.799995825195,4|2,0:0|0:0,0:0:0:0:
384,184,141976,2,0,L|308:192,1,68.3999979125977,8|2,0:0|0:0,0:0:0:0:
240,236,142286,1,8,0:0:0:0:
240,236,142442,1,8,0:0:0:0:
156,208,142597,2,0,P|120:192|88:184,1,68.3999979125977,8|8,0:0|0:0,0:0:0:0:
60,300,142908,6,0,L|168:296,1,91.199997216797,4|2,0:0|0:0,0:0:0:0:
332,264,143530,2,0,P|356:280|376:296,1,45.5999986083985,8|2,0:0|0:0,0:0:0:0:
440,348,143841,1,2,0:0:0:0:
476,264,143996,6,0,B|480:228|480:228|476:168,1,91.199997216797,2|8,0:0|0:0,0:0:0:0:
396,128,144463,2,0,L|384:192,1,45.5999986083985,2|0,0:0|0:0,0:0:0:0:
304,212,144773,2,0,L|244:220,1,45.5999986083985,8|2,0:0|0:0,0:0:0:0:
180,172,145084,2,0,L|172:116,1,45.5999986083985,2|8,0:0|0:0,0:0:0:0:
96,56,145395,6,0,P|96:108|84:156,1,91.199997216797,2|2,0:0|0:0,0:0:0:0:
28,216,145862,1,2,0:0:0:0:
28,216,146017,2,0,L|72:224,1,45.5999986083985,8|8,0:0|0:0,0:0:0:0:
148,276,146328,1,8,0:0:0:0:
228,232,146483,6,0,L|332:216,1,91.199997216797,4|8,0:0|0:0,0:0:0:0:
404,248,146950,1,2,0:0:0:0:
484,204,147105,1,2,0:0:0:0:
484,204,147183,1,2,0:0:0:0:
484,204,147260,2,0,L|487:158,1,45.5999986083985,2|8,0:0|0:0,0:0:0:0:
424,92,147571,2,0,L|412:40,1,45.5999986083985,8|8,0:0|0:0,0:0:0:0:
356,156,147882,6,0,L|219:144,1,136.799995825195,4|2,0:0|0:0,0:0:0:0:
136,116,148349,1,2,0:0:0:0:
136,116,148504,2,0,P|117:156|112:200,1,68.3999979125977,8|2,0:0|0:0,0:0:0:0:
92,268,148815,1,2,0:0:0:0:
164,320,148970,6,0,P|231:318|304:312,1,136.799995825195,4|2,0:0|0:0,0:0:0:0:
396,240,149437,2,0,P|366:237|316:236,1,68.3999979125977,2|0,0:0|0:0,0:0:0:0:
240,240,149748,1,8,0:0:0:0:
240,240,149903,2,0,P|232:200|232:172,1,68.3999979125977,2|2,0:0|0:0,0:0:0:0:
324,88,150214,6,0,L|314:155,1,68.3999979125977,4|0,0:0|0:0,0:0:0:0:
244,100,150525,2,0,L|236:32,1,68.3999979125977,2|2,0:0|0:0,0:0:0:0:
160,80,150836,2,0,L|92:72,1,68.3999979125977,8|2,0:0|0:0,0:0:0:0:
36,140,151147,1,2,0:0:0:0:
36,140,151302,2,0,P|56:172|72:220,1,68.3999979125977,8|2,0:0|0:0,0:0:0:0:
104,332,151613,1,4,0:0:0:0:
104,332,152235,5,0,0:0:0:0:
260,284,152545,1,0,0:0:0:0:
440,320,152856,6,0,P|460:256|448:168,1,152,4|8,0:0|0:0,0:0:0:0:
368,128,153323,1,2,0:0:0:0:
300,188,153478,2,0,L|204:192,1,76,2|0,0:0|0:0,0:0:0:0:
168,264,153789,1,8,0:0:0:0:
88,216,153944,6,0,B|68:164|68:164|56:48,1,152,2|2,0:0|0:0,0:0:0:0:
148,48,154411,2,0,P|192:44|232:32,1,76,8|0,0:0|0:0,0:0:0:0:
312,24,154722,2,0,P|348:32|388:56,1,76,2|0,0:0|0:0,0:0:0:0:
432,128,155033,2,0,P|456:96|468:56,1,76,8|2,0:0|0:0,0:0:0:0:
344,128,155343,6,0,L|328:292,1,152,4|8,0:0|0:0,0:0:0:0:
252,328,155810,2,0,L|248:232,1,76,2|0,0:0|0:0,0:0:0:0:
196,176,156121,1,2,0:0:0:0:
196,176,156276,1,8,0:0:0:0:
132,240,156431,6,0,P|84:204|56:116,1,152,2|2,0:0|0:0,0:0:0:0:
132,64,156898,2,0,L|211:58,1,76,8|2,0:0|0:0,0:0:0:0:
288,104,157209,2,0,L|368:116,1,76,2|0,0:0|0:0,0:0:0:0:
452,96,157520,2,0,P|468:136|476:178,1,76,8|0,0:0|0:0,0:0:0:0:
436,280,157830,6,0,B|388:232|388:232|352:256|296:240,1,152,4|8,0:0|0:0,0:0:0:0:
232,188,158297,1,2,0:0:0:0:
232,188,158452,2,0,P|215:226|204:276,1,76,2|0,0:0|0:0,0:0:0:0:
180,348,158763,1,8,0:0:0:0:
84,276,158919,6,0,L|76:192,1,76,4|0,0:0|0:0,0:0:0:0:
8,140,159229,2,0,L|16:52,1,76,2|8,0:0|0:0,0:0:0:0:
100,100,159540,2,0,P|176:112|240:64,1,152,2|2,0:0|0:0,0:0:0:0:
316,28,160007,2,0,L|324:104,1,76,8|2,0:0|0:0,0:0:0:0:
428,204,160317,6,0,P|364:184|280:184,1,152,4|8,0:0|0:0,0:0:0:0:
204,232,160784,1,2,0:0:0:0:
204,232,160939,2,0,L|200:312,1,76,2|0,0:0|0:0,0:0:0:0:
264,376,161250,1,8,0:0:0:0:
368,312,161406,6,0,L|456:304,1,76,4|0,0:0|0:0,0:0:0:0:
372,208,161716,2,0,L|284:200,1,76,4|0,0:0|0:0,0:0:0:0:
228,140,162027,1,8,0:0:0:0:
228,140,162105,1,8,0:0:0:0:
228,140,162183,2,0,P|188:136|132:160,1,76,8|2,0:0|0:0,0:0:0:0:
68,112,162494,2,0,L|64:28,1,76,8|8,0:0|0:0,0:0:0:0:
8,180,162805,6,0,L|16:360,1,152,4|8,0:0|0:0,0:0:0:0:
108,340,163271,2,0,P|119:295|128:252,1,76,2|0,0:0|0:0,0:0:0:0:
144,176,163582,1,2,0:0:0:0:
144,176,163737,1,8,0:0:0:0:
216,232,163893,6,0,L|376:240,1,152,2|2,0:0|0:0,0:0:0:0:
464,172,164359,2,0,L|384:164,1,76,8|2,0:0|0:0,0:0:0:0:
300,136,164670,2,0,P|292:92|292:44,1,76,2|0,0:0|0:0,0:0:0:0:
204,28,164981,2,0,P|204:76|196:116,1,76,8|0,0:0|0:0,0:0:0:0:
88,176,165292,6,0,P|152:200|208:268,1,152,4|8,0:0|0:0,0:0:0:0:
248,344,165758,2,0,P|288:328|340:292,1,76,2|0,0:0|0:0,0:0:0:0:
368,236,166069,1,2,0:0:0:0:
368,236,166224,1,8,0:0:0:0:
444,288,166380,6,0,L|460:120,1,152,4|2,0:0|0:0,0:0:0:0:
388,60,166846,2,0,L|376:144,1,76,8|0,0:0|0:0,0:0:0:0:
296,176,167157,2,0,P|264:160|216:140,1,76,2|2,0:0|0:0,0:0:0:0:
136,124,167468,2,0,P|140:160|144:204,1,76,8|0,0:0|0:0,0:0:0:0:
132,328,167779,5,4,0:0:0:0:
132,328,167934,2,0,P|168:304|224:280,1,76,2|8,0:0|0:0,0:0:0:0:
284,320,168245,1,2,0:0:0:0:
284,320,168400,2,0,P|332:320|380:312,1,76,2|2,0:0|0:0,0:0:0:0:
436,268,168711,1,8,0:0:0:0:
344,200,168867,6,0,L|336:44,1,152,4|2,0:0|0:0,0:0:0:0:
252,108,169333,2,0,P|214:115|177:120,1,76,8|2,0:0|0:0,0:0:0:0:
92,84,169644,2,0,L|88:160,1,76,2|0,0:0|0:0,0:0:0:0:
12,212,169955,2,0,L|16:292,1,76,8|0,0:0|0:0,0:0:0:0:
120,360,170266,5,4,0:0:0:0:
120,360,170421,2,0,L|212:348,1,76,2|8,0:0|0:0,0:0:0:0:
268,292,170732,1,2,0:0:0:0:
344,344,170887,2,0,P|368:308|384:264,1,76,2|0,0:0|0:0,0:0:0:0:
376,188,171198,1,8,0:0:0:0:
316,116,171354,6,0,L|228:108,1,76,2|0,0:0|0:0,0:0:0:0:
152,84,171665,2,0,L|144:188,1,76,2|8,0:0|0:0,0:0:0:0:
80,256,171976,2,0,P|160:252|240:256,1,152,2|2,0:0|0:0,0:0:0:0:
316,288,172442,2,0,P|324:248|328:208,1,76,8|0,0:0|0:0,0:0:0:0:
244,100,172753,6,0,P|244:140|256:192,1,76,4|2,0:0|0:0,0:0:0:0:
332,132,173064,1,8,0:0:0:0:
332,132,173219,1,2,0:0:0:0:
412,176,173374,2,0,L|404:272,1,76,2|0,0:0|0:0,0:0:0:0:
352,328,173685,1,8,0:0:0:0:
264,304,173841,6,0,L|188:296,1,76,2|0,0:0|0:0,0:0:0:0:
104,336,174152,2,0,P|92:296|88:252,1,76,2|8,0:0|0:0,0:0:0:0:
112,172,174463,2,0,P|156:164|200:164,1,76,2|0,0:0|0:0,0:0:0:0:
268,208,174773,1,2,0:0:0:0:
344,160,174929,2,0,L|352:76,1,76,8|0,0:0|0:0,0:0:0:0:
452,160,175240,6,0,B|460:208|460:208|440:332,1,152,4|8,0:0|0:0,0:0:0:0:
360,348,175706,1,0,0:0:0:0:
284,296,175862,2,0,L|196:284,1,76,2|2,0:0|0:0,0:0:0:0:
124,324,176172,1,8,0:0:0:0:
52,268,176328,6,0,B|40:216|40:216|48:116,1,152,4|2,0:0|0:0,0:0:0:0:
120,64,176794,1,8,0:0:0:0:
196,116,176950,2,0,P|240:122|272:120,1,76,8|2,0:0|0:0,0:0:0:0:
348,68,177260,2,0,L|396:56,5,38,10|10|2|10|10|10,0:0|0:0|0:0|0:0|0:0|0:0,0:0:0:0:
424,84,177727,6,0,P|440:152|448:244,1,152,4|2,0:0|0:0,0:0:0:0:
384,296,178193,2,0,B|344:284|344:284|284:304|284:304|228:296,1,152,4|2,0:0|0:0,0:0:0:0:
148,316,178659,2,0,L|144:208,1,76,4|0,0:0|0:0,0:0:0:0:
108,156,178970,5,2,0:0:0:0:
200,164,179126,2,0,L|300:160,1,76,4|0,0:0|0:0,0:0:0:0:
356,112,179437,1,2,0:0:0:0:
356,112,179592,2,0,P|376:140|396:192,1,76,4|8,0:0|0:0,0:0:0:0:
352,260,179903,2,0,L|244:248,1,76,8|8,0:0|0:0,0:0:0:0:
188,332,180214,6,0,P|196:256|184:168,1,152,4|2,0:0|0:0,0:0:0:0:
140,104,180680,2,0,P|219:130|291:118,1,152,4|2,0:0|0:0,0:0:0:0:
404,68,181146,2,0,P|374:99|362:131,1,76,4|0,0:0|0:0,0:0:0:0:
412,208,181457,5,2,0:0:0:0:
364,284,181613,2,0,L|272:280,1,76,4|0,0:0|0:0,0:0:0:0:
200,248,181924,1,2,0:0:0:0:
116,280,182079,2,0,P|100:252|88:200,1,76,4|8,0:0|0:0,0:0:0:0:
96,184,182312,1,8,0:0:0:0:
96,184,182390,2,0,P|104:140|104:92,1,76,8|8,0:0|0:0,0:0:0:0:
60,28,182701,6,0,L|135:18,1,76,4|2,0:0|0:0,0:0:0:0:
224,36,183012,1,2,0:0:0:0:
312,16,183167,2,0,L|328:100,1,76,4|2,0:0|0:0,0:0:0:0:
344,180,183478,1,2,0:0:0:0:
420,128,183634,2,0,L|495:131,1,76,4|2,0:0|0:0,0:0:0:0:
512,220,183944,5,2,0:0:0:0:
432,264,184100,2,0,L|424:348,1,76,4|2,0:0|0:0,0:0:0:0:
336,368,184411,1,2,0:0:0:0:
256,320,184566,2,0,L|148:316,1,76,4|2,0:0|0:0,0:0:0:0:
152,316,184799,1,2,0:0:0:0:
152,316,184877,2,0,P|160:266|160:232,1,76,2|2,0:0|0:0,0:0:0:0:
80,148,185188,6,0,P|70:191|70:223,1,76,4|0,0:0|0:0,0:0:0:0:
160,240,185499,1,2,0:0:0:0:
240,200,185654,2,0,L|352:192,1,76,4|2,0:0|0:0,0:0:0:0:
392,244,185965,1,2,0:0:0:0:
460,180,186121,2,0,P|452:136|444:96,1,76,4|2,0:0|0:0,0:0:0:0:
368,60,186431,5,2,0:0:0:0:
284,100,186587,2,0,P|269:139|260:192,1,76,4|2,0:0|0:0,0:0:0:0:
216,252,186898,1,2,0:0:0:0:
148,192,187053,2,0,L|64:184,1,76,4|8,0:0|0:0,0:0:0:0:
56,204,187286,1,8,0:0:0:0:
56,204,187364,2,0,P|55:252|60:292,1,76,8|2,0:0|0:0,0:0:0:0:
172,336,187675,6,0,L|264:328,1,76,8|2,0:0|0:0,0:0:0:0:
332,296,187986,1,2,0:0:0:0:
268,228,188141,2,0,L|260:144,1,76,4|0,0:0|0:0,0:0:0:0:
332,96,188452,1,2,0:0:0:0:
420,120,188608,2,0,L|416:204,1,76,4|0,0:0|0:0,0:0:0:0:
412,288,188919,5,2,0:0:0:0:
332,248,189074,2,0,P|264:268|184:320,1,152,4|2,0:0|0:0,0:0:0:0:
112,276,189540,1,4,0:0:0:0:
88,188,189696,1,2,0:0:0:0:
88,188,189773,1,2,0:0:0:0:
88,188,189851,2,0,L|180:184,1,76,8|2,0:0|0:0,0:0:0:0:
240,84,190162,6,0,L|252:252,1,152,8|2,0:0|0:0,0:0:0:0:
320,328,190628,2,0,L|332:248,1,76,8|2,0:0|0:0,0:0:0:0:
392,184,190939,1,2,0:0:0:0:
392,184,191095,2,0,L|384:96,1,76,8|2,0:0|0:0,0:0:0:0:
308,60,191406,5,2,0:0:0:0:
240,120,191561,2,0,L|84:104,1,152,8|2,0:0|0:0,0:0:0:0:
48,184,192027,1,8,0:0:0:0:
32,272,192183,1,2,0:0:0:0:
32,272,192260,1,2,0:0:0:0:
32,272,192338,2,0,L|128:264,1,76,8|2,0:0|0:0,0:0:0:0:
184,220,192649,5,4,0:0:0:0:
256,276,192805,2,0,L|264:340,2,38,8|8|8,0:0|0:0|0:0,0:0:0:0:
320,212,193115,1,4,0:0:0:0:
396,264,193271,2,0,L|408:308,2,38,8|8|8,0:0|0:0|0:0,0:0:0:0:
452,192,193582,1,4,0:0:0:0:
424,108,193737,6,0,L|440:52,2,38,8|8|8,0:0|0:0|0:0,0:0:0:0:
356,172,194048,1,4,0:0:0:0:
288,112,194203,2,0,L|300:56,2,38,8|8|8,0:0|0:0|0:0,0:0:0:0:
224,176,194514,2,0,P|188:172|136:176,1,76,4|2,0:0|0:0,0:0:0:0:
64,212,194825,1,8,0:0:0:0:
64,212,194903,1,8,0:0:0:0:
64,212,194981,1,8,0:0:0:0:
124,280,195136,6,0,L|132:360,1,76,4|8,0:0|0:0,0:0:0:0:
280,248,195602,2,0,L|264:328,1,76,4|8,0:0|0:0,0:0:0:0:
176,164,196069,2,0,L|168:72,1,76,4|8,0:0|0:0,0:0:0:0:
169,88,197623,5,4,0:0:0:0:
192,176,206328,5,2,3:0:0:0:
192,176,206639,2,0,L|260:172,1,57.0000021743775,8|2,0:0|0:0,0:0:0:0:
332,256,206950,2,0,L|264:252,1,57.0000021743775,8|8,3:0|3:0,0:0:0:0:
192,268,207260,2,0,P|188:292|176:322,1,57.0000021743775,8|2,0:0|0:0,0:0:0:0:
84,256,207571,6,0,P|76:212|84:120,1,114.000004348755,4|2,0:0|0:0,0:0:0:0:
196,20,208193,1,8,0:0:0:0:
340,112,208504,2,0,L|412:104,1,57.0000021743775,2|8,0:0|0:0,0:0:0:0:
320,192,208815,6,0,L|244:188,1,57.0000021743775,2|0,0:0|0:0,0:0:0:0:
192,140,209126,1,8,0:0:0:0:
192,140,209437,2,0,P|172:176|160:224,1,85.5000032615663,8|2,0:0|0:0,0:0:0:0:
136,236,209748,2,0,L|88:176,1,57.0000021743775,2|2,0:0|0:0,0:0:0:0:
28,312,210058,6,0,B|76:324|76:324|164:316,1,114.000004348755,4|2,0:0|0:0,0:0:0:0:
308,360,210680,2,0,B|296:304|296:304|308:228,1,114.000004348755,8|2,0:0|0:0,0:0:0:0:
324,164,211146,1,8,0:0:0:0:
324,164,211302,6,0,L|260:168,1,57.0000021743775,2|8,0:0|0:0,0:0:0:0:
104,112,211768,1,8,0:0:0:0:
104,112,211846,1,8,0:0:0:0:
104,112,211924,2,0,P|136:92|172:80,1,57.0000021743775,8|2,0:0|0:0,0:0:0:0:
240,96,212235,2,0,L|244:160,1,57.0000021743775,2|0,0:0|0:0,0:0:0:0:
320,277,212545,6,0,P|327:211|323:163,1,114.000004348755,4|0,0:0|0:0,0:0:0:0:
216,300,213167,2,0,L|92:292,1,114.000004348755,8|2,0:0|0:0,0:0:0:0:
60,216,213634,1,2,0:0:0:0:
112,148,213789,6,0,L|120:76,1,57.0000021743775,4|0,0:0|0:0,0:0:0:0:
200,116,214100,2,0,L|232:40,1,57.0000021743775,8|0,0:0|0:0,0:0:0:0:
292,116,214411,2,0,L|360:92,1,57.0000021743775,8|2,0:0|0:0,0:0:0:0:
352,184,214722,2,0,L|424:200,1,57.0000021743775,2|8,0:0|0:0,0:0:0:0:
492,188,215033,5,4,0:0:0:0:
452,264,215188,2,0,P|429:313|412:388,1,114.000004348755,8|0,0:0|0:0,0:0:0:0:
328,356,215654,2,0,P|316:320|300:292,1,57.0000021743775,8|2,0:0|0:0,0:0:0:0:
240,248,215965,1,8,0:0:0:0:
192,320,216121,6,0,L|68:316,1,114.000004348755,2|2,0:0|0:0,0:0:0:0:
116,240,216587,2,0,P|125:211|128:176,1,57.0000021743775,2|2,0:0|0:0,0:0:0:0:
112,160,216820,1,2,0:0:0:0:
112,160,216898,2,0,L|184:148,1,57.0000021743775,8|2,0:0|0:0,0:0:0:0:
232,92,217209,2,0,L|300:100,1,57.0000021743775,2|2,0:0|0:0,0:0:0:0:
400,176,217520,6,0,L|272:184,1,114.000004348755,4|0,0:0|0:0,0:0:0:0:
180,320,218141,2,0,L|316:336,1,114.000004348755,8|2,0:0|0:0,0:0:0:0:
372,372,218608,6,0,P|372:312|380:244,1,114.000004348755,8|2,0:0|0:0,0:0:0:0:
400,176,219074,1,2,0:0:0:0:
264,72,219385,2,0,P|248:132|244:168,1,85.5000032615663,8|2,0:0|0:0,0:0:0:0:
260,180,219696,2,0,L|203:171,1,57.0000021743775,2|8,0:0|0:0,0:0:0:0:
120,84,220007,6,0,P|124:144|104:220,1,114.000004348755,4|2,0:0|0:0,0:0:0:0:
20,340,220628,1,8,0:0:0:0:
188,304,220939,2,0,L|264:300,1,57.0000021743775,2|8,0:0|0:0,0:0:0:0:
388,280,221250,6,0,P|344:304|304:356,1,114.000004348755,4|2,0:0|0:0,0:0:0:0:
220,356,221716,1,2,0:0:0:0:
220,356,221794,1,2,0:0:0:0:
220,356,221872,2,0,L|96:352,1,114.000004348755,8|8,0:0|0:0,0:0:0:0:
48,192,222494,6,0,B|108:184|108:184|172:196,1,114.000004348755,4|0,0:0|0:0,0:0:0:0:
240,228,222960,1,2,0:0:0:0:
240,228,223115,2,0,B|276:184|276:184|288:116,1,114.000004348755,8|0,0:0|0:0,0:0:0:0:
160,12,223737,5,4,0:0:0:0:
240,48,223893,2,0,L|372:40,1,114.000004348755,2|2,0:0|0:0,0:0:0:0:
440,36,224359,2,0,P|424:72|414:117,1,85.5000032615663,8|2,0:0|0:0,0:0:0:0:
424,144,224670,2,0,P|432:176|432:204,1,57.0000021743775,2|8,0:0|0:0,0:0:0:0:
376,264,224981,5,4,0:0:0:0:
304,220,225136,1,8,0:0:0:0:
304,220,225214,1,8,0:0:0:0:
304,220,225292,1,8,0:0:0:0:
240,276,225447,2,0,L|183:273,1,57.0000021743775,8|8,0:0|0:0,0:0:0:0:
104,236,225758,2,0,L|112:160,1,57.0000021743775,8|2,0:0|0:0,0:0:0:0:
160,112,226069,1,2,0:0:0:0:
232,160,226224,1,4,0:0:0:0:
232,160,227468,6,0,B|192:220|192:220|144:196|144:196|108:268|32:292,2,266,4|0|0,0:0|0:0|0:0,0:0:0:0:
324,140,229955,6,0,B|332:52|388:8|388:8|424:56|492:60,2,266,2|0|0,0:0|0:0|0:0,0:0:0:0:
240,176,232442,6,0,B|145:172|145:172|117:220|117:220|61:176|9:199,2,266,2|0|0,0:0|0:0|0:0,0:0:0:0:
320,136,234929,6,0,P|340:208|352:292,1,152,2|2,0:0|0:0,0:0:0:0:
388,368,235862,1,2,0:0:0:0:
388,368,236017,1,2,0:0:0:0:
440,268,236328,6,0,L|440:216,1,38,2|2,0:0|0:0,0:0:0:0:
404,164,236639,1,8,0:0:0:0:
404,164,236716,1,8,0:0:0:0:
404,164,236794,2,0,L|364:152,1,38,8|8,0:0|0:0,0:0:0:0:
292,136,237105,2,0,L|284:184,1,38,8|8,0:0|0:0,0:0:0:0:
224,232,237416,6,0,L|100:220,1,114.000004348755,4|2,0:0|0:0,0:0:0:0:
0,88,238038,2,0,P|44:80|104:80,1,85.5000032615663,8|2,0:0|0:0,0:0:0:0:
108,96,238349,2,0,P|128:72|144:36,1,57.0000021743775,2|2,0:0|0:0,0:0:0:0:
220,20,238659,6,0,L|224:156,1,114.000004348755,4|2,0:0|0:0,0:0:0:0:
272,300,239281,2,0,L|332:292,1,57.0000021743775,8|8,0:0|0:0,0:0:0:0:
380,224,239592,2,0,P|352:212|316:208,1,57.0000021743775,2|2,0:0|0:0,0:0:0:0:
432,292,239903,6,0,P|460:240|444:168,1,114.000004348755,4|2,0:0|0:0,0:0:0:0:
316,88,240525,1,8,0:0:0:0:
184,196,240836,2,0,L|176:272,1,57.0000021743775,2|2,0:0|0:0,0:0:0:0:
96,172,241146,6,0,L|80:32,1,114.000004348755,4|2,0:0|0:0,0:0:0:0:
164,28,241613,1,2,0:0:0:0:
164,28,241691,1,2,0:0:0:0:
164,28,241768,2,0,P|188:52|228:64,1,57.0000021743775,8|8,0:0|0:0,0:0:0:0:
280,16,242079,2,0,P|320:8|360:16,1,57.0000021743775,2|8,0:0|0:0,0:0:0:0:
432,64,242390,6,0,L|412:192,1,114.000004348755,4|2,0:0|0:0,0:0:0:0:
388,348,243012,1,8,0:0:0:0:
252,244,243323,1,2,0:0:0:0:
252,244,243478,6,0,L|128:232,1,114.000004348755,4|8,0:0|0:0,0:0:0:0:
44,160,243944,2,0,L|104:152,1,57.0000021743775,2|0,0:0|0:0,0:0:0:0:
180,116,244255,1,8,0:0:0:0:
180,116,244411,1,8,0:0:0:0:
256,152,244566,2,0,L|276:84,1,57.0000021743775,2|0,0:0|0:0,0:0:0:0:
348,12,244877,6,0,L|354:74,1,57.0000021743775,4|2,0:0|0:0,0:0:0:0:
412,132,245188,1,2,0:0:0:0:
364,204,245343,2,0,L|348:264,1,57.0000021743775,8|2,0:0|0:0,0:0:0:0:
284,316,245654,1,2,0:0:0:0:
200,296,245810,1,2,0:0:0:0:
148,228,245965,1,4,0:0:0:0:
148,228,246742,5,0,0:0:0:0:
308,284,247053,1,0,0:0:0:0:
444,184,247364,6,0,P|440:128|428:52,1,114.000004348755,4|0,0:0|0:0,0:0:0:0:
276,144,247986,2,0,P|280:87|296:20,1,114.000004348755,0|2,0:0|0:0,0:0:0:0:
356,192,248608,6,0,P|360:240|324:304,1,114.000004348755,2|2,0:0|0:0,0:0:0:0:
164,336,249229,1,2,0:0:0:0:
116,264,249385,2,0,L|108:220,5,28.5000010871888,8|8|8|8|8|8,0:0|0:0|0:0|0:0|0:0|0:0,0:0:0:0:
124,192,249851,6,0,P|204:200|280:216,1,152,4|8,0:0|0:0,0:0:0:0:
348,268,250317,1,2,0:0:0:0:
348,268,250473,2,0,P|369:231|377:179,1,76,2|0,0:0|0:0,0:0:0:0:
380,108,250784,1,8,0:0:0:0:
292,128,250939,6,0,L|140:139,1,152,2|2,0:0|0:0,0:0:0:0:
56,100,251406,2,0,L|39:174,1,76,8|0,0:0|0:0,0:0:0:0:
64,260,251716,2,0,P|68:297|72:352,1,76,2|2,0:0|0:0,0:0:0:0:
160,336,252027,2,0,P|196:316|236:304,1,76,8|2,0:0|0:0,0:0:0:0:
379,327,252338,6,0,P|314:291|286:222,1,152,4|8,0:0|0:0,0:0:0:0:
312,132,252805,1,2,0:0:0:0:
232,88,252960,2,0,L|148:76,1,76,2|0,0:0|0:0,0:0:0:0:
88,136,253271,1,8,0:0:0:0:
160,232,253426,6,0,L|168:308,1,76,4|0,0:0|0:0,0:0:0:0:
268,244,253737,2,0,L|280:156,1,76,2|8,0:0|0:0,0:0:0:0:
380,60,254048,2,0,P|364:148|352:224,1,152,2|2,0:0|0:0,0:0:0:0:
428,264,254514,2,0,L|516:256,1,76,8|0,0:0|0:0,0:0:0:0:
356,328,254825,6,0,B|280:340|280:308|204:324,1,152,4|8,0:0|0:0,0:0:0:0:
120,352,255292,1,2,0:0:0:0:
120,352,255447,2,0,P|128:304|128:260,1,76,2|0,0:0|0:0,0:0:0:0:
84,196,255758,1,8,0:0:0:0:
196,144,255913,6,0,L|292:128,1,76,4|0,0:0|0:0,0:0:0:0:
388,32,256224,2,0,P|348:40|312:76,1,76,4|0,0:0|0:0,0:0:0:0:
360,136,256535,1,8,0:0:0:0:
360,136,256613,1,8,0:0:0:0:
360,136,256691,2,0,L|352:236,1,76,8|2,0:0|0:0,0:0:0:0:
420,272,257001,2,0,P|388:284|344:308,1,76,8|8,0:0|0:0,0:0:0:0:
248,352,257312,6,0,P|174:355|81:355,1,152,4|8,0:0|0:0,0:0:0:0:
0,280,257779,2,0,P|36:276|88:272,1,76,2|0,0:0|0:0,0:0:0:0:
152,220,258090,1,2,0:0:0:0:
152,220,258245,1,8,0:0:0:0:
232,260,258400,6,0,P|256:204|268:96,1,152,2|2,0:0|0:0,0:0:0:0:
336,52,258867,2,0,P|344:100|360:152,1,76,8|2,0:0|0:0,0:0:0:0:
404,200,259178,2,0,L|480:192,1,76,2|0,0:0|0:0,0:0:0:0:
392,292,259488,2,0,L|308:280,1,76,8|0,0:0|0:0,0:0:0:0:
216,168,259799,6,0,L|203:323,1,152,4|8,0:0|0:0,0:0:0:0:
120,240,260266,2,0,L|106:88,1,152,2|2,0:0|0:0,0:0:0:0:
144,4,260732,1,8,0:0:0:0:
224,44,260887,6,0,B|272:56|272:56|304:40|304:40|340:56|375:47,1,152,4|2,0:0|0:0,0:0:0:0:
456,20,261354,2,0,P|468:56|484:116,1,76,8|2,0:0|0:0,0:0:0:0:
420,164,261665,2,0,P|412:200|400:252,1,76,2|0,0:0|0:0,0:0:0:0:
448,316,261976,2,0,L|340:324,1,76,8|0,0:0|0:0,0:0:0:0:
296,272,262286,5,4,0:0:0:0:
216,316,262442,2,0,L|204:224,1,76,0|8,0:0|0:0,0:0:0:0:
196,148,262753,1,2,0:0:0:0:
120,200,262908,2,0,P|84:196|40:176,1,76,2|0,0:0|0:0,0:0:0:0:
8,100,263219,1,8,0:0:0:0:
128,44,263374,6,0,P|212:40|308:36,1,152,4|2,0:0|0:0,0:0:0:0:
364,72,263841,1,8,0:0:0:0:
364,72,263996,2,0,P|357:147|352:240,1,152,2|2,0:0|0:0,0:0:0:0:
288,288,264463,2,0,P|252:280|212:280,1,76,8|0,0:0|0:0,0:0:0:0:
132,320,264773,5,4,0:0:0:0:
80,244,264929,2,0,P|68:212|56:156,1,76,2|8,0:0|0:0,0:0:0:0:
116,100,265240,1,2,0:0:0:0:
204,120,265395,2,0,P|240:116|296:104,1,76,2|0,0:0|0:0,0:0:0:0:
364,72,265706,1,8,0:0:0:0:
440,120,265862,6,0,L|429:195,1,76,4|0,0:0|0:0,0:0:0:0:
376,268,266172,2,0,L|365:343,1,76,4|2,0:0|0:0,0:0:0:0:
280,236,266483,2,0,L|269:160,1,76,8|8,0:0|0:0,0:0:0:0:
224,80,266794,1,2,0:0:0:0:
156,140,266950,2,0,L|76:136,1,76,8|8,0:0|0:0,0:0:0:0:
12,256,267260,6,0,P|94:251|176:248,1,152,4|2,0:0|0:0,0:0:0:0:
340,300,267882,1,8,0:0:0:0:
160,324,268193,2,0,P|172:284|200:240,1,76,2|0,0:0|0:0,0:0:0:0:
240,180,268504,5,2,0:0:0:0:
296,252,268659,2,0,L|384:264,1,76,8|2,0:0|0:0,0:0:0:0:
472,108,269126,2,0,P|424:64|336:32,1,152,8|2,0:0|0:0,0:0:0:0:
268,88,269592,1,2,0:0:0:0:
268,88,269748,6,0,L|105:82,1,152,4|8,0:0|0:0,0:0:0:0:
28,244,270369,2,0,B|100:228|100:268|204:240,1,152,8|2,0:0|0:0,0:0:0:0:
244,180,270836,6,0,P|232:228|224:336,1,152,4|2,0:0|0:0,0:0:0:0:
308,368,271302,1,8,0:0:0:0:
388,324,271457,1,2,0:0:0:0:
388,324,271613,2,0,P|404:284|408:248,1,76,2|2,0:0|0:0,0:0:0:0:
332,200,271924,2,0,P|328:160|332:100,1,76,2|2,0:0|0:0,0:0:0:0:
432,24,272235,6,0,P|372:44|272:48,1,152,4|8,0:0|0:0,0:0:0:0:
104,20,272856,2,0,P|72:12|21:12,2,76,2|2|8,0:0|0:0|0:0,0:0:0:0:
176,76,273323,6,0,L|184:232,1,152,4|2,0:0|0:0,0:0:0:0:
264,272,273789,2,0,P|272:232|288:192,1,76,8|2,0:0|0:0,0:0:0:0:
372,228,274100,2,0,P|412:220|480:220,1,76,2|2,0:0|0:0,0:0:0:0:
404,332,274411,2,0,P|364:340|316:336,1,76,8|0,0:0|0:0,0:0:0:0:
264,272,274722,6,0,P|228:256|184:240,1,76,4|2,0:0|0:0,0:0:0:0:
104,248,275033,1,2,0:0:0:0:
144,168,275188,2,0,P|184:148|220:132,1,76,4|2,0:0|0:0,0:0:0:0:
300,168,275499,1,2,0:0:0:0:
300,168,275654,1,2,0:0:0:0:
372,228,275810,6,0,B|388:180|388:180|380:60,1,152,4|2,0:0|0:0,0:0:0:0:
308,24,276276,1,8,0:0:0:0:
308,24,276431,2,0,B|264:40|264:40|132:28,1,152,4|2,0:0|0:0,0:0:0:0:
68,28,276898,1,8,0:0:0:0:
28,108,277053,6,0,L|32:264,1,152,4|2,0:0|0:0,0:0:0:0:
84,336,277520,1,8,0:0:0:0:
160,288,277675,2,0,B|200:272|200:272|260:276,1,76,4|0,0:0|0:0,0:0:0:0:
316,308,277986,2,0,L|324:270,3,38,8|8|8|8,0:0|0:0|0:0|0:0,0:0:0:0:
336,228,278297,6,0,L|512:220,1,152,4|2,0:0|0:0,0:0:0:0:
496,128,278763,1,8,0:0:0:0:
432,60,278919,2,0,P|356:28|288:36,1,152,4|2,0:0|0:0,0:0:0:0:
220,96,279385,1,8,0:0:0:0:
144,44,279540,6,0,L|136:220,1,152,4|2,0:0|0:0,0:0:0:0:
120,288,280007,1,8,0:0:0:0:
196,340,280162,2,0,L|288:336,1,76,4|0,0:0|0:0,0:0:0:0:
356,304,280473,2,0,L|368:236,3,38,8|8|8|8,0:0|0:0|0:0|0:0,0:0:0:0:
347,223,280784,6,0,P|332:149|327:73,1,152,4|2,0:0|0:0,0:0:0:0:
436,12,281250,2,0,P|432:44|412:104,1,76,8|2,0:0|0:0,0:0:0:0:
328,74,281561,2,0,L|224:82,1,76,2|2,0:0|0:0,0:0:0:0:
164,56,281872,2,0,L|68:40,1,76,8|0,0:0|0:0,0:0:0:0:
32,160,282183,6,0,L|124:148,1,76,2|2,0:0|0:0,0:0:0:0:
196,136,282494,1,8,0:0:0:0:
156,216,282649,2,0,P|144:251|136:308,1,76,2|0,0:0|0:0,0:0:0:0:
220,332,282960,1,8,0:0:0:0:
220,332,283038,1,8,0:0:0:0:
220,332,283115,1,8,0:0:0:0:
296,280,283271,6,0,L|484:272,1,152,4|2,0:0|0:0,0:0:0:0:
352,184,283737,2,0,L|444:192,1,76,8|0,0:0|0:0,0:0:0:0:
500,132,284048,2,0,P|496:96|476:36,1,76,2|2,0:0|0:0,0:0:0:0:
408,104,284359,2,0,P|392:72|352:28,1,76,8|2,0:0|0:0,0:0:0:0:
276,32,284670,5,2,0:0:0:0:
224,108,284825,2,0,L|128:112,1,76,2|8,0:0|0:0,0:0:0:0:
84,176,285136,2,0,L|96:256,1,76,2|2,0:0|0:0,0:0:0:0:
148,324,285447,2,0,L|212:316,3,38,8|8|8|8,0:0|0:0|0:0|0:0,0:0:0:0:
224,292,285758,6,0,B|272:284|272:284|308:300|308:300|344:288|384:292,1,152,4|0,0:0|0:0,0:0:0:0:
452,336,286224,2,0,P|460:296|468:228,1,76,8|2,0:0|0:0,0:0:0:0:
392,180,286535,2,0,P|387:142|384:84,1,76,8|2,0:0|0:0,0:0:0:0:
304,32,286846,2,0,P|302:75|295:115,1,76,8|2,0:0|0:0,0:0:0:0:
216,36,287157,6,0,L|40:28,1,152,4|8,0:0|0:0,0:0:0:0:
132,112,287623,2,0,P|144:148|149:186,1,76,2|0,0:0|0:0,0:0:0:0:
100,264,287934,2,0,L|72:316,3,38,8|8|8|8,0:0|0:0|0:0|0:0,0:0:0:0:
72,324,288245,6,0,P|156:320|252:324,1,152,4|2,0:0|0:0,0:0:0:0:
324,356,288711,2,0,P|309:318|308:268,1,76,8|2,0:0|0:0,0:0:0:0:
412,288,289022,2,0,P|420:250|436:212,1,76,8|2,0:0|0:0,0:0:0:0:
488,124,289333,2,0,L|384:112,1,76,8|2,0:0|0:0,0:0:0:0:
308,32,289644,6,0,P|332:128|332:200,1,152,4|2,0:0|0:0,0:0:0:0:
216,232,290110,2,0,P|240:184|268:148,1,76,4|0,0:0|0:0,0:0:0:0:
328,276,290421,2,0,P|288:300|240:308,1,76,4|0,0:0|0:0,0:0:0:0:
128,252,290732,1,4,0:0:0:0:
