osu file format v14

[General]
AudioFilename: audio.mp3
AudioLeadIn: 0
PreviewTime: 161929
Countdown: 0
SampleSet: Soft
StackLeniency: 0.7
Mode: 3
LetterboxInBreaks: 0
SpecialStyle: 0
WidescreenStoryboard: 1

[Editor]
Bookmarks: 21100,38509,48457,58406,88250,98198,108147,120582,133017,142965,152913,162862,177007,187732,206385,207628,217577,237473,247421,257369,277266,302136,307110
DistanceSpacing: 0.5
BeatDivisor: 4
GridSize: 32
TimelineZoom: 1.3

[Metadata]
Title:Wonder Stella
TitleUnicode:ワンダーステラ
Artist:fhana
ArtistUnicode:fhána
Creator:Asherz007
Version:Cosmos
Source:Fate/kaleid liner プリズマ☆イリヤ ツヴァイ ヘルツ!
Tags:Prisma☆Illya 2wei Herz! towana yuxugi waga kevin mitsunaga junichi sato full version opening ファナ ユウキ ワガ ケビン ミツナガ トワナ
BeatmapID:1300647
BeatmapSetID:616765

[Difficulty]
HPDrainRate:8.8
CircleSize:4
OverallDifficulty:8.3
ApproachRate:5
SliderMultiplier:1.4
SliderTickRate:1

[Events]
//Background and Video events
0,0,"rsz_1137181411_p8.jpg",0,0
//Break Periods
//Storyboard Layer 0 (Background)
//Storyboard Layer 1 (Fail)
//Storyboard Layer 2 (Pass)
//Storyboard Layer 3 (Foreground)
//Storyboard Sound Samples

[TimingPoints]
583,310.880829015544,4,2,1,40,1,0
583,-133.333333333333,4,2,1,40,0,0
1204,310.880829015544,4,2,1,40,1,0
1204,-133.333333333333,4,2,1,40,0,0
4312,-128.205128205128,4,2,1,40,0,0
4390,-123.456790123457,4,2,1,40,0,0
4468,-119.047619047619,4,2,1,40,0,0
4545,-114.942528735632,4,2,1,40,0,0
4623,-133.333333333333,4,2,1,40,0,0
5867,-129.87012987013,4,2,1,40,0,0
5906,-126.582278481013,4,2,1,40,0,0
5944,-123.456790123457,4,2,1,40,0,0
5983,-120.481927710843,4,2,1,40,0,0
6022,-117.647058823529,4,2,1,40,0,0
6061,-114.942528735632,4,2,1,40,0,0
6100,-112.359550561798,4,2,1,40,0,0
6139,-109.89010989011,4,2,1,40,0,0
6178,-133.333333333333,4,2,1,40,0,0
10374,-125,4,2,1,50,0,0
10452,-121.951219512195,4,2,1,50,0,0
10530,-119.047619047619,4,2,1,50,0,0
10608,-116.279069767442,4,2,1,50,0,0
10685,-113.636363636364,4,2,1,50,0,0
10763,-111.111111111111,4,2,1,50,0,0
10841,-108.695652173913,4,2,1,50,0,0
10919,-106.382978723404,4,2,1,50,0,0
10996,-104.166666666667,4,2,1,50,0,0
11074,-102.040816326531,4,2,1,50,0,0
11152,-100,4,2,1,50,0,0
57784,-117.647058823529,4,2,1,50,0,0
58017,-68.9655172413793,4,2,1,50,0,0
58095,-117.647058823529,4,2,1,50,0,0
58328,-68.9655172413793,4,2,1,50,0,0
58406,-100,4,2,1,50,0,1
66955,-66.6666666666667,4,2,1,50,0,1
67110,-200,4,2,1,50,0,1
67266,-66.6666666666667,4,2,1,50,0,1
67421,-200,4,2,1,50,0,1
67577,-100,4,2,1,50,0,1
76903,-66.6666666666667,4,2,1,50,0,1
77058,-200,4,2,1,50,0,1
77214,-66.6666666666667,4,2,1,50,0,1
77369,-200,4,2,1,50,0,1
77525,-100,4,2,1,50,0,1
87317,-101.522842639594,4,2,1,50,0,1
87395,-103.092783505155,4,2,1,50,0,1
87473,-105.263157894737,4,2,1,50,0,1
87551,-107.52688172043,4,2,1,50,0,1
87628,-109.89010989011,4,2,1,50,0,1
87706,-112.359550561798,4,2,1,50,0,1
87784,-114.942528735632,4,2,1,50,0,1
87862,-117.647058823529,4,2,1,50,0,1
87939,-120.481927710843,4,2,1,50,0,1
88017,-123.456790123457,4,2,1,50,0,1
88095,-126.582278481013,4,2,1,50,0,1
88172,-129.87012987013,4,2,1,50,0,1
88250,-133.333333333333,4,2,1,30,0,0
107836,-129.87012987013,4,2,1,32,0,0
107913,-126.582278481013,4,2,1,34,0,0
107991,-123.456790123457,4,2,1,36,0,0
108069,-120.481927710843,4,2,1,38,0,0
108147,-117.647058823529,4,2,1,40,0,0
119805,-117.647058823529,4,2,1,50,0,0
119960,-114.942528735632,4,2,1,50,0,0
120038,-112.359550561798,4,2,1,50,0,0
120115,-109.89010989011,4,2,1,50,0,0
120193,-107.52688172043,4,2,1,50,0,0
120271,-105.263157894737,4,2,1,50,0,0
120349,-103.092783505155,4,2,1,50,0,0
120426,-100,4,2,1,50,0,0
132862,-100,4,2,1,50,0,1
142810,-100,4,2,1,50,0,0
162240,-133.333333333333,4,2,1,50,0,0
162473,-57.1428571428571,4,2,1,50,0,0
162551,-133.333333333333,4,2,1,50,0,0
162784,-57.1428571428571,4,2,1,50,0,0
162862,-100,4,2,1,50,0,1
171411,-66.6666666666667,4,2,1,50,0,1
171566,-200,4,2,1,50,0,1
171722,-66.6666666666667,4,2,1,50,0,1
171877,-200,4,2,1,50,0,1
172033,-100,4,2,1,50,0,1
187732,-100,4,2,1,50,0,0
205141,-111.111111111111,4,2,1,50,0,0
205219,-90.9090909090909,4,2,1,50,0,0
205297,-133.333333333333,4,2,1,50,0,0
205530,-57.1428571428571,4,2,1,50,0,0
205608,-166.666666666667,4,2,1,50,0,0
205685,-71.4285714285714,4,2,1,50,0,0
205763,-222.222222222222,4,2,1,50,0,0
205996,-37.7358490566038,4,2,1,50,0,0
206074,-333.333333333333,4,2,1,50,0,0
206152,-58.8235294117647,4,2,1,50,0,0
206229,-1000,4,2,1,50,0,0
206385,-714.285714285714,4,2,1,50,0,0
206463,-555.555555555556,4,2,1,50,0,0
206540,-454.545454545455,4,2,1,50,0,0
206618,-384.615384615385,4,2,1,50,0,0
206696,-344.827586206897,4,2,1,50,0,0
206773,-303.030303030303,4,2,1,50,0,0
206851,-270.27027027027,4,2,1,50,0,0
206929,-243.90243902439,4,2,1,50,0,0
207007,-222.222222222222,4,2,1,50,0,0
207084,-208.333333333333,4,2,1,50,0,0
207162,-192.307692307692,4,2,1,50,0,0
207240,-178.571428571429,4,2,1,50,0,0
207317,-166.666666666667,4,2,1,50,0,0
207395,-156.25,4,2,1,50,0,0
207473,-149.253731343284,4,2,1,50,0,0
207551,-140.845070422535,4,2,1,50,0,0
207628,-133.333333333333,4,2,1,50,0,0
215400,-128.205128205128,4,2,1,50,0,0
215478,-125,4,2,1,50,0,0
215556,-121.951219512195,4,2,1,50,0,0
215634,-119.047619047619,4,2,1,50,0,0
215711,-116.279069767442,4,2,1,50,0,0
215789,-113.636363636364,4,2,1,50,0,0
215867,-111.111111111111,4,2,1,50,0,0
215944,-108.695652173913,4,2,1,50,0,0
216022,-106.382978723404,4,2,1,50,0,0
216100,-104.166666666667,4,2,1,50,0,0
216178,-102.040816326531,4,2,1,50,0,0
216255,-100,4,2,1,50,0,0
237473,-133.333333333333,4,2,1,50,0,0
246488,-129.87012987013,4,2,1,50,0,0
246566,-126.582278481013,4,2,1,50,0,0
246644,-123.456790123457,4,2,1,50,0,0
246722,-120.481927710843,4,2,1,50,0,0
246799,-117.647058823529,4,2,1,50,0,0
246877,-114.942528735632,4,2,1,50,0,0
246955,-112.359550561798,4,2,1,50,0,0
247033,-109.89010989011,4,2,1,50,0,0
247110,-107.52688172043,4,2,1,50,0,0
247188,-105.263157894737,4,2,1,50,0,0
247266,-103.092783505155,4,2,1,50,0,0
247343,-101.010101010101,4,2,1,50,0,0
247421,-100,4,2,1,50,0,0
256748,-153.846153846154,4,2,1,50,0,0
256981,-48.780487804878,4,2,1,50,0,0
257058,-153.846153846154,4,2,1,50,0,0
257292,-48.780487804878,4,2,1,50,0,0
257369,-133.333333333333,4,2,1,50,0,0
258924,-129.87012987013,4,2,1,50,0,0
259001,-128.205128205128,4,2,1,50,0,0
259079,-126.582278481013,4,2,1,50,0,0
259157,-123.456790123457,4,2,1,50,0,0
259235,-120.481927710843,4,2,1,50,0,0
259312,-117.647058823529,4,2,1,50,0,0
259390,-114.942528735632,4,2,1,50,0,0
259468,-112.359550561798,4,2,1,50,0,0
259545,-109.89010989011,4,2,1,50,0,0
259623,-107.52688172043,4,2,1,50,0,0
259701,-105.263157894737,4,2,1,50,0,0
259779,-103.092783505155,4,2,1,50,0,0
259856,-100,4,2,1,50,0,1
265919,-66.6666666666667,4,2,1,50,0,1
266074,-200,4,2,1,50,0,1
266229,-66.6666666666667,4,2,1,50,0,1
266385,-200,4,2,1,50,0,1
266540,-100,4,2,1,50,0,1
275867,-66.6666666666667,4,2,1,50,0,1
276022,-200,4,2,1,50,0,1
276178,-66.6666666666667,4,2,1,50,0,1
276333,-200,4,2,1,50,0,1
276488,-100,4,2,1,50,0,1
277266,-100,4,2,1,50,0,0
290789,-100,4,2,1,50,0,1
300115,-55.2486187845304,4,2,1,50,0,1
300193,-136.986301369863,4,2,1,50,0,1
300426,-55.2486187845304,4,2,1,50,0,1
300504,-136.986301369863,4,2,1,50,0,1
300737,-133.333333333333,4,2,1,50,0,0
302194,-400,4,2,1,50,0,0

[HitObjects]
320,192,583,128,0,893:0:0:0:0:
192,192,893,128,0,1204:0:0:0:0:
64,192,1204,1,2,0:3:0:0:
448,192,1204,1,0,0:0:0:0:
320,192,1514,1,0,0:0:0:0:
192,192,1670,1,0,0:0:0:0:
448,192,1825,1,2,0:1:0:0:
64,192,1825,1,0,0:0:0:0:
192,192,2136,1,0,0:0:0:0:
320,192,2292,1,2,3:0:0:0:
448,192,2292,1,0,0:0:0:0:
64,192,2447,1,0,0:0:0:0:
192,192,2602,1,0,0:0:0:0:
448,192,2758,1,0,0:0:0:0:
320,192,2758,1,2,0:3:0:0:
192,192,2913,1,2,0:3:0:0:
64,192,2913,1,0,0:0:0:0:
448,192,3069,1,8,0:3:0:0:
320,192,3069,128,2,3380:0:1:0:0:
64,192,3380,128,0,3691:0:0:0:0:
448,192,3535,1,0,0:0:0:0:
320,192,3691,1,2,0:3:0:0:
192,192,3691,1,0,0:0:0:0:
192,192,4001,1,0,0:0:0:0:
320,192,4157,1,0,0:0:0:0:
448,192,4312,1,2,0:1:0:0:
64,192,4312,128,0,4623:0:0:0:0:
192,192,4623,1,0,0:0:0:0:
448,192,4779,1,2,0:3:0:0:
320,192,4779,1,0,0:0:0:0:
64,192,4934,1,0,0:0:0:0:
448,192,5090,1,0,0:0:0:0:
320,192,5090,1,2,0:3:0:0:
192,192,5245,1,0,0:0:0:0:
320,192,5400,1,2,0:3:0:0:
448,192,5400,1,0,0:0:0:0:
64,192,5556,1,8,0:3:0:0:
192,192,5556,1,2,0:1:0:0:
448,192,5711,1,2,0:3:0:0:
320,192,5711,1,0,0:0:0:0:
192,192,5867,128,0,6178:0:0:0:0:
64,192,6178,1,2,0:3:0:0:
448,192,6178,1,0,0:0:0:0:
320,192,6333,1,0,0:0:0:0:
192,192,6488,1,0,0:0:0:0:
448,192,6644,1,0,0:0:0:0:
64,192,6799,1,0,0:0:0:0:
192,192,6799,1,2,0:1:0:0:
320,192,7110,1,0,0:0:0:0:
64,192,7266,1,2,0:3:0:0:
448,192,7266,1,0,0:0:0:0:
320,192,7421,1,0,0:0:0:0:
192,192,7577,1,0,0:0:0:0:
448,192,7732,1,0,0:0:0:0:
64,192,7887,1,0,0:0:0:0:
320,192,8043,1,8,0:3:0:0:
448,192,8043,1,2,0:1:0:0:
64,192,8198,1,0,0:0:0:0:
192,192,8198,1,2,0:3:0:0:
448,192,8354,1,0,0:0:0:0:
320,192,8509,1,0,0:0:0:0:
192,192,8665,1,2,0:3:0:0:
64,192,8665,1,0,0:0:0:0:
320,192,8976,1,0,0:0:0:0:
448,192,9131,1,0,0:0:0:0:
64,192,9286,1,0,0:0:0:0:
320,192,9286,1,2,0:1:0:0:
192,192,9442,1,0,0:0:0:0:
448,192,9597,1,0,0:0:0:0:
192,192,9753,1,2,0:0:0:0:
320,192,9753,1,0,0:0:0:0:
64,192,9908,1,0,0:0:0:0:
320,192,10064,1,0,0:0:0:0:
448,192,10219,1,2,0:0:0:0:
192,192,10374,1,8,0:0:0:0:
64,192,10374,1,0,0:0:0:0:
320,192,10452,1,8,0:0:0:0:
448,192,10452,1,0,0:0:0:0:
192,192,10530,1,8,0:0:0:0:
64,192,10530,1,2,0:0:0:0:
192,192,10685,1,2,0:0:0:0:
64,192,10685,1,8,0:0:0:0:
320,192,10841,1,2,0:0:0:0:
448,192,10841,1,8,0:0:0:0:
320,192,10996,1,2,0:0:0:0:
448,192,10996,1,8,0:0:0:0:
64,192,11152,1,4,0:0:0:0:
192,192,11152,1,2,0:0:0:0:
448,192,11152,1,0,0:0:0:0:
320,192,11307,1,0,0:0:0:0:
64,192,11463,1,0,0:0:0:0:
192,192,11463,1,2,0:0:0:0:
448,192,11618,1,0,0:0:0:0:
192,192,11773,1,8,0:0:0:0:
64,192,11773,1,0,0:0:0:0:
320,192,11773,1,0,0:0:0:0:
448,192,11929,1,2,0:0:0:0:
320,192,11929,1,8,0:0:0:0:
192,192,12007,1,8,0:0:0:0:
64,192,12007,1,0,0:0:0:0:
320,192,12084,1,8,0:0:0:0:
448,192,12084,1,2,0:0:0:0:
64,192,12240,1,0,0:0:0:0:
192,192,12240,1,2,0:0:0:0:
448,192,12240,1,0,0:0:0:0:
320,192,12395,1,2,0:0:0:0:
192,192,12395,1,0,0:0:0:0:
320,192,12551,1,8,0:0:0:0:
64,192,12551,1,0,0:0:0:0:
448,192,12551,1,0,0:0:0:0:
64,192,12706,1,0,0:0:0:0:
192,192,12706,1,2,0:0:0:0:
320,192,12862,1,0,0:0:0:0:
448,192,13017,1,0,0:0:0:0:
192,192,13017,1,8,0:0:0:0:
64,192,13017,1,2,0:0:0:0:
192,192,13172,1,8,0:0:0:0:
64,192,13172,1,2,0:0:0:0:
448,192,13172,1,0,0:0:0:0:
448,192,13328,1,2,0:0:0:0:
320,192,13328,1,0,0:0:0:0:
192,192,13483,1,2,0:0:0:0:
64,192,13483,1,0,0:0:0:0:
64,192,13639,1,2,0:0:0:0:
320,192,13639,1,4,0:0:0:0:
448,192,13639,1,0,0:0:0:0:
192,192,13794,1,0,0:0:0:0:
64,192,13950,1,0,0:0:0:0:
448,192,13950,1,2,0:0:0:0:
320,192,14105,1,0,0:0:0:0:
192,192,14260,1,8,0:0:0:0:
448,192,14260,1,0,0:0:0:0:
64,192,14260,1,0,0:0:0:0:
320,192,14416,1,0,0:0:0:0:
448,192,14416,1,2,0:0:0:0:
64,192,14571,1,0,0:0:0:0:
192,192,14571,1,2,0:0:0:0:
192,192,14727,1,0,0:0:0:0:
320,192,14727,1,8,0:0:0:0:
320,192,14882,1,2,0:0:0:0:
448,192,14882,1,0,0:0:0:0:
64,192,15038,1,8,0:0:0:0:
192,192,15038,1,0,0:0:0:0:
320,192,15193,1,0,0:0:0:0:
448,192,15193,1,2,0:0:0:0:
192,192,15349,1,2,0:0:0:0:
448,192,15349,1,0,0:0:0:0:
64,192,15426,1,0,0:0:0:0:
320,192,15426,1,2,0:0:0:0:
448,192,15504,1,0,0:0:0:0:
192,192,15504,1,8,0:0:0:0:
448,192,15659,1,0,0:0:0:0:
320,192,15659,1,8,0:0:0:0:
64,192,15659,1,0,0:0:0:0:
192,192,15815,1,2,0:0:0:0:
64,192,15815,1,0,0:0:0:0:
320,192,15970,1,0,0:0:0:0:
448,192,15970,1,8,0:0:0:0:
64,192,16126,1,2,0:0:0:0:
192,192,16126,1,4,0:0:0:0:
448,192,16126,1,0,0:0:0:0:
320,192,16281,1,0,0:0:0:0:
448,192,16437,5,2,0:0:0:0:
64,192,16437,1,0,0:0:0:0:
192,192,16592,1,0,0:0:0:0:
320,192,16748,1,8,0:0:0:0:
448,192,16748,1,0,0:0:0:0:
64,192,16748,1,0,0:0:0:0:
448,192,16903,1,2,0:0:0:0:
64,192,16903,1,8,0:0:0:0:
320,192,16981,1,8,0:0:0:0:
192,192,16981,1,0,0:0:0:0:
448,192,17058,1,8,0:0:0:0:
64,192,17058,1,2,0:0:0:0:
192,192,17214,1,8,0:0:0:0:
320,192,17214,1,0,0:0:0:0:
320,192,17369,1,0,0:0:0:0:
448,192,17369,1,2,0:0:0:0:
64,192,17525,1,0,0:0:0:0:
192,192,17680,1,0,0:0:0:0:
448,192,17680,1,2,0:0:0:0:
320,192,17836,1,0,0:0:0:0:
192,192,17991,1,8,0:0:0:0:
64,192,17991,1,0,0:0:0:0:
448,192,17991,1,0,0:0:0:0:
192,192,18147,1,0,0:0:0:0:
320,192,18147,1,8,0:0:0:0:
64,192,18302,1,2,0:0:0:0:
448,192,18302,1,0,0:0:0:0:
192,192,18457,1,2,0:0:0:0:
320,192,18457,1,0,0:0:0:0:
448,192,18613,1,8,0:0:0:0:
320,192,18613,1,4,0:0:0:0:
64,192,18613,1,0,0:0:0:0:
64,192,18768,1,0,0:0:0:0:
192,192,18768,1,2,0:0:0:0:
64,192,18924,1,2,0:0:0:0:
192,192,18924,1,0,0:0:0:0:
192,192,19079,1,4,0:0:0:0:
448,192,19079,1,0,0:0:0:0:
320,192,19079,1,0,0:0:0:0:
448,192,19235,1,0,0:0:0:0:
64,192,19235,1,2,0:0:0:0:
64,192,19390,1,0,0:0:0:0:
448,192,19390,1,2,0:0:0:0:
192,192,19545,1,8,0:0:0:0:
320,192,19545,1,0,0:0:0:0:
64,192,19701,1,2,0:0:0:0:
448,192,19701,1,0,0:0:0:0:
192,192,19701,1,4,0:0:0:0:
64,192,19856,1,2,0:0:0:0:
320,192,19856,1,0,0:0:0:0:
448,192,20012,1,0,0:0:0:0:
192,192,20012,1,0,0:0:0:0:
320,192,20012,1,2,0:0:0:0:
192,192,20167,1,0,0:0:0:0:
320,192,20167,1,2,0:0:0:0:
448,192,20167,1,0,0:0:0:0:
64,192,20323,1,0,0:0:0:0:
192,192,20323,1,8,0:0:0:0:
320,192,20400,1,8,0:0:0:0:
448,192,20478,1,0,0:0:0:0:
192,192,20478,1,8,0:0:0:0:
64,192,20478,1,0,0:0:0:0:
64,192,20634,1,0,0:0:0:0:
320,192,20634,1,8,0:0:0:0:
448,192,20634,1,0,0:0:0:0:
192,192,20789,1,0,0:0:0:0:
448,192,20789,1,0,0:0:0:0:
320,192,20789,1,8,0:0:0:0:
64,192,20944,128,0,21255:0:0:0:0:
192,192,20944,128,2,21255:0:0:0:0:
320,192,20944,1,4,0:0:0:0:
448,192,21255,1,0,0:0:0:0:
192,192,21411,1,2,0:0:0:0:
320,192,21411,128,0,21722:0:0:0:0:
448,192,21722,1,0,0:0:0:0:
64,192,21722,1,0,0:0:0:0:
192,192,21722,1,8,0:0:0:0:
448,192,22033,1,0,0:0:0:0:
192,192,22188,1,2,0:0:0:0:
64,192,22188,1,0,0:0:0:0:
320,192,22343,1,2,0:0:0:0:
448,192,22343,1,0,0:0:0:0:
64,192,22499,1,0,0:0:0:0:
192,192,22654,1,2,0:0:0:0:
320,192,22654,1,0,0:0:0:0:
448,192,22810,1,0,0:0:0:0:
192,192,22965,1,8,0:0:0:0:
64,192,22965,1,0,0:0:0:0:
320,192,22965,1,0,0:0:0:0:
448,192,23121,1,0,0:0:0:0:
192,192,23276,1,0,0:0:0:0:
64,192,23431,1,0,0:0:0:0:
320,192,23431,1,2,0:0:0:0:
448,192,23431,1,0,0:0:0:0:
192,192,23587,1,0,0:0:0:0:
320,192,23742,1,8,0:0:0:0:
448,192,23742,1,0,0:0:0:0:
192,192,23898,1,2,0:0:0:0:
64,192,23898,128,0,24209:0:0:0:0:
192,192,24209,1,0,0:0:0:0:
448,192,24209,1,8,0:0:0:0:
320,192,24209,1,0,0:0:0:0:
64,192,24364,1,0,0:0:0:0:
192,192,24520,1,0,0:0:0:0:
64,192,24675,1,2,0:0:0:0:
448,192,24675,1,0,0:0:0:0:
192,192,24830,1,2,0:0:0:0:
320,192,24830,1,0,0:0:0:0:
320,192,24986,1,8,0:0:0:0:
448,192,24986,1,0,0:0:0:0:
64,192,24986,1,0,0:0:0:0:
64,192,25141,1,0,0:0:0:0:
192,192,25141,1,2,0:0:0:0:
448,192,25297,1,0,0:0:0:0:
320,192,25297,1,2,0:0:0:0:
64,192,25452,1,0,0:0:0:0:
192,192,25452,1,8,0:0:0:0:
448,192,25452,1,0,0:0:0:0:
64,192,25608,1,0,0:0:0:0:
320,192,25608,1,8,0:0:0:0:
448,192,25608,1,0,0:0:0:0:
320,192,25763,1,2,0:0:0:0:
192,192,25763,1,0,0:0:0:0:
192,192,25919,1,4,0:0:0:0:
64,192,25919,1,2,0:0:0:0:
448,192,25919,1,0,0:0:0:0:
320,192,26074,1,0,0:0:0:0:
448,192,26229,1,0,0:0:0:0:
192,192,26385,1,0,0:0:0:0:
320,192,26385,1,2,0:0:0:0:
64,192,26540,1,0,0:0:0:0:
320,192,26696,1,8,0:0:0:0:
448,192,26696,1,0,0:0:0:0:
192,192,26696,1,0,0:0:0:0:
64,192,26851,1,0,0:0:0:0:
448,192,27007,1,0,0:0:0:0:
320,192,27162,1,0,0:0:0:0:
192,192,27162,1,2,0:0:0:0:
64,192,27317,1,0,0:0:0:0:
192,192,27473,1,2,0:0:0:0:
448,192,27473,1,0,0:0:0:0:
64,192,27628,1,0,0:0:0:0:
320,192,27628,1,2,0:0:0:0:
448,192,27784,1,0,0:0:0:0:
320,192,27939,1,8,0:0:0:0:
192,192,27939,1,0,0:0:0:0:
64,192,27939,1,0,0:0:0:0:
448,192,28095,1,2,0:0:0:0:
320,192,28250,1,0,0:0:0:0:
64,192,28250,1,0,0:0:0:0:
192,192,28250,1,8,0:0:0:0:
192,192,28406,1,2,0:0:0:0:
320,192,28406,1,4,0:0:0:0:
448,192,28406,1,0,0:0:0:0:
64,192,28561,1,0,0:0:0:0:
448,192,28716,1,0,0:0:0:0:
64,192,28872,1,2,0:0:0:0:
320,192,28872,1,0,0:0:0:0:
448,192,29027,1,0,0:0:0:0:
64,192,29183,1,8,0:0:0:0:
192,192,29183,1,0,0:0:0:0:
320,192,29183,1,0,0:0:0:0:
64,192,29338,1,8,0:0:0:0:
192,192,29338,1,0,0:0:0:0:
64,192,29494,1,2,0:0:0:0:
448,192,29649,1,2,0:0:0:0:
320,192,29649,1,0,0:0:0:0:
192,192,29805,1,0,0:0:0:0:
64,192,29960,1,0,0:0:0:0:
448,192,29960,1,8,0:0:0:0:
320,192,29960,1,0,0:0:0:0:
192,192,30115,1,2,0:0:0:0:
320,192,30115,1,0,0:0:0:0:
448,192,30271,1,8,0:0:0:0:
64,192,30271,1,0,0:0:0:0:
192,192,30349,1,8,0:0:0:0:
320,192,30349,1,0,0:0:0:0:
64,192,30426,1,0,0:0:0:0:
448,192,30426,1,8,0:0:0:0:
448,192,30582,1,0,0:0:0:0:
320,192,30582,1,8,0:0:0:0:
192,192,30582,1,0,0:0:0:0:
192,192,30737,1,8,0:0:0:0:
64,192,30737,1,0,0:0:0:0:
320,192,30737,1,0,0:0:0:0:
192,192,30893,1,8,0:0:0:0:
448,192,30893,1,0,0:0:0:0:
64,192,30893,1,0,0:0:0:0:
64,192,31048,1,0,0:0:0:0:
320,192,31048,1,4,0:0:0:0:
448,192,31048,128,2,31203:0:0:0:0:
192,192,31203,128,0,31359:0:0:0:0:
320,192,31359,128,0,31514:0:0:0:0:
448,192,31359,1,2,0:0:0:0:
64,192,31514,128,0,31670:0:0:0:0:
192,192,31670,1,0,0:0:0:0:
448,192,31670,128,0,31825:0:0:0:0:
320,192,31670,1,8,0:0:0:0:
64,192,31825,1,0,0:0:0:0:
192,192,31825,1,2,0:0:0:0:
320,192,31981,1,0,0:0:0:0:
192,192,32136,1,2,0:0:0:0:
448,192,32136,128,0,32292:0:0:0:0:
64,192,32292,1,0,0:0:0:0:
192,192,32447,128,0,32602:0:0:0:0:
320,192,32447,1,8,0:0:0:0:
448,192,32602,128,0,32913:0:0:0:0:
64,192,32602,1,2,0:0:0:0:
64,192,32913,1,0,0:0:0:0:
192,192,32913,1,8,0:0:0:0:
320,192,32913,1,0,0:0:0:0:
320,192,33224,1,2,0:0:0:0:
64,192,33224,1,0,0:0:0:0:
192,192,33380,1,0,0:0:0:0:
320,192,33380,1,2,0:0:0:0:
448,192,33535,1,0,0:0:0:0:
64,192,33691,1,2,0:0:0:0:
192,192,33691,128,0,33846:0:0:0:0:
320,192,33846,1,2,0:0:0:0:
448,192,33846,128,0,34001:0:0:0:0:
64,192,34001,128,0,34157:0:0:0:0:
320,192,34157,1,8,0:0:0:0:
192,192,34157,128,0,34312:0:0:0:0:
448,192,34157,1,0,0:0:0:0:
320,192,34312,1,0,0:0:0:0:
192,192,34468,1,2,0:0:0:0:
64,192,34468,1,0,0:0:0:0:
64,192,34623,1,0,0:0:0:0:
448,192,34623,1,0,0:0:0:0:
320,192,34623,1,8,0:0:0:0:
192,192,34779,1,0,0:0:0:0:
320,192,34779,1,2,0:0:0:0:
64,192,34934,1,0,0:0:0:0:
448,192,34934,1,8,0:0:0:0:
192,192,34934,1,0,0:0:0:0:
320,192,35090,128,0,35245:0:0:0:0:
448,192,35090,1,2,0:0:0:0:
192,192,35245,128,0,35400:0:0:0:0:
64,192,35400,1,0,0:0:0:0:
448,192,35400,1,8,0:0:0:0:
320,192,35400,1,0,0:0:0:0:
192,192,35556,1,0,0:0:0:0:
448,192,35556,1,8,0:0:0:0:
64,192,35556,1,0,0:0:0:0:
192,192,35711,1,2,0:0:0:0:
320,192,35711,1,0,0:0:0:0:
320,192,35867,1,0,0:0:0:0:
448,192,35867,1,4,0:0:0:0:
64,192,35867,1,2,0:0:0:0:
192,192,36022,1,0,0:0:0:0:
320,192,36178,1,0,0:0:0:0:
448,192,36333,1,2,0:0:0:0:
64,192,36333,1,0,0:0:0:0:
192,192,36488,1,0,0:0:0:0:
448,192,36644,1,0,0:0:0:0:
320,192,36644,1,2,0:0:0:0:
64,192,36799,1,0,0:0:0:0:
192,192,36955,1,2,0:0:0:0:
448,192,36955,1,0,0:0:0:0:
320,192,37110,1,0,0:0:0:0:
64,192,37266,1,2,0:0:0:0:
448,192,37266,1,0,0:0:0:0:
192,192,37421,1,0,0:0:0:0:
320,192,37577,1,2,0:0:0:0:
64,192,37577,1,0,0:0:0:0:
448,192,37732,1,0,0:0:0:0:
320,192,37887,1,8,0:0:0:0:
192,192,37887,1,2,0:0:0:0:
64,192,37887,1,0,0:0:0:0:
64,192,38043,1,0,0:0:0:0:
192,192,38043,1,2,0:0:0:0:
448,192,38043,1,8,0:0:0:0:
64,192,38198,1,2,0:0:0:0:
320,192,38198,1,0,0:0:0:0:
448,192,38198,1,8,0:0:0:0:
448,192,38354,128,0,38665:0:0:0:0:
320,192,38354,128,2,38665:0:0:0:0:
192,192,38354,128,4,38509:0:0:0:0:
64,192,38665,1,2,0:0:0:0:
192,192,38665,1,0,0:0:0:0:
192,192,38820,1,8,0:0:0:0:
320,192,38820,1,0,0:0:0:0:
448,192,38820,1,0,0:0:0:0:
64,192,38976,1,0,0:0:0:0:
192,192,39131,1,2,0:0:0:0:
448,192,39131,1,0,0:0:0:0:
320,192,39286,1,2,0:0:0:0:
64,192,39286,1,0,0:0:0:0:
64,192,39442,1,0,0:0:0:0:
192,192,39442,1,8,0:0:0:0:
448,192,39442,1,0,0:0:0:0:
320,192,39597,1,0,0:0:0:0:
192,192,39753,1,2,0:0:0:0:
64,192,39753,1,0,0:0:0:0:
448,192,39908,1,0,0:0:0:0:
320,192,39908,1,2,0:0:0:0:
192,192,40064,1,0,0:0:0:0:
320,192,40064,1,8,0:0:0:0:
64,192,40064,1,0,0:0:0:0:
448,192,40219,1,0,0:0:0:0:
192,192,40219,1,2,0:0:0:0:
64,192,40374,1,0,0:0:0:0:
192,192,40530,1,2,0:0:0:0:
320,192,40530,1,0,0:0:0:0:
320,192,40685,1,8,0:0:0:0:
448,192,40685,1,0,0:0:0:0:
64,192,40685,1,0,0:0:0:0:
64,192,40841,1,2,0:0:0:0:
192,192,40841,1,4,0:0:0:0:
448,192,40841,1,0,0:0:0:0:
320,192,40996,1,0,0:0:0:0:
192,192,41152,1,2,0:0:0:0:
448,192,41152,1,0,0:0:0:0:
64,192,41307,1,0,0:0:0:0:
320,192,41307,1,8,0:0:0:0:
448,192,41307,1,0,0:0:0:0:
192,192,41463,1,0,0:0:0:0:
320,192,41618,1,2,0:0:0:0:
448,192,41618,1,0,0:0:0:0:
192,192,41773,1,2,0:0:0:0:
64,192,41773,1,0,0:0:0:0:
320,192,41929,1,8,0:0:0:0:
448,192,41929,1,0,0:0:0:0:
64,192,41929,1,0,0:0:0:0:
192,192,42084,1,0,0:0:0:0:
320,192,42084,1,2,0:0:0:0:
448,192,42240,1,0,0:0:0:0:
64,192,42395,1,0,0:0:0:0:
320,192,42395,1,2,0:0:0:0:
448,192,42551,1,0,0:0:0:0:
192,192,42551,1,8,0:0:0:0:
64,192,42551,1,0,0:0:0:0:
320,192,42706,1,0,0:0:0:0:
64,192,42862,1,0,0:0:0:0:
192,192,42862,1,2,0:0:0:0:
320,192,43017,1,2,0:0:0:0:
448,192,43017,1,0,0:0:0:0:
64,192,43172,1,0,0:0:0:0:
192,192,43172,1,8,0:0:0:0:
448,192,43172,1,0,0:0:0:0:
192,192,43328,1,0,0:0:0:0:
320,192,43328,1,2,0:0:0:0:
64,192,43483,1,0,0:0:0:0:
320,192,43483,1,4,0:0:0:0:
448,192,43483,1,2,0:0:0:0:
192,192,43639,1,0,0:0:0:0:
64,192,43794,1,0,0:0:0:0:
320,192,43794,1,8,0:0:0:0:
448,192,43794,1,0,0:0:0:0:
192,192,43950,1,0,0:0:0:0:
64,192,44105,1,0,0:0:0:0:
320,192,44105,1,2,0:0:0:0:
448,192,44260,1,2,0:0:0:0:
192,192,44260,1,0,0:0:0:0:
64,192,44416,1,0,0:0:0:0:
192,192,44416,1,0,0:0:0:0:
320,192,44416,1,8,0:0:0:0:
448,192,44571,1,0,0:0:0:0:
320,192,44571,1,2,0:0:0:0:
64,192,44727,1,0,0:0:0:0:
192,192,44882,1,0,0:0:0:0:
320,192,44882,1,2,0:0:0:0:
64,192,45038,1,0,0:0:0:0:
192,192,45038,1,8,0:0:0:0:
448,192,45038,1,0,0:0:0:0:
320,192,45193,1,0,0:0:0:0:
64,192,45349,1,0,0:0:0:0:
192,192,45349,1,2,0:0:0:0:
448,192,45504,1,0,0:0:0:0:
320,192,45504,1,2,0:0:0:0:
64,192,45659,1,0,0:0:0:0:
320,192,45659,1,8,0:0:0:0:
192,192,45659,1,0,0:0:0:0:
448,192,45815,1,2,0:0:0:0:
64,192,45815,1,0,0:0:0:0:
320,192,45970,1,4,0:0:0:0:
192,192,45970,1,2,0:0:0:0:
448,192,45970,1,0,0:0:0:0:
64,192,46126,1,0,0:0:0:0:
320,192,46281,1,8,0:0:0:0:
192,192,46281,1,0,0:0:0:0:
448,192,46281,1,0,0:0:0:0:
64,192,46437,1,0,0:0:0:0:
320,192,46592,1,2,0:0:0:0:
448,192,46592,1,0,0:0:0:0:
192,192,46748,1,2,0:0:0:0:
64,192,46748,1,0,0:0:0:0:
192,192,46903,1,0,0:0:0:0:
320,192,46903,1,8,0:0:0:0:
448,192,46903,1,0,0:0:0:0:
64,192,47058,1,0,0:0:0:0:
320,192,47058,1,4,0:0:0:0:
448,192,47058,1,2,0:0:0:0:
192,192,47214,1,0,0:0:0:0:
320,192,47369,1,2,0:0:0:0:
64,192,47369,1,0,0:0:0:0:
192,192,47525,1,8,0:0:0:0:
64,192,47525,1,0,0:0:0:0:
448,192,47525,1,0,0:0:0:0:
320,192,47680,1,2,0:0:0:0:
448,192,47680,1,0,0:0:0:0:
192,192,47836,1,8,0:0:0:0:
64,192,47836,1,0,0:0:0:0:
320,192,47991,1,2,0:0:0:0:
448,192,47991,1,0,0:0:0:0:
192,192,48147,1,2,0:0:0:0:
64,192,48147,1,0,0:0:0:0:
320,192,48224,1,0,0:0:0:0:
448,192,48302,1,0,0:0:0:0:
64,192,48302,1,2,0:0:0:0:
192,192,48380,1,0,0:0:0:0:
320,192,48457,1,4,0:0:0:0:
64,192,48457,1,2,0:0:0:0:
448,192,48457,1,0,0:0:0:0:
192,192,48613,1,0,0:0:0:0:
320,192,48768,1,2,0:0:0:0:
448,192,48768,1,0,0:0:0:0:
64,192,48924,1,0,0:0:0:0:
192,192,49079,1,0,0:0:0:0:
448,192,49079,1,0,0:0:0:0:
320,192,49079,1,8,0:0:0:0:
64,192,49235,1,0,0:0:0:0:
192,192,49390,1,0,0:0:0:0:
448,192,49390,1,2,0:0:0:0:
320,192,49545,1,0,0:0:0:0:
64,192,49701,1,0,0:0:0:0:
192,192,49856,1,0,0:0:0:0:
320,192,49856,1,8,0:0:0:0:
448,192,49856,128,0,50167:0:0:0:0:
64,192,50012,1,0,0:0:0:0:
192,192,50012,1,2,0:0:0:0:
320,192,50167,1,0,0:0:0:0:
192,192,50323,1,8,0:0:0:0:
64,192,50323,1,0,0:0:0:0:
448,192,50323,1,0,0:0:0:0:
192,192,50478,1,2,0:0:0:0:
320,192,50478,1,0,0:0:0:0:
64,192,50634,1,2,0:0:0:0:
448,192,50634,1,0,0:0:0:0:
192,192,50789,1,8,0:0:0:0:
64,192,50789,1,0,0:0:0:0:
320,192,50789,1,0,0:0:0:0:
320,192,50944,1,2,0:0:0:0:
448,192,50944,1,0,0:0:0:0:
192,192,51100,1,8,0:0:0:0:
448,192,51100,1,0,0:0:0:0:
64,192,51255,128,0,51566:0:0:0:0:
320,192,51255,1,2,0:0:0:0:
192,192,51566,1,0,0:0:0:0:
320,192,51566,1,8,0:0:0:0:
448,192,51566,1,0,0:0:0:0:
64,192,51722,1,0,0:0:0:0:
192,192,51722,1,0,0:0:0:0:
320,192,51722,1,8,0:0:0:0:
448,192,51877,1,0,0:0:0:0:
320,192,52033,1,0,0:0:0:0:
64,192,52033,128,2,52343:0:0:0:0:
192,192,52343,1,8,0:0:0:0:
320,192,52343,1,0,0:0:0:0:
448,192,52343,1,0,0:0:0:0:
64,192,52499,1,2,0:0:0:0:
192,192,52499,1,0,0:0:0:0:
320,192,52654,1,8,0:0:0:0:
448,192,52654,1,0,0:0:0:0:
192,192,52732,1,8,0:0:0:0:
64,192,52732,1,0,0:0:0:0:
320,192,52810,1,8,0:0:0:0:
448,192,52810,1,0,0:0:0:0:
64,192,52965,1,0,0:0:0:0:
192,192,52965,1,8,0:0:0:0:
320,192,52965,1,2,0:0:0:0:
192,192,53121,1,2,0:0:0:0:
448,192,53121,1,0,0:0:0:0:
64,192,53121,1,8,0:0:0:0:
64,192,53276,1,8,0:0:0:0:
320,192,53276,1,2,0:0:0:0:
192,192,53431,1,0,0:0:0:0:
320,192,53431,1,2,0:0:0:0:
448,192,53431,128,4,54520:0:0:0:0:
192,192,53742,1,2,0:0:0:0:
320,192,53742,1,0,0:0:0:0:
64,192,53898,1,0,0:0:0:0:
64,192,54053,1,0,0:0:0:0:
320,192,54053,1,0,0:0:0:0:
192,192,54053,1,8,0:0:0:0:
320,192,54209,1,0,0:0:0:0:
192,192,54364,1,2,0:0:0:0:
64,192,54364,1,0,0:0:0:0:
192,192,54520,1,4,0:0:0:0:
320,192,54520,1,0,0:0:0:0:
64,192,54520,128,2,55297:0:0:0:0:
192,192,54830,1,8,0:0:0:0:
448,192,54830,1,0,0:0:0:0:
320,192,54830,1,0,0:0:0:0:
320,192,54986,1,2,0:0:0:0:
448,192,54986,1,0,0:0:0:0:
192,192,55141,1,0,0:0:0:0:
448,192,55297,1,8,0:0:0:0:
192,192,55297,1,2,0:0:0:0:
320,192,55297,1,0,0:0:0:0:
192,192,55452,1,8,0:0:0:0:
448,192,55452,1,0,0:0:0:0:
64,192,55452,1,2,0:0:0:0:
448,192,55608,1,0,0:0:0:0:
320,192,55608,1,2,0:0:0:0:
320,192,55763,1,4,0:0:0:0:
192,192,55763,128,2,56074:0:0:0:0:
64,192,55763,128,0,56074:0:0:0:0:
320,192,56074,1,2,0:0:0:0:
448,192,56074,1,0,0:0:0:0:
192,192,56229,1,2,0:0:0:0:
64,192,56229,1,0,0:0:0:0:
320,192,56385,1,4,0:0:0:0:
64,192,56385,1,0,0:0:0:0:
448,192,56385,1,2,0:0:0:0:
192,192,56540,1,0,0:0:0:0:
320,192,56540,1,2,0:0:0:0:
64,192,56696,1,0,0:0:0:0:
192,192,56696,1,2,0:0:0:0:
448,192,56851,1,0,0:0:0:0:
320,192,56851,1,8,0:0:0:0:
64,192,56851,1,2,0:0:0:0:
192,192,57007,1,2,0:0:0:0:
320,192,57007,1,0,0:0:0:0:
192,192,57162,1,2,0:1:0:0:
64,192,57162,1,4,0:0:0:50:finish-short.wav
448,192,57162,1,2,0:3:0:0:
320,192,57162,1,2,0:2:0:0:
64,192,57473,128,0,58406:0:0:0:0:
448,192,57784,1,0,0:0:0:0:
320,192,58095,1,0,0:0:0:0:
192,192,58406,1,2,0:0:0:0:
320,192,58406,1,4,0:0:0:0:
448,192,58406,1,0,0:0:0:0:
320,192,58716,1,8,0:0:0:0:
64,192,58716,1,0,0:0:0:0:
448,192,58716,1,0,0:0:0:0:
192,192,58872,1,0,0:0:0:0:
448,192,59027,1,2,0:0:0:0:
64,192,59027,1,0,0:0:0:0:
192,192,59183,1,0,0:0:0:0:
448,192,59183,1,2,0:0:0:0:
320,192,59338,1,8,0:0:0:0:
64,192,59338,1,0,0:0:0:0:
192,192,59338,1,0,0:0:0:0:
320,192,59494,1,2,0:0:0:0:
448,192,59494,1,0,0:0:0:0:
192,192,59649,1,0,0:0:0:0:
64,192,59805,1,2,0:0:0:0:
448,192,59805,1,0,0:0:0:0:
320,192,59960,1,0,0:0:0:0:
192,192,59960,1,8,0:0:0:0:
448,192,59960,1,0,0:0:0:0:
64,192,60115,1,0,0:0:0:0:
192,192,60115,1,2,0:0:0:0:
320,192,60271,1,2,0:0:0:0:
448,192,60271,1,0,0:0:0:0:
192,192,60426,1,0,0:0:0:0:
64,192,60582,1,0,0:0:0:0:
448,192,60582,1,0,0:0:0:0:
320,192,60582,1,8,0:0:0:0:
192,192,60737,1,0,0:0:0:0:
320,192,60815,1,0,0:0:0:0:
448,192,60893,1,4,0:0:0:0:
192,192,60893,1,2,0:0:0:0:
64,192,60893,1,0,0:0:0:0:
320,192,61048,1,0,0:0:0:0:
64,192,61203,1,0,0:0:0:0:
192,192,61203,1,0,0:0:0:0:
320,192,61203,1,8,0:0:0:0:
448,192,61359,1,0,0:0:0:0:
192,192,61514,1,2,0:0:0:0:
64,192,61514,1,0,0:0:0:0:
320,192,61670,1,2,0:0:0:0:
448,192,61670,1,0,0:0:0:0:
64,192,61825,1,0,0:0:0:0:
192,192,61825,1,8,0:0:0:0:
448,192,61825,1,0,0:0:0:0:
320,192,61981,1,2,0:0:0:0:
64,192,61981,1,0,0:0:0:0:
192,192,62136,1,0,0:0:0:0:
448,192,62292,1,0,0:0:0:0:
320,192,62292,1,2,0:0:0:0:
192,192,62447,1,8,0:0:0:0:
64,192,62447,1,0,0:0:0:0:
448,192,62447,1,0,0:0:0:0:
320,192,62602,1,0,0:0:0:0:
192,192,62602,1,2,0:0:0:0:
64,192,62680,1,0,0:0:0:0:
448,192,62758,1,2,0:0:0:0:
320,192,62758,128,0,63069:0:0:0:0:
64,192,62913,1,0,0:0:0:0:
64,192,63069,1,0,0:0:0:0:
448,192,63069,1,8,0:0:0:0:
192,192,63069,128,0,63380:0:0:0:0:
320,192,63224,1,0,0:0:0:0:
320,192,63380,1,4,0:0:0:0:
448,192,63380,1,2,0:0:0:0:
64,192,63380,128,0,63691:0:0:0:0:
192,192,63691,1,8,0:0:0:0:
320,192,63691,1,0,0:0:0:0:
448,192,63691,1,0,0:0:0:0:
64,192,63846,1,0,0:0:0:0:
192,192,63924,1,0,0:0:0:0:
448,192,64001,1,0,0:0:0:0:
320,192,64001,1,2,0:0:0:0:
192,192,64157,1,2,0:0:0:0:
320,192,64157,1,0,0:0:0:0:
64,192,64312,1,0,0:0:0:0:
448,192,64312,1,0,0:0:0:0:
192,192,64312,1,8,0:0:0:0:
320,192,64468,1,4,0:0:0:0:
448,192,64468,1,2,0:0:0:0:
64,192,64468,128,0,64779:0:0:0:0:
192,192,64779,1,0,0:0:0:0:
320,192,64779,1,2,0:0:0:0:
64,192,64934,1,0,0:0:0:0:
320,192,64934,1,8,0:0:0:0:
448,192,64934,1,0,0:0:0:0:
64,192,65090,1,0,0:0:0:0:
192,192,65090,1,2,0:0:0:0:
320,192,65245,1,2,0:0:0:0:
448,192,65245,1,0,0:0:0:0:
64,192,65400,1,0,0:0:0:0:
192,192,65556,1,0,0:0:0:0:
320,192,65556,1,8,0:0:0:0:
448,192,65556,1,0,0:0:0:0:
320,192,65711,1,0,0:0:0:0:
448,192,65867,1,2,0:0:0:0:
64,192,65867,1,4,0:0:0:0:
192,192,65867,128,0,66178:0:0:0:0:
64,192,66178,1,0,0:0:0:0:
320,192,66178,1,8,0:0:0:0:
448,192,66178,1,0,0:0:0:0:
192,192,66333,1,0,0:0:0:0:
64,192,66488,1,0,0:0:0:0:
320,192,66488,1,2,0:0:0:0:
192,192,66644,1,2,0:0:0:0:
448,192,66644,1,0,0:0:0:0:
64,192,66799,1,0,0:0:0:0:
192,192,66799,1,0,0:0:0:0:
320,192,66799,1,8,0:0:0:0:
64,192,66955,128,2,67110:0:0:0:0:
320,192,66955,128,0,67110:0:0:0:50:finish-short.wav
448,192,66955,128,0,67110:0:0:0:0:
64,192,67266,128,2,67421:0:0:0:0:
192,192,67266,128,0,67421:0:0:0:50:finish-short.wav
448,192,67266,128,0,67421:0:0:0:0:
320,192,67577,1,8,0:0:0:0:
64,192,67577,1,4,0:0:0:0:
192,192,67654,1,8,0:0:0:0:
448,192,67654,1,0,0:0:0:0:
320,192,67732,1,8,0:0:0:0:
64,192,67732,1,0,0:0:0:0:
320,192,67887,1,8,0:0:0:0:
64,192,67887,1,0,0:0:0:0:
192,192,68043,1,2,0:0:0:0:
448,192,68043,1,0,0:0:0:0:
320,192,68198,1,2,0:0:0:0:
448,192,68198,1,0,0:0:0:0:
448,192,68354,1,0,0:0:0:0:
192,192,68354,1,4,0:0:0:0:
64,192,68354,1,2,0:0:0:0:
64,192,68665,1,0,0:0:0:0:
320,192,68665,1,8,0:0:0:0:
448,192,68665,1,0,0:0:0:0:
192,192,68820,1,0,0:0:0:0:
448,192,68976,1,2,0:0:0:0:
320,192,68976,1,0,0:0:0:0:
64,192,69131,1,0,0:0:0:0:
192,192,69131,1,2,0:0:0:0:
64,192,69286,1,8,0:0:0:0:
320,192,69286,1,0,0:0:0:0:
448,192,69286,1,0,0:0:0:0:
320,192,69442,1,2,0:0:0:0:
192,192,69442,1,0,0:0:0:0:
64,192,69597,1,0,0:0:0:0:
320,192,69753,1,2,0:0:0:0:
448,192,69753,1,0,0:0:0:0:
192,192,69908,1,8,0:0:0:0:
64,192,69908,1,0,0:0:0:0:
320,192,69908,1,0,0:0:0:0:
448,192,70064,1,0,0:0:0:0:
192,192,70064,1,2,0:0:0:0:
448,192,70219,1,2,0:0:0:0:
64,192,70219,128,0,70530:0:0:0:0:
320,192,70374,1,0,0:0:0:0:
320,192,70530,1,8,0:0:0:0:
192,192,70530,1,0,0:0:0:0:
448,192,70530,128,0,70841:0:0:0:0:
64,192,70685,1,0,0:0:0:0:
64,192,70841,1,0,0:0:0:0:
192,192,70841,1,2,0:0:0:0:
320,192,70841,128,4,71152:0:0:0:0:
64,192,71152,1,0,0:0:0:0:
448,192,71152,1,0,0:0:0:0:
192,192,71152,1,8,0:0:0:0:
320,192,71307,1,0,0:0:0:0:
192,192,71385,1,8,0:0:0:0:
64,192,71385,1,0,0:0:0:0:
320,192,71463,1,2,0:0:0:0:
448,192,71463,1,0,0:0:0:0:
192,192,71618,1,2,0:0:0:0:
64,192,71618,1,0,0:0:0:0:
64,192,71773,1,0,0:0:0:0:
448,192,71773,1,0,0:0:0:0:
320,192,71773,1,8,0:0:0:0:
192,192,71929,1,0,0:0:0:0:
320,192,71929,1,2,0:0:0:0:
448,192,72084,1,0,0:0:0:0:
64,192,72240,1,0,0:0:0:0:
320,192,72240,1,2,0:0:0:0:
64,192,72395,1,0,0:0:0:0:
192,192,72395,1,8,0:0:0:0:
448,192,72395,1,0,0:0:0:0:
448,192,72551,1,0,0:0:0:0:
320,192,72551,1,2,0:0:0:0:
192,192,72706,1,2,0:0:0:0:
64,192,72706,1,0,0:0:0:0:
448,192,72862,1,0,0:0:0:0:
64,192,72862,1,8,0:0:0:0:
192,192,72939,1,8,0:0:0:0:
320,192,72939,1,0,0:0:0:0:
448,192,73017,1,0,0:0:0:0:
64,192,73017,1,8,0:0:0:0:
320,192,73172,1,0,0:0:0:0:
64,192,73328,1,4,0:0:0:0:
448,192,73328,1,2,0:0:0:0:
192,192,73328,128,0,73639:0:0:0:0:
64,192,73639,1,0,0:0:0:0:
320,192,73639,1,8,0:0:0:0:
448,192,73639,1,0,0:0:0:0:
192,192,73794,1,0,0:0:0:0:
320,192,73872,1,0,0:0:0:0:
448,192,73950,1,2,0:0:0:0:
64,192,73950,1,0,0:0:0:0:
64,192,74105,1,2,0:0:0:0:
320,192,74105,1,0,0:0:0:0:
192,192,74260,1,0,0:0:0:0:
320,192,74260,1,8,0:0:0:0:
448,192,74260,1,0,0:0:0:0:
64,192,74416,1,0,0:0:0:0:
192,192,74416,1,4,0:0:0:0:
448,192,74416,1,2,0:0:0:0:
320,192,74571,1,0,0:0:0:0:
192,192,74727,1,2,0:0:0:0:
64,192,74727,1,0,0:0:0:0:
448,192,74882,1,0,0:0:0:0:
64,192,74882,1,0,0:0:0:0:
320,192,74882,1,8,0:0:0:0:
320,192,75038,1,0,0:0:0:0:
192,192,75038,1,2,0:0:0:0:
448,192,75115,1,0,0:0:0:0:
64,192,75193,1,0,0:0:0:0:
192,192,75193,1,2,0:0:0:0:
448,192,75349,1,0,0:0:0:0:
320,192,75504,1,0,0:0:0:0:
192,192,75504,1,8,0:0:0:0:
64,192,75504,128,0,75815:0:0:0:0:
192,192,75815,1,2,0:0:0:0:
320,192,75815,1,4,0:0:0:0:
448,192,75815,128,0,76126:0:0:0:0:
64,192,75970,1,0,0:0:0:0:
64,192,76126,1,0,0:0:0:0:
320,192,76126,1,0,0:0:0:0:
192,192,76126,1,8,0:0:0:0:
448,192,76281,1,0,0:0:0:0:
320,192,76359,1,8,0:0:0:0:
64,192,76359,1,0,0:0:0:0:
192,192,76437,1,2,0:0:0:0:
448,192,76437,1,0,0:0:0:0:
320,192,76592,1,2,0:0:0:0:
64,192,76592,1,0,0:0:0:0:
64,192,76748,1,0,0:0:0:0:
192,192,76748,1,8,0:0:0:0:
448,192,76748,1,0,0:0:0:0:
64,192,76903,128,0,77058:0:0:0:50:finish-short.wav
320,192,76903,128,2,77058:0:0:0:0:
448,192,76903,128,0,77058:0:0:0:0:
320,192,77214,128,0,77369:0:0:0:0:
192,192,77214,128,0,77369:0:0:0:50:finish-short.wav
64,192,77214,128,2,77369:0:0:0:0:
448,192,77525,1,8,0:0:0:0:
320,192,77525,1,4,0:0:0:0:
64,192,77602,1,0,0:0:0:0:
192,192,77602,1,8,0:0:0:0:
448,192,77680,1,8,0:0:0:0:
320,192,77680,1,0,0:0:0:0:
192,192,77836,1,8,0:0:0:0:
64,192,77836,1,0,0:0:0:0:
448,192,77991,1,0,0:0:0:0:
320,192,77991,1,8,0:0:0:0:
64,192,77991,1,0,0:0:0:0:
320,192,78147,1,0,0:0:0:0:
192,192,78147,1,2,0:0:0:0:
448,192,78302,1,0,0:0:0:0:
192,192,78302,1,4,0:0:0:0:
64,192,78302,1,2,0:0:0:0:
320,192,78457,1,0,0:0:0:0:
64,192,78613,1,2,0:0:0:0:
448,192,78613,1,0,0:0:0:0:
192,192,78691,1,0,0:0:0:0:
320,192,78768,1,0,0:0:0:0:
448,192,78846,1,0,0:0:0:0:
64,192,78924,128,0,79235:0:0:0:0:
192,192,78924,128,2,79235:0:1:0:0:
448,192,79235,1,2,0:0:0:0:
320,192,79235,1,0,0:0:0:0:
192,192,79390,1,2,0:0:0:0:
64,192,79390,1,0,0:0:0:0:
448,192,79545,1,0,0:0:0:0:
64,192,79701,1,8,0:0:0:0:
320,192,79701,1,0,0:0:0:0:
192,192,79701,1,0,0:0:0:0:
64,192,79856,1,2,0:0:0:0:
448,192,79856,1,0,0:0:0:0:
320,192,79934,1,0,0:0:0:0:
192,192,80012,1,0,0:0:0:0:
64,192,80090,1,0,0:0:0:0:
320,192,80167,1,2,0:1:0:0:
448,192,80167,1,0,0:0:0:0:
64,192,80323,1,2,0:0:0:0:
448,192,80323,1,0,0:0:0:0:
320,192,80400,1,8,0:0:0:0:
192,192,80400,1,0,0:0:0:0:
64,192,80478,1,2,0:0:0:0:
448,192,80478,1,0,0:0:0:0:
64,192,80634,1,0,0:0:0:0:
192,192,80634,1,0,0:0:0:0:
320,192,80634,1,8,0:0:0:0:
192,192,80789,1,2,0:0:0:0:
448,192,80789,1,0,0:0:0:0:
64,192,80944,1,0,0:0:0:0:
320,192,80944,1,8,0:0:0:0:
448,192,80944,1,0,0:0:0:0:
192,192,81100,1,2,0:0:0:0:
320,192,81100,128,0,81411:0:0:0:0:
192,192,81411,1,2,0:1:0:0:
64,192,81411,1,8,0:0:0:0:
448,192,81411,1,0,0:0:0:0:
320,192,81566,1,8,0:0:0:0:
448,192,81566,1,0,0:0:0:0:
192,192,81566,1,0,0:0:0:0:
64,192,81722,1,0,0:0:0:0:
320,192,81722,1,2,0:0:0:0:
192,192,81877,1,0,0:0:0:0:
64,192,81877,128,2,82188:0:0:0:0:
448,192,81877,1,4,0:0:0:0:
448,192,82188,1,0,0:0:0:0:
320,192,82188,1,8,0:0:0:0:
192,192,82188,1,0,0:0:0:0:
64,192,82343,1,0,0:0:0:0:
192,192,82343,1,2,0:0:0:0:
448,192,82499,1,0,0:0:0:0:
320,192,82499,1,8,0:0:0:0:
192,192,82577,1,8,0:0:0:0:
64,192,82577,1,0,0:0:0:0:
448,192,82654,1,2,0:1:0:0:
320,192,82654,1,8,0:0:0:0:
192,192,82810,1,8,0:0:0:0:
64,192,82810,1,0,0:0:0:0:
448,192,82965,1,0,0:0:0:0:
320,192,82965,128,2,83276:0:0:0:0:
64,192,83121,1,0,0:0:0:0:
192,192,83276,1,4,0:0:0:0:
64,192,83276,1,2,0:0:0:0:
448,192,83276,128,0,83587:0:0:0:0:
64,192,83587,1,0,0:0:0:0:
192,192,83587,1,0,0:0:0:0:
320,192,83587,1,8,0:0:0:0:
448,192,83742,1,0,0:0:0:0:
64,192,83898,1,2,0:1:0:0:
192,192,83898,1,2,0:0:0:0:
320,192,84053,1,0,0:0:0:0:
64,192,84209,1,0,0:0:0:0:
192,192,84209,1,8,0:0:0:0:
448,192,84209,1,0,0:0:0:0:
320,192,84364,1,2,0:0:0:0:
64,192,84364,1,0,0:0:0:0:
448,192,84364,1,4,0:0:0:0:
192,192,84520,1,0,0:0:0:0:
448,192,84675,1,0,0:0:0:0:
320,192,84675,1,2,0:0:0:0:
64,192,84830,1,0,0:0:0:0:
192,192,84830,1,8,0:0:0:0:
448,192,84830,1,0,0:0:0:0:
192,192,85064,1,8,0:0:0:0:
448,192,85064,1,0,0:0:0:0:
320,192,85141,1,2,0:0:0:0:
64,192,85141,1,2,0:1:0:0:
448,192,85297,1,0,0:0:0:0:
192,192,85297,1,2,0:0:0:0:
64,192,85452,1,0,0:0:0:0:
320,192,85452,1,8,0:0:0:0:
448,192,85452,1,0,0:0:0:0:
192,192,85608,1,2,0:0:0:0:
320,192,85608,1,0,0:0:0:0:
64,192,85763,1,2,0:0:0:0:
192,192,85763,1,4,0:0:0:0:
448,192,85763,1,0,0:0:0:0:
320,192,85919,1,2,0:0:0:0:
448,192,85919,1,0,0:0:0:0:
192,192,86074,1,2,0:0:0:0:
64,192,86074,1,0,0:0:0:0:
64,192,86229,1,0,0:0:0:0:
320,192,86229,1,4,0:0:0:0:
448,192,86229,1,0,0:0:0:0:
192,192,86385,1,2,0:0:0:0:
320,192,86385,1,0,0:0:0:0:
64,192,86540,1,2,0:0:0:0:
448,192,86540,1,0,0:0:0:0:
64,192,86696,1,0,0:0:0:0:
192,192,86696,1,8,0:0:0:0:
320,192,86696,1,0,0:0:0:0:
64,192,86851,128,4,88250:0:0:0:0:
448,192,86851,128,0,87784:0:0:0:0:
320,192,86851,128,0,87628:0:0:0:0:
192,192,86851,128,2,87473:0:0:0:0:
192,192,87628,1,2,0:1:0:0:
320,192,87784,1,0,0:0:0:0:
448,192,87939,1,2,0:1:0:0:
192,192,87939,1,0,0:0:0:0:
192,192,88250,1,4,0:0:0:0:
320,192,88250,1,0,0:0:0:65:G4S.wav
448,192,88250,1,0,0:0:0:100:B4S.wav
64,192,88561,1,0,0:0:0:0:
192,192,88716,1,0,0:0:0:0:
320,192,88872,1,2,0:3:0:0:
448,192,88872,1,0,0:0:0:100:B4S.wav
64,192,89183,1,0,0:0:0:100:C3S.wav
192,192,89338,1,2,0:3:0:0:
448,192,89338,1,0,0:0:0:0:
320,192,89494,1,0,0:0:0:100:B5S.wav
448,192,89649,1,0,0:0:0:0:
64,192,89805,1,0,0:0:0:70:C3S.wav
192,192,89960,1,0,0:0:0:100:F#6S_Gb6S.wav
64,192,90115,1,0,0:0:0:0:
320,192,90115,1,8,0:3:0:0:
448,192,90271,1,0,0:0:0:100:G4S_s.wav
64,192,90426,1,0,0:0:0:100:G6S.wav
192,192,90582,1,0,0:0:0:0:
448,192,90737,1,2,0:3:0:0:
320,192,90737,1,0,0:0:0:100:F#6S_Gb6S.wav
64,192,90893,1,0,0:0:0:0:
192,192,91048,1,0,0:0:0:0:
320,192,91203,1,0,0:0:0:0:
64,192,91359,1,2,0:3:0:0:
448,192,91359,1,0,0:0:0:100:F#4S_Gb4S.wav
192,192,91514,1,0,0:0:0:100:E6S.wav
320,192,91670,1,0,0:0:0:0:
448,192,91825,1,2,0:3:0:0:
64,192,91825,1,0,0:0:0:0:
192,192,91981,1,0,0:0:0:100:D6S.wav
320,192,92136,1,0,0:0:0:0:
448,192,92292,1,0,0:0:0:100:F#4S_Gb4S_s.wav
320,192,92447,1,0,0:0:0:0:
192,192,92602,1,8,0:3:0:0:
64,192,92602,1,0,0:0:0:100:A5S.wav
448,192,92758,1,0,0:0:0:100:F#4S_Gb4S_s.wav
192,192,92913,1,0,0:0:0:0:
320,192,93069,1,0,0:0:0:0:
64,192,93224,1,2,0:3:0:0:
448,192,93224,128,0,94468:0:0:0:100:B5S.wav
192,192,93535,1,0,0:0:0:0:
320,192,93691,1,0,0:0:0:0:
192,192,93846,1,0,0:0:0:100:G4S.wav
64,192,93846,1,2,0:3:0:0:
320,192,94157,1,0,0:0:0:0:
192,192,94312,1,0,0:0:0:0:
64,192,94312,1,2,0:3:0:0:
320,192,94468,1,0,0:0:0:100:G4S.wav
64,192,94623,1,0,0:0:0:0:
192,192,94779,1,0,0:0:0:100:C3S.wav
320,192,94934,1,0,0:0:0:50:G4S.wav
192,192,95090,1,0,0:0:0:100:F#6S_Gb6S.wav
448,192,95090,1,8,0:3:0:0:
64,192,95245,1,0,0:0:0:100:G4S_s.wav
320,192,95245,1,2,0:3:0:0:
192,192,95400,1,0,0:0:0:100:G6S_s.wav
320,192,95556,1,0,0:0:0:0:
448,192,95711,1,2,0:3:0:0:
64,192,95711,1,0,0:0:0:100:A6S.wav
192,192,95867,1,0,0:0:0:0:
448,192,96022,1,0,0:0:0:0:
320,192,96178,1,0,0:0:0:0:
192,192,96333,1,2,0:3:0:0:
64,192,96333,1,0,0:0:0:0:
448,192,96488,1,0,0:0:0:100:F#6S_Gb6S.wav
64,192,96644,1,0,0:0:0:100:D6S.wav
192,192,96799,1,0,0:0:0:0:
448,192,96799,1,2,0:3:0:0:
320,192,96955,1,0,0:0:0:100:A5S.wav
64,192,97110,1,0,0:0:0:0:
192,192,97266,1,0,0:0:0:0:
320,192,97421,1,0,0:0:0:100:F#4S_Gb4S_s.wav
64,192,97577,128,0,98043:0:0:0:100:D7S.wav
448,192,97577,1,8,0:3:0:0:
192,192,97732,1,0,0:0:0:0:
320,192,97732,1,0,0:0:0:100:F#4S_Gb4S_s.wav
448,192,97887,1,0,0:0:0:0:
320,192,98043,128,0,98198:0:0:0:0:
192,192,98198,1,4,0:0:0:0:
64,192,98198,1,0,0:0:0:55:G4S.wav
448,192,98198,1,0,0:0:0:100:B4S.wav
64,192,98509,1,0,0:0:0:0:
192,192,98665,1,0,0:0:0:0:
320,192,98820,1,2,0:3:0:0:
448,192,98820,1,0,0:0:0:100:G4S.wav
64,192,99131,1,0,0:0:0:100:C3S.wav
192,192,99286,1,2,0:3:0:0:
320,192,99286,1,0,0:0:0:0:
448,192,99442,128,0,99908:0:0:0:100:B5S.wav
320,192,99597,1,0,0:0:0:0:
192,192,99753,1,0,0:0:0:70:C3S.wav
64,192,99908,128,0,100374:0:0:0:100:F#6S_Gb6S.wav
448,192,100064,1,0,0:0:0:0:
192,192,100064,1,8,0:3:0:0:
320,192,100219,1,0,0:0:0:100:G4S_s.wav
192,192,100374,1,0,0:0:0:100:G6S.wav
448,192,100530,1,0,0:0:0:0:
320,192,100685,128,0,101307:0:0:0:100:F#6S_Gb6S.wav
64,192,100685,1,2,0:3:0:0:
192,192,100841,1,0,0:0:0:0:
64,192,100996,1,0,0:0:0:0:
448,192,101152,1,0,0:0:0:0:
192,192,101307,1,2,0:3:0:0:
64,192,101307,128,0,101929:0:0:0:60:F#4S_Gb4S.wav
448,192,101463,1,0,0:0:0:0:
320,192,101618,1,0,0:0:0:100:E6S.wav
448,192,101773,1,2,0:3:0:0:
192,192,101773,1,0,0:0:0:0:
320,192,101929,128,0,102551:0:0:0:100:D6S.wav
192,192,102084,1,0,0:0:0:0:
64,192,102240,1,0,0:0:0:0:
448,192,102395,1,0,0:0:0:100:F#4S_Gb4S_s.wav
192,192,102551,1,8,0:3:0:0:
64,192,102551,1,0,0:0:0:100:A5S.wav
448,192,102706,1,0,0:0:0:100:F#4S_Gb4S_s.wav
192,192,102862,1,0,0:0:0:0:
320,192,103017,1,0,0:0:0:0:
64,192,103172,1,2,0:3:0:0:
448,192,103172,128,0,104105:0:0:0:100:B5S.wav
192,192,103328,1,0,0:0:0:0:
320,192,103483,1,0,0:0:0:0:
192,192,103639,1,0,0:0:0:0:
320,192,103794,1,0,0:0:0:90:C3S.wav
64,192,103794,1,2,0:3:0:0:
192,192,104105,1,0,0:0:0:0:
320,192,104260,1,2,0:3:0:0:
64,192,104260,1,0,0:0:0:0:
448,192,104416,1,0,0:0:0:100:B5S.wav
64,192,104571,1,0,0:0:0:0:
192,192,104727,1,0,0:0:0:100:C3S.wav
320,192,104882,1,0,0:0:0:50:G4S.wav
64,192,105038,1,0,0:0:0:100:F#6S_Gb6S.wav
448,192,105038,1,8,0:3:0:0:
320,192,105193,1,2,0:3:0:0:
192,192,105193,1,0,0:0:0:100:G4S_s.wav
64,192,105349,128,0,105659:0:0:0:100:G6S_s.wav
448,192,105504,1,0,0:0:0:0:
192,192,105659,128,0,106281:0:0:0:100:A6S.wav
320,192,105659,1,2,0:3:0:0:
448,192,105815,1,0,0:0:0:0:
64,192,105970,1,0,0:0:0:0:
320,192,106126,1,0,0:0:0:0:
448,192,106281,1,2,0:3:0:0:
64,192,106281,1,0,0:0:0:0:
320,192,106437,1,0,0:0:0:100:F#6S_Gb6S.wav
192,192,106592,1,0,0:0:0:100:D6S.wav
64,192,106748,1,2,0:3:0:0:
448,192,106748,1,0,0:0:0:0:
320,192,106903,128,0,107525:0:0:0:100:A5S.wav
64,192,107058,1,0,0:0:0:0:
192,192,107214,5,0,0:0:0:0:
448,192,107369,1,0,0:0:0:70:F#4S_Gb4S_s.wav
64,192,107525,128,0,107991:0:0:0:100:D7S.wav
192,192,107525,1,8,0:3:0:0:
320,192,107680,1,0,0:0:0:0:
448,192,107680,1,0,0:0:0:70:F#4S_Gb4S_s.wav
192,192,107836,1,0,0:0:0:0:
320,192,107991,128,0,108147:0:0:0:0:
448,192,108147,5,4,0:0:0:0:
192,192,108147,1,0,0:0:0:100:F6S.wav
64,192,108147,1,0,0:0:0:100:F7S.wav
448,192,108457,1,0,0:0:0:0:
320,192,108613,128,0,108768:0:0:0:0:
192,192,108768,1,2,0:3:0:0:
64,192,108768,1,0,0:1:0:0:
320,192,109079,1,0,0:0:0:100:A#6S_Bb6S.wav
448,192,109235,128,0,109390:0:0:0:0:
64,192,109390,1,0,0:0:0:100:F6S.wav
192,192,109390,1,2,0:3:0:0:
320,192,109545,128,0,109701:0:0:0:0:
448,192,109701,1,0,0:0:0:0:
64,192,109701,1,2,0:3:0:0:
192,192,109856,1,0,0:0:0:0:
320,192,110012,1,8,0:3:0:0:
448,192,110012,1,0,0:0:0:100:A#6S_Bb6S.wav
64,192,110167,1,0,0:0:0:0:
192,192,110167,1,2,0:3:0:0:
448,192,110323,1,0,0:0:0:0:
320,192,110478,1,0,0:0:0:0:
64,192,110634,1,0,0:0:0:100:F6S.wav
192,192,110634,1,2,0:3:0:0:
448,192,110944,1,0,0:0:0:100:A#6S_Bb6S.wav
192,192,111100,128,0,111255:0:0:0:0:
64,192,111255,1,0,0:0:0:100:F6S.wav
320,192,111255,1,2,0:3:0:0:
448,192,111566,1,0,0:0:0:0:
320,192,111722,1,0,0:0:0:0:
192,192,111877,1,0,0:0:0:50:A#6S_Bb6S.wav
448,192,111877,1,2,0:3:0:0:
64,192,112033,1,0,0:0:0:65:F7S.wav
448,192,112188,1,0,0:0:0:82:F6S.wav
320,192,112343,1,0,0:0:0:100:F7S.wav
64,192,112499,1,8,0:3:0:0:
192,192,112499,1,0,0:0:0:100:F6S.wav
320,192,112654,1,0,0:0:0:100:A#6S_Bb6S.wav
448,192,112654,1,2,0:3:0:0:
192,192,112810,1,0,0:0:0:100:F7S.wav
64,192,112810,1,2,0:3:0:0:
320,192,112965,128,0,113121:0:0:0:0:
192,192,113121,1,2,0:3:0:0:
64,192,113121,1,0,0:0:0:100:F6S.wav
448,192,113121,1,0,0:0:0:100:F7S.wav
320,192,113431,1,0,0:0:0:0:
448,192,113587,128,0,113742:0:0:0:0:
64,192,113742,1,0,0:0:0:40:F7S.wav
192,192,113742,1,2,0:3:0:0:
320,192,113898,1,0,0:0:0:0:
448,192,113898,1,0,0:0:0:20:A#6S_Bb6S.wav
64,192,114053,1,0,0:0:0:0:
192,192,114209,128,0,114364:0:0:0:0:
448,192,114364,1,0,0:0:0:0:
64,192,114364,1,2,0:3:0:0:
320,192,114520,128,0,114675:0:0:0:0:
64,192,114675,1,0,0:0:0:0:
448,192,114830,1,0,0:0:0:0:
192,192,114986,1,8,0:3:0:0:
320,192,114986,1,0,0:0:0:0:
448,192,115141,1,0,0:0:0:0:
64,192,115141,1,2,0:3:0:0:
192,192,115297,1,0,0:0:0:0:
320,192,115452,1,0,0:0:0:0:
64,192,115608,1,0,0:0:0:100:G3S.wav
448,192,115608,1,2,0:3:0:0:
320,192,115919,1,0,0:0:0:0:
192,192,116074,1,0,0:0:0:0:
64,192,116229,128,2,116540:0:1:0:0:
448,192,116229,1,8,0:3:0:0:
320,192,116540,1,0,0:0:0:0:
192,192,116696,1,0,0:0:0:100:A#3S_Bb3S.wav
448,192,116696,128,2,117007:0:3:0:0:
64,192,117007,1,0,0:0:0:0:
192,192,117162,1,0,0:0:0:0:
320,192,117317,1,2,0:3:0:0:
448,192,117473,1,0,0:0:0:100:A#3S_Bb3S.wav
64,192,117473,1,2,0:1:0:0:
320,192,117628,1,0,0:0:0:100:A#3S_Bb3S.wav
192,192,117628,1,2,0:0:0:0:
64,192,117784,1,2,0:0:0:0:
448,192,117784,1,0,0:0:0:100:F5S.wav
320,192,117939,1,0,0:0:0:100:A#3S_Bb3S.wav
192,192,117939,1,2,0:0:0:0:
64,192,118095,1,0,0:0:0:100:F7S.wav
192,192,118095,1,4,0:0:0:0:
448,192,118095,128,0,119027:0:0:0:100:F6S.wav
320,192,118406,1,0,0:0:0:0:
192,192,118716,1,0,0:0:0:0:
320,192,119027,1,0,0:0:0:0:
64,192,119027,128,0,119649:0:0:0:100:A#6S_Bb6S.wav
448,192,119338,1,0,0:0:0:100:F6S.wav
320,192,119649,1,0,0:0:0:100:F6S.wav
192,192,119805,1,8,0:0:0:0:
448,192,119805,1,0,0:0:0:0:
320,192,119882,1,8,0:0:0:0:
64,192,119882,1,0,0:0:0:0:
192,192,119960,1,8,0:0:0:0:
448,192,119960,1,0,0:0:0:100:A#6S_Bb6S.wav
192,192,120115,1,8,0:0:0:0:
448,192,120115,1,0,0:0:0:0:
320,192,120271,1,8,0:0:0:0:
64,192,120271,1,0,0:0:0:0:
64,192,120426,1,0,0:0:0:100:A#3S_Bb3S.wav
448,192,120426,1,4,0:0:0:0:
192,192,120426,128,2,120737:0:0:0:0:
320,192,120737,1,2,0:0:0:0:
448,192,120737,1,0,0:0:0:0:
192,192,120893,1,2,0:0:0:0:
64,192,120893,1,0,0:0:0:0:
64,192,121203,1,0,0:0:0:0:
320,192,121203,1,8,0:0:0:0:
448,192,121203,1,0,0:0:0:0:
64,192,121359,1,0,0:0:0:0:
192,192,121359,1,8,0:0:0:0:
320,192,121437,1,8,0:0:0:0:
448,192,121437,1,0,0:0:0:0:
192,192,121514,1,2,0:0:0:0:
64,192,121514,1,0,0:0:0:0:
320,192,121670,1,8,0:0:0:0:
448,192,121670,1,0,0:0:0:0:
192,192,121670,1,0,0:0:0:0:
64,192,121825,1,2,0:0:0:0:
192,192,121825,1,4,0:0:0:0:
448,192,121825,1,0,0:0:0:0:
448,192,121981,1,0,0:0:0:0:
320,192,121981,1,8,0:0:0:0:
192,192,122136,1,0,0:0:0:0:
64,192,122136,1,2,0:0:0:0:
448,192,122292,1,0,0:0:0:0:
320,192,122292,1,2,0:0:0:0:
64,192,122447,1,2,0:0:0:0:
192,192,122447,1,8,0:0:0:0:
448,192,122447,1,0,0:0:0:0:
64,192,122602,1,0,0:0:0:0:
320,192,122602,1,2,0:0:0:0:
448,192,122602,1,8,0:0:0:0:
320,192,122758,1,2,0:0:0:0:
192,192,122758,1,0,0:0:0:0:
320,192,122913,1,4,0:0:0:0:
64,192,122913,1,2,0:0:0:0:
448,192,122913,128,0,123224:0:0:0:0:
320,192,123224,1,0,0:0:0:0:
192,192,123224,1,8,0:0:0:0:
64,192,123224,1,0,0:0:0:0:
448,192,123380,1,2,0:0:0:0:
64,192,123380,128,0,123691:0:0:0:0:
320,192,123691,1,0,0:0:0:0:
192,192,123691,1,8,0:0:0:0:
448,192,123691,128,0,123846:0:0:0:0:
320,192,123846,1,2,0:0:0:0:
64,192,123846,1,0,0:0:0:0:
448,192,124001,1,2,0:0:0:0:
192,192,124001,128,0,124157:0:0:0:0:
320,192,124157,1,8,0:0:0:0:
64,192,124157,1,0,0:0:0:0:
448,192,124157,1,0,0:0:0:0:
448,192,124312,1,0,0:0:0:0:
64,192,124312,1,2,0:0:0:0:
192,192,124312,1,4,0:0:0:0:
192,192,124468,1,8,0:0:0:0:
320,192,124468,1,0,0:0:0:0:
64,192,124468,1,0,0:0:0:0:
320,192,124623,1,2,0:0:0:0:
448,192,124623,1,0,0:0:0:0:
64,192,124779,1,0,0:0:0:0:
192,192,124934,1,2,0:0:0:0:
448,192,124934,1,0,0:0:0:0:
320,192,124934,1,8,0:0:0:0:
448,192,125090,1,8,0:0:0:0:
320,192,125090,1,2,0:0:0:0:
64,192,125090,1,0,0:0:0:0:
192,192,125245,1,2,0:0:0:0:
448,192,125245,1,0,0:0:0:0:
320,192,125400,1,0,0:0:0:0:
192,192,125400,1,4,0:0:0:0:
64,192,125400,128,2,125711:0:0:0:0:
320,192,125711,1,8,0:0:0:0:
448,192,125711,1,0,0:0:0:0:
192,192,125711,1,0,0:0:0:0:
64,192,125867,1,2,0:0:0:0:
448,192,125867,128,0,126178:0:0:0:0:
192,192,126178,1,8,0:0:0:0:
64,192,126178,1,0,0:0:0:0:
320,192,126178,1,0,0:0:0:0:
448,192,126333,1,0,0:0:0:0:
320,192,126333,1,2,0:0:0:0:
64,192,126488,1,0,0:0:0:0:
192,192,126644,1,0,0:0:0:0:
320,192,126644,1,8,0:0:0:0:
448,192,126644,1,0,0:0:0:0:
64,192,126799,1,2,0:0:0:0:
448,192,126799,1,4,0:0:0:0:
192,192,126799,1,0,0:0:0:0:
320,192,126955,1,8,0:0:0:0:
192,192,126955,1,0,0:0:0:0:
64,192,127110,1,0,0:0:0:0:
448,192,127110,1,2,0:0:0:0:
192,192,127266,1,0,0:0:0:0:
64,192,127421,1,0,0:0:0:0:
448,192,127421,1,8,0:0:0:0:
320,192,127421,1,2,0:0:0:0:
64,192,127577,1,0,0:0:0:0:
192,192,127577,1,2,0:0:0:0:
448,192,127577,1,8,0:0:0:0:
320,192,127732,1,2,0:0:0:0:
192,192,127732,1,0,0:0:0:0:
64,192,127887,1,2,0:0:0:0:
448,192,127887,1,0,0:0:0:0:
320,192,128043,1,2,0:0:0:0:
448,192,128043,1,4,0:0:0:0:
192,192,128043,1,0,0:0:0:0:
320,192,128354,1,2,0:0:0:0:
448,192,128354,1,0,0:0:0:0:
64,192,128665,1,0,0:0:0:0:
192,192,128665,1,2,0:0:0:0:
448,192,128665,1,0,0:0:0:0:
320,192,128898,1,0,0:0:0:0:
192,192,128976,1,2,0:0:0:0:
64,192,128976,1,0,0:0:0:0:
320,192,129131,1,2,0:0:0:0:
192,192,129209,1,2,0:0:0:0:
64,192,129286,1,0,0:0:0:0:
320,192,129286,1,2,0:0:0:0:
448,192,129286,1,0,0:0:0:0:
192,192,129520,1,0,0:0:0:0:
320,192,129597,1,2,0:0:0:0:
448,192,129597,1,0,0:0:0:0:
64,192,129908,1,0,0:0:0:0:
192,192,129908,1,2,0:0:0:0:
448,192,129908,1,0,0:0:0:0:
64,192,130219,1,2,0:0:0:0:
192,192,130219,1,0,0:0:0:0:
448,192,130374,1,2,0:0:0:0:
320,192,130374,1,0,0:0:0:0:
192,192,130452,1,2,0:0:0:0:
64,192,130530,1,2,0:0:0:0:
320,192,130530,1,0,0:0:0:0:
448,192,130530,1,4,0:0:0:0:
64,192,130841,1,0,0:0:0:0:
192,192,130841,1,2,0:0:0:0:
320,192,130996,1,0,0:0:0:0:
448,192,131152,1,8,0:0:0:0:
192,192,131152,1,2,0:0:0:0:
64,192,131152,1,0,0:0:0:0:
320,192,131307,1,2,0:0:0:0:
192,192,131385,1,2,0:0:0:0:
448,192,131463,1,8,0:0:0:0:
320,192,131463,1,2,0:0:0:0:
64,192,131463,1,0,0:0:0:0:
192,192,131618,1,0,0:0:0:0:
448,192,131773,1,8,0:0:0:0:
64,192,131773,1,2,0:0:0:0:
320,192,131773,1,0,0:0:0:0:
192,192,131851,1,0,0:0:0:0:
320,192,131929,1,8,0:0:0:0:
448,192,131929,1,0,0:0:0:0:
64,192,132007,1,8,0:0:0:0:
320,192,132084,1,0,0:0:0:0:
192,192,132084,1,8,0:0:0:0:
448,192,132162,1,8,0:0:0:0:
192,192,132240,1,8,0:0:0:0:
64,192,132240,1,0,0:0:0:0:
320,192,132317,1,8,0:0:0:0:
64,192,132395,1,2,0:0:0:0:
448,192,132395,1,0,0:0:0:0:
192,192,132473,1,2,0:0:0:0:
448,192,132551,1,0,0:0:0:0:
320,192,132551,1,2,0:0:0:0:
64,192,132628,1,0,0:0:0:0:
192,192,132628,1,2,0:0:0:0:
448,192,132706,1,0,0:0:0:0:
320,192,132706,1,2,0:0:0:0:
192,192,132784,1,2,0:0:0:0:
448,192,132862,128,0,133172:0:0:0:0:
320,192,132862,1,4,0:0:0:0:
64,192,132862,128,2,133172:0:0:0:0:
320,192,133172,1,2,0:0:0:0:
192,192,133172,1,0,0:0:0:0:
64,192,133328,1,0,0:0:0:0:
320,192,133328,1,8,0:0:0:0:
448,192,133328,1,0,0:0:0:0:
192,192,133483,1,0,0:0:0:0:
448,192,133639,1,2,0:0:0:0:
320,192,133639,128,0,133794:0:0:0:0:
64,192,133794,1,2,0:0:0:0:
192,192,133794,128,0,133950:0:0:0:0:
64,192,133950,1,0,0:0:0:0:
320,192,133950,1,8,0:0:0:0:
448,192,133950,128,0,134105:0:0:0:0:
320,192,134105,1,2,0:0:0:0:
192,192,134105,128,0,134260:0:0:0:0:
64,192,134260,128,0,134416:0:0:0:0:
448,192,134416,1,2,0:0:0:0:
320,192,134416,128,0,134571:0:0:0:0:
192,192,134571,1,8,0:0:0:0:
64,192,134571,1,0,0:0:0:0:
448,192,134571,128,0,134727:0:0:0:0:
320,192,134727,1,2,0:0:0:0:
192,192,134727,128,0,134882:0:0:0:0:
64,192,134882,1,2,0:0:0:0:
448,192,134882,128,0,135038:0:0:0:0:
320,192,135038,128,0,135193:0:0:0:0:
192,192,135193,1,8,0:0:0:0:
64,192,135193,1,0,0:0:0:0:
448,192,135193,1,0,0:0:0:0:
64,192,135349,1,2,0:0:0:0:
320,192,135349,1,4,0:0:0:0:
448,192,135349,128,0,135659:0:0:0:0:
192,192,135504,1,0,0:0:0:0:
64,192,135659,1,2,0:0:0:0:
320,192,135659,128,0,135815:0:0:0:0:
192,192,135815,1,8,0:0:0:0:
448,192,135815,1,0,0:0:0:0:
64,192,135815,128,0,135970:0:0:0:0:
320,192,135970,128,0,136126:0:0:0:0:
64,192,136126,1,2,0:0:0:0:
448,192,136126,128,0,136281:0:0:0:0:
320,192,136281,1,2,0:0:0:0:
192,192,136281,128,0,136437:0:0:0:0:
64,192,136437,1,0,0:0:0:0:
320,192,136437,1,8,0:0:0:0:
448,192,136437,1,0,0:0:0:0:
192,192,136592,1,2,0:0:0:0:
64,192,136592,128,0,136748:0:0:0:0:
448,192,136748,1,0,0:0:0:0:
192,192,136903,1,2,0:0:0:0:
320,192,136903,128,0,137058:0:0:0:0:
64,192,137058,1,0,0:0:0:0:
448,192,137058,1,0,0:0:0:0:
192,192,137058,1,8,0:0:0:0:
320,192,137214,1,2,0:0:0:0:
448,192,137214,128,0,137369:0:0:0:0:
192,192,137369,1,2,0:0:0:0:
64,192,137369,1,0,0:0:0:0:
448,192,137525,1,0,0:0:0:0:
64,192,137525,128,0,137680:0:0:0:0:
192,192,137680,1,8,0:0:0:0:
320,192,137680,1,0,0:0:0:0:
448,192,137680,128,0,137836:0:0:0:0:
64,192,137836,1,2,0:0:0:0:
320,192,137836,1,4,0:0:0:0:
192,192,137836,128,0,137991:0:0:0:0:
320,192,137991,128,0,138147:0:0:0:0:
64,192,138147,1,2,0:0:0:0:
192,192,138147,128,0,138302:0:0:0:0:
64,192,138302,1,0,0:0:0:0:
320,192,138302,1,8,0:0:0:0:
448,192,138302,128,0,138457:0:0:0:0:
192,192,138457,128,0,138613:0:0:0:0:
320,192,138613,1,2,0:0:0:0:
64,192,138613,128,0,138768:0:0:0:0:
192,192,138768,1,2,0:0:0:0:
448,192,138768,128,0,138924:0:0:0:0:
64,192,138924,1,0,0:0:0:0:
320,192,138924,1,8,0:0:0:0:
192,192,138924,128,0,139079:0:0:0:0:
448,192,139079,1,2,0:0:0:0:
320,192,139079,128,0,139235:0:0:0:0:
64,192,139235,128,0,139390:0:0:0:0:
320,192,139390,1,2,0:0:0:0:
192,192,139390,128,0,139545:0:0:0:0:
64,192,139545,1,0,0:0:0:0:
320,192,139545,1,8,0:0:0:0:
448,192,139545,128,0,139701:0:0:0:0:
64,192,139701,1,2,0:0:0:0:
192,192,139701,128,0,139856:0:0:0:0:
448,192,139856,1,2,0:0:0:0:
320,192,139856,128,0,140012:0:0:0:0:
64,192,140012,128,0,140167:0:0:0:0:
192,192,140012,1,2,0:0:0:0:
192,192,140167,1,0,0:0:0:0:
448,192,140167,128,0,140323:0:0:0:0:
320,192,140167,1,8,0:0:0:0:
64,192,140323,1,2,0:0:0:0:
192,192,140323,1,4,0:0:0:0:
320,192,140323,1,0,0:0:0:0:
448,192,140478,1,0,0:0:0:0:
192,192,140634,1,0,0:0:0:0:
64,192,140789,1,0,0:0:0:0:
448,192,140789,1,2,0:0:0:0:
320,192,140944,1,0,0:0:0:0:
192,192,141100,1,2,0:0:0:0:
64,192,141100,1,0,0:0:0:0:
448,192,141255,1,0,0:0:0:0:
64,192,141411,1,2,0:0:0:0:
320,192,141411,1,0,0:0:0:0:
192,192,141566,1,0,0:0:0:0:
64,192,141722,1,2,0:0:0:0:
448,192,141722,1,0,0:0:0:0:
320,192,141877,1,0,0:0:0:0:
448,192,142033,1,2,0:0:0:0:
192,192,142033,1,0,0:0:0:0:
64,192,142188,1,0,0:0:0:0:
192,192,142343,1,2,0:0:0:0:
320,192,142343,1,8,0:0:0:0:
448,192,142343,1,0,0:0:0:0:
64,192,142499,1,0,0:0:0:0:
320,192,142499,1,2,0:0:0:0:
448,192,142499,1,8,0:0:0:0:
192,192,142654,1,2,0:0:0:0:
448,192,142654,1,0,0:0:0:0:
64,192,142654,1,8,0:0:0:0:
64,192,142810,128,0,143121:0:0:0:0:
192,192,142810,128,2,143121:0:0:0:0:
320,192,142810,128,4,142965:0:0:0:0:
448,192,143121,1,2,0:0:0:0:
320,192,143121,1,0,0:0:0:0:
320,192,143276,1,8,0:0:0:0:
192,192,143276,1,0,0:0:0:0:
64,192,143276,1,0,0:0:0:0:
448,192,143431,1,0,0:0:0:0:
320,192,143587,1,2,0:0:0:0:
64,192,143587,1,0,0:0:0:0:
192,192,143742,1,2,0:0:0:0:
448,192,143742,1,0,0:0:0:0:
448,192,143898,1,0,0:0:0:0:
320,192,143898,1,8,0:0:0:0:
64,192,143898,1,0,0:0:0:0:
192,192,144053,1,0,0:0:0:0:
320,192,144209,1,2,0:0:0:0:
448,192,144209,1,0,0:0:0:0:
64,192,144364,1,0,0:0:0:0:
192,192,144364,1,2,0:0:0:0:
320,192,144520,1,0,0:0:0:0:
192,192,144520,1,8,0:0:0:0:
448,192,144520,1,0,0:0:0:0:
64,192,144675,1,0,0:0:0:0:
320,192,144675,1,2,0:0:0:0:
192,192,144830,1,0,0:0:0:0:
320,192,144986,1,2,0:0:0:0:
448,192,144986,1,0,0:0:0:0:
192,192,145141,1,8,0:0:0:0:
64,192,145141,1,0,0:0:0:0:
448,192,145141,1,0,0:0:0:0:
448,192,145297,1,0,0:0:0:0:
320,192,145297,1,4,0:0:0:0:
64,192,145297,1,2,0:0:0:0:
192,192,145452,1,0,0:0:0:0:
320,192,145608,1,2,0:0:0:0:
64,192,145608,1,0,0:0:0:0:
448,192,145763,1,0,0:0:0:0:
192,192,145763,1,8,0:0:0:0:
64,192,145763,1,0,0:0:0:0:
320,192,145919,1,0,0:0:0:0:
192,192,146074,1,2,0:0:0:0:
64,192,146074,1,0,0:0:0:0:
320,192,146229,1,2,0:0:0:0:
448,192,146229,1,0,0:0:0:0:
192,192,146385,1,8,0:0:0:0:
64,192,146385,1,0,0:0:0:0:
448,192,146385,1,0,0:0:0:0:
320,192,146540,1,0,0:0:0:0:
192,192,146540,1,2,0:0:0:0:
64,192,146696,1,0,0:0:0:0:
448,192,146851,1,0,0:0:0:0:
192,192,146851,1,2,0:0:0:0:
64,192,147007,1,0,0:0:0:0:
320,192,147007,1,8,0:0:0:0:
448,192,147007,1,0,0:0:0:0:
192,192,147162,1,0,0:0:0:0:
448,192,147317,1,0,0:0:0:0:
320,192,147317,1,2,0:0:0:0:
192,192,147473,1,2,0:0:0:0:
64,192,147473,1,0,0:0:0:0:
448,192,147628,1,0,0:0:0:0:
320,192,147628,1,8,0:0:0:0:
64,192,147628,1,0,0:0:0:0:
320,192,147784,1,0,0:0:0:0:
192,192,147784,1,2,0:0:0:0:
448,192,147939,1,0,0:0:0:0:
192,192,147939,1,4,0:0:0:0:
64,192,147939,1,2,0:0:0:0:
320,192,148095,1,0,0:0:0:0:
448,192,148250,1,0,0:0:0:0:
192,192,148250,1,8,0:0:0:0:
64,192,148250,1,0,0:0:0:0:
320,192,148406,1,0,0:0:0:0:
448,192,148561,1,0,0:0:0:0:
192,192,148561,1,2,0:0:0:0:
64,192,148716,1,2,0:0:0:0:
320,192,148716,1,0,0:0:0:0:
448,192,148872,1,0,0:0:0:0:
320,192,148872,1,0,0:0:0:0:
192,192,148872,1,8,0:0:0:0:
64,192,149027,1,0,0:0:0:0:
192,192,149027,1,2,0:0:0:0:
448,192,149183,1,0,0:0:0:0:
320,192,149338,1,0,0:0:0:0:
192,192,149338,1,2,0:0:0:0:
448,192,149494,1,0,0:0:0:0:
320,192,149494,1,8,0:0:0:0:
64,192,149494,1,0,0:0:0:0:
192,192,149649,1,0,0:0:0:0:
448,192,149805,1,0,0:0:0:0:
320,192,149805,1,2,0:0:0:0:
64,192,149960,1,0,0:0:0:0:
192,192,149960,1,2,0:0:0:0:
448,192,150115,1,0,0:0:0:0:
64,192,150115,1,8,0:0:0:0:
320,192,150115,1,0,0:0:0:0:
192,192,150271,1,2,0:0:0:0:
320,192,150271,1,0,0:0:0:0:
192,192,150426,1,4,0:0:0:0:
448,192,150426,1,0,0:0:0:0:
64,192,150426,1,2,0:0:0:0:
320,192,150582,1,0,0:0:0:0:
192,192,150737,1,8,0:0:0:0:
448,192,150737,1,0,0:0:0:0:
64,192,150737,1,0,0:0:0:0:
320,192,150893,1,0,0:0:0:0:
448,192,151048,1,2,0:0:0:0:
64,192,151048,1,0,0:0:0:0:
320,192,151203,1,0,0:0:0:0:
192,192,151203,1,2,0:0:0:0:
320,192,151359,1,0,0:0:0:0:
448,192,151359,1,8,0:0:0:0:
64,192,151359,1,0,0:0:0:0:
192,192,151514,1,4,0:0:0:0:
64,192,151514,1,2,0:0:0:0:
448,192,151514,128,0,151825:0:0:0:0:
192,192,151825,1,0,0:0:0:0:
320,192,151981,1,8,0:0:0:0:
448,192,151981,1,0,0:0:0:0:
64,192,152058,1,0,0:0:0:0:
192,192,152136,1,2,0:0:0:0:
448,192,152136,1,0,0:0:0:0:
320,192,152214,1,0,0:0:0:0:
64,192,152292,1,8,0:0:0:0:
192,192,152292,1,0,0:0:0:0:
448,192,152369,1,0,0:0:0:0:
320,192,152447,1,2,0:0:0:0:
192,192,152447,1,0,0:0:0:0:
64,192,152525,1,0,0:0:0:0:
320,192,152602,1,2,0:0:0:0:
448,192,152602,1,0,0:0:0:0:
192,192,152680,1,0,0:0:0:0:
64,192,152758,1,0,0:0:0:0:
448,192,152758,1,2,0:0:0:0:
320,192,152836,1,0,0:0:0:0:
64,192,152913,1,4,0:0:0:0:
192,192,152913,1,2,0:0:0:0:
448,192,152913,1,0,0:0:0:0:
320,192,153069,1,0,0:0:0:0:
64,192,153224,1,0,0:0:0:0:
448,192,153224,1,2,0:0:0:0:
192,192,153380,1,0,0:0:0:0:
320,192,153535,1,8,0:0:0:0:
64,192,153535,1,0,0:0:0:0:
448,192,153535,1,0,0:0:0:0:
192,192,153691,1,0,0:0:0:0:
320,192,153846,1,2,0:0:0:0:
448,192,153846,1,0,0:0:0:0:
64,192,154001,1,2,0:0:0:0:
192,192,154157,1,0,0:0:0:0:
448,192,154312,1,8,0:0:0:0:
320,192,154312,1,0,0:0:0:0:
64,192,154312,1,0,0:0:0:0:
192,192,154468,1,0,0:0:0:0:
64,192,154468,1,2,0:0:0:0:
320,192,154623,1,0,0:0:0:0:
448,192,154779,1,0,0:0:0:0:
192,192,154779,1,8,0:0:0:0:
64,192,154779,1,0,0:0:0:0:
448,192,154934,1,0,0:0:0:0:
320,192,154934,1,2,0:0:0:0:
192,192,155090,1,0,0:0:0:0:
64,192,155090,1,2,0:0:0:0:
64,192,155245,1,0,0:0:0:0:
448,192,155245,1,8,0:0:0:0:
320,192,155245,1,0,0:0:0:0:
192,192,155400,1,0,0:0:0:0:
448,192,155400,1,2,0:0:0:0:
320,192,155556,1,0,0:0:0:0:
64,192,155556,1,8,0:0:0:0:
448,192,155711,128,0,156022:0:0:0:0:
192,192,155711,1,2,0:0:0:0:
64,192,156022,1,0,0:0:0:0:
192,192,156022,1,8,0:0:0:0:
320,192,156022,1,2,0:0:0:0:
64,192,156178,1,8,0:0:0:0:
192,192,156178,1,2,0:0:0:0:
448,192,156178,1,0,0:0:0:0:
320,192,156333,1,0,0:0:0:0:
192,192,156333,1,2,0:0:0:0:
64,192,156488,128,2,156799:0:0:0:0:
448,192,156488,1,0,0:0:0:0:
448,192,156799,1,0,0:0:0:0:
320,192,156799,1,8,0:0:0:0:
192,192,156799,1,0,0:0:0:0:
320,192,156955,1,2,0:0:0:0:
64,192,156955,1,0,0:0:0:0:
448,192,157110,1,0,0:0:0:0:
192,192,157110,1,2,0:0:0:0:
64,192,157188,1,0,0:0:0:0:
320,192,157188,1,2,0:0:0:0:
448,192,157266,1,0,0:0:0:0:
192,192,157266,1,8,0:0:0:0:
320,192,157421,1,2,0:0:0:0:
192,192,157421,1,8,0:0:0:0:
64,192,157421,1,0,0:0:0:0:
64,192,157577,1,8,0:0:0:0:
448,192,157577,1,0,0:0:0:0:
192,192,157577,1,2,0:0:0:0:
320,192,157732,1,8,0:0:0:0:
64,192,157732,1,2,0:0:0:0:
448,192,157887,128,4,158976:0:0:0:0:
320,192,157887,1,2,0:0:0:0:
192,192,157887,1,0,0:0:0:0:
320,192,158198,1,2,0:0:0:0:
64,192,158198,1,0,0:0:0:0:
192,192,158354,1,0,0:0:0:0:
192,192,158509,1,8,0:0:0:0:
320,192,158509,1,0,0:0:0:0:
64,192,158509,1,0,0:0:0:0:
320,192,158665,1,0,0:0:0:0:
192,192,158820,1,2,0:0:0:0:
64,192,158820,1,0,0:0:0:0:
64,192,158976,128,2,159753:0:0:0:0:
320,192,158976,1,0,0:0:0:0:
192,192,158976,1,4,0:0:0:0:
448,192,159286,1,0,0:0:0:0:
320,192,159286,1,8,0:0:0:0:
192,192,159286,1,0,0:0:0:0:
320,192,159442,1,2,0:0:0:0:
448,192,159442,1,0,0:0:0:0:
192,192,159597,1,0,0:0:0:0:
320,192,159753,1,0,0:0:0:0:
192,192,159753,1,2,0:0:0:0:
448,192,159753,1,8,0:0:0:0:
448,192,159908,1,2,0:0:0:0:
64,192,159908,1,0,0:0:0:0:
192,192,159908,1,8,0:0:0:0:
320,192,160064,1,2,0:0:0:0:
448,192,160064,1,0,0:0:0:0:
64,192,160219,128,0,160530:0:0:0:0:
192,192,160219,128,8,160530:0:0:0:0:
320,192,160219,1,4,0:0:0:0:
448,192,160530,1,0,0:0:0:0:
320,192,160530,1,2,0:0:0:0:
64,192,160685,1,0,0:0:0:0:
192,192,160685,1,2,0:0:0:0:
448,192,160841,5,8,0:0:0:0:
64,192,160841,1,0,0:0:0:0:
320,192,160841,1,4,0:0:0:0:
320,192,160996,1,2,0:0:0:0:
192,192,160996,1,0,0:0:0:0:
192,192,161152,1,2,0:0:0:0:
64,192,161152,1,0,0:0:0:0:
64,192,161307,1,2,0:0:0:0:
320,192,161307,1,8,0:0:0:0:
448,192,161307,1,0,0:0:0:0:
320,192,161463,1,2,0:0:0:0:
192,192,161463,1,0,0:0:0:0:
320,192,161618,1,2,0:1:0:0:
448,192,161618,1,4,0:0:0:50:finish-short.wav
64,192,161618,1,2,0:3:0:0:
192,192,161618,1,0,0:0:0:0:
64,192,161929,128,0,162862:0:0:0:0:
448,192,162240,1,0,0:0:0:0:
320,192,162551,1,0,0:0:0:0:
448,192,162862,1,0,0:0:0:0:
320,192,162862,1,4,0:0:0:0:
192,192,162862,1,2,0:0:0:0:
64,192,163017,1,0,0:0:0:0:
448,192,163172,1,0,0:0:0:0:
64,192,163172,1,0,0:0:0:0:
320,192,163172,1,8,0:0:0:0:
192,192,163328,1,0,0:0:0:0:
320,192,163483,1,0,0:0:0:0:
448,192,163483,1,2,0:0:0:0:
64,192,163639,1,2,0:0:0:0:
192,192,163639,1,0,0:0:0:0:
320,192,163794,1,0,0:0:0:0:
448,192,163794,1,0,0:0:0:0:
64,192,163794,1,8,0:0:0:0:
448,192,163950,1,0,0:0:0:0:
192,192,163950,1,2,0:0:0:0:
64,192,164105,1,0,0:0:0:0:
320,192,164260,1,0,0:0:0:0:
192,192,164260,1,2,0:0:0:0:
64,192,164416,1,0,0:0:0:0:
192,192,164416,1,8,0:0:0:0:
448,192,164416,1,0,0:0:0:0:
320,192,164571,1,2,0:0:0:0:
448,192,164571,1,0,0:0:0:0:
192,192,164727,1,2,0:0:0:0:
64,192,164727,128,0,165038:0:0:0:0:
320,192,164882,1,0,0:0:0:0:
192,192,165038,1,8,0:0:0:0:
320,192,165038,1,0,0:0:0:0:
448,192,165038,128,0,165349:0:0:0:0:
320,192,165349,1,2,0:0:0:0:
64,192,165349,1,4,0:0:0:0:
192,192,165349,128,0,165659:0:0:0:0:
320,192,165659,1,8,0:0:0:0:
64,192,165659,1,0,0:0:0:0:
448,192,165659,1,0,0:0:0:0:
192,192,165815,1,0,0:0:0:0:
448,192,165893,1,0,0:0:0:0:
320,192,165893,1,8,0:0:0:0:
64,192,165970,1,0,0:0:0:0:
192,192,165970,1,2,0:0:0:0:
448,192,166126,1,0,0:0:0:0:
320,192,166126,1,2,0:0:0:0:
448,192,166281,1,0,0:0:0:0:
192,192,166281,1,8,0:0:0:0:
64,192,166281,1,0,0:0:0:0:
192,192,166437,1,0,0:0:0:0:
320,192,166437,1,2,0:0:0:0:
448,192,166592,1,0,0:0:0:0:
320,192,166748,1,2,0:0:0:0:
64,192,166748,1,0,0:0:0:0:
448,192,166903,1,0,0:0:0:0:
320,192,166903,1,0,0:0:0:0:
192,192,166903,1,8,0:0:0:0:
64,192,167058,1,2,0:0:0:0:
448,192,167058,1,0,0:0:0:0:
320,192,167136,1,0,0:0:0:0:
192,192,167214,128,0,167525:0:0:0:0:
64,192,167214,1,2,0:0:0:0:
320,192,167369,1,0,0:0:0:0:
448,192,167525,128,0,167836:0:0:0:0:
320,192,167525,1,8,0:0:0:0:
64,192,167525,1,0,0:0:0:0:
64,192,167680,1,0,0:0:0:0:
64,192,167836,128,2,168147:0:0:0:0:
192,192,167836,1,0,0:0:0:0:
320,192,167836,1,4,0:0:0:0:
448,192,168147,1,0,0:0:0:0:
320,192,168147,1,8,0:0:0:0:
192,192,168147,1,0,0:0:0:0:
64,192,168302,1,0,0:0:0:0:
192,192,168380,1,0,0:0:0:0:
448,192,168380,1,8,0:0:0:0:
320,192,168457,1,2,0:0:0:0:
64,192,168457,1,0,0:0:0:0:
320,192,168613,1,0,0:0:0:0:
192,192,168613,1,2,0:0:0:0:
192,192,168768,1,8,0:0:0:0:
448,192,168768,1,0,0:0:0:0:
64,192,168768,1,0,0:0:0:0:
64,192,168924,128,2,169235:0:0:0:0:
448,192,168924,1,0,0:0:0:0:
320,192,168924,1,4,0:0:0:0:
320,192,169235,1,2,0:0:0:0:
192,192,169235,1,0,0:0:0:0:
448,192,169390,1,0,0:0:0:0:
320,192,169390,1,8,0:0:0:0:
64,192,169390,1,0,0:0:0:0:
192,192,169545,1,2,0:0:0:0:
64,192,169545,1,0,0:0:0:0:
320,192,169623,1,0,0:0:0:0:
64,192,169701,1,0,0:0:0:0:
448,192,169701,1,2,0:0:0:0:
320,192,169856,1,0,0:0:0:0:
448,192,170012,1,0,0:0:0:0:
64,192,170012,1,8,0:0:0:0:
192,192,170012,1,0,0:0:0:0:
64,192,170167,1,0,0:0:0:0:
320,192,170323,1,4,0:0:0:0:
448,192,170323,1,0,0:0:0:0:
192,192,170323,128,2,170634:0:0:0:0:
448,192,170634,1,0,0:0:0:0:
320,192,170634,1,8,0:0:0:0:
64,192,170634,1,0,0:0:0:0:
192,192,170789,1,0,0:0:0:0:
64,192,170867,1,0,0:0:0:0:
320,192,170944,1,2,0:0:0:0:
448,192,170944,1,0,0:0:0:0:
64,192,171100,1,0,0:0:0:0:
192,192,171100,1,2,0:0:0:0:
320,192,171255,1,8,0:0:0:0:
192,192,171255,1,0,0:0:0:0:
448,192,171255,1,0,0:0:0:0:
448,192,171411,128,0,171566:0:0:0:0:
192,192,171411,128,0,171566:0:0:0:50:finish-short.wav
64,192,171411,128,2,171566:0:0:0:0:
448,192,171722,128,0,171877:0:0:0:0:
320,192,171722,128,0,171877:0:0:0:50:finish-short.wav
64,192,171722,128,2,171877:0:0:0:0:
192,192,172033,1,8,0:0:0:0:
448,192,172033,1,4,0:0:0:0:
64,192,172110,1,0,0:0:0:0:
320,192,172110,1,8,0:0:0:0:
448,192,172188,1,0,0:0:0:0:
192,192,172188,1,8,0:0:0:0:
448,192,172343,1,0,0:0:0:0:
64,192,172343,1,2,0:0:0:0:
320,192,172499,1,0,0:0:0:0:
64,192,172499,1,2,0:0:0:0:
192,192,172654,1,0,0:0:0:0:
320,192,172654,1,2,0:0:0:0:
64,192,172810,1,2,0:0:0:0:
192,192,172810,1,4,0:0:0:0:
448,192,172810,1,0,0:0:0:0:
320,192,172965,1,0,0:0:0:0:
448,192,173121,1,0,0:0:0:0:
320,192,173121,1,8,0:0:0:0:
64,192,173121,1,0,0:0:0:0:
192,192,173276,1,0,0:0:0:0:
64,192,173431,1,2,0:0:0:0:
448,192,173431,1,0,0:0:0:0:
192,192,173587,1,2,0:0:0:0:
320,192,173587,1,0,0:0:0:0:
448,192,173742,1,0,0:0:0:0:
64,192,173742,1,0,0:0:0:0:
192,192,173742,1,8,0:0:0:0:
448,192,173898,1,0,0:0:0:0:
320,192,173898,1,2,0:0:0:0:
192,192,174053,1,0,0:0:0:0:
448,192,174209,1,0,0:0:0:0:
64,192,174209,1,2,0:0:0:0:
320,192,174364,1,0,0:0:0:0:
448,192,174364,1,0,0:0:0:0:
192,192,174364,1,8,0:0:0:0:
64,192,174520,1,2,0:0:0:0:
320,192,174520,1,0,0:0:0:0:
448,192,174675,128,0,174986:0:0:0:0:
192,192,174675,1,2,0:0:0:0:
64,192,174830,1,0,0:0:0:0:
64,192,174986,128,0,175297:0:0:0:0:
320,192,174986,1,0,0:0:0:0:
192,192,174986,1,8,0:0:0:0:
448,192,175141,1,0,0:0:0:0:
192,192,175297,128,2,175608:0:0:0:0:
320,192,175297,1,0,0:0:0:0:
448,192,175297,1,4,0:0:0:0:
320,192,175608,1,8,0:0:0:0:
64,192,175608,1,0,0:0:0:0:
448,192,175608,1,0,0:0:0:0:
192,192,175763,1,0,0:0:0:0:
448,192,175841,1,0,0:0:0:0:
320,192,175841,1,8,0:0:0:0:
64,192,175919,1,0,0:0:0:0:
192,192,175919,1,2,0:0:0:0:
448,192,176074,1,0,0:0:0:0:
320,192,176074,1,2,0:0:0:0:
192,192,176229,1,8,0:0:0:0:
64,192,176229,1,0,0:0:0:0:
448,192,176229,1,0,0:0:0:0:
320,192,176385,1,2,0:0:0:0:
192,192,176385,1,0,0:0:0:0:
64,192,176540,1,0,0:0:0:0:
192,192,176696,1,2,0:0:0:0:
448,192,176696,1,0,0:0:0:0:
320,192,176851,1,0,0:0:0:0:
192,192,176851,1,8,0:0:0:0:
64,192,176851,1,0,0:0:0:0:
320,192,177007,1,2,0:0:0:0:
448,192,177007,1,0,0:0:0:0:
192,192,177162,1,2,0:0:0:0:
64,192,177162,128,0,177473:0:0:0:0:
320,192,177317,1,0,0:0:0:0:
192,192,177473,1,8,0:0:0:0:
320,192,177473,1,0,0:0:0:0:
448,192,177473,128,0,177784:0:0:0:0:
64,192,177628,1,0,0:0:0:0:
320,192,177784,1,4,0:0:0:0:
64,192,177784,1,2,0:0:0:0:
192,192,177784,1,0,0:0:0:0:
192,192,177939,1,0,0:0:0:0:
448,192,178095,1,0,0:0:0:0:
320,192,178095,1,8,0:0:0:0:
64,192,178095,1,0,0:0:0:0:
192,192,178250,1,0,0:0:0:0:
320,192,178328,1,8,0:0:0:0:
448,192,178328,1,0,0:0:0:0:
192,192,178406,1,0,0:0:0:0:
64,192,178406,1,2,0:0:0:0:
320,192,178561,1,0,0:0:0:0:
192,192,178561,1,2,0:0:0:0:
448,192,178716,1,0,0:0:0:0:
320,192,178716,1,8,0:0:0:0:
64,192,178716,1,0,0:0:0:0:
192,192,178872,1,0,0:0:0:0:
64,192,178872,1,2,0:0:0:0:
320,192,179027,1,0,0:0:0:0:
64,192,179183,1,0,0:0:0:0:
448,192,179183,1,2,0:0:0:0:
320,192,179338,1,8,0:0:0:0:
448,192,179338,1,0,0:0:0:0:
192,192,179338,1,0,0:0:0:0:
192,192,179494,1,2,0:0:0:0:
64,192,179494,1,0,0:0:0:0:
320,192,179649,1,2,0:0:0:0:
64,192,179649,128,0,179960:0:0:0:0:
448,192,179805,1,0,0:0:0:0:
320,192,179960,1,8,0:0:0:0:
448,192,179960,128,0,180271:0:0:0:0:
192,192,179960,1,0,0:0:0:0:
192,192,180115,1,0,0:0:0:0:
192,192,180271,1,4,0:0:0:0:
320,192,180271,1,0,0:0:0:0:
64,192,180271,1,2,0:0:0:0:
64,192,180426,128,0,180737:0:0:0:0:
320,192,180582,1,8,0:0:0:0:
192,192,180582,1,0,0:0:0:0:
448,192,180582,1,0,0:0:0:0:
448,192,180737,1,0,0:0:0:0:
320,192,180815,1,0,0:0:0:0:
64,192,180893,1,0,0:0:0:0:
192,192,180893,1,2,0:0:0:0:
448,192,181048,1,0,0:0:0:0:
320,192,181048,1,2,0:0:0:0:
64,192,181203,1,0,0:0:0:0:
192,192,181203,1,8,0:0:0:0:
448,192,181203,1,0,0:0:0:0:
320,192,181359,1,2,0:0:0:0:
64,192,181359,128,0,181670:0:0:0:0:
192,192,181670,1,2,0:0:0:0:
448,192,181670,1,0,0:0:0:0:
64,192,181825,1,0,0:0:0:0:
320,192,181825,1,8,0:0:0:0:
448,192,181825,1,0,0:0:0:0:
320,192,181981,1,2,0:0:0:0:
192,192,181981,1,0,0:0:0:0:
192,192,182136,1,0,0:0:0:0:
320,192,182136,1,2,0:0:0:0:
64,192,182292,1,0,0:0:0:0:
448,192,182447,1,0,0:0:0:0:
192,192,182447,1,8,0:0:0:0:
320,192,182447,128,0,182758:0:0:0:0:
64,192,182602,1,0,0:0:0:0:
64,192,182758,1,2,0:0:0:0:
192,192,182758,1,4,0:0:0:0:
448,192,182758,1,0,0:0:0:0:
320,192,182913,1,0,0:0:0:0:
192,192,183069,1,0,0:0:0:0:
320,192,183069,1,8,0:0:0:0:
448,192,183069,1,0,0:0:0:0:
64,192,183224,1,0,0:0:0:0:
320,192,183380,1,2,0:0:0:0:
448,192,183380,1,0,0:0:0:0:
64,192,183535,1,0,0:0:0:0:
192,192,183535,1,2,0:0:0:0:
320,192,183691,1,8,0:0:0:0:
64,192,183691,1,0,0:0:0:0:
448,192,183691,1,0,0:0:0:0:
320,192,183846,1,2,0:0:0:0:
192,192,183846,1,0,0:0:0:0:
64,192,184001,1,0,0:0:0:0:
192,192,184157,1,2,0:0:0:0:
448,192,184157,1,0,0:0:0:0:
64,192,184312,1,0,0:0:0:0:
320,192,184312,1,8,0:0:0:0:
448,192,184312,1,0,0:0:0:0:
64,192,184468,1,0,0:0:0:0:
192,192,184468,1,2,0:0:0:0:
320,192,184623,1,2,0:0:0:0:
448,192,184623,128,0,184934:0:0:0:0:
192,192,184779,1,0,0:0:0:0:
320,192,184934,1,0,0:0:0:0:
192,192,184934,1,8,0:0:0:0:
64,192,184934,128,0,185245:0:0:0:0:
448,192,185090,1,0,0:0:0:0:
320,192,185245,1,0,0:0:0:0:
192,192,185245,1,4,0:0:0:0:
448,192,185245,128,2,185556:0:0:0:0:
64,192,185556,1,0,0:0:0:0:
192,192,185556,1,8,0:0:0:0:
320,192,185556,1,0,0:0:0:0:
448,192,185711,1,0,0:0:0:0:
192,192,185867,1,2,0:0:0:0:
64,192,185867,1,0,0:0:0:0:
320,192,186022,1,2,0:0:0:0:
448,192,186022,1,0,0:0:0:0:
64,192,186178,1,0,0:0:0:0:
192,192,186178,1,8,0:0:0:0:
448,192,186178,1,0,0:0:0:0:
64,192,186333,1,2,0:0:0:0:
320,192,186333,1,4,0:0:0:0:
192,192,186333,128,0,186644:0:0:0:0:
320,192,186644,1,2,0:0:0:0:
448,192,186644,1,0,0:0:0:0:
64,192,186799,1,0,0:0:0:0:
192,192,186799,1,8,0:0:0:0:
448,192,186799,1,0,0:0:0:0:
320,192,186955,1,2,0:0:0:0:
64,192,186955,1,0,0:0:0:0:
192,192,187110,1,0,0:0:0:0:
448,192,187110,1,2,0:0:0:0:
192,192,187266,1,8,0:0:0:0:
64,192,187266,1,0,0:0:0:0:
320,192,187343,1,8,0:0:0:0:
448,192,187343,1,0,0:0:0:0:
192,192,187421,1,2,0:0:0:0:
64,192,187421,1,0,0:0:0:0:
448,192,187499,1,2,0:0:0:0:
64,192,187577,1,2,0:0:0:0:
320,192,187654,1,2,0:0:0:0:
64,192,187732,1,2,0:0:0:0:
192,192,187732,1,4,0:0:0:0:
448,192,187732,1,0,0:0:0:0:
192,192,187887,1,2,0:0:0:0:
320,192,187887,1,0,0:0:0:0:
448,192,188043,1,2,0:0:0:0:
64,192,188043,1,0,0:0:0:0:
64,192,188198,1,0,0:0:0:0:
192,192,188198,1,2,0:0:0:0:
320,192,188198,1,4,0:0:0:0:
448,192,188354,1,0,0:0:0:0:
320,192,188354,1,2,0:0:0:0:
64,192,188509,1,2,0:0:0:0:
192,192,188509,1,0,0:0:0:0:
448,192,188665,1,4,0:0:0:0:
320,192,188665,1,2,0:0:0:0:
64,192,188665,1,0,0:0:0:0:
192,192,188820,1,2,0:0:0:0:
448,192,188820,1,0,0:0:0:0:
320,192,188976,1,2,0:0:0:0:
64,192,188976,1,0,0:0:0:0:
320,192,189131,1,4,0:0:0:0:
448,192,189131,1,0,0:0:0:0:
192,192,189131,1,2,0:0:0:0:
64,192,189286,1,0,0:0:0:0:
192,192,189286,1,2,0:0:0:0:
320,192,189442,1,2,0:0:0:0:
448,192,189442,1,0,0:0:0:0:
64,192,189597,1,0,0:0:0:0:
192,192,189597,1,2,0:0:0:0:
448,192,189597,1,4,0:0:0:0:
320,192,189753,1,8,0:0:0:0:
448,192,189753,1,0,0:0:0:0:
192,192,189830,1,8,0:0:0:0:
64,192,189830,1,0,0:0:0:0:
320,192,189908,1,2,0:0:0:0:
448,192,189908,1,0,0:0:0:0:
192,192,190064,1,2,0:0:0:0:
320,192,190064,1,0,0:0:0:0:
64,192,190219,128,2,190530:0:0:0:0:
448,192,190219,128,0,190374:0:0:0:0:
192,192,190219,128,4,190530:0:0:0:0:
320,192,190530,1,2,0:0:0:0:
448,192,190530,1,0,0:0:0:0:
192,192,190685,128,2,190841:0:0:0:0:
448,192,190685,128,0,190996:0:0:0:0:
320,192,190685,128,4,190996:0:0:0:0:
64,192,190996,1,2,0:0:0:0:
192,192,190996,1,0,0:0:0:0:
320,192,191152,128,0,191307:0:0:0:0:
192,192,191152,128,2,191463:0:0:0:0:
64,192,191152,128,4,191463:0:0:0:0:
448,192,191463,1,2,0:0:0:0:
320,192,191463,1,0,0:0:0:0:
64,192,191618,128,2,191773:0:0:0:0:
448,192,191618,128,0,191929:0:0:0:0:
320,192,191618,128,4,191929:0:0:0:0:
192,192,191929,1,2,0:0:0:0:
64,192,191929,1,0,0:0:0:0:
320,192,192084,1,4,0:0:0:0:
192,192,192084,1,0,0:0:0:0:
64,192,192084,1,2,0:0:0:0:
448,192,192240,1,8,0:0:0:0:
320,192,192240,1,0,0:0:0:0:
64,192,192317,1,8,0:0:0:0:
192,192,192317,1,0,0:0:0:0:
448,192,192395,1,8,0:0:0:0:
320,192,192395,1,2,0:0:0:0:
64,192,192473,1,8,0:0:0:0:
192,192,192473,1,0,0:0:0:0:
320,192,192551,1,8,0:0:0:0:
448,192,192551,1,0,0:0:0:0:
192,192,192628,1,8,0:0:0:0:
448,192,192706,1,2,0:0:0:0:
320,192,192706,1,4,0:0:0:0:
64,192,192706,1,0,0:0:0:0:
192,192,192862,1,8,0:0:0:0:
64,192,192862,1,0,0:0:0:0:
320,192,193017,1,8,0:0:0:0:
448,192,193017,1,0,0:0:0:0:
64,192,193172,1,2,0:0:0:0:
192,192,193172,1,4,0:0:0:0:
448,192,193172,1,0,0:0:0:0:
192,192,193328,1,0,0:0:0:0:
320,192,193328,1,8,0:0:0:0:
64,192,193483,1,0,0:0:0:0:
448,192,193483,1,8,0:0:0:0:
192,192,193639,1,4,0:0:0:0:
320,192,193639,1,2,0:0:0:0:
448,192,193639,1,0,0:0:0:0:
64,192,193794,1,0,0:0:0:0:
192,192,193794,1,8,0:0:0:0:
448,192,193950,1,0,0:0:0:0:
320,192,193950,1,8,0:0:0:0:
64,192,194105,1,2,0:0:0:0:
192,192,194105,1,4,0:0:0:0:
448,192,194105,1,0,0:0:0:0:
64,192,194260,1,0,0:0:0:0:
320,192,194260,1,8,0:0:0:0:
192,192,194416,1,8,0:0:0:0:
448,192,194416,1,0,0:0:0:0:
320,192,194571,1,0,0:0:0:0:
448,192,194571,1,2,0:0:0:0:
192,192,194649,1,8,0:0:0:0:
64,192,194649,1,0,0:0:0:0:
320,192,194727,1,8,0:0:0:0:
448,192,194727,1,0,0:0:0:0:
192,192,194805,1,8,0:0:0:0:
64,192,194805,1,0,0:0:0:0:
320,192,194882,1,2,0:0:0:0:
448,192,194882,1,8,0:0:0:0:
192,192,194960,1,2,0:0:0:0:
64,192,194960,1,0,0:0:0:0:
320,192,195038,1,2,0:0:0:0:
448,192,195038,1,0,0:0:0:0:
192,192,195115,1,2,0:0:0:0:
64,192,195193,1,2,0:0:0:0:
320,192,195193,1,4,0:0:0:0:
448,192,195193,1,0,0:0:0:0:
64,192,195349,1,8,0:0:0:0:
192,192,195349,128,0,195504:0:0:0:0:
448,192,195504,1,8,0:0:0:0:
320,192,195504,128,0,195659:0:0:0:0:
448,192,195659,1,2,0:0:0:0:
192,192,195659,1,4,0:0:0:0:
64,192,195659,1,0,0:0:0:0:
320,192,195815,1,8,0:0:0:0:
192,192,195815,128,0,195970:0:0:0:0:
64,192,195970,1,8,0:0:0:0:
448,192,195970,128,0,196126:0:0:0:0:
64,192,196126,1,0,0:0:0:0:
192,192,196126,1,2,0:0:0:0:
320,192,196126,1,4,0:0:0:0:
448,192,196281,1,0,0:0:0:0:
320,192,196281,1,8,0:0:0:0:
64,192,196437,1,8,0:0:0:0:
192,192,196437,128,0,196592:0:0:0:0:
64,192,196592,1,2,0:0:0:0:
448,192,196592,1,0,0:0:0:0:
320,192,196592,1,4,0:0:0:0:
192,192,196748,1,8,0:0:0:0:
448,192,196748,1,0,0:0:0:0:
64,192,196903,1,0,0:0:0:0:
320,192,196903,1,8,0:0:0:0:
192,192,197058,1,4,0:0:0:0:
64,192,197058,1,2,0:0:0:0:
448,192,197058,1,0,0:0:0:0:
320,192,197214,1,8,0:0:0:0:
64,192,197214,1,0,0:0:0:0:
192,192,197292,1,8,0:0:0:0:
448,192,197292,1,0,0:0:0:0:
320,192,197369,1,8,0:0:0:0:
64,192,197369,1,2,0:0:0:0:
192,192,197525,1,2,0:0:0:0:
448,192,197525,1,0,0:0:0:0:
64,192,197680,1,0,0:0:0:0:
448,192,197680,1,8,0:0:0:0:
320,192,197680,1,0,0:0:0:0:
192,192,197836,1,2,0:0:0:0:
320,192,197836,1,0,0:0:0:0:
64,192,197913,1,2,0:0:0:0:
448,192,197913,1,0,0:0:0:0:
192,192,197991,1,2,0:0:0:0:
320,192,197991,1,0,0:0:0:0:
64,192,198147,1,8,0:0:0:0:
448,192,198147,1,0,0:0:0:0:
192,192,198147,128,0,198302:0:0:0:0:
448,192,198302,1,2,0:0:0:0:
320,192,198302,128,0,198457:0:0:0:0:
64,192,198457,128,0,198613:0:0:0:0:
192,192,198457,1,2,0:0:0:0:
192,192,198613,1,8,0:0:0:0:
320,192,198613,1,0,0:0:0:0:
448,192,198613,128,0,198768:0:0:0:0:
64,192,198768,1,2,0:0:0:0:
320,192,198768,128,0,198924:0:0:0:0:
448,192,198924,1,2,0:0:0:0:
192,192,198924,128,0,199079:0:0:0:0:
64,192,199079,1,0,0:0:0:0:
320,192,199079,1,8,0:0:0:0:
448,192,199079,128,0,199235:0:0:0:0:
192,192,199235,1,2,0:0:0:0:
64,192,199235,128,0,199390:0:0:0:0:
320,192,199390,128,0,199545:0:0:0:0:
448,192,199390,1,2,0:0:0:0:
64,192,199545,1,2,0:0:0:0:
192,192,199545,1,4,0:0:0:0:
448,192,199545,1,0,0:0:0:0:
64,192,199701,1,0,0:0:0:0:
320,192,199701,1,2,0:0:0:0:
192,192,199779,1,2,0:0:0:0:
64,192,199856,1,2,0:0:0:0:
448,192,199856,1,0,0:0:0:0:
320,192,199856,1,4,0:0:0:0:
320,192,200012,1,0,0:0:0:0:
192,192,200012,1,2,0:0:0:0:
192,192,200167,1,8,0:0:0:0:
64,192,200167,1,0,0:0:0:0:
448,192,200167,1,0,0:0:0:0:
320,192,200323,1,0,0:0:0:0:
448,192,200323,1,2,0:0:0:0:
64,192,200400,1,0,0:0:0:0:
192,192,200400,1,2,0:0:0:0:
320,192,200478,1,0,0:0:0:0:
448,192,200478,1,2,0:0:0:0:
192,192,200634,1,8,0:0:0:0:
448,192,200634,1,0,0:0:0:0:
64,192,200634,128,0,200789:0:0:0:0:
320,192,200789,1,2,0:0:0:0:
448,192,200789,128,0,200944:0:0:0:0:
192,192,200944,128,0,201100:0:0:0:0:
64,192,200944,1,2,0:0:0:0:
64,192,201100,1,0,0:0:0:0:
320,192,201100,1,8,0:0:0:0:
448,192,201100,128,0,201255:0:0:0:0:
320,192,201255,1,2,0:0:0:0:
192,192,201255,128,0,201411:0:0:0:0:
448,192,201411,1,2,0:0:0:0:
64,192,201411,128,0,201566:0:0:0:0:
192,192,201566,1,8,0:0:0:0:
448,192,201566,1,0,0:0:0:0:
320,192,201566,128,0,201722:0:0:0:0:
64,192,201722,1,2,0:0:0:0:
192,192,201722,128,0,201877:0:0:0:0:
320,192,201877,1,2,0:0:0:0:
448,192,201877,128,0,202033:0:0:0:0:
320,192,202033,1,4,0:0:0:0:
64,192,202033,1,2,0:0:0:0:
192,192,202033,1,8,0:0:0:0:
320,192,202188,1,0,0:0:0:0:
448,192,202188,1,2,0:0:0:0:
192,192,202266,1,2,0:0:0:0:
64,192,202266,1,8,0:0:0:0:
448,192,202343,1,2,0:0:0:0:
320,192,202343,1,4,0:0:0:0:
192,192,202421,1,2,0:0:0:0:
448,192,202499,1,2,0:0:0:0:
64,192,202499,1,0,0:0:0:0:
64,192,202654,1,2,0:0:0:0:
320,192,202654,1,4,0:0:0:0:
192,192,202654,1,8,0:0:0:0:
448,192,202810,1,2,0:0:0:0:
64,192,202810,1,8,0:0:0:0:
320,192,202887,1,8,0:0:0:0:
192,192,202887,1,2,0:0:0:0:
448,192,202965,1,2,0:0:0:0:
64,192,202965,1,8,0:0:0:0:
192,192,203043,1,2,0:0:0:0:
320,192,203043,1,8,0:0:0:0:
448,192,203121,1,2,0:0:0:0:
64,192,203121,1,4,0:0:0:0:
64,192,203276,1,2,0:0:0:0:
192,192,203276,1,8,0:0:0:0:
320,192,203354,1,2,0:0:0:0:
448,192,203354,1,8,0:0:0:0:
64,192,203431,1,2,0:0:0:0:
192,192,203431,1,8,0:0:0:0:
448,192,203509,1,2,0:0:0:0:
320,192,203509,1,8,0:0:0:0:
192,192,203587,1,2,0:0:0:0:
64,192,203587,1,4,0:0:0:0:
448,192,203742,1,2,0:0:0:0:
192,192,203742,1,8,0:0:0:0:
64,192,203820,1,2,0:0:0:0:
320,192,203820,1,8,0:0:0:0:
448,192,203898,1,2,0:0:0:0:
192,192,203898,1,8,0:0:0:0:
320,192,203976,1,2,0:0:0:0:
64,192,203976,1,8,0:0:0:0:
448,192,204053,1,2,0:0:0:0:
192,192,204053,1,4,0:0:0:0:
448,192,204209,1,2,0:0:0:0:
64,192,204209,1,8,0:0:0:0:
320,192,204286,1,8,0:0:0:0:
192,192,204286,1,2,0:0:0:0:
448,192,204364,1,2,0:0:0:0:
64,192,204364,1,8,0:0:0:0:
320,192,204442,1,2,0:0:0:0:
192,192,204442,1,8,0:0:0:0:
64,192,204520,1,2,0:0:0:0:
448,192,204520,1,4,0:0:0:0:
320,192,204675,1,8,0:0:0:0:
448,192,204675,1,2,0:0:0:0:
192,192,204753,1,2,0:0:0:0:
64,192,204753,1,8,0:0:0:0:
320,192,204830,1,2,0:0:0:0:
448,192,204830,1,4,0:0:0:0:
192,192,204908,1,2,0:0:0:0:
64,192,204908,1,8,0:0:0:0:
320,192,204986,1,2,0:0:0:0:
448,192,204986,1,8,0:0:0:0:
192,192,205064,1,10,0:0:0:0:
64,192,205141,1,4,0:0:0:0:
320,192,205141,1,8,0:0:0:0:
448,192,205141,1,2,0:0:0:0:
64,192,205297,1,2,0:0:0:0:
192,192,205297,1,8,0:0:0:0:
448,192,205297,1,4,0:0:0:0:
320,192,205297,1,0,0:0:0:0:
448,192,205608,1,2,0:0:0:0:
64,192,205608,1,8,0:0:0:0:
192,192,205608,1,4,0:0:0:0:
320,192,205608,1,0,0:0:0:0:
192,192,205763,1,4,0:0:0:0:
64,192,205763,1,8,0:0:0:0:
448,192,205763,1,2,0:0:0:0:
320,192,205763,1,0,0:0:0:0:
64,192,206074,1,2,0:0:0:0:
192,192,206074,1,2,0:3:0:0:
320,192,206074,1,4,0:0:0:0:
448,192,206074,1,8,0:0:0:0:
448,192,206229,1,8,0:0:0:0:
320,192,206229,1,0,0:0:0:95:finish-short.wav
192,192,206229,1,2,0:3:0:0:
64,192,206229,1,2,0:0:0:0:
64,192,207628,128,0,208872:0:0:0:100:G5S.wav
192,192,207628,128,0,208872:0:0:0:100:G4S.wav
448,192,207628,128,0,208872:0:0:0:100:G6S.wav
320,192,207939,1,0,0:0:0:0:
320,192,208250,1,0,0:0:0:0:
320,192,208561,1,0,0:0:0:0:
320,192,208872,1,0,0:0:0:0:
320,192,209183,1,0,0:0:0:0:
64,192,209338,1,0,0:0:0:100:G5S.wav
192,192,209338,1,0,0:0:0:100:G6S.wav
448,192,209338,1,0,0:0:0:100:G4S.wav
64,192,209494,1,0,0:0:0:100:G5S.wav
192,192,209494,1,0,0:0:0:100:G6S.wav
448,192,209494,1,0,0:0:0:100:G4S.wav
64,192,209727,1,0,0:0:0:100:A4S.wav
320,192,209727,1,0,0:0:0:100:A5S.wav
448,192,209727,1,0,0:0:0:100:A6S.wav
192,192,209805,1,0,0:0:0:0:
64,192,209960,1,0,0:0:0:100:A#4S_Bb4S.wav
320,192,209960,1,0,0:0:0:100:A#5S_Bb5S.wav
448,192,209960,1,0,0:0:0:100:A#6S_Bb6S.wav
64,192,210115,128,0,210737:0:0:0:100:A4S.wav
192,192,210115,128,0,210426:0:0:0:100:A5S.wav
320,192,210115,128,0,210426:0:0:0:100:A6S.wav
448,192,210426,1,0,0:0:0:0:
192,192,210737,128,0,211359:0:0:0:100:F4S.wav
320,192,210737,128,0,211048:0:0:0:100:F5S.wav
448,192,210737,128,0,211048:0:0:0:100:F6S.wav
64,192,211048,1,0,0:0:0:0:
64,192,211359,128,0,211670:0:0:0:100:D5S.wav
448,192,211359,128,0,211670:0:0:0:100:D6S.wav
320,192,211359,128,0,211981:0:0:0:100:D4S.wav
192,192,211670,1,0,0:0:0:0:
448,192,211981,128,0,212602:0:0:0:100:F4S.wav
64,192,211981,128,0,212292:0:0:0:100:F6S.wav
192,192,211981,128,0,212292:0:0:0:100:F5S.wav
320,192,212292,1,0,0:0:0:0:
64,192,212447,1,0,0:0:0:0:
192,192,212447,1,2,0:0:0:0:
320,192,212602,128,0,212913:0:0:0:100:D5S.wav
64,192,212602,128,0,213846:0:0:0:100:D4S.wav
192,192,212602,128,0,213846:0:0:0:100:D6S.wav
448,192,212913,1,0,0:0:0:0:
448,192,213224,128,0,213846:0:0:0:100:D2S.wav
320,192,213224,1,0,0:0:0:0:
320,192,213535,1,0,0:0:0:0:
320,192,213846,1,0,0:0:0:0:
64,192,214157,1,0,0:0:0:100:D4S.wav
192,192,214157,1,0,0:0:0:100:D5S.wav
320,192,214157,1,0,0:0:0:100:D6S.wav
64,192,214468,1,0,0:0:0:100:C4S.wav
192,192,214468,1,0,0:0:0:100:C5S.wav
448,192,214468,1,0,0:0:0:100:C5S.wav
64,192,214779,1,0,0:0:0:100:A#3S_Bb3S.wav
320,192,214779,1,0,0:0:0:100:A#4S_Bb4S.wav
448,192,214779,1,0,0:0:0:100:A#5S_Bb5S.wav
192,192,214934,1,2,0:0:0:0:
448,192,214934,1,0,0:0:0:0:
320,192,215090,1,0,0:0:0:100:A5S.wav
64,192,215090,128,0,216022:0:0:0:100:A4S.wav
192,192,215090,128,0,215711:0:0:0:100:G6S.wav
448,192,215400,1,0,0:0:0:0:
320,192,215711,128,0,216333:0:0:0:100:A6S.wav
448,192,216022,1,0,0:0:0:100:G4S.wav
192,192,216178,128,0,216644:0:0:0:100:A#4S_Bb4S.wav
448,192,216333,128,0,216955:0:0:0:100:A#6S_Bb6S.wav
64,192,216333,1,2,0:0:0:0:
64,192,216644,1,8,0:0:0:0:
320,192,216644,1,0,0:0:0:100:A#5S_Bb5S.wav
192,192,216799,1,8,0:0:0:0:
320,192,216799,1,0,0:0:0:0:
192,192,216955,1,0,0:0:0:100:D6S.wav
64,192,216955,1,2,0:0:0:0:
320,192,217033,1,0,0:0:0:0:
64,192,217110,1,2,0:0:0:0:
448,192,217110,1,0,0:0:0:0:
192,192,217188,1,0,0:0:0:0:
448,192,217266,1,0,0:0:0:100:F6S.wav
320,192,217266,1,2,0:0:0:0:
64,192,217343,1,0,0:0:0:0:
192,192,217421,1,2,0:0:0:0:
448,192,217421,1,0,0:0:0:0:
320,192,217499,1,0,0:0:0:0:
192,192,217577,1,0,0:0:0:100:D7S.wav
64,192,217577,128,6,217887:0:0:0:0:
448,192,217577,1,0,0:0:0:100:G6S.wav
320,192,217887,1,2,0:0:0:0:
448,192,217887,128,0,218198:0:0:0:0:
64,192,218198,1,0,0:0:0:0:
192,192,218198,1,8,0:0:0:0:
320,192,218509,1,2,0:0:0:0:
448,192,218509,1,0,0:0:0:50:G6S.wav
192,192,218665,1,8,0:0:0:0:
64,192,218820,1,2,0:0:0:0:
448,192,218820,1,0,0:0:0:50:G6S.wav
320,192,218976,1,0,0:0:0:0:
192,192,218976,1,8,0:0:0:0:
448,192,219131,1,0,0:0:0:100:G6S.wav
64,192,219131,128,2,219442:0:0:0:0:
192,192,219442,1,8,0:0:0:0:
448,192,219442,1,0,0:0:0:100:G6S.wav
320,192,219675,1,0,0:0:0:100:A6S.wav
64,192,219753,1,2,0:0:0:0:
192,192,219753,1,0,0:0:0:0:
448,192,219908,1,8,0:0:0:0:
192,192,219908,1,0,0:0:0:100:A#6S_Bb6S.wav
320,192,220064,1,2,0:0:0:0:
64,192,220064,128,0,220530:0:0:0:100:A6S.wav
448,192,220374,128,0,220685:0:0:0:100:G6S.wav
192,192,220530,128,0,220996:0:0:0:100:F6S.wav
320,192,220685,1,8,0:0:0:0:
64,192,220685,1,0,0:0:0:0:
64,192,220996,1,2,0:0:0:0:
448,192,220996,1,0,0:0:0:100:C7S.wav
192,192,221152,1,8,0:0:0:0:
320,192,221152,1,0,0:0:0:0:
64,192,221307,1,2,0:0:0:0:
448,192,221307,1,0,0:0:0:0:
192,192,221463,1,8,0:0:0:0:
320,192,221463,1,0,0:0:0:0:
64,192,221618,1,2,0:0:0:0:
448,192,221618,1,0,0:0:0:0:
448,192,221773,1,0,0:0:0:0:
192,192,221773,1,8,0:0:0:0:
320,192,221851,1,8,0:0:0:0:
64,192,221851,1,0,0:0:0:0:
192,192,221929,1,8,0:0:0:0:
448,192,221929,1,0,0:0:0:0:
320,192,222084,1,8,0:0:0:0:
64,192,222084,1,0,0:0:0:0:
192,192,222240,1,0,0:0:0:100:D7S.wav
320,192,222240,1,2,0:0:0:0:
192,192,222395,1,0,0:0:0:100:D#7S_Eb7S.wav
448,192,222395,1,2,0:0:0:0:
320,192,222551,1,4,0:0:0:0:
64,192,222551,128,2,222862:0:0:0:0:
448,192,222551,128,0,222862:0:0:0:100:F7S.wav
192,192,222862,128,0,223172:0:0:0:0:
320,192,222862,1,2,0:0:0:0:
64,192,223172,1,0,0:0:0:0:
448,192,223172,1,8,0:0:0:0:
64,192,223483,1,2,0:0:0:0:
192,192,223483,1,0,0:0:0:100:D7S.wav
320,192,223639,1,8,0:0:0:0:
448,192,223639,1,0,0:0:0:0:
192,192,223794,1,2,0:0:0:0:
64,192,223794,1,0,0:0:0:100:A7S.wav
448,192,223950,1,8,0:0:0:0:
64,192,223950,1,0,0:0:0:0:
192,192,224105,1,0,0:0:0:100:F7S.wav
320,192,224105,128,2,224416:0:0:0:0:
448,192,224416,1,0,0:0:0:100:D7S.wav
64,192,224416,1,8,0:0:0:0:
320,192,224649,1,8,0:0:0:0:
448,192,224649,1,0,0:0:0:0:
192,192,224727,1,2,0:0:0:0:
64,192,224727,1,0,0:0:0:100:A7S.wav
192,192,224882,1,8,0:0:0:0:
320,192,224882,1,0,0:0:0:0:
64,192,225038,1,0,0:0:0:100:A7S.wav
320,192,225038,1,4,0:0:0:0:
448,192,225038,1,2,0:0:0:0:
192,192,225193,1,0,0:0:0:0:
448,192,225193,1,8,0:0:0:0:
192,192,225349,1,2,0:0:0:0:
64,192,225349,128,0,225659:0:0:0:0:
448,192,225659,1,0,0:0:0:0:
320,192,225659,1,8,0:0:0:0:
192,192,225815,1,0,0:0:0:0:
64,192,225815,1,8,0:0:0:0:
320,192,225970,1,2,0:0:0:0:
448,192,225970,1,0,0:0:0:100:A#7S_Bb7S.wav
192,192,226126,1,8,0:0:0:0:
320,192,226126,1,0,0:0:0:100:G7S.wav
64,192,226281,1,2,0:0:0:0:
192,192,226281,1,0,0:0:0:0:
320,192,226437,1,8,0:0:0:0:
448,192,226437,1,0,0:0:0:0:
192,192,226592,1,0,0:0:0:100:F7S.wav
320,192,226592,1,2,0:0:0:0:
64,192,226748,1,8,0:0:0:0:
448,192,226748,1,0,0:0:0:0:
192,192,226825,1,8,0:0:0:0:
320,192,226825,1,0,0:0:0:0:
64,192,226903,1,0,0:0:0:100:D#7S_Eb7S.wav
448,192,226903,1,8,0:0:0:0:
64,192,227058,1,0,0:0:0:0:
192,192,227058,1,8,0:0:0:0:
192,192,227214,1,2,0:0:0:0:
320,192,227214,1,0,0:0:0:100:D7S.wav
320,192,227369,1,2,0:0:0:0:
448,192,227369,1,0,0:0:0:0:
64,192,227525,1,0,0:0:0:100:D7S.wav
192,192,227525,1,2,0:0:0:0:
448,192,227525,1,4,0:0:0:0:
192,192,227836,1,0,0:0:0:0:
320,192,227836,1,2,0:0:0:0:
64,192,228147,1,0,0:0:0:0:
448,192,228147,1,8,0:0:0:0:
192,192,228457,1,0,0:0:0:100:D#7S_Eb7S.wav
448,192,228613,1,0,0:0:0:100:C7S.wav
320,192,228613,1,8,0:0:0:0:
64,192,228768,1,0,0:0:0:0:
192,192,228768,1,2,0:0:0:0:
320,192,228924,1,8,0:0:0:0:
448,192,228924,1,0,0:0:0:0:
64,192,229079,1,0,0:0:0:0:
192,192,229079,1,2,0:0:0:0:
64,192,229390,1,8,0:0:0:0:
448,192,229390,1,0,0:0:0:0:
192,192,229623,1,8,0:0:0:0:
64,192,229623,1,0,0:0:0:0:
320,192,229701,1,2,0:0:0:0:
448,192,229701,1,0,0:0:0:100:A#6S_Bb6S.wav
192,192,229856,1,2,0:0:0:0:
320,192,229856,1,0,0:0:0:100:C7S.wav
64,192,230012,1,2,0:0:0:0:
448,192,230012,1,0,0:0:0:100:D7S.wav
192,192,230167,1,8,0:0:0:0:
64,192,230167,1,0,0:0:0:0:
448,192,230323,1,2,0:0:0:0:
320,192,230323,1,0,0:0:0:0:
192,192,230634,1,8,0:0:0:0:
320,192,230634,1,0,0:0:0:0:
320,192,230867,1,8,0:0:0:0:
448,192,230867,1,0,0:0:0:0:
192,192,230944,1,2,0:0:0:0:
64,192,230944,1,0,0:0:0:100:D#7S_Eb7S.wav
192,192,231100,1,0,0:0:0:100:C7S.wav
320,192,231100,1,8,0:0:0:0:
64,192,231255,1,2,0:0:0:0:
448,192,231255,1,0,0:0:0:0:
192,192,231411,1,8,0:0:0:0:
64,192,231411,1,0,0:0:0:0:
320,192,231566,1,2,0:0:0:0:
448,192,231566,1,0,0:0:0:0:
448,192,231722,1,0,0:0:0:0:
64,192,231722,1,8,0:0:0:0:
192,192,231799,1,0,0:0:0:0:
320,192,231799,1,8,0:0:0:0:
448,192,231877,1,0,0:0:0:100:D7S.wav
64,192,231877,1,8,0:0:0:0:
192,192,232033,1,2,0:0:0:0:
448,192,232033,1,0,0:0:0:0:
64,192,232188,1,0,0:0:0:100:D#7S_Eb7S.wav
320,192,232188,1,2,0:0:0:0:
192,192,232499,1,4,0:0:0:0:
64,192,232499,1,0,0:0:0:100:A#4S_Bb4S.wav
448,192,232499,1,0,0:0:0:100:F7S.wav
320,192,232810,1,0,0:0:0:0:
192,192,232965,1,2,0:0:0:0:
448,192,232965,1,0,0:0:0:0:
320,192,233121,1,8,0:0:0:0:
64,192,233121,1,0,0:0:0:0:
192,192,233431,1,0,0:0:0:0:
448,192,233587,1,0,0:0:0:0:
192,192,233742,1,2,0:0:0:100:A4S.wav
64,192,233742,1,0,0:0:0:100:A6S.wav
320,192,233898,1,8,0:0:0:0:
448,192,233898,1,0,0:0:0:0:
192,192,234053,1,0,0:0:0:0:
64,192,234209,1,0,0:0:0:0:
448,192,234209,1,2,0:0:0:0:
192,192,234364,1,0,0:0:0:0:
320,192,234364,1,8,0:0:0:0:
448,192,234597,1,8,0:0:0:0:
64,192,234597,1,0,0:0:0:0:
192,192,234675,1,0,0:0:0:0:
320,192,234675,1,2,0:0:0:0:
320,192,234830,1,8,0:0:0:0:
64,192,234830,1,0,0:0:0:0:
64,192,234986,1,0,0:0:0:100:G4S.wav
192,192,234986,1,0,0:0:0:100:G6S.wav
448,192,234986,1,6,0:0:0:0:
320,192,235141,1,8,0:0:0:0:
448,192,235141,1,0,0:0:0:0:
192,192,235219,1,8,0:0:0:0:
64,192,235219,1,0,0:0:0:0:
320,192,235297,1,8,0:0:0:0:
448,192,235297,1,0,0:0:0:0:
192,192,235452,1,2,0:0:0:0:
64,192,235452,1,0,0:0:0:0:
320,192,235608,1,8,0:0:0:0:
448,192,235608,1,0,0:0:0:0:
64,192,235763,1,0,0:0:0:0:
192,192,235763,1,8,0:0:0:0:
192,192,235919,1,0,0:0:0:0:
320,192,235919,1,2,0:0:0:0:
64,192,236074,1,0,0:0:0:0:
448,192,236074,1,8,0:0:0:0:
64,192,236229,128,0,237473:0:0:0:100:A6S.wav
448,192,236229,128,4,236540:0:0:0:0:
320,192,236229,128,2,236851:0:0:0:0:
192,192,236229,128,0,237162:0:0:0:100:A4S.wav
448,192,236851,1,0,0:0:0:100:F6S.wav
320,192,237162,1,0,0:0:0:100:A#6S_Bb6S.wav
448,192,237473,128,4,239338:0:0:0:0:
320,192,237473,128,2,239960:0:1:0:0:
192,192,237473,128,0,239338:0:0:0:100:C7S.wav
64,192,239338,1,0,0:0:0:100:F6S.wav
192,192,239649,1,0,0:0:0:100:A#6S_Bb6S.wav
448,192,239960,128,2,242447:0:1:0:0:
64,192,239960,128,0,241825:0:0:0:100:A6S.wav
192,192,239960,128,0,241825:0:0:0:0:
320,192,240582,1,0,0:0:0:0:
320,192,241825,1,0,0:0:0:100:F6S.wav
192,192,242136,1,0,0:0:0:100:A#6S_Bb6S.wav
64,192,242447,128,2,244312:0:1:0:0:
320,192,242447,1,0,0:0:0:0:
192,192,242447,128,0,243691:0:0:0:100:C7S.wav
448,192,242758,128,0,243691:0:0:0:0:
320,192,243691,128,0,244312:0:0:0:0:
448,192,244312,128,0,245556:0:0:0:0:
192,192,244312,1,0,0:0:0:100:D#7S_Eb7S.wav
320,192,244934,128,2,246178:0:1:0:0:
64,192,244934,1,0,0:0:0:100:D7S.wav
192,192,245556,128,0,246488:0:0:0:100:A#6S_Bb6S.wav
64,192,246178,1,0,0:0:0:100:D6S.wav
448,192,246333,1,0,0:0:0:0:
320,192,246488,1,0,0:0:0:100:D6S.wav
64,192,246644,1,0,0:0:0:0:
192,192,246644,1,8,0:0:0:0:
320,192,246722,1,8,0:0:0:0:
448,192,246722,1,0,0:0:0:0:
192,192,246799,1,8,0:0:0:0:
64,192,246799,1,0,0:0:0:100:A6S.wav
320,192,246955,1,8,0:0:0:0:
448,192,246955,1,0,0:0:0:0:
64,192,246955,1,0,0:0:0:0:
192,192,247110,1,8,0:0:0:0:
320,192,247110,1,0,0:0:0:100:F6S.wav
448,192,247110,1,0,0:0:0:0:
64,192,247266,1,0,0:0:0:0:
192,192,247266,1,8,0:0:0:0:
320,192,247266,1,0,0:0:0:0:
192,192,247421,1,4,0:0:0:0:
448,192,247421,1,2,0:3:0:0:
64,192,247421,128,0,247732:0:0:0:100:G6S.wav
192,192,247732,1,2,0:0:0:0:
320,192,247732,1,0,0:0:0:0:
448,192,247887,1,0,0:0:0:0:
192,192,248043,1,0,0:0:0:0:
320,192,248043,1,8,0:0:0:0:
64,192,248043,1,0,0:0:0:0:
448,192,248198,1,2,0:0:0:0:
320,192,248198,1,0,0:0:0:0:
64,192,248276,1,0,0:0:0:0:
192,192,248276,1,8,0:0:0:0:
320,192,248354,1,2,0:0:0:0:
448,192,248354,1,0,0:0:0:0:
64,192,248509,1,8,0:0:0:0:
192,192,248509,1,0,0:0:0:0:
64,192,248665,1,0,0:0:0:0:
320,192,248665,1,2,0:3:0:0:
448,192,248665,1,0,0:0:0:0:
192,192,248820,1,8,0:0:0:0:
320,192,248820,1,0,0:0:0:0:
64,192,248976,1,2,0:0:0:0:
448,192,248976,128,0,249286:0:0:0:0:
64,192,249286,1,0,0:0:0:0:
192,192,249286,1,2,0:0:0:0:
320,192,249286,1,8,0:0:0:0:
64,192,249442,1,2,0:0:0:0:
192,192,249442,1,8,0:0:0:0:
448,192,249442,1,0,0:0:0:0:
64,192,249597,1,0,0:0:0:0:
320,192,249597,1,2,0:0:0:0:
192,192,249753,1,2,0:0:0:0:
448,192,249753,1,0,0:0:0:0:
192,192,249908,1,4,0:0:0:0:
320,192,249908,1,2,0:3:0:0:
64,192,249908,128,0,250219:0:0:0:0:
448,192,250064,1,0,0:0:0:0:
192,192,250219,1,2,0:0:0:0:
320,192,250219,128,0,250530:0:0:0:0:
64,192,250530,1,0,0:0:0:0:
192,192,250530,1,8,0:0:0:0:
448,192,250530,1,0,0:0:0:0:
320,192,250685,1,0,0:0:0:0:
192,192,250841,1,2,0:0:0:0:
64,192,250841,1,0,0:0:0:0:
320,192,250996,1,8,0:0:0:0:
448,192,250996,1,0,0:0:0:0:
192,192,250996,1,0,0:0:0:0:
64,192,251152,1,2,0:3:0:0:
320,192,251152,1,0,0:0:0:0:
448,192,251307,1,8,0:0:0:0:
192,192,251307,1,0,0:0:0:0:
64,192,251307,1,0,0:0:0:0:
320,192,251463,1,2,0:0:0:0:
448,192,251463,1,0,0:0:0:0:
64,192,251618,1,2,0:0:0:0:
192,192,251618,1,0,0:0:0:0:
320,192,251696,1,0,0:0:0:0:
192,192,251773,1,2,0:0:0:0:
448,192,251773,1,8,0:0:0:0:
64,192,251773,1,0,0:0:0:0:
320,192,251929,1,8,0:0:0:0:
64,192,251929,1,2,0:0:0:0:
448,192,251929,1,0,0:0:0:0:
320,192,252084,1,2,0:0:0:0:
192,192,252084,1,0,0:0:0:0:
64,192,252240,1,2,0:0:0:0:
448,192,252240,1,0,0:0:0:0:
192,192,252240,1,8,0:0:0:0:
320,192,252395,1,4,0:0:0:0:
64,192,252395,1,0,0:0:0:0:
448,192,252395,1,2,0:3:0:0:
192,192,252551,1,0,0:0:0:0:
320,192,252706,1,0,0:0:0:0:
448,192,252706,1,2,0:0:0:0:
64,192,252862,1,0,0:0:0:0:
192,192,253017,1,0,0:0:0:0:
320,192,253017,1,8,0:0:0:0:
448,192,253017,1,0,0:0:0:0:
192,192,253172,1,2,0:0:0:0:
64,192,253172,1,0,0:0:0:0:
448,192,253250,1,0,0:0:0:0:
320,192,253250,1,8,0:0:0:0:
192,192,253328,1,2,0:0:0:0:
64,192,253328,1,0,0:0:0:0:
320,192,253483,1,4,0:0:0:0:
64,192,253483,128,0,253794:0:0:0:0:
448,192,253483,128,2,253794:0:3:0:0:
192,192,253794,1,0,0:0:0:0:
320,192,253794,1,8,0:0:0:0:
64,192,253950,1,0,0:0:0:0:
448,192,253950,1,2,0:0:0:0:
192,192,254260,1,2,0:0:0:0:
320,192,254260,1,8,0:0:0:0:
448,192,254260,1,0,0:0:0:0:
64,192,254416,1,0,0:0:0:0:
320,192,254416,1,2,0:0:0:0:
448,192,254416,1,8,0:0:0:0:
192,192,254571,1,2,0:0:0:0:
448,192,254571,1,0,0:0:0:0:
64,192,254727,1,0,0:0:0:0:
320,192,254727,1,2,0:0:0:0:
192,192,254882,1,0,0:0:0:0:
320,192,254882,1,2,0:3:0:0:
448,192,254882,1,4,0:0:0:0:
64,192,255038,1,0,0:0:0:0:
192,192,255038,1,2,0:0:0:0:
320,192,255193,1,2,0:0:0:0:
448,192,255193,1,0,0:0:0:0:
64,192,255349,1,4,0:0:0:0:
192,192,255349,1,8,0:0:0:0:
448,192,255349,1,2,0:3:0:0:
192,192,255504,1,0,0:0:0:0:
320,192,255504,1,2,0:0:0:0:
64,192,255659,1,0,0:0:0:0:
448,192,255659,1,8,0:0:0:0:
320,192,255659,1,0,0:0:0:0:
64,192,255815,1,0,0:0:0:0:
192,192,255815,1,2,0:0:0:0:
64,192,255970,1,0,0:0:0:0:
192,192,255970,1,4,0:0:0:100:finish-short.wav
320,192,255970,1,2,0:3:0:0:
448,192,255970,1,2,0:1:0:0:
64,192,256437,128,0,257369:0:0:0:0:
448,192,256748,1,0,0:0:0:0:
320,192,257058,1,0,0:0:0:0:
448,192,257369,128,4,258924:0:0:0:0:
320,192,257369,128,2,258613:0:1:0:0:
192,192,257369,128,8,258302:0:3:0:0:
64,192,258302,128,2,258924:0:1:0:0:
192,192,258613,128,2,258924:0:1:0:0:
320,192,258924,128,2,259235:0:1:0:0:
448,192,259235,1,2,0:0:0:0:
64,192,259235,1,0,0:0:0:0:
192,192,259390,1,8,0:0:0:0:
64,192,259390,1,0,0:0:0:0:
320,192,259468,1,8,0:0:0:0:
448,192,259468,1,0,0:0:0:0:
192,192,259545,1,8,0:0:0:0:
64,192,259545,1,0,0:0:0:0:
320,192,259623,1,8,0:0:0:0:
448,192,259623,1,0,0:0:0:0:
192,192,259701,1,2,0:0:0:0:
64,192,259701,1,0,0:0:0:0:
320,192,259779,1,2,0:0:0:0:
192,192,259856,1,4,0:0:0:0:
64,192,259856,1,2,0:1:0:0:
448,192,259856,128,0,260167:0:0:0:0:
192,192,260167,1,8,0:0:0:0:
64,192,260167,1,0,0:0:0:0:
320,192,260167,1,0,0:0:0:0:
448,192,260323,1,0,0:0:0:0:
192,192,260478,1,2,0:0:0:0:
320,192,260478,1,0,0:0:0:0:
64,192,260634,1,2,0:0:0:0:
320,192,260634,128,0,260789:0:0:0:0:
192,192,260789,1,8,0:0:0:0:
448,192,260789,1,0,0:0:0:0:
64,192,260789,128,0,260944:0:0:0:0:
320,192,260944,1,0,0:0:0:0:
448,192,260944,128,2,261411:0:0:0:0:
192,192,261100,1,2,0:1:0:0:
64,192,261255,1,2,0:0:0:0:
320,192,261255,1,0,0:0:0:0:
64,192,261411,1,0,0:0:0:0:
192,192,261411,1,8,0:0:0:0:
320,192,261411,1,0,0:0:0:0:
448,192,261566,1,2,0:0:0:0:
192,192,261566,1,0,0:0:0:0:
448,192,261722,1,2,0:0:0:0:
320,192,261722,128,0,262033:0:0:0:0:
64,192,261877,1,0,0:0:0:0:
448,192,262033,1,8,0:0:0:0:
64,192,262033,1,0,0:0:0:0:
192,192,262033,128,0,262343:0:0:0:0:
320,192,262188,1,0,0:0:0:0:
320,192,262343,1,4,0:0:0:0:
448,192,262343,1,2,0:1:0:0:
64,192,262343,128,0,262654:0:0:0:0:
192,192,262654,1,0,0:0:0:0:
320,192,262654,1,8,0:0:0:0:
448,192,262654,1,0,0:0:0:0:
64,192,262810,1,0,0:0:0:0:
448,192,262810,1,2,0:0:0:0:
192,192,262887,1,0,0:0:0:0:
320,192,262887,1,8,0:0:0:0:
64,192,262965,1,2,0:0:0:0:
448,192,262965,1,0,0:0:0:0:
192,192,263121,1,2,0:0:0:0:
320,192,263121,1,0,0:0:0:0:
64,192,263276,1,0,0:0:0:0:
320,192,263276,1,8,0:0:0:0:
448,192,263276,1,0,0:0:0:0:
192,192,263431,1,2,0:1:0:0:
64,192,263431,1,4,0:0:0:0:
448,192,263431,128,0,263742:0:0:0:0:
320,192,263742,1,2,0:0:0:0:
64,192,263742,128,0,263898:0:0:0:0:
192,192,263898,1,8,0:0:0:0:
448,192,263898,1,0,0:0:0:0:
320,192,263898,128,0,264053:0:0:0:0:
64,192,264053,1,2,0:0:0:0:
192,192,264053,128,0,264364:0:0:0:0:
320,192,264209,1,2,0:0:0:0:
448,192,264209,1,0,0:0:0:0:
64,192,264364,128,0,264520:0:0:0:0:
192,192,264520,1,0,0:0:0:0:
448,192,264520,128,0,264675:0:0:0:0:
320,192,264520,1,8,0:0:0:0:
64,192,264675,128,0,264830:0:0:0:0:
192,192,264830,1,4,0:0:0:0:
448,192,264830,1,2,0:1:0:0:
320,192,264830,128,0,265141:0:0:0:0:
64,192,265141,1,0,0:0:0:0:
192,192,265141,1,8,0:0:0:0:
448,192,265141,1,0,0:0:0:0:
320,192,265297,1,0,0:0:0:0:
192,192,265374,1,8,0:0:0:0:
448,192,265374,1,0,0:0:0:0:
64,192,265452,1,0,0:0:0:0:
320,192,265452,1,2,0:0:0:0:
192,192,265608,1,2,0:0:0:0:
448,192,265608,1,0,0:0:0:0:
64,192,265763,1,0,0:0:0:0:
320,192,265763,1,8,0:0:0:0:
448,192,265763,1,0,0:0:0:0:
192,192,265919,128,4,266074:0:0:0:50:finish-short.wav
448,192,265919,128,0,266074:0:0:0:0:
64,192,265919,128,2,266074:0:1:0:0:
64,192,266229,128,0,266385:0:0:0:0:
320,192,266229,128,0,266385:0:0:0:50:finish-short.wav
448,192,266229,128,2,266385:0:1:0:0:
448,192,266540,1,2,0:1:0:0:
64,192,266540,1,12,0:0:0:0:
192,192,266618,1,8,0:0:0:0:
320,192,266618,1,0,0:0:0:0:
64,192,266696,1,0,0:0:0:0:
448,192,266696,1,8,0:0:0:0:
64,192,266851,1,0,0:0:0:0:
192,192,266851,1,2,0:0:0:0:
320,192,267007,1,2,0:0:0:0:
448,192,267007,128,0,267162:0:0:0:0:
64,192,267162,1,2,0:0:0:0:
192,192,267162,128,0,267317:0:0:0:0:
64,192,267317,1,2,0:1:0:0:
320,192,267317,1,4,0:0:0:0:
448,192,267317,128,0,267628:0:0:0:0:
64,192,267628,1,0,0:0:0:0:
192,192,267628,1,0,0:0:0:0:
320,192,267628,1,8,0:0:0:0:
448,192,267784,128,0,267939:0:0:0:0:
64,192,267939,1,0,0:0:0:0:
320,192,267939,1,2,0:0:0:0:
192,192,268095,1,2,0:0:0:0:
448,192,268095,1,0,0:0:0:0:
64,192,268250,1,0,0:0:0:0:
448,192,268250,1,8,0:0:0:0:
320,192,268250,1,0,0:0:0:0:
64,192,268406,1,2,0:0:0:0:
192,192,268406,1,0,0:0:0:0:
320,192,268561,1,2,0:1:0:0:
64,192,268716,1,2,0:0:0:0:
448,192,268716,1,0,0:0:0:0:
192,192,268872,1,0,0:0:0:0:
320,192,268872,1,8,0:0:0:0:
448,192,268872,128,0,269027:0:0:0:0:
64,192,269027,1,2,0:0:0:0:
320,192,269027,128,0,269183:0:0:0:0:
64,192,269183,1,2,0:0:0:0:
192,192,269183,128,0,269494:0:0:0:0:
448,192,269338,1,0,0:0:0:0:
64,192,269494,1,0,0:0:0:0:
448,192,269494,1,8,0:0:0:0:
320,192,269494,128,0,269805:0:0:0:0:
192,192,269649,1,0,0:0:0:0:
64,192,269805,1,4,0:0:0:0:
192,192,269805,1,2,0:1:0:0:
448,192,269805,128,0,270115:0:0:0:0:
64,192,270115,1,0,0:0:0:0:
192,192,270115,1,0,0:0:0:0:
320,192,270115,1,8,0:0:0:0:
448,192,270271,1,0,0:0:0:0:
64,192,270349,1,0,0:0:0:0:
320,192,270349,1,8,0:0:0:0:
448,192,270426,1,0,0:0:0:0:
192,192,270426,1,2,0:0:0:0:
64,192,270582,1,0,0:0:0:0:
320,192,270582,1,2,0:0:0:0:
64,192,270737,1,0,0:0:0:0:
192,192,270737,1,8,0:0:0:0:
448,192,270737,1,0,0:0:0:0:
320,192,270893,1,2,0:0:0:0:
448,192,270893,1,0,0:0:0:0:
64,192,271048,1,2,0:1:0:0:
192,192,271204,1,2,0:0:0:0:
320,192,271204,1,0,0:0:0:0:
64,192,271359,1,0,0:0:0:0:
320,192,271359,1,8,0:0:0:0:
448,192,271359,128,0,271514:0:0:0:0:
64,192,271514,1,2,0:0:0:0:
192,192,271514,128,0,271670:0:0:0:0:
448,192,271670,1,2,0:0:0:0:
320,192,271670,128,0,271981:0:0:0:0:
192,192,271825,1,0,0:0:0:0:
448,192,271981,1,0,0:0:0:0:
192,192,271981,1,8,0:0:0:0:
64,192,271981,128,0,272292:0:0:0:0:
320,192,272136,1,0,0:0:0:0:
320,192,272292,1,4,0:0:0:0:
192,192,272292,1,2,0:1:0:0:
448,192,272292,128,0,272602:0:0:0:0:
64,192,272447,1,0,0:0:0:0:
320,192,272602,1,0,0:0:0:0:
192,192,272602,1,8,0:0:0:0:
64,192,272602,1,0,0:0:0:0:
448,192,272758,1,0,0:0:0:0:
192,192,272836,1,8,0:0:0:0:
64,192,272836,1,0,0:0:0:0:
320,192,272913,1,2,0:0:0:0:
448,192,272913,1,0,0:0:0:0:
192,192,273069,1,2,0:0:0:0:
64,192,273069,1,0,0:0:0:0:
448,192,273224,1,0,0:0:0:0:
320,192,273224,1,8,0:0:0:0:
64,192,273224,1,0,0:0:0:0:
192,192,273380,1,4,0:0:0:0:
448,192,273380,128,0,273691:0:0:0:0:
64,192,273380,128,2,273691:0:1:0:0:
320,192,273691,1,2,0:0:0:0:
192,192,273691,1,0,0:0:0:0:
64,192,273846,1,0,0:0:0:0:
320,192,273846,1,8,0:0:0:0:
448,192,273846,1,0,0:0:0:0:
192,192,274001,1,2,0:0:0:0:
64,192,274001,128,0,274157:0:0:0:0:
448,192,274157,1,2,0:0:0:0:
320,192,274157,128,0,274312:0:0:0:0:
192,192,274312,128,0,274468:0:0:0:0:
64,192,274468,1,0,0:0:0:0:
320,192,274468,1,2,0:0:0:0:
448,192,274468,128,0,274779:0:0:0:0:
64,192,274779,1,0,0:0:0:0:
192,192,274779,1,2,0:1:0:0:
320,192,274779,1,4,0:0:0:0:
448,192,274934,1,0,0:0:0:0:
320,192,275090,1,8,0:0:0:0:
192,192,275090,1,0,0:0:0:0:
64,192,275090,1,0,0:0:0:0:
192,192,275245,1,0,0:0:0:0:
320,192,275323,1,8,0:0:0:0:
448,192,275323,1,0,0:0:0:0:
192,192,275400,1,2,0:0:0:0:
64,192,275400,1,0,0:0:0:0:
320,192,275556,1,2,0:0:0:0:
448,192,275556,1,0,0:0:0:0:
192,192,275711,1,8,0:0:0:0:
64,192,275711,1,0,0:0:0:0:
448,192,275711,1,0,0:0:0:0:
320,192,275867,128,2,276022:0:1:0:0:
448,192,275867,128,0,276022:0:0:0:0:
64,192,275867,128,0,276022:0:0:0:50:finish-short.wav
64,192,276178,128,0,276333:0:0:0:0:
192,192,276178,128,2,276333:0:1:0:0:
448,192,276178,128,0,276333:0:0:0:50:finish-short.wav
320,192,276488,1,2,0:1:0:0:
64,192,276488,1,12,0:0:0:0:
192,192,276566,1,8,0:0:0:0:
448,192,276566,1,0,0:0:0:0:
320,192,276644,1,8,0:0:0:0:
64,192,276644,1,0,0:0:0:0:
448,192,276799,1,0,0:0:0:0:
192,192,276799,1,2,0:0:0:0:
64,192,276955,1,0,0:0:0:0:
320,192,276955,1,2,0:0:0:0:
448,192,277033,1,0,0:0:0:0:
192,192,277110,1,0,0:0:0:0:
64,192,277110,1,2,0:0:0:0:
320,192,277188,1,0,0:0:0:0:
64,192,277266,1,2,0:0:0:0:
192,192,277266,1,4,0:0:0:0:
448,192,277266,1,0,0:0:0:0:
320,192,277421,1,0,0:0:0:0:
64,192,277577,1,0,0:0:0:0:
448,192,277577,1,2,0:0:0:0:
192,192,277654,1,0,0:0:0:0:
320,192,277732,1,0,0:0:0:0:
448,192,277810,1,0,0:0:0:0:
64,192,277887,128,2,278198:0:1:0:0:
192,192,277887,128,8,278198:0:3:0:0:
320,192,278198,1,2,0:0:0:0:
448,192,278198,1,0,0:0:0:0:
192,192,278354,1,2,0:0:0:0:
64,192,278354,1,0,0:0:0:0:
320,192,278509,1,2,0:0:0:0:
64,192,278665,1,8,0:0:0:0:
192,192,278665,1,0,0:0:0:0:
448,192,278665,1,0,0:0:0:0:
320,192,278742,1,0,0:0:0:0:
64,192,278820,1,0,0:0:0:0:
448,192,278820,1,2,0:0:0:0:
192,192,278898,1,0,0:0:0:0:
320,192,278976,1,0,0:0:0:0:
448,192,279053,1,0,0:0:0:0:
64,192,279131,1,2,0:1:0:0:
192,192,279131,1,8,0:3:0:0:
320,192,279364,1,8,0:0:0:0:
448,192,279364,1,0,0:0:0:0:
192,192,279442,1,2,0:0:0:0:
64,192,279442,1,0,0:0:0:0:
192,192,279597,1,0,0:0:0:0:
320,192,279597,1,8,0:0:0:0:
448,192,279597,1,0,0:0:0:0:
64,192,279753,1,0,0:0:0:0:
320,192,279753,1,2,0:0:0:0:
192,192,279908,1,8,0:0:0:0:
64,192,279908,1,0,0:0:0:0:
448,192,279908,1,0,0:0:0:0:
320,192,280064,128,0,280374:0:0:0:0:
448,192,280064,1,2,0:0:0:0:
448,192,280374,1,8,0:3:0:0:
192,192,280374,1,8,0:0:0:0:
64,192,280374,1,2,0:1:0:0:
64,192,280530,1,0,0:0:0:0:
320,192,280530,1,8,0:0:0:0:
448,192,280530,1,0,0:0:0:0:
64,192,280685,1,0,0:0:0:0:
192,192,280685,1,2,0:0:0:0:
448,192,280841,1,2,0:1:0:0:
320,192,280841,1,4,0:0:0:0:
192,192,280841,128,0,281152:0:0:0:0:
64,192,281152,1,0,0:0:0:0:
320,192,281152,1,8,0:0:0:0:
448,192,281152,1,0,0:0:0:0:
192,192,281307,1,2,0:0:0:0:
320,192,281307,1,0,0:0:0:0:
64,192,281463,1,8,0:0:0:0:
448,192,281463,1,0,0:0:0:0:
192,192,281540,1,8,0:0:0:0:
320,192,281540,1,0,0:0:0:0:
64,192,281618,1,8,0:0:0:0:
448,192,281618,1,2,0:1:0:0:
320,192,281773,1,2,0:0:0:0:
192,192,281773,1,0,0:0:0:0:
320,192,281929,1,2,0:0:0:0:
64,192,281929,1,0,0:0:0:0:
448,192,282084,1,2,0:0:0:0:
192,192,282084,1,0,0:0:0:0:
64,192,282240,1,0,0:0:0:0:
320,192,282240,1,2,0:1:0:0:
192,192,282240,1,4,0:0:0:0:
64,192,282551,1,0,0:0:0:0:
448,192,282551,1,8,0:0:0:0:
320,192,282551,128,0,282862:0:0:0:0:
192,192,282862,1,2,0:0:0:0:
64,192,282862,1,2,0:1:0:0:
320,192,283017,1,2,0:0:0:0:
448,192,283017,1,0,0:0:0:0:
192,192,283172,1,8,0:0:0:0:
64,192,283172,1,0,0:0:0:0:
448,192,283172,1,0,0:0:0:0:
320,192,283328,1,0,0:0:0:0:
192,192,283328,1,2,0:0:0:0:
448,192,283483,1,0,0:0:0:0:
64,192,283639,1,0,0:0:0:0:
320,192,283639,1,2,0:0:0:0:
192,192,283794,1,8,0:0:0:0:
448,192,283794,1,0,0:0:0:0:
320,192,283794,1,0,0:0:0:0:
64,192,283950,1,0,0:0:0:0:
320,192,284027,1,8,0:0:0:0:
448,192,284027,1,0,0:0:0:0:
192,192,284105,1,2,0:0:0:0:
64,192,284105,1,2,0:1:0:0:
320,192,284260,1,2,0:0:0:0:
448,192,284260,1,0,0:0:0:0:
192,192,284416,1,8,0:0:0:0:
64,192,284416,1,0,0:0:0:0:
448,192,284416,1,0,0:0:0:0:
192,192,284571,1,0,0:0:0:0:
320,192,284571,1,2,0:0:0:0:
64,192,284727,1,8,0:0:0:0:
320,192,284727,1,4,0:0:0:0:
448,192,284727,1,2,0:1:0:0:
192,192,284882,1,2,0:0:0:0:
64,192,284882,1,0,0:0:0:0:
320,192,285038,1,2,0:0:0:0:
448,192,285038,1,0,0:0:0:0:
64,192,285193,1,2,0:1:0:0:
192,192,285193,1,4,0:0:0:0:
448,192,285193,1,8,0:0:0:0:
192,192,285349,1,0,0:0:0:0:
320,192,285349,1,2,0:0:0:0:
64,192,285504,1,0,0:0:0:0:
448,192,285504,1,2,0:0:0:0:
192,192,285659,1,0,0:0:0:0:
320,192,285659,1,8,0:0:0:0:
448,192,285659,1,0,0:0:0:0:
192,192,285815,1,4,0:0:0:0:
320,192,285815,1,2,0:1:0:0:
64,192,285815,128,0,286126:0:0:0:0:
320,192,286126,1,2,0:0:0:0:
448,192,286126,1,0,0:0:0:0:
192,192,286281,1,8,0:0:0:0:
64,192,286281,1,0,0:0:0:0:
448,192,286281,1,0,0:0:0:0:
64,192,286437,1,4,0:0:0:0:
320,192,286437,1,2,0:1:0:0:
192,192,286437,128,0,286748:0:0:0:0:
64,192,286748,1,0,0:0:0:0:
448,192,286748,1,2,0:0:0:0:
192,192,286903,1,0,0:0:0:0:
320,192,286903,1,8,0:0:0:0:
448,192,286903,1,0,0:0:0:0:
64,192,287058,1,2,0:1:0:0:
192,192,287058,1,4,0:0:0:0:
320,192,287058,128,0,287369:0:0:0:0:
448,192,287369,1,0,0:0:0:0:
192,192,287369,1,2,0:0:0:0:
64,192,287525,1,0,0:0:0:0:
192,192,287525,1,0,0:0:0:0:
320,192,287525,1,8,0:0:0:0:
64,192,287680,1,2,0:1:0:0:
320,192,287680,1,4,0:0:0:0:
448,192,287680,1,0,0:0:0:0:
192,192,287836,1,2,0:0:0:0:
64,192,287836,1,0,0:0:0:0:
448,192,287991,1,0,0:0:0:0:
320,192,287991,1,8,0:0:0:0:
192,192,288069,1,8,0:0:0:0:
64,192,288069,1,0,0:0:0:0:
320,192,288147,1,8,0:0:0:0:
448,192,288147,1,0,0:0:0:0:
192,192,288224,1,8,0:0:0:0:
320,192,288302,1,4,0:0:0:0:
448,192,288302,1,2,0:1:0:0:
64,192,288302,128,0,288613:0:0:0:0:
192,192,288613,1,0,0:0:0:0:
320,192,288613,1,2,0:0:0:0:
64,192,288768,1,0,0:0:0:0:
320,192,288768,1,8,0:0:0:0:
448,192,288768,1,0,0:0:0:0:
64,192,288924,1,2,0:1:0:0:
448,192,288924,1,4,0:0:0:0:
192,192,288924,128,0,289235:0:2:0:0:
448,192,289235,1,2,0:0:0:0:
64,192,289235,1,0,0:0:0:0:
64,192,289390,1,0,0:0:0:0:
192,192,289390,1,8,0:0:0:0:
320,192,289390,1,0,0:0:0:0:
192,192,289545,1,4,0:0:0:0:
320,192,289545,128,0,289856:0:0:0:0:
448,192,289545,1,2,0:1:0:0:
192,192,289856,1,2,0:0:0:0:
448,192,289856,1,0,0:0:0:0:
320,192,290012,1,8,0:0:0:0:
448,192,290012,1,0,0:0:0:0:
64,192,290012,1,0,0:0:0:0:
192,192,290167,1,4,0:0:0:0:
64,192,290167,1,2,0:1:0:0:
448,192,290167,1,0,0:0:0:0:
320,192,290323,1,2,0:0:0:0:
192,192,290323,1,0,0:0:0:0:
448,192,290478,1,8,0:0:0:0:
64,192,290478,1,0,0:0:0:0:
320,192,290556,1,8,0:0:0:0:
192,192,290556,1,0,0:0:0:0:
448,192,290634,1,8,0:0:0:0:
64,192,290634,1,0,0:0:0:0:
320,192,290711,1,8,0:0:0:0:
448,192,290789,1,2,0:1:0:0:
192,192,290789,1,4,0:0:0:0:
64,192,290789,1,0,0:0:0:0:
320,192,290944,1,0,0:0:0:0:
192,192,291100,1,2,0:0:0:0:
64,192,291100,1,0,0:0:0:0:
320,192,291255,1,8,0:0:0:0:
448,192,291255,1,0,0:0:0:0:
64,192,291255,1,0,0:0:0:0:
192,192,291411,1,0,0:0:0:0:
64,192,291488,1,0,0:0:0:0:
320,192,291488,1,8,0:0:0:0:
192,192,291566,1,2,0:0:0:0:
448,192,291566,1,0,0:0:0:0:
320,192,291722,1,2,0:0:0:0:
64,192,291722,1,0,0:0:0:0:
192,192,291877,1,0,0:0:0:0:
320,192,291877,1,8,0:0:0:0:
448,192,291877,1,0,0:0:0:0:
64,192,292033,1,2,0:0:0:0:
192,192,292033,1,0,0:0:0:0:
448,192,292188,1,2,0:1:0:0:
64,192,292343,1,0,0:0:0:0:
192,192,292343,1,2,0:0:0:0:
64,192,292499,1,0,0:0:0:0:
320,192,292499,1,8,0:0:0:0:
448,192,292499,1,0,0:0:0:0:
320,192,292654,1,2,0:1:0:0:
192,192,292654,1,0,0:0:0:0:
64,192,292810,1,0,0:0:0:0:
448,192,292810,1,2,0:0:0:0:
192,192,292965,1,2,0:1:0:0:
320,192,292965,1,8,0:0:0:0:
448,192,293043,1,8,0:0:0:0:
64,192,293043,1,0,0:0:0:0:
320,192,293121,1,8,0:0:0:0:
192,192,293121,1,0,0:0:0:0:
448,192,293276,1,4,0:0:0:0:
64,192,293276,1,2,0:1:0:0:
192,192,293276,128,0,293587:0:0:0:0:
64,192,293587,1,2,0:0:0:0:
448,192,293587,1,0,0:0:0:0:
192,192,293742,1,8,0:0:0:0:
448,192,293742,1,0,0:0:0:0:
320,192,293742,128,0,294053:0:0:0:0:
192,192,294053,1,2,0:0:0:0:
64,192,294053,128,0,294364:0:0:0:0:
448,192,294209,1,0,0:0:0:0:
320,192,294209,1,2,0:0:0:0:
192,192,294364,1,0,0:0:0:0:
320,192,294364,1,8,0:0:0:0:
448,192,294364,1,0,0:0:0:0:
64,192,294520,1,0,0:0:0:0:
192,192,294520,1,2,0:0:0:0:
448,192,294675,1,2,0:1:0:0:
64,192,294830,1,0,0:0:0:0:
192,192,294830,1,2,0:0:0:0:
320,192,294986,1,8,0:0:0:0:
448,192,294986,1,0,0:0:0:0:
64,192,294986,1,0,0:0:0:0:
448,192,295141,1,2,0:1:0:0:
192,192,295141,1,8,0:0:0:0:
320,192,295219,1,8,0:0:0:0:
64,192,295219,1,0,0:0:0:0:
192,192,295297,1,0,0:0:0:0:
448,192,295297,1,2,0:0:0:0:
320,192,295452,1,2,0:1:0:0:
448,192,295452,1,2,0:0:0:0:
192,192,295530,1,2,0:0:0:0:
64,192,295530,1,0,0:0:0:0:
320,192,295608,1,8,0:0:0:0:
448,192,295608,1,0,0:0:0:0:
192,192,295685,1,8,0:0:0:0:
64,192,295763,1,4,0:0:0:0:
320,192,295763,1,2,0:1:0:0:
448,192,295763,128,0,296074:0:0:0:0:
320,192,296074,1,2,0:0:0:0:
64,192,296074,1,0,0:0:0:0:
192,192,296229,1,0,0:0:0:0:
320,192,296229,1,8,0:0:0:0:
448,192,296229,1,0,0:0:0:0:
64,192,296385,1,0,0:0:0:0:
192,192,296385,1,2,0:0:0:0:
64,192,296540,1,0,0:0:0:0:
320,192,296540,1,8,0:0:0:0:
448,192,296540,1,0,0:0:0:0:
192,192,296696,1,2,0:0:0:0:
320,192,296696,1,0,0:0:0:0:
448,192,296851,1,0,0:0:0:0:
192,192,296851,1,8,0:0:0:0:
64,192,296851,1,0,0:0:0:0:
320,192,297007,1,2,0:0:0:0:
448,192,297007,1,0,0:0:0:0:
192,192,297162,1,2,0:1:0:0:
64,192,297317,1,2,0:0:0:0:
448,192,297317,1,0,0:0:0:0:
64,192,297473,1,0,0:0:0:0:
192,192,297473,1,8,0:0:0:0:
320,192,297473,1,0,0:0:0:0:
320,192,297628,1,2,0:0:0:0:
448,192,297628,1,2,0:1:0:0:
192,192,297784,1,0,0:0:0:0:
64,192,297784,1,2,0:0:0:0:
320,192,297939,1,8,0:0:0:0:
448,192,297939,1,2,0:1:0:0:
192,192,298017,1,8,0:0:0:0:
64,192,298017,1,0,0:0:0:0:
320,192,298095,1,8,0:0:0:0:
448,192,298095,1,0,0:0:0:0:
192,192,298172,1,8,0:0:0:0:
320,192,298250,1,4,0:0:0:0:
448,192,298250,1,2,0:1:0:0:
64,192,298250,128,0,298561:0:0:0:0:
320,192,298561,1,2,0:0:0:0:
448,192,298561,1,0,0:0:0:0:
64,192,298716,1,0,0:0:0:0:
192,192,298716,1,8,0:0:0:0:
448,192,298716,1,0,0:0:0:0:
192,192,298872,1,0,0:0:0:0:
320,192,298872,1,2,0:0:0:0:
64,192,299027,1,0,0:0:0:0:
320,192,299027,1,8,0:0:0:0:
448,192,299027,1,0,0:0:0:0:
64,192,299183,1,0,0:0:0:0:
192,192,299183,1,2,0:0:0:0:
192,192,299338,1,0,0:0:0:0:
320,192,299338,1,8,0:0:0:0:
448,192,299338,1,0,0:0:0:0:
64,192,299494,1,0,0:0:0:0:
320,192,299494,1,2,0:0:0:0:
192,192,299649,1,8,0:0:0:0:
64,192,299649,1,2,0:1:0:0:
448,192,299649,1,0,0:0:0:0:
320,192,299805,1,2,0:0:0:0:
448,192,299805,1,0,0:0:0:0:
192,192,299882,1,2,0:0:0:0:
64,192,299960,1,0,0:0:0:0:
320,192,299960,1,8,0:0:0:0:
448,192,299960,1,0,0:0:0:0:
64,192,300115,1,8,0:3:0:0:
192,192,300115,1,2,0:1:0:0:
320,192,300115,1,4,0:0:0:0:
448,192,300115,1,8,0:0:0:0:
64,192,300426,1,8,0:3:0:0:
192,192,300426,1,2,0:1:0:0:
320,192,300426,1,4,0:0:0:0:
448,192,300426,1,8,0:0:0:0:
64,192,300737,1,8,0:3:0:0:
320,192,300737,1,0,0:0:0:100:finish-short.wav
192,192,300737,1,2,0:0:0:0:
448,192,300737,1,8,0:0:0:0:
64,192,302136,128,0,307110:0:0:0:100:D#6S_Eb6S.wav
192,192,302156,128,0,307110:0:0:0:100:G#6S_Ab6S.wav
320,192,302175,128,0,307110:0:0:0:100:B6S.wav
448,192,302194,128,0,307110:0:0:0:100:D#7S_Eb7S.wav
