osu file format v14

[General]
AudioFilename: audio.mp3
AudioLeadIn: 0
PreviewTime: 51717
Countdown: 0
SampleSet: Soft
StackLeniency: 0.7
Mode: 0
LetterboxInBreaks: 0
WidescreenStoryboard: 0

[Editor]
DistanceSpacing: 2.7
BeatDivisor: 4
GridSize: 8
TimelineZoom: 1.9

[Metadata]
Title:Watashi no Tame no Monogatari ~My Uncompleted Story~
TitleUnicode:わたしのための物語 ~My Uncompleted Story~
Artist:fhana
ArtistUnicode:fhána
Creator:Sotarks
Version:Melancholy
Source:メルヘン・メドヘン
Tags:Fairy Tale Girls Märchen Mädchen Marchen Madchen op opening lantis Junichi Sato yuxuki waga kevin mitsunaga towana akitoshi corinn doormat Benny- BennyBananas
BeatmapID:1517923
BeatmapSetID:718701

[Difficulty]
HPDrainRate:6.2
CircleSize:4.2
OverallDifficulty:8.7
ApproachRate:9.2
SliderMultiplier:1.82
SliderTickRate:1

[Events]
//Background and Video events
0,0,"BG.jpg",0,0
//Break Periods
//Storyboard Layer 0 (Background)
//Storyboard Layer 1 (Fail)
//Storyboard Layer 2 (Pass)
//Storyboard Layer 3 (Foreground)
//Storyboard Sound Samples

[TimingPoints]
1512,352.941176470588,4,2,22,42,1,0
1512,-192.307692307692,4,2,22,42,0,0
6453,-100,4,2,22,52,0,0
7159,-75.7575757575758,4,2,22,72,0,0
18453,-161.290322580645,4,2,22,42,0,0
21100,-98.0392156862745,4,2,22,52,0,0
32570,-89.2857142857143,4,2,22,62,0,0
52335,-81.9672131147541,4,2,22,52,0,1
62041,-75.7575757575758,4,2,22,52,0,1
80570,-75.7575757575758,4,2,22,52,0,0
86217,-161.290322580645,4,2,22,52,0,0
86306,-161.290322580645,4,2,22,22,0,0
86747,-161.290322580645,4,2,22,32,0,0
87276,-161.290322580645,4,2,22,42,0,0
87806,-161.290322580645,4,2,22,52,0,0
88335,-161.290322580645,4,2,22,62,0,0

[Colours]
Combo1 : 236,238,255
Combo2 : 187,255,157
Combo3 : 196,251,255
Combo4 : 83,99,208
SliderBorder : 255,255,245
SliderTrackOverride : 0,0,10

[HitObjects]
283,66,1512,6,0,P|309:119|304:167,1,94.6399994223633,2|0,0:0|0:0,0:0:0:0:
395,185,2041,2,0,P|378:212|365:225,1,47.3199997111816,2|0,0:0|0:0,0:0:0:0:
400,304,2394,2,0,P|369:311|350:311,1,47.3199997111816,2|0,0:0|0:0,0:0:0:0:
200,261,2747,2,0,P|250:270|299:256,2,94.6399994223633,2|2|2,0:0|0:0|0:0,0:0:0:0:
70,108,3806,1,2,0:0:0:0:
34,184,3982,2,0,P|53:229|56:248,1,47.3199997111816
162,92,4335,6,0,P|208:84|261:114,1,94.6399994223633,2|0,0:0|0:0,0:0:0:0:
281,22,4864,2,0,P|319:48|335:107,1,94.6399994223633,2|0,0:0|0:0,0:0:0:0:
416,57,5394,2,0,P|424:102|394:155,1,94.6399994223633,2|0,0:0|0:0,0:0:0:0:
488,177,5923,2,0,P|461:215|402:231,1,94.6399994223633,2|0,0:0|0:0,0:0:0:0:
346,193,6453,5,0,1:0:0:0:
185,279,6629,2,0,P|236:267|246:269,1,45.5,8|8,0:0|0:0,0:0:0:0:
360,288,6806,2,0,P|309:276|299:278,1,45.5,8|8,0:0|0:0,0:0:0:0:
265,334,6982,1,8,0:0:0:0:
263,343,7070,1,8,0:0:0:0:
261,355,7159,6,0,B|296:239|228:299|276:142,1,180.179999450134,6|0,1:0|0:0,0:0:0:0:
325,114,7512,2,0,B|187:103|187:103|232:67,1,180.179999450134,10|8,0:0|0:0,0:0:0:0:
282,36,7864,1,2,1:0:0:0:
121,144,8041,1,10,0:0:0:0:
325,114,8217,1,2,1:0:0:0:
100,61,8394,6,0,B|54:71|3:140|65:216|65:216|142:249,1,240.239999266846,6|0,1:0|1:0,0:0:0:0:
363,209,8923,1,10,0:0:0:0:
281,172,9100,2,0,P|208:189|134:339,1,240.239999266846,2|0,1:0|1:0,0:0:0:0:
376,298,9629,1,10,0:0:0:0:
457,113,9806,1,0,1:0:0:0:
454,123,9894,1,0,1:0:0:0:
450,132,9982,6,0,B|348:118|399:200|239:164,1,180.179999450134,6|0,1:0|0:0,0:0:0:0:
224,123,10335,2,0,B|241:91|241:91|245:251,1,180.179999450134,10|8,0:0|0:0,0:0:0:0:
246,312,10688,1,2,1:0:0:0:
313,92,10864,1,10,0:0:0:0:
247,323,11041,1,2,1:0:0:0:
28,255,11217,6,0,B|201:196|201:196|251:241,1,240.239999266846,6|0,1:0|1:0,0:0:0:0:
121,108,11747,1,10,0:0:0:0:
163,307,11923,1,2,1:0:0:0:
216,99,12100,1,0,1:0:0:0:
296,310,12276,2,0,P|330:255|328:236,1,60.0599998167114,8|8,0:0|0:0,0:0:0:0:
319,106,12453,1,10,0:0:0:0:
326,77,12541,1,8,0:0:0:0:
353,67,12629,1,8,0:0:0:0:
377,77,12717,1,8,0:0:0:0:
395,114,12806,6,0,L|196:97,1,180.179999450134,6|0,1:0|0:0,0:0:0:0:
149,57,13159,2,0,B|123:29|123:29|96:112|171:78|136:209,1,180.179999450134,10|8,0:0|0:0,0:0:0:0:
125,239,13511,1,2,1:0:0:0:
222,19,13688,1,10,0:0:0:0:
64,152,13864,1,2,1:0:0:0:
307,226,14041,6,0,B|364:202|406:270|406:270|364:346|276:306,1,240.239999266846,6|0,1:0|1:0,0:0:0:0:
202,193,14570,1,8,0:0:0:0:
275,124,14747,2,0,L|286:379,1,240.239999266846,2|0,1:0|1:0,0:0:0:0:
356,190,15276,1,8,0:0:0:0:
192,322,15453,1,0,1:0:0:0:
182,319,15541,1,0,1:0:0:0:
173,315,15629,5,14,0:0:0:0:
223,239,15806,1,0,1:0:0:0:
106,64,15982,5,10,0:0:0:0:
139,233,16159,1,0,1:0:0:0:
314,245,16335,5,10,0:0:0:0:
124,150,16511,1,0,1:0:0:0:
124,150,16600,1,8,0:0:0:0:
124,150,16688,1,0,1:0:0:0:
372,182,16864,6,0,P|393:276|295:331,1,180.179999450134,6|0,1:0|0:0,0:0:0:0:
261,335,17217,1,0,1:0:0:0:
311,119,17394,1,8,0:0:0:0:
480,279,17570,1,2,1:0:0:0:
252,61,17747,1,10,0:0:0:0:
314,245,17923,5,8,0:0:0:0:
314,245,18011,1,8,0:0:0:0:
314,245,18100,2,0,P|282:239|244:238,1,60.0599998167114,8|8,0:0|0:0,0:0:0:0:
120,138,18276,2,0,P|149:136|179:130,1,60.0599998167114,8|8,0:0|0:0,0:0:0:0:
358,73,18453,6,0,P|292:80|242:52,2,112.839995523316,6|2|2,1:0|0:0|0:0,0:0:0:0:
421,28,19335,1,2,0:0:0:0:
468,91,19511,1,2,0:0:0:0:
430,161,19688,2,0,P|419:204|420:232,1,56.4199977616578,2|0,0:0|0:0,0:0:0:0:
352,312,20041,1,2,0:0:0:0:
352,312,20217,2,0,P|349:284|304:194,1,112.839995523316,2|0,0:0|0:0,0:0:0:0:
168,137,20747,6,0,L|127:133,1,28.2099988808289,10|8,0:0|0:0,0:0:0:0:
278,123,20923,2,0,L|319:119,1,28.2099988808289,6|4,3:0|3:0,0:0:0:0:
217,56,21100,6,0,L|228:260,1,185.640001133057,6|0,1:0|1:0,0:0:0:0:
112,352,21629,2,0,P|188:335|239:360,1,92.8200005665283,10|0,0:0|0:0,0:0:0:0:
272,368,21894,1,0,0:0:0:0:
272,368,21982,1,0,1:0:0:0:
366,222,22159,2,0,P|359:156|363:117,1,92.8200005665283,2|8,1:0|0:0,0:0:0:0:
423,309,22511,1,2,1:0:0:0:
290,250,22688,1,2,0:0:0:0:
441,196,22864,1,2,1:0:0:0:
264,159,23041,2,0,P|185:145|155:129,1,92.8200005665283,10|0,0:0|0:0,0:0:0:0:
109,101,23306,1,0,0:0:0:0:
109,101,23394,1,0,1:0:0:0:
173,239,23570,1,0,1:0:0:0:
72,26,23747,1,8,0:0:0:0:
95,263,23923,5,0,1:0:0:0:
97,273,24011,1,8,0:0:0:0:
99,282,24100,2,0,P|168:264|246:308,1,139.230000849792,2|0,1:0|0:0,0:0:0:0:
284,345,24453,2,0,P|339:357|392:333,1,92.8200005665283,10|0,0:0|1:0,0:0:0:0:
432,304,24717,1,8,0:0:0:0:
432,304,24806,1,2,1:0:0:0:
329,272,24982,1,2,1:0:0:0:
478,214,25159,1,10,0:0:0:0:
330,95,25335,2,0,L|208:83,1,92.8200005665283,2|0,1:0|0:0,0:0:0:0:
82,211,25688,1,2,1:0:0:0:
149,151,25864,2,0,L|271:163,1,92.8200005665283,10|0,0:0|1:0,0:0:0:0:
160,261,26217,1,0,0:0:0:0:
138,67,26394,1,2,1:0:0:0:
82,211,26570,1,8,0:0:0:0:
254,165,26747,2,0,P|273:220|274:234,1,46.4100002832642,2|8,1:0|0:0,0:0:0:0:
169,267,26923,6,0,P|224:267|270:299,1,92.8200005665283,6|0,1:0|1:0,0:0:0:0:
440,277,27276,1,10,0:0:0:0:
421,356,27453,2,0,P|366:356|320:324,1,92.8200005665283,2|0,0:0|1:0,0:0:0:0:
359,176,27806,1,2,1:0:0:0:
256,284,27982,1,8,0:0:0:0:
346,96,28159,2,0,P|419:118|436:153,1,92.8200005665283,6|0,1:0|0:0,0:0:0:0:
348,259,28511,1,2,1:0:0:0:
266,113,28688,1,10,0:0:0:0:
175,204,28864,2,0,L|378:172,1,185.640001133057,0|0,1:0|1:0,0:0:0:0:
174,120,29394,1,10,0:0:0:0:
173,289,29570,5,2,1:0:0:0:
173,299,29659,1,8,0:0:0:0:
173,307,29747,1,2,1:0:0:0:
99,167,29923,1,2,1:0:0:0:
260,299,30100,1,10,0:0:0:0:
260,299,30276,2,0,P|321:265|358:265,1,92.8200005665283,2|0,1:0|0:0,0:0:0:0:
269,91,30629,2,0,P|208:125|171:125,1,92.8200005665283,2|8,1:0|0:0,0:0:0:0:
392,141,30982,2,0,P|447:175|451:313,1,185.640001133057,6|2,1:0|1:0,0:0:0:0:
315,362,31511,1,10,0:0:0:0:
316,185,31688,1,0,1:0:0:0:
412,344,31864,1,0,1:0:0:0:
232,199,32041,6,0,P|182:194|164:197,1,46.4100002832642,10|8,0:0|0:0,0:0:0:0:
145,123,32217,2,0,P|106:154|95:169,1,46.4100002832642,8|8,0:0|0:0,0:0:0:0:
21,151,32394,1,4,3:0:0:0:
17,169,32482,1,4,3:0:0:0:
18,187,32570,6,0,P|105:156|185:193,1,152.880001866211,6|0,1:0|0:0,0:0:0:0:
192,244,32923,2,0,B|220:312|220:312|305:260,1,152.880001866211,8|8,0:0|0:0,0:0:0:0:
354,228,33276,1,2,1:0:0:0:
110,251,33453,1,2,1:0:0:0:
266,185,33629,1,10,0:0:0:0:
99,344,33806,6,0,L|60:136,1,203.840002488281,4|0,1:0|1:0,0:0:0:0:
194,27,34335,2,0,L|186:150,1,101.920001244141,8|0,0:0|1:0,0:0:0:0:
224,255,34600,1,8,0:0:0:0:
230,246,34688,2,0,P|283:222|295:221,1,50.9600006220703,0|8,1:0|0:0,0:0:0:0:
377,119,34864,2,0,P|324:143|312:144,1,50.9600006220703,0|8,1:0|0:0,0:0:0:0:
335,275,35041,1,8,0:0:0:0:
368,237,35129,1,8,0:0:0:0:
416,222,35217,1,8,0:0:0:0:
464,234,35305,1,8,0:0:0:0:
500,270,35394,6,0,L|474:72,1,152.880001866211,6|0,1:0|0:0,0:0:0:0:
432,64,35747,1,10,0:0:0:0:
277,155,35923,2,0,P|333:147|343:142,1,50.9600006220703,0|8,1:0|0:0,0:0:0:0:
217,89,36100,1,2,1:0:0:0:
201,310,36276,1,10,0:0:0:0:
218,80,36453,1,2,1:0:0:0:
316,363,36629,6,0,P|410:361|446:257,1,203.840002488281,6|0,1:0|1:0,0:0:0:0:
355,111,37159,1,8,0:0:0:0:
363,289,37335,1,0,1:0:0:0:
337,264,37423,1,8,0:0:0:0:
304,249,37511,1,0,1:0:0:0:
269,245,37600,1,8,0:0:0:0:
234,252,37688,2,0,P|176:276|152:275,1,50.9600006220703,8|8,0:0|0:0,0:0:0:0:
210,126,37864,2,0,P|268:102|292:103,1,50.9600006220703,10|8,0:0|0:0,0:0:0:0:
112,213,38041,1,6,3:0:0:0:
108,203,38129,1,4,3:0:0:0:
104,193,38217,5,2,1:0:0:0:
107,299,38394,1,2,1:0:0:0:
115,101,38570,1,10,0:0:0:0:
48,354,38747,2,0,P|115:330|156:331,1,101.920001244141,2|0,1:0|0:0,0:0:0:0:
168,58,39100,2,0,P|101:82|60:81,1,101.920001244141,2|8,1:0|0:0,0:0:0:0:
264,256,39453,6,0,P|344:181|424:189,1,152.880001866211,6|0,1:0|0:0,0:0:0:0:
459,212,39806,2,0,P|465:152|418:108,1,101.920001244141,2|8,1:0|0:0,0:0:0:0:
252,47,40159,2,0,P|240:102|243:118,1,50.9600006220703,2|8,1:0|0:0,0:0:0:0:
274,170,40335,1,0,1:0:0:0:
137,63,40511,1,8,0:0:0:0:
97,68,40599,1,8,0:0:0:0:
63,91,40687,1,8,0:0:0:0:
44,127,40776,1,4,3:0:0:0:
42,167,40864,6,0,B|22:266|108:243|87:382,1,203.840002488281,6|0,1:0|1:0,0:0:0:0:
138,176,41394,2,0,P|218:152|257:152,1,101.920001244141,10|0,0:0|0:0,0:0:0:0:
368,296,41747,1,2,1:0:0:0:
216,270,41923,1,2,1:0:0:0:
336,80,42100,1,8,0:0:0:0:
476,246,42276,2,0,B|341:194|341:194|272:230,1,203.840002488281,2|2,1:0|1:0,0:0:0:0:
58,335,42806,2,0,P|141:342|190:240,1,203.840002488281,10|0,0:0|1:0,0:0:0:0:
107,90,43335,1,0,1:0:0:0:
107,262,43511,1,10,0:0:0:0:
275,140,43688,1,2,0:0:0:0:
93,85,43864,5,2,1:0:0:0:
203,261,44041,1,2,1:0:0:0:
322,70,44217,1,10,0:0:0:0:
382,268,44394,1,0,1:0:0:0:
382,268,44482,1,0,0:0:0:0:
382,268,44570,1,2,0:0:0:0:
191,174,44747,1,2,1:0:0:0:
386,14,44923,1,10,0:0:0:0:
466,283,45100,6,0,P|415:345|298:293,1,203.840002488281,6|0,1:0|1:0,0:0:0:0:
217,96,45629,2,0,P|148:99|114:139,1,101.920001244141,8|0,0:0|0:0,0:0:0:0:
139,308,45982,1,0,1:0:0:0:
191,174,46159,2,0,L|199:246,1,50.9600006220703,0|8,1:0|0:0,0:0:0:0:
229,338,46335,1,8,0:0:0:0:
236,293,46423,1,8,0:0:0:0:
264,257,46511,1,8,3:0:0:0:
306,240,46600,1,4,3:0:0:0:
351,245,46687,5,6,1:0:0:0:
351,245,47041,1,10,0:0:0:0:
422,172,47217,1,2,0:0:0:0:
323,44,47394,1,2,1:0:0:0:
337,146,47570,1,2,1:0:0:0:
414,12,47747,1,10,0:0:0:0:
430,255,47923,2,0,L|435:366,1,101.920001244141,2|0,1:0|0:0,0:0:0:0:
256,306,48276,2,0,L|260:204,1,101.920001244141,2|8,1:0|0:0,0:0:0:0:
161,326,48629,1,2,1:0:0:0:
161,326,48717,1,8,0:0:0:0:
161,326,48806,2,0,P|94:341|50:302,1,101.920001244141,0|2,1:0|1:0,0:0:0:0:
212,141,49159,1,8,0:0:0:0:
347,296,49335,5,2,1:0:0:0:
347,296,49688,1,0,1:0:0:0:
279,80,49864,1,12,0:0:0:0:
144,203,50041,1,0,1:0:0:0:
381,109,50217,1,8,0:0:0:0:
163,46,50394,1,2,1:0:0:0:
321,216,50570,1,10,0:0:0:0:
444,4,50747,1,6,1:0:0:0:
444,4,51100,5,0,1:0:0:0:
512,214,51276,1,8,0:0:0:0:
279,80,51453,1,6,1:0:0:0:
279,80,51806,1,10,0:0:0:0:
309,120,51894,1,8,0:0:0:0:
316,170,51982,1,10,0:0:0:0:
305,217,52070,1,8,0:0:0:0:
312,266,52158,1,10,0:0:0:0:
342,307,52246,1,8,0:0:0:0:
391,328,52335,6,0,P|304:302|201:317,1,166.529993139176,6|0,1:0|0:0,0:0:0:0:
161,353,52688,2,0,B|128:253|193:293|150:165,1,166.529993139176,10|8,0:0|0:0,0:0:0:0:
105,133,53041,1,2,1:0:0:0:
262,228,53217,1,2,1:0:0:0:
75,231,53394,1,8,0:0:0:0:
269,136,53570,6,0,P|335:174|323:302,1,166.529993139176,6|0,1:0|0:0,0:0:0:0:
329,331,53923,1,2,1:0:0:0:
410,135,54100,1,10,0:0:0:0:
262,228,54276,2,0,L|173:222,1,55.5099977130586,0|8,1:0|0:0,0:0:0:0:
163,157,54453,2,0,L|107:160,1,55.5099977130586,0|8,1:0|0:0,0:0:0:0:
49,224,54629,1,2,1:0:0:0:
153,75,54806,1,10,0:0:0:0:
202,303,54982,1,10,0:0:0:0:
202,303,55070,1,8,0:0:0:0:
202,303,55159,6,0,L|391:314,1,166.529993139176,6|0,1:0|0:0,0:0:0:0:
432,265,55511,1,10,0:0:0:0:
346,136,55688,1,2,1:0:0:0:
331,171,55776,1,8,0:0:0:0:
334,210,55864,1,0,1:0:0:0:
410,77,56041,1,2,1:0:0:0:
368,312,56217,1,10,0:0:0:0:
275,86,56394,6,0,B|200:53|200:53|136:52|109:133,1,166.529993139176,6|0,1:0|0:0,0:0:0:0:
120,168,56747,1,0,1:0:0:0:
334,210,56923,1,8,0:0:0:0:
89,266,57100,1,0,1:0:0:0:
142,251,57188,1,8,0:0:0:0:
195,261,57276,1,0,1:0:0:0:
239,295,57364,1,8,0:0:0:0:
290,315,57453,2,0,P|351:314|363:305,1,55.5099977130586,10|8,0:0|0:0,0:0:0:0:
481,240,57629,2,0,P|420:239|408:230,1,55.5099977130586,10|0,0:0|0:0,0:0:0:0:
271,124,57806,2,0,P|332:123|344:114,1,55.5099977130586,10|8,0:0|0:0,0:0:0:0:
472,25,57982,6,0,B|367:1|413:73|288:37,1,166.529993139176,6|0,1:0|0:0,0:0:0:0:
232,41,58335,2,0,P|177:94|215:196,1,166.529993139176,10|8,0:0|0:0,0:0:0:0:
265,206,58688,1,2,1:0:0:0:
89,264,58864,1,2,1:0:0:0:
343,238,59041,1,8,0:0:0:0:
121,352,59217,6,0,L|113:132,1,166.529993139176,6|0,1:0|0:0,0:0:0:0:
71,125,59570,1,2,1:0:0:0:
239,22,59747,1,10,0:0:0:0:
203,223,59923,2,0,P|253:168|264:165,1,55.5099977130586,0|8,1:0|0:0,0:0:0:0:
322,155,60100,2,0,P|341:135|352:110,1,55.5099977130586,0|8,1:0|0:0,0:0:0:0:
344,29,60276,1,2,1:0:0:0:
382,239,60453,1,10,0:0:0:0:
254,101,60629,6,0,B|190:94|190:94|109:115|108:231,1,222.039990852234,6|0,1:0|1:0,0:0:0:0:
354,325,61159,1,8,0:0:0:0:
213,197,61335,1,0,1:0:0:0:
446,94,61511,1,8,0:0:0:0:
310,246,61688,1,2,1:0:0:0:
300,208,61776,1,8,0:0:0:0:
308,170,61864,1,2,1:0:0:0:
113,340,62041,6,0,P|130:234|84:135,1,180.179999450134,6|0,1:0|0:0,0:0:0:0:
52,112,62394,1,0,1:0:0:0:
223,318,62570,1,8,0:0:0:0:
326,48,62747,1,6,1:0:0:0:
205,171,62923,1,8,0:0:0:0:
475,104,63100,1,10,0:0:0:0:
428,110,63188,1,8,0:0:0:0:
398,149,63276,1,10,0:0:0:0:
384,198,63364,1,8,0:0:0:0:
353,236,63452,1,10,0:0:0:0:
307,243,63540,1,8,0:0:0:0:
259,218,63629,6,0,P|178:196|98:262,1,180.179999450134,6|0,1:0|0:0,0:0:0:0:
68,316,63982,2,0,L|49:113,1,180.179999450134,10|8,0:0|0:0,0:0:0:0:
91,70,64335,1,2,1:0:0:0:
196,293,64511,1,2,1:0:0:0:
237,59,64688,1,8,0:0:0:0:
284,338,64864,6,0,B|286:270|286:270|316:201|410:216,1,180.179999450134,6|0,1:0|0:0,0:0:0:0:
451,239,65217,1,2,1:0:0:0:
307,122,65394,1,10,0:0:0:0:
440,316,65570,2,0,L|452:239,1,60.0599998167114,0|8,1:0|0:0,0:0:0:0:
422,156,65747,2,0,L|412:96,1,60.0599998167114,0|8,1:0|0:0,0:0:0:0:
455,20,65923,1,2,1:0:0:0:
374,213,66100,1,10,0:0:0:0:
249,59,66276,2,0,P|184:53|175:58,1,60.0599998167114,2|0,0:0|0:0,0:0:0:0:
48,197,66453,5,6,1:0:0:0:
211,131,66629,1,2,1:0:0:0:
66,281,66806,1,10,0:0:0:0:
255,201,66982,1,2,1:0:0:0:
296,196,67070,1,8,0:0:0:0:
334,213,67158,1,0,1:0:0:0:
161,239,67335,1,2,1:0:0:0:
402,278,67511,1,10,0:0:0:0:
301,97,67688,6,0,L|284:335,1,180.179999450134,6|0,1:0|0:0,0:0:0:0:
298,356,68041,1,0,1:0:0:0:
217,178,68217,1,8,0:0:0:0:
402,278,68394,1,0,1:0:0:0:
422,241,68482,1,8,0:0:0:0:
426,200,68570,1,0,1:0:0:0:
196,263,68747,1,10,0:0:0:0:
159,243,68835,1,8,0:0:0:0:
135,209,68923,1,8,0:0:0:0:
129,168,69011,1,8,0:0:0:0:
143,129,69099,1,10,0:0:0:0:
173,100,69188,1,8,0:0:0:0:
213,89,69276,6,0,B|285:88|285:88|323:110|323:110|409:111,1,180.179999450134,6|0,1:0|0:0,0:0:0:0:
439,50,69629,1,10,0:0:0:0:
310,197,69806,1,0,1:0:0:0:
313,238,69894,1,8,0:0:0:0:
316,280,69982,1,2,1:0:0:0:
213,89,70159,1,2,1:0:0:0:
320,320,70335,1,8,0:0:0:0:
284,46,70511,6,0,P|210:9|126:89,1,180.179999450134,6|0,1:0|0:0,0:0:0:0:
104,128,70864,1,2,1:0:0:0:
169,300,71041,1,10,0:0:0:0:
213,89,71217,2,0,P|227:161|238:178,1,60.0599998167114,0|8,1:0|0:0,0:0:0:0:
288,205,71394,2,0,P|295:233|295:263,1,60.0599998167114,0|8,1:0|0:0,0:0:0:0:
259,346,71570,1,2,1:0:0:0:
390,236,71747,1,10,0:0:0:0:
148,218,71923,1,2,1:0:0:0:
148,218,72011,1,0,1:0:0:0:
148,218,72100,6,0,B|76:202|76:202|54:127|129:94,1,180.179999450134,6|0,1:0|0:0,0:0:0:0:
177,81,72453,1,10,0:0:0:0:
219,263,72629,1,2,1:0:0:0:
193,295,72717,1,8,0:0:0:0:
154,309,72805,1,0,1:0:0:0:
221,176,72982,1,0,1:0:0:0:
75,294,73159,1,10,0:0:0:0:
299,240,73335,6,0,L|438:252,1,120.119999633423,6|0,1:0|0:0,0:0:0:0:
300,153,73688,1,0,1:0:0:0:
286,334,73864,1,10,0:0:0:0:
218,146,74041,1,2,1:0:0:0:
225,105,74129,1,8,0:0:0:0:
253,75,74217,1,0,1:0:0:0:
418,250,74394,1,10,0:0:0:0:
359,243,74482,1,8,0:0:0:0:
299,240,74570,1,10,0:0:0:0:
240,233,74658,1,8,0:0:0:0:
183,229,74747,5,6,1:0:0:0:
183,229,75100,1,0,1:0:0:0:
377,144,75276,1,10,0:0:0:0:
343,321,75453,1,0,1:0:0:0:
225,105,75629,1,10,0:0:0:0:
249,318,75806,1,0,1:0:0:0:
249,318,75894,1,8,0:0:0:0:
249,318,75982,1,0,1:0:0:0:
86,155,76159,6,0,B|194:135|146:213|282:184,1,180.179999450134,6|0,1:0|0:0,0:0:0:0:
306,128,76511,1,0,1:0:0:0:
171,271,76688,1,8,0:0:0:0:
225,105,76864,1,2,1:0:0:0:
249,318,77041,1,2,1:0:0:0:
306,128,77217,1,8,0:0:0:0:
353,104,77305,1,10,0:0:0:0:
405,114,77393,1,8,0:0:0:0:
441,153,77481,1,8,0:0:0:0:
445,206,77570,6,0,L|452:276,1,60.0599998167114,0|0,1:0|0:0,0:0:0:0:
359,189,77747,2,0,L|352:258,1,60.0599998167114,2|0,0:0|0:0,0:0:0:0:
265,165,77923,2,0,L|270:224,1,60.0599998167114,2|0,0:0|0:0,0:0:0:0:
166,140,78100,1,2,1:0:0:0:
140,137,78188,1,2,0:0:0:0:
110,162,78276,1,2,0:0:0:0:
100,202,78364,1,2,0:0:0:0:
107,241,78453,1,2,1:0:0:0:
94,294,78541,1,0,0:0:0:0:
53,318,78629,1,0,0:0:0:0:
9,297,78717,1,0,0:0:0:0:
3,268,78806,2,0,L|12:202,1,60.0599998167114,2|0,1:0|0:0,0:0:0:0:
195,113,78982,5,4,1:0:0:0:
212,112,79070,1,0,0:0:0:0:
234,124,79158,1,0,0:0:0:0:
246,145,79246,1,0,0:0:0:0:
270,167,79335,1,0,0:0:0:0:
310,181,79423,1,0,0:0:0:0:
366,163,79511,1,10,1:2:0:0:
399,114,79599,1,2,0:0:0:0:
366,64,79688,1,2,0:0:0:0:
310,49,79776,1,2,0:0:0:0:
262,80,79864,1,8,1:2:0:0:
237,124,79953,1,0,0:0:0:0:
188,155,80041,1,2,0:0:0:0:
133,140,80129,1,0,0:0:0:0:
100,85,80217,1,10,0:0:0:0:
103,144,80305,1,12,3:0:0:0:
107,204,80394,1,14,3:0:0:0:
110,264,80481,1,12,3:0:0:0:
114,324,80570,6,0,B|218:288|189:378|312:332,1,180.179999450134,6|0,1:0|0:0,0:0:0:0:
388,297,80923,2,0,P|325:274|319:266,1,60.0599998167114,10|0,0:0|0:0,0:0:0:0:
270,100,81100,6,0,L|287:352,1,240.239999266846,6|2,1:0|1:0,0:0:0:0:
202,242,81541,1,0,1:0:0:0:
202,242,81629,2,0,L|194:160,1,60.0599998167114,8|0,0:0|0:0,0:0:0:0:
42,88,81806,6,0,P|123:103|212:19,1,180.179999450134,6|0,1:0|0:0,0:0:0:0:
328,95,82159,2,0,P|256:93|240:79,1,60.0599998167114,2|0,1:0|0:0,0:0:0:0:
196,182,82335,2,0,P|268:180|284:166,1,60.0599998167114,8|0,0:0|0:0,0:0:0:0:
387,38,82511,5,6,1:0:0:0:
334,232,82688,1,8,0:0:0:0:
314,261,82776,1,8,0:0:0:0:
316,296,82864,1,10,0:0:0:0:
341,322,82952,1,8,0:0:0:0:
385,292,83041,1,8,1:2:0:0:
328,274,83129,1,8,0:0:0:0:
257,286,83217,1,8,0:0:0:0:
204,340,83305,1,8,0:0:0:0:
124,354,83394,6,0,L|111:135,1,180.179999450134,6|0,1:0|0:0,0:0:0:0:
198,74,83747,2,0,L|183:148,1,60.0599998167114,10|0,0:0|0:0,0:0:0:0:
257,286,83923,6,0,P|275:196|361:179,1,180.179999450134,6|0,1:0|0:0,0:0:0:0:
470,222,84276,2,0,P|405:217|396:205,1,60.0599998167114,8|0,0:0|0:0,0:0:0:0:
322,78,84453,6,0,L|334:291,1,180.179999450134,4|0,1:0|0:0,0:0:0:0:
254,345,84806,2,0,L|258:257,1,60.0599998167114,8|0,0:0|0:0,0:0:0:0:
120,148,84982,6,0,B|223:127|186:223|291:200,1,180.179999450134,4|0,1:0|0:0,0:0:0:0:
416,135,85335,2,0,P|356:171|339:169,1,60.0599998167114,8|0,0:0|0:0,0:0:0:0:
196,63,85511,5,4,1:0:0:0:
424,46,85688,1,8,0:0:0:0:
472,67,85776,1,8,0:0:0:0:
501,112,85864,1,8,1:2:0:0:
502,165,85952,1,8,0:0:0:0:
474,211,86041,2,0,P|452:275|457:296,1,60.0599998167114,8|8,0:0|0:0,0:0:0:0:
483,349,86217,6,0,L|310:325,4,169.259993284973,6|2|2|2|2,1:0|0:0|0:0|0:0|0:0,0:0:0:0:
