osu file format v14

[General]
AudioFilename: audio.mp3
AudioLeadIn: 0
PreviewTime: 10448
Countdown: 0
SampleSet: Soft
StackLeniency: 0.7
Mode: 0
LetterboxInBreaks: 0
EpilepsyWarning: 1
WidescreenStoryboard: 1

[Editor]
Bookmarks: 9211,116272,184147,186745,241602,242916,291400,295223
DistanceSpacing: 1.7
BeatDivisor: 4
GridSize: 8
TimelineZoom: 2.4

[Metadata]
Title:Songs Compilation
TitleUnicode:Songs Compilation
Artist:fhana
ArtistUnicode:fhána
Creator:Sotarks
Version:Melancholy
Source:
Tags:what a wonderful world line lantis junichi sato yuxuki waga kevin mitsunaga towana ソライロピクチャー Sorairo Picture little secret magic ケセラセラ Outside of Melancholy 君という特異点 [singular you] Kimi to Iu Tokuiten divine intervention ウィッチクラフトワークス Witch Craft Works opening ending いつかの、いくつかのきみとのせかい Itsuka no, Ikutsuka no Kimi to no Sekai Bokura wa minna kawaisou 僕らはみんな河合荘 marathon
BeatmapID:1428543
BeatmapSetID:675262

[Difficulty]
HPDrainRate:6.2
CircleSize:4
OverallDifficulty:8.7
ApproachRate:9.2
SliderMultiplier:1.62
SliderTickRate:1

[Events]
//Background and Video events
0,0,"BG.jpg",0,0
//Break Periods
2,116472,121090
2,178254,179406
2,184347,186145
2,239058,242287
2,291600,294030
//Storyboard Layer 0 (Background)
//Storyboard Layer 1 (Fail)
//Storyboard Layer 2 (Pass)
//Storyboard Layer 3 (Foreground)
//Storyboard Sound Samples

[TimingPoints]
9212,329.67032967033,4,2,22,32,1,0
9212,-192.307692307692,4,2,22,32,0,0
10530,-121.951219512195,4,2,22,52,0,0
19761,-121.951219512195,4,2,22,62,0,0
21080,-121.951219512195,4,2,22,52,0,0
42179,-121.951219512195,4,2,22,62,0,0
43497,-121.951219512195,4,2,22,72,0,0
44816,-89.2857142857142,4,2,22,82,0,0
65915,-98.0392156862745,4,2,22,82,0,0
108113,-98.0392156862745,4,2,22,62,0,0
110750,-98.0392156862745,4,2,22,42,0,0
116272,-98.0392156862745,4,2,22,5,0,0
121690,306.122448979592,4,2,22,52,1,0
121690,-161.290322580645,4,2,22,52,0,0
126587,-121.951219512195,4,2,22,62,0,0
129036,-108.695652173913,4,2,22,62,0,0
130873,-98.0392156862745,4,2,22,62,0,0
131485,-75.7575757575758,4,2,22,72,0,0
134394,-70.4225352112676,4,2,22,72,0,0
134853,-65.7894736842105,4,2,22,82,0,0
135312,-75.7575757575758,4,2,22,82,0,0
135771,-98.0392156862745,4,2,22,72,0,0
136077,-138.888888888889,4,2,22,62,0,0
136383,-89.2857142857143,4,2,22,52,0,0
136690,-52.0833333333333,4,2,22,92,0,0
136728,-52.0833333333333,4,2,22,12,0,0
137914,-121.951219512195,4,2,22,72,0,0
138220,-70.4225352112676,4,2,22,72,0,0
138373,-70.4225352112676,4,2,22,5,0,0
138450,-70.4225352112676,4,2,22,72,0,0
138603,-70.4225352112676,4,2,22,5,0,0
138679,-70.4225352112676,4,2,22,72,0,0
138756,-70.4225352112676,4,2,22,5,0,0
138832,-65.7894736842105,4,2,22,82,0,0
139904,-75.7575757575758,4,2,22,82,0,0
141281,-70.4225352112676,4,2,22,82,0,0
141894,-81.9672131147541,4,2,22,82,0,0
149700,-61.7283950617284,4,2,22,92,0,0
156281,-58.1395348837209,4,2,22,82,0,0
158424,-65.7894736842105,4,2,22,82,0,0
159955,-70.4225352112676,4,2,22,82,0,0
160567,-75.7575757575758,4,2,22,82,0,0
160873,-81.9672131147541,4,2,22,82,0,0
169292,-65.7894736842105,4,2,22,82,0,0
170669,-70.4225352112676,4,2,22,82,0,0
175567,-61.7283950617284,4,2,22,92,0,0
178016,-61.7283950617284,4,2,22,72,0,0
178054,-61.7283950617284,4,2,22,5,0,0
180006,-192.307692307692,4,2,22,82,0,0
180465,306.90537084399,4,2,22,52,1,0
180465,-89.2857142857143,4,2,22,52,0,0
181692,-98.0392156862745,4,2,22,52,0,0
182152,-108.695652173913,4,2,22,42,0,0
182613,-121.951219512195,4,2,22,32,0,0
182766,-121.951219512195,4,2,22,22,0,0
185545,342.857142857143,4,2,22,22,1,0
185545,-192.307692307692,4,2,22,22,0,0
186059,-138.888888888889,4,2,22,32,0,0
186745,-81.9672131147541,4,2,22,92,0,0
208687,-75.7575757575758,4,2,22,92,0,0
219659,-89.2857142857143,4,2,22,92,0,0
241602,-81.9672131147541,4,2,22,12,0,0
242916,606.060606060606,4,2,22,32,1,0
242916,-161.290322580645,4,2,22,32,0,0
249582,-121.951219512195,4,2,22,42,0,0
251855,-121.951219512195,4,2,22,52,0,0
252158,-121.951219512195,4,2,22,62,0,0
252612,-54.9450549450549,4,2,22,72,0,0
291400,-54.9450549450549,4,2,22,5,0,0
294030,340.909090909091,4,2,22,52,1,0
295052,-98.0392156862745,4,2,22,52,0,0
295734,-108.695652173913,4,2,22,52,0,0
296075,-121.951219512195,4,2,22,52,0,0
296586,-89.2857142857143,4,2,22,52,0,0
304939,-89.2857142857143,4,2,22,72,0,0
308670,340.909090909091,4,2,22,72,1,0
308851,340.909090909091,4,2,22,72,1,0
309703,-100,4,2,22,52,0,0
310188,340.909090909091,4,2,22,82,1,0
310188,-81.9672131147541,4,2,22,82,0,0
310358,340.909090909091,4,2,22,82,1,0
310358,-81.9672131147541,4,2,22,82,0,0
319723,340.909090909091,4,2,22,82,1,0
319723,-54.9450549450549,4,2,22,82,0,0
319978,-54.9450549450549,4,2,22,5,0,0
320063,-54.9450549450549,4,2,22,82,0,0
320319,-54.9450549450549,4,2,22,5,0,0
320404,-54.9450549450549,4,2,22,82,0,0
320660,-54.9450549450549,4,2,22,5,0,0
320745,-54.9450549450549,4,2,22,82,0,0
321247,340.909090909091,4,2,22,82,1,0
321247,-81.9672131147541,4,2,22,82,0,0
326680,340.909090909091,4,2,22,82,1,0
326680,-81.9672131147541,4,2,22,82,0,0
337570,340.909090909091,4,2,22,82,1,0
337570,-81.9672131147541,4,2,22,82,0,0
342840,340.909090909091,4,2,22,82,1,0
342840,-81.9672131147541,4,2,22,82,0,0
343010,340.909090909091,4,2,22,82,1,0
343010,-81.9672131147541,4,2,22,82,0,0
346910,340.909090909091,4,2,22,82,1,0
348275,340.909090909091,4,2,22,82,1,0
348275,-81.9672131147541,4,2,22,82,0,0
348445,340.909090909091,4,2,22,82,1,0
348445,-81.9672131147541,4,2,22,82,0,0
355590,340.909090909091,4,2,22,82,1,0
356264,340.909090909091,4,2,22,82,1,0
356264,-81.9672131147541,4,2,22,82,0,0
356604,340.909090909091,4,2,22,82,1,0
356604,-81.9672131147541,4,2,22,82,0,0
359150,340.909090909091,4,2,22,82,1,0
359150,-81.9672131147541,4,2,22,82,0,0
359320,340.909090909091,4,2,22,82,1,0
359320,-81.9672131147541,4,2,22,82,0,0
367305,340.909090909091,4,2,22,82,1,0
367305,-81.9672131147541,4,2,22,82,0,0
367475,340.909090909091,4,2,22,82,1,0
367475,-81.9672131147541,4,2,22,82,0,0
377020,-81.9672131147541,4,2,22,5,0,0

[Colours]
Combo1 : 163,156,243
Combo2 : 95,83,196
Combo3 : 175,99,97
Combo4 : 128,122,143
SliderBorder : 255,255,235
SliderTrackOverride : 5,0,10

[HitObjects]
64,68,9212,6,0,B|152:76,1,84.2399994858398,2|2,0:0|0:0,0:0:0:0:
246,43,9706,1,0,3:0:0:0:
249,52,9788,1,0,3:0:0:0:
251,60,9871,2,0,L|248:122,2,42.1199997429199,2|0|0,0:0|0:0|3:0,0:0:0:0:
304,237,10530,5,6,1:0:0:0:
216,264,10695,1,0,1:0:0:0:
304,237,10860,1,2,3:0:0:0:
147,200,11025,2,0,L|56:217,1,66.4200010134888,8|2,0:0|3:0,0:0:0:0:
236,183,11354,1,0,1:0:0:0:
170,125,11519,1,2,1:0:0:0:
304,237,11684,1,8,0:0:0:0:
320,55,11849,2,0,L|402:46,1,66.4200010134888,2|0,0:0|1:0,0:0:0:0:
501,138,12179,2,0,L|340:123,1,132.840002026978,10|0,0:0|1:0,0:0:0:0:
463,51,12673,1,0,1:0:0:0:
436,211,12838,1,10,0:0:0:0:
368,125,13003,1,0,0:0:0:0:
318,215,13168,6,0,L|328:288,2,66.4200010134888,2|0|0,1:0|1:0|3:0,0:0:0:0:
217,126,13662,2,0,L|238:283,1,132.840002026978,10|0,0:0|1:0,0:0:0:0:
140,188,14157,1,0,1:0:0:0:
103,278,14321,2,0,L|252:254,1,132.840002026978,8|0,0:0|1:0,0:0:0:0:
366,314,14816,2,0,L|294:309,1,66.4200010134888,10|0,0:0|0:0,0:0:0:0:
441,226,15146,2,0,L|374:230,1,66.4200010134888,2|2,1:0|0:0,0:0:0:0:
489,149,15475,1,2,0:0:0:0:
409,124,15640,1,8,0:0:0:0:
476,6,15805,6,0,L|483:83,2,66.4200010134888,2|0|0,1:0|1:0|3:0,0:0:0:0:
293,100,16299,2,0,P|346:85|417:143,1,132.840002026978,10|0,0:0|1:0,0:0:0:0:
339,174,16794,1,2,1:0:0:0:
195,112,16959,2,0,L|120:102,1,66.4200010134888,8|0,0:0|3:0,0:0:0:0:
50,154,17288,1,0,1:0:0:0:
137,252,17453,2,0,P|151:202|148:165,1,66.4200010134888,10|0,0:0|0:0,0:0:0:0:
240,307,17783,2,0,P|228:275|225:242,1,66.4200010134888,2|0,0:0|1:0,0:0:0:0:
148,345,18113,1,2,1:0:0:0:
137,252,18277,1,8,0:0:0:0:
240,307,18442,6,0,L|324:293,2,66.4200010134888,2|0|0,1:0|1:0|3:0,0:0:0:0:
346,209,18937,1,10,0:0:0:0:
384,291,19102,2,0,P|368:349|359:357,1,66.4200010134888,0|0,0:0|1:0,0:0:0:0:
425,208,19431,1,0,1:0:0:0:
463,348,19596,1,10,0:0:0:0:
483,145,19761,5,2,3:0:0:0:
287,145,19926,1,0,1:0:0:0:
377,80,20091,1,10,3:0:0:0:
377,80,20420,5,2,1:0:0:0:
199,206,20585,1,8,0:0:0:0:
230,79,20750,1,10,3:0:0:0:
230,79,20832,1,8,0:0:0:0:
230,79,20915,1,6,3:0:0:0:
270,236,21080,6,0,P|243:273|152:269,1,132.840002026978,6|2,1:0|1:0,0:0:0:0:
99,164,21574,1,10,0:0:0:0:
374,274,21904,1,10,3:0:0:0:
202,73,22233,2,0,L|198:222,1,132.840002026978,10|0,0:0|1:0,0:0:0:0:
394,131,22728,2,0,P|337:104|262:146,2,132.840002026978,10|6|2,0:0|3:0|1:0,0:0:0:0:
336,21,23552,1,8,0:0:0:0:
334,180,23717,6,0,B|348:321,1,132.840002026978,2|8,1:0|0:0,0:0:0:0:
464,209,24212,2,0,L|459:154,2,33.2100005067444,2|8|8,1:0|0:0|0:0,0:0:0:0:
257,252,24541,1,10,3:0:0:0:
434,46,24871,2,0,B|369:33|382:84|291:65,1,132.840002026978,2|0,1:0|1:0,0:0:0:0:
179,39,25365,1,8,0:0:0:0:
128,309,25695,1,8,0:0:0:0:
181,229,25860,2,0,L|100:218,1,66.4200010134888,4|2,3:0|0:0,0:0:0:0:
164,144,26190,1,2,1:0:0:0:
213,311,26354,5,6,1:0:0:0:
131,54,26684,1,8,0:0:0:0:
276,244,26849,2,0,L|315:232,1,33.2100005067444,0|8,1:0|0:0,0:0:0:0:
347,225,27014,1,4,3:0:0:0:
289,92,27179,2,0,L|301:176,1,66.4200010134888,8|2,0:0|0:0,0:0:0:0:
419,286,27508,2,0,P|388:218|409:151,1,132.840002026978,6|0,1:0|0:0,0:0:0:0:
470,51,28003,2,0,P|423:59|401:55,1,66.4200010134888,10|0,0:0|0:0,0:0:0:0:
295,139,28332,2,0,P|262:141|229:133,1,66.4200010134888,10|0,0:0|0:0,0:0:0:0:
162,92,28580,1,0,3:0:0:0:
152,88,28662,2,0,L|158:160,1,66.4200010134888,10|0,3:0|0:0,0:0:0:0:
126,240,28909,1,0,3:0:0:0:
121,250,28992,6,0,P|181:232|264:237,1,132.840002026978,2|8,0:0|0:0,0:0:0:0:
344,308,29486,1,10,0:0:0:0:
357,308,29569,1,8,0:0:0:0:
367,303,29651,1,8,1:0:0:0:
331,164,29816,2,0,L|342:246,1,66.4200010134888,8|0,3:0|0:0,0:0:0:0:
389,86,30146,2,0,P|345:114|259:87,1,132.840002026978,10|2,0:0|0:0,0:0:0:0:
196,40,30640,1,0,0:0:0:0:
322,37,30805,1,6,3:0:0:0:
196,40,30970,1,6,3:0:0:0:
196,40,31299,5,10,1:0:0:0:
178,67,31381,1,8,0:0:0:0:
172,100,31463,1,8,0:0:0:0:
178,132,31546,1,8,0:0:0:0:
196,160,31629,6,0,B|228:227|176:226|206:307,1,132.840002026978,6|2,1:0|0:0,0:0:0:0:
346,241,32124,2,0,P|300:237|269:261,1,66.4200010134888,10|8,0:0|3:0,0:0:0:0:
322,155,32453,2,0,P|368:151|399:175,1,66.4200010134888,6|0,3:0|0:0,0:0:0:0:
468,95,32783,2,0,P|432:142|456:216,1,132.840002026978,6|0,3:0|1:0,0:0:0:0:
376,70,33277,1,10,0:0:0:0:
376,70,33607,2,0,L|291:55,1,66.4200010134888,6|0,3:0|0:0,0:0:0:0:
148,45,33937,2,0,L|214:34,1,66.4200010134888,10|0,0:0|0:0,0:0:0:0:
283,212,34266,6,0,P|235:160|259:91,1,132.840002026978,6|8,1:0|0:0,0:0:0:0:
151,169,34761,1,2,0:0:0:0:
310,143,34926,1,0,1:0:0:0:
169,90,35091,2,0,P|123:91|94:115,1,66.4200010134888,8|2,3:0|0:0,0:0:0:0:
160,301,35420,2,0,L|150:162,1,132.840002026978,6|0,1:0|1:0,0:0:0:0:
337,247,35915,2,0,P|292:270|226:205,1,132.840002026978,8|6,0:0|3:0,0:0:0:0:
252,96,36409,1,0,1:0:0:0:
417,171,36574,2,0,P|369:160|339:98,1,99.6300015202332,6|0,1:0|0:0,0:0:0:0:
339,110,36904,5,2,1:0:0:0:
338,239,37069,2,0,L|347:319,1,66.4200010134888,0|2,1:0|3:0,0:0:0:0:
414,96,37398,2,0,L|421:29,1,66.4200010134888,10|0,0:0|0:0,0:0:0:0:
419,250,37728,1,4,3:0:0:0:
419,250,37893,1,2,1:0:0:0:
231,161,38058,2,0,P|300:156|342:89,1,132.840002026978,14|2,0:0|1:0,0:0:0:0:
112,112,38552,1,10,0:0:0:0:
112,112,38882,5,8,0:0:0:0:
263,85,39047,1,0,1:0:0:0:
113,28,39212,5,10,0:0:0:0:
109,193,39376,1,2,1:0:0:0:
346,69,39541,5,6,3:0:0:0:
9,130,39871,1,8,0:0:0:0:
9,130,40201,1,6,3:0:0:0:
31,217,40365,2,0,L|23:294,1,66.4200010134888,6|0,3:0|0:0,0:0:0:0:
108,120,40695,2,0,P|161:138|188:223,1,132.840002026978,10|0,0:0|1:0,0:0:0:0:
256,73,41190,1,8,3:0:0:0:
296,278,41354,5,8,0:0:0:0:
294,269,41437,1,8,0:0:0:0:
292,260,41519,1,10,0:0:0:0:
191,319,41684,1,2,1:0:0:0:
378,250,41849,1,10,3:0:0:0:
273,176,42014,1,6,3:0:0:0:
312,351,42179,5,14,0:0:0:0:
312,351,42508,1,0,1:0:0:0:
272,167,42673,1,0,1:0:0:0:
189,325,42838,5,14,1:0:0:0:
243,140,43003,1,0,1:0:0:0:
321,326,43168,1,8,1:0:0:0:
317,95,43332,1,0,1:0:0:0:
257,274,43497,5,14,1:0:0:0:
184,56,43662,1,8,1:0:0:0:
247,248,43827,1,12,1:0:0:0:
385,47,43992,1,8,1:0:0:0:
165,206,44157,5,12,0:0:0:0:
199,172,44239,1,8,0:0:0:0:
243,159,44321,1,8,0:0:0:0:
288,169,44404,1,8,0:0:0:0:
326,200,44486,1,8,0:0:0:0:
366,217,44569,1,8,0:0:0:0:
408,216,44651,1,8,0:0:0:0:
447,202,44733,1,8,0:0:0:0:
473,168,44816,6,0,P|453:113|453:63,1,90.7200011074219,6|0,1:0|0:0,0:0:0:0:
251,241,45146,2,0,P|246:285|229:327,1,90.7200011074219,10|0,0:0|0:0,0:0:0:0:
376,130,45475,1,2,1:0:0:0:
435,288,45640,1,0,1:0:0:0:
251,241,45805,1,10,0:0:0:0:
391,66,45970,1,2,0:0:0:0:
384,56,46052,1,8,0:0:0:0:
378,47,46135,2,0,L|400:156,1,90.7200011074219,0|0,1:0|1:0,0:0:0:0:
235,144,46464,2,0,B|353:143|283:224|416:226,1,181.440002214844,8|0,0:0|1:0,0:0:0:0:
248,233,46959,1,0,1:0:0:0:
231,62,47124,2,0,P|176:84|156:133,1,90.7200011074219,10|0,0:0|0:0,0:0:0:0:
176,278,47453,5,2,1:0:0:0:
235,144,47618,1,0,1:0:0:0:
241,322,47783,2,0,P|219:348|140:347,1,90.7200011074219,10|0,0:0|0:0,0:0:0:0:
146,198,48113,2,0,P|177:246|172:287,1,90.7200011074219,2|0,1:0|0:0,0:0:0:0:
156,112,48442,1,10,0:0:0:0:
97,260,48607,1,2,0:0:0:0:
86,258,48690,1,8,0:0:0:0:
76,257,48772,1,0,1:0:0:0:
231,170,48938,1,2,1:0:0:0:
41,177,49102,2,0,L|60:368,1,181.440002214844,8|2,0:0|1:0,0:0:0:0:
133,174,49596,1,0,1:0:0:0:
287,354,49761,1,10,0:0:0:0:
283,359,50091,6,0,B|375:370|366:282|460:301,1,181.440002214844,6|8,1:0|0:0,0:0:0:0:
297,275,50585,1,0,0:0:0:0:
404,127,50750,1,0,1:0:0:0:
426,214,50915,1,2,1:0:0:0:
228,209,51080,1,10,0:0:0:0:
301,60,51244,1,2,0:0:0:0:
306,65,51327,1,8,0:0:0:0:
310,70,51409,2,0,L|313:176,1,90.7200011074219,0|0,1:0|1:0,0:0:0:0:
199,303,51739,2,0,L|211:84,1,181.440002214844,8|2,0:0|1:0,0:0:0:0:
310,245,52233,1,0,1:0:0:0:
134,176,52398,2,0,P|118:119|160:42,1,136.080001661133,10|0,0:0|0:0,0:0:0:0:
156,45,52728,6,0,L|248:33,1,90.7200011074219,2|0,1:0|1:0,0:0:0:0:
29,146,53058,1,8,0:0:0:0:
208,121,53222,1,8,0:0:0:0:
110,257,53387,1,2,1:0:0:0:
129,169,53552,1,0,1:0:0:0:
286,274,53717,2,0,L|270:366,1,90.7200011074219,8|0,0:0|0:0,0:0:0:0:
343,130,54047,2,0,L|358:219,1,90.7200011074219,2|0,1:0|0:0,0:0:0:0:
463,29,54376,2,0,L|447:118,1,90.7200011074219,8|0,0:0|0:0,0:0:0:0:
449,126,54624,1,8,0:0:0:0:
451,133,54706,1,2,1:0:0:0:
325,50,54871,1,8,0:0:0:0:
361,229,55036,1,10,3:0:0:0:
369,139,55201,1,4,3:0:0:0:
266,286,55365,6,0,P|195:298|127:235,1,136.080001661133,6|0,1:0|0:0,0:0:0:0:
134,256,55695,2,0,P|84:245|26:247,1,90.7200011074219,10|0,0:0|0:0,0:0:0:0:
307,201,56025,2,0,P|261:202|217:212,1,90.7200011074219,2|0,1:0|1:0,0:0:0:0:
388,148,56354,1,10,0:0:0:0:
162,136,56519,1,2,0:0:0:0:
172,133,56602,1,8,0:0:0:0:
184,130,56684,1,0,1:0:0:0:
88,80,56849,1,0,1:0:0:0:
210,218,57014,2,0,L|221:23,1,181.440002214844,8|0,0:0|1:0,0:0:0:0:
302,182,57508,1,0,1:0:0:0:
127,253,57673,2,0,P|190:238|253:314,1,136.080001661133,10|8,0:0|0:0,0:0:0:0:
249,288,58003,6,0,P|304:310|354:295,1,90.7200011074219,2|0,1:0|0:0,0:0:0:0:
465,214,58332,2,0,P|410:236|360:221,1,90.7200011074219,10|0,0:0|0:0,0:0:0:0:
260,93,58662,2,0,P|293:136|293:189,1,90.7200011074219,2|0,1:0|0:0,0:0:0:0:
186,44,58992,1,10,0:0:0:0:
152,234,59157,2,0,L|104:226,1,45.3600005537109,10|8,0:0|0:0,0:0:0:0:
172,140,59321,1,0,1:0:0:0:
233,246,59486,1,2,1:0:0:0:
28,206,59651,2,0,P|49:167|90:148,1,90.7200011074219,8|0,0:0|0:0,0:0:0:0:
123,307,59981,1,2,1:0:0:0:
107,226,60146,1,0,1:0:0:0:
51,360,60310,2,0,L|213:335,1,136.080001661133,10|0,0:0|0:0,0:0:0:0:
195,341,60640,5,6,1:0:0:0:
278,202,60805,1,0,1:0:0:0:
451,328,60970,2,0,P|376:328|362:220,1,181.440002214844,8|0,0:0|1:0,0:0:0:0:
443,149,61464,1,2,1:0:0:0:
269,185,61629,1,10,0:0:0:0:
346,19,61794,2,0,P|358:75|357:88,1,45.3600005537109,10|8,0:0|0:0,0:0:0:0:
355,165,61959,1,0,1:0:0:0:
251,102,62124,1,0,1:0:0:0:
224,258,62288,2,0,L|39:233,1,181.440002214844,8|0,0:0|1:0,0:0:0:0:
146,157,62783,1,0,1:0:0:0:
276,324,62948,1,10,0:0:0:0:
325,257,63113,1,2,0:0:0:0:
251,72,63277,6,0,L|237:180,1,90.7200011074219,2|0,1:0|0:0,0:0:0:0:
115,63,63607,1,8,0:0:0:0:
340,76,63772,1,8,0:0:0:0:
239,170,63937,1,2,1:0:0:0:
251,72,64102,1,0,1:0:0:0:
144,224,64266,2,0,L|162:320,1,90.7200011074219,8|0,0:0|0:0,0:0:0:0:
248,352,64514,1,8,0:0:0:0:
250,344,64596,2,0,P|301:323|343:323,1,90.7200011074219,2|0,1:0|1:0,0:0:0:0:
144,224,64926,2,0,P|93:203|51:203,1,90.7200011074219,10|0,0:0|0:0,0:0:0:0:
146,120,65255,1,2,1:0:0:0:
270,251,65420,1,8,0:0:0:0:
367,84,65585,5,10,3:0:0:0:
322,78,65667,1,8,3:0:0:0:
279,93,65750,1,6,3:0:0:0:
247,124,65832,1,4,3:0:0:0:
231,166,65915,6,0,P|249:222|244:273,1,82.6200005042725,6|0,3:0|0:0,0:0:0:0:
127,199,66244,2,0,P|129:157|145:119,1,82.6200005042725,8|0,3:0|0:0,0:0:0:0:
170,268,66574,1,4,3:0:0:0:
75,265,66739,1,4,3:0:0:0:
82,75,66904,2,0,P|135:42|169:44,1,82.6200005042725,10|0,3:0|0:0,0:0:0:0:
229,86,67151,1,0,3:0:0:0:
232,96,67233,2,0,P|285:129|319:127,1,82.6200005042725,6|4,3:0|3:0,0:0:0:0:
441,71,67563,2,0,P|401:118|397:166,1,82.6200005042725,8|2,3:0|0:0,0:0:0:0:
512,246,67893,1,4,3:0:0:0:
485,148,68058,1,4,3:0:0:0:
364,300,68222,2,0,P|299:290|218:245,1,123.930000756409,10|0,3:0|0:0,0:0:0:0:
239,260,68552,5,4,3:0:0:0:
135,135,68717,1,4,3:0:0:0:
283,70,68882,2,0,P|265:130|263:177,1,82.6200005042725,8|0,3:0|0:0,0:0:0:0:
145,46,69212,1,6,3:0:0:0:
135,135,69376,1,4,3:0:0:0:
283,70,69541,1,10,3:0:0:0:
365,146,69706,1,2,0:0:0:0:
372,150,69788,1,0,0:0:0:0:
379,152,69871,2,0,P|428:156|468:121,1,82.6200005042725,6|0,3:0|0:0,0:0:0:0:
407,292,70201,1,10,3:0:0:0:
480,229,70365,1,2,0:0:0:0:
322,295,70530,2,0,P|273:287|232:244,1,82.6200005042725,4|0,3:0|0:0,0:0:0:0:
206,105,70860,2,0,P|255:113|296:156,1,82.6200005042725,10|2,3:0|0:0,0:0:0:0:
182,323,71190,6,0,P|165:243|230:182,1,165.240001008545,4|8,3:0|3:0,0:0:0:0:
313,207,71684,1,0,0:0:0:0:
247,267,71849,1,4,3:0:0:0:
217,185,72014,1,4,3:0:0:0:
377,155,72179,2,0,P|398:207|384:246,1,82.6200005042725,10|0,3:0|0:0,0:0:0:0:
463,284,72426,1,0,3:0:0:0:
465,274,72508,2,0,L|472:181,1,82.6200005042725,6|0,3:0|0:0,0:0:0:0:
379,62,72838,1,8,3:0:0:0:
299,112,73003,2,0,L|195:92,1,82.6200005042725,2|4,0:0|3:0,0:0:0:0:
134,142,73332,1,4,3:0:0:0:
280,252,73497,2,0,L|273:334,1,82.6200005042725,10|0,3:0|0:0,0:0:0:0:
252,173,73827,6,0,P|348:165|428:165,1,165.240001008545,4|10,3:0|3:0,0:0:0:0:
356,87,74321,1,2,0:0:0:0:
483,41,74486,1,4,3:0:0:0:
352,83,74651,1,4,3:0:0:0:
467,225,74816,2,0,P|460:286|392:316,1,123.930000756409,10|0,3:0|3:0,0:0:0:0:
401,312,75146,2,0,L|304:295,1,82.6200005042725,6|0,3:0|0:0,0:0:0:0:
226,152,75475,2,0,L|144:166,1,82.6200005042725,10|0,3:0|0:0,0:0:0:0:
264,71,75805,1,6,3:0:0:0:
365,226,75970,1,8,0:0:0:0:
392,98,76135,1,2,1:0:0:0:
392,98,76217,1,8,0:0:0:0:
392,98,76299,1,2,1:0:0:0:
215,141,76464,6,0,P|184:92|232:-7,2,165.240001008545,4|8|0,1:0|0:0|1:0,0:0:0:0:
117,153,77288,1,0,1:0:0:0:
264,71,77453,1,8,0:0:0:0:
264,71,77783,1,0,1:0:0:0:
299,169,77948,1,0,1:0:0:0:
449,60,78113,1,8,0:0:0:0:
358,39,78277,1,0,0:0:0:0:
339,260,78442,1,0,1:0:0:0:
400,184,78607,1,0,1:0:0:0:
380,349,78772,1,8,0:0:0:0:
380,349,79102,6,0,B|292:372|313:315|185:346,1,165.240001008545,4|8,1:0|0:0,0:0:0:0:
64,271,79596,1,0,0:0:0:0:
73,273,79679,1,0,0:0:0:0:
81,273,79761,2,0,P|133:275|170:262,1,82.6200005042725,0|0,1:0|0:0,0:0:0:0:
355,263,80091,2,0,P|285:259|239:195,1,123.930000756409,12|0,0:0|0:0,0:0:0:0:
246,213,80420,2,0,L|257:68,1,123.930000756409,0|0,1:0|0:0,0:0:0:0:
256,80,80750,2,0,P|311:67|362:67,1,82.6200005042725,12|0,0:0|0:0,0:0:0:0:
172,166,81080,2,0,P|117:153|66:153,1,82.6200005042725,0|0,1:0|0:0,0:0:0:0:
284,293,81409,1,12,0:0:0:0:
322,305,81491,1,8,0:0:0:0:
363,300,81573,1,8,0:0:0:0:
398,278,81656,1,8,0:0:0:0:
420,244,81739,5,8,3:0:0:0:
154,249,81904,1,8,3:0:0:0:
64,219,82233,5,8,3:0:0:0:
330,224,82398,1,8,3:0:0:0:
398,166,82728,5,8,3:0:0:0:
132,171,82893,1,8,3:0:0:0:
58,119,83222,5,8,3:0:0:0:
324,124,83387,1,8,3:0:0:0:
386,66,83717,5,8,1:0:0:0:
205,216,83882,1,8,1:0:0:0:
471,304,84047,1,8,1:0:0:0:
270,63,84212,1,8,1:0:0:0:
160,317,84376,5,8,3:0:0:0:
77,56,84541,1,8,3:0:0:0:
157,25,84871,5,8,3:0:0:0:
74,286,85036,1,8,3:0:0:0:
160,317,85365,5,8,3:0:0:0:
243,56,85530,1,8,3:0:0:0:
157,25,85860,5,8,3:0:0:0:
240,286,86025,1,8,3:0:0:0:
401,72,86354,5,0,1:0:0:0:
361,61,86436,1,8,0:1:0:0:
320,61,86518,1,8,0:1:0:0:
281,75,86601,1,8,0:1:0:0:
245,95,86684,1,8,1:2:0:0:
208,115,86766,1,8,0:1:0:0:
169,126,86848,1,8,0:1:0:0:
128,127,86930,1,8,0:1:0:0:
88,117,87014,6,0,P|109:186|112:219,1,82.6200005042725,6|0,1:0|0:0,0:0:0:0:
309,219,87343,2,0,P|317:178|331:139,1,82.6200005042725,10|0,0:0|0:0,0:0:0:0:
159,39,87673,1,2,1:0:0:0:
209,210,87838,1,0,1:0:0:0:
307,69,88003,2,0,P|362:69|392:91,1,82.6200005042725,10|2,0:0|0:0,0:0:0:0:
419,166,88250,1,8,0:0:0:0:
419,175,88332,2,0,L|410:279,1,82.6200005042725,0|0,1:0|1:0,0:0:0:0:
264,258,88662,2,0,B|369:274|288:330|422:350,1,165.240001008545,8|0,0:0|1:0,0:0:0:0:
262,343,89157,1,0,1:0:0:0:
183,245,89321,2,0,P|214:191|262:183,1,82.6200005042725,10|0,0:0|0:0,0:0:0:0:
442,181,89651,6,0,P|373:170|342:155,1,82.6200005042725,2|0,1:0|0:0,0:0:0:0:
170,112,89981,2,0,P|211:108|250:96,1,82.6200005042725,10|0,0:0|0:0,0:0:0:0:
413,96,90310,1,2,1:0:0:0:
303,32,90475,1,0,1:0:0:0:
290,211,90640,1,10,0:0:0:0:
192,37,90805,2,0,P|124:45|106:68,1,82.6200005042725,2|0,0:0|1:0,0:0:0:0:
102,249,91135,1,2,1:0:0:0:
265,135,91299,2,0,P|333:143|351:166,1,82.6200005042725,8|0,0:0|0:0,0:0:0:0:
240,271,91629,1,2,1:0:0:0:
184,193,91794,1,0,1:0:0:0:
365,60,91959,1,10,0:0:0:0:
365,60,92288,6,0,L|359:243,1,165.240001008545,6|8,1:0|0:0,0:0:0:0:
440,165,92783,1,0,0:0:0:0:
277,120,92948,1,0,1:0:0:0:
290,284,93113,1,2,1:0:0:0:
190,93,93277,1,10,0:0:0:0:
265,205,93442,1,2,1:0:0:0:
273,203,93524,1,8,0:0:0:0:
281,202,93606,1,0,1:0:0:0:
149,232,93772,1,0,1:0:0:0:
372,99,93937,2,0,B|356:154|356:154|377:200|377:200|358:272,1,165.240001008545,8|2,0:0|1:0,0:0:0:0:
445,145,94431,1,0,1:0:0:0:
258,207,94596,1,10,0:0:0:0:
305,52,94761,1,0,1:0:0:0:
362,255,94926,6,0,L|282:320,1,82.6200005042725,6|0,1:0|1:0,0:0:0:0:
285,132,95255,1,8,0:0:0:0:
434,205,95420,1,8,0:0:0:0:
258,207,95585,1,2,1:0:0:0:
362,169,95750,1,0,1:0:0:0:
179,241,95915,2,0,L|83:231,1,82.6200005042725,8|0,0:0|0:0,0:0:0:0:
40,154,96162,1,8,0:0:0:0:
47,146,96244,2,0,L|143:136,1,82.6200005042725,6|0,1:0|1:0,0:0:0:0:
306,46,96574,2,0,P|243:66|223:169,1,165.240001008545,8|2,0:0|1:0,0:0:0:0:
311,306,97069,1,2,1:0:0:0:
456,138,97233,5,10,0:0:0:0:
418,121,97315,1,8,0:0:0:0:
377,114,97397,1,8,0:0:0:0:
336,118,97480,1,8,0:0:0:0:
297,131,97563,6,0,P|295:197|262:227,1,82.6200005042725,6|0,1:0|0:0,0:0:0:0:
168,304,97893,2,0,P|202:280|242:279,1,82.6200005042725,10|0,0:0|0:0,0:0:0:0:
217,154,98222,2,0,L|124:147,1,82.6200005042725,2|0,1:0|1:0,0:0:0:0:
228,356,98552,1,10,0:0:0:0:
87,214,98717,2,0,P|62:174|61:169,1,41.3100002521362,2|8,1:0|0:0,0:0:0:0:
144,58,98882,1,0,1:0:0:0:
137,146,99047,1,0,1:0:0:0:
46,32,99212,2,0,L|232:13,1,165.240001008545,8|0,0:0|1:0,0:0:0:0:
55,107,99706,1,0,1:0:0:0:
227,91,99871,1,10,0:0:0:0:
63,180,100036,1,0,1:0:0:0:
297,146,100201,6,0,P|383:143|386:144,1,82.6200005042725,6|0,1:0|0:0,0:0:0:0:
178,258,100530,2,0,P|92:255|89:256,1,82.6200005042725,10|0,0:0|0:0,0:0:0:0:
340,217,100860,1,2,1:0:0:0:
388,337,101025,1,0,1:0:0:0:
257,237,101190,1,10,0:0:0:0:
418,195,101354,2,0,L|477:201,1,41.3100002521362,2|8,1:0|0:0,0:0:0:0:
470,344,101519,2,0,L|358:334,1,82.6200005042725,0|2,1:0|1:0,0:0:0:0:
289,158,101849,2,0,P|328:193|324:285,1,123.930000756409,8|0,0:0|0:0,0:0:0:0:
335,261,102179,1,14,1:0:0:0:
302,73,102343,1,0,1:0:0:0:
177,215,102508,1,14,1:0:0:0:
177,215,102838,6,0,P|219:231|269:237,1,82.6200005042725,6|0,1:0|0:0,0:0:0:0:
463,69,103168,2,0,P|376:86|288:67,1,165.240001008545,8|0,0:0|1:0,0:0:0:0:
445,175,103662,1,2,1:0:0:0:
283,157,103827,1,10,0:0:0:0:
372,267,103992,1,2,1:0:0:0:
371,258,104074,1,8,0:0:0:0:
369,250,104157,2,0,L|362:143,1,82.6200005042725,0|0,1:0|1:0,0:0:0:0:
263,338,104486,2,0,B|181:363|189:291|86:331,1,165.240001008545,8|0,0:0|1:0,0:0:0:0:
239,253,104981,1,0,1:0:0:0:
20,193,105146,1,10,0:0:0:0:
139,136,105310,1,2,1:0:0:0:
103,324,105475,6,0,P|96:269|123:224,1,82.6200005042725,6|0,1:0|1:0,0:0:0:0:
258,87,105805,1,8,0:0:0:0:
172,290,105970,1,8,0:0:0:0:
73,91,106135,1,2,1:0:0:0:
215,187,106299,1,0,1:0:0:0:
387,84,106464,2,0,P|438:89|484:119,1,82.6200005042725,8|0,0:0|0:0,0:0:0:0:
494,187,106712,5,8,0:0:0:0:
494,197,106794,2,0,L|491:295,1,82.6200005042725,10|0,3:0|1:0,0:0:0:0:
350,259,107041,1,8,3:0:0:0:
355,251,107124,2,0,P|400:235|409:235,1,41.3100002521362,6|0,3:0|0:0,0:0:0:0:
317,331,107288,1,8,0:0:0:0:
462,353,107453,1,10,3:0:0:0:
236,315,107618,1,8,3:0:0:0:
265,60,107783,2,0,P|289:140|296:204,1,123.930000756409,14|0,0:0|0:0,0:0:0:0:
291,191,108113,5,6,1:0:0:0:
97,89,110750,5,2,0:0:0:0:
417,62,112069,5,2,0:0:0:0:
224,338,113387,5,6,0:0:0:0:
256,192,113470,12,0,116272,0:0:0:0:
222,79,121690,6,0,L|230:191,2,100.439996015259,2|2|0,0:0|0:0|0:0,0:0:0:0:
305,129,122455,2,0,P|348:136|369:124,1,50.2199980076295,2|0,0:0|0:0,0:0:0:0:
464,66,122761,2,0,P|438:107|446:179,1,100.439996015259,2|0,0:0|0:0,0:0:0:0:
480,236,123220,2,0,P|482:277|477:294,1,50.2199980076295,2|0,0:0|0:0,0:0:0:0:
387,280,123526,2,0,P|383:255|386:230,1,50.2199980076295,2|0,0:0|0:0,0:0:0:0:
434,347,123832,1,2,0:0:0:0:
434,347,123985,1,2,0:0:0:0:
305,270,124138,6,0,L|192:261,1,100.439996015259,2|2,0:0|0:0,0:0:0:0:
125,293,124598,1,2,0:0:0:0:
140,162,124751,1,2,0:0:0:0:
140,162,124904,2,0,L|134:231,1,50.2199980076295,2|0,0:0|0:0,0:0:0:0:
84,101,125210,2,0,P|128:81|181:91,1,100.439996015259,2|0,0:0|0:0,0:0:0:0:
234,161,125669,2,0,P|267:166|292:157,1,50.2199980076295,2|0,0:0|0:0,0:0:0:0:
342,103,125975,2,0,P|366:98|390:103,1,50.2199980076295,2|0,0:0|0:0,0:0:0:0:
448,165,126281,1,2,0:0:0:0:
448,165,126587,6,0,P|420:211|420:275,1,99.6300015202332,2|0,1:0|0:0,0:0:0:0:
419,267,126894,2,0,P|376:251|344:251,1,66.4200010134888,2|0,1:0|0:0,0:0:0:0:
207,184,127200,2,0,P|174:187|143:201,1,66.4200010134888,2|0,1:0|0:0,0:0:0:0:
83,266,127506,1,2,1:0:0:0:
154,113,127659,2,0,P|193:97|230:103,1,66.4200010134888,2|0,0:0|1:0,0:0:0:0:
288,144,127965,1,2,0:0:0:0:
249,321,128118,1,2,1:0:0:0:
204,242,128271,2,0,P|260:230|291:243,1,66.4200010134888,2|0,0:0|1:0,0:0:0:0:
408,315,128577,1,2,0:0:0:0:
450,240,128730,2,0,P|396:232|343:264,1,99.6300015202332,0|0,1:0|0:0,0:0:0:0:
348,260,129036,6,0,P|315:301|240:308,1,111.77999624762,6|0,3:0|0:0,0:0:0:0:
248,309,129343,2,0,L|172:303,1,74.5199974984132,6|0,3:0|0:0,0:0:0:0:
106,230,129649,1,6,3:0:0:0:
106,230,129802,1,2,0:0:0:0:
171,89,129955,1,6,3:0:0:0:
212,179,130108,1,2,1:0:0:0:
215,187,130184,1,0,1:0:0:0:
217,195,130261,2,0,L|215:241,3,37.2599987492066,4|0|2|0,3:0|1:0|1:0|1:0,0:0:0:0:
297,179,130567,2,0,L|295:141,3,37.2599987492066,4|0|2|0,3:0|1:0|1:0|1:0,0:0:0:0:
352,249,130873,2,0,L|306:263,3,41.3100002521362,4|0|2|0,3:0|1:0|1:0|1:0,0:0:0:0:
381,172,131179,2,0,L|427:186,1,41.3100002521362,8|8,0:0|0:0,0:0:0:0:
437,322,131332,2,0,L|397:334,1,41.3100002521362,8|8,0:0|0:0,0:0:0:0:
362,258,131485,6,0,L|173:308,1,160.379999510559,6|0,1:0|0:0,0:0:0:0:
199,296,131792,1,8,0:0:0:0:
222,39,131945,2,0,P|294:111|235:215,1,213.839999347412,6|4,1:0|3:0,0:0:0:0:
41,133,132404,2,0,B|123:94|118:161|226:121,1,160.379999510559,14|0,0:0|0:0,0:0:0:0:
209,127,132710,1,4,3:0:0:0:
418,243,132863,2,0,P|353:287|261:198,1,213.839999347412,14|4,0:0|3:0,0:0:0:0:
431,57,133322,1,10,0:0:0:0:
342,209,133475,2,0,P|332:154|333:144,2,53.459999836853,8|8|6,0:0|0:0|3:0,0:0:0:0:
180,54,133781,2,0,P|177:80|169:106,1,53.459999836853,8|8,0:0|0:0,0:0:0:0:
206,275,133934,6,0,P|181:212|198:160,1,106.919999673706,6|0,1:0|1:0,0:0:0:0:
325,74,134241,1,8,0:0:0:0:
423,270,134394,2,0,B|368:281|368:281|245:202,1,172.529991312424,6|0,1:0|0:0,0:0:0:0:
263,213,134700,1,4,3:0:0:0:
489,57,134853,6,0,L|507:336,1,246.239996994141,14|4,0:0|3:0,0:0:0:0:
338,160,135312,2,0,P|279:131|185:169,1,160.379999510559,14|0,0:0|0:0,0:0:0:0:
185,167,135618,1,4,3:0:0:0:
87,337,135771,6,0,P|103:280|83:209,1,123.930000756409,10|0,0:0|0:0,0:0:0:0:
74,126,136077,6,0,P|66:168|80:209,1,87.4800021357422,10|0,3:0|0:0,0:0:0:0:
88,218,136383,6,0,L|199:203,1,90.7200011074219,10|0,0:0|1:0,0:0:0:0:
452,182,136690,6,0,L|384:176,1,38.8800009492188,14|0,0:0|0:0,0:0:0:0:
369,170,137914,6,0,L|266:179,1,99.6300015202332,0|0,1:0|0:0,0:0:0:0:
193,250,138220,6,0,P|123:230|94:167,1,115.019994208283,8|0,1:0|0:0,0:0:0:0:
179,169,138450,2,0,P|249:149|278:86,1,115.019994208283,8|0,1:0|0:0,0:0:0:0:
186,87,138679,2,0,P|122:62|119:57,1,57.5099971041414,8|0,1:0|0:0,0:0:0:0:
298,36,138832,6,0,L|309:274,1,184.679997745605,4|0,1:0|0:0,0:0:0:0:
308,231,139138,1,10,0:0:0:0:
397,87,139292,1,2,0:0:0:0:
309,239,139445,1,6,3:0:0:0:
401,93,139598,2,0,L|470:81,1,61.5599992485352,10|8,0:0|0:0,0:0:0:0:
301,43,139751,1,10,0:0:0:0:
391,228,139904,6,0,P|367:301|315:319,1,106.919999673706,6|8,1:0|0:0,0:0:0:0:
307,141,140210,1,10,0:0:0:0:
267,316,140363,2,0,P|227:281|220:229,1,106.919999673706,6|8,3:0|0:0,0:0:0:0:
175,154,140593,1,8,0:0:0:0:
171,146,140669,2,0,L|58:128,1,106.919999673706,8|8,3:0|0:0,0:0:0:0:
36,250,140899,1,8,0:0:0:0:
40,242,140975,2,0,L|153:224,1,106.919999673706,0|0,1:0|1:0,0:0:0:0:
411,240,141281,6,0,P|337:246|299:143,1,172.529991312424,4|0,1:0|0:0,0:0:0:0:
370,172,141587,2,0,L|383:356,1,172.529991312424,14|0,0:0|0:0,0:0:0:0:
384,355,141894,1,2,1:0:0:0:
454,172,142047,1,6,3:0:0:0:
300,361,142200,1,8,0:0:0:0:
217,167,142353,2,0,L|90:149,1,98.8199959287416,2|0,1:0|3:0,0:0:0:0:
247,68,142659,1,0,1:0:0:0:
373,273,142812,2,0,L|500:255,1,98.8199959287416,10|0,0:0|0:0,0:0:0:0:
401,184,143042,1,8,0:0:0:0:
393,191,143118,2,0,L|295:177,1,98.8199959287416,2|0,1:0|1:0,0:0:0:0:
424,90,143424,1,10,0:0:0:0:
470,259,143577,1,2,0:0:0:0:
290,100,143730,6,0,P|239:120|219:185,1,98.8199959287416,2|0,1:0|1:0,0:0:0:0:
303,255,144036,2,0,P|348:239|374:198,1,98.8199959287416,8|2,0:0|0:0,0:0:0:0:
408,73,144343,1,2,1:0:0:0:
408,73,144496,1,4,3:0:0:0:
295,177,144649,1,8,0:0:0:0:
486,123,144802,2,0,L|268:97,1,197.639991857483,6|0,1:0|1:0,0:0:0:0:
83,289,145261,2,0,P|144:263|167:227,1,98.8199959287416,10|0,0:0|0:0,0:0:0:0:
239,28,145567,2,0,P|203:94|208:143,1,98.8199959287416,2|0,1:0|1:0,0:0:0:0:
294,313,145873,1,10,0:0:0:0:
289,99,146026,1,8,0:0:0:0:
168,336,146179,6,0,L|160:217,1,98.8199959287416,6|0,1:0|1:0,0:0:0:0:
373,73,146485,2,0,L|364:244,1,148.229993893112,14|0,0:0|0:0,0:0:0:0:
363,232,146792,2,0,P|420:210|463:215,1,98.8199959287416,2|0,1:0|1:0,0:0:0:0:
289,108,147098,1,10,0:0:0:0:
159,247,147251,2,0,P|99:254|80:152,1,148.229993893112,6|0,1:0|0:0,0:0:0:0:
64,173,147557,1,6,3:0:0:0:
240,295,147710,1,10,0:0:0:0:
161,126,147863,1,2,0:0:0:0:
162,111,147939,1,8,0:0:0:0:
164,96,148016,1,0,1:0:0:0:
159,247,148169,1,6,3:0:0:0:
241,40,148322,1,8,0:0:0:0:
240,295,148475,1,0,1:0:0:0:
414,56,148628,6,0,P|340:61|301:95,1,98.8199959287416,10|0,0:0|1:0,0:0:0:0:
201,368,148934,2,0,P|269:370|310:275,1,148.229993893112,14|0,0:0|0:0,0:0:0:0:
313,310,149241,2,0,L|307:206,1,98.8199959287416,2|2,1:0|1:0,0:0:0:0:
425,54,149547,1,10,0:0:0:0:
97,198,149700,6,0,B|165:183|165:183|223:193|223:193|303:177,1,196.83000480542,6|0,3:0|0:0,0:0:0:0:
300,188,150006,1,2,1:0:0:0:
59,129,150159,1,8,0:0:0:0:
463,118,150312,6,0,B|395:103|395:103|336:113|336:113|257:97,1,196.83000480542,6|0,3:0|0:0,0:0:0:0:
261,90,150618,1,2,1:0:0:0:
340,299,150771,1,8,0:0:0:0:
470,203,150924,1,8,1:0:0:0:
448,196,151001,1,8,1:0:0:0:
429,192,151077,6,0,L|294:215,1,131.220003203613,6|0,1:0|1:0,0:0:0:0:
89,83,151383,1,8,0:0:0:0:
477,100,151536,2,0,L|243:139,1,196.83000480542,6|0,1:0|0:0,0:0:0:0:
212,145,151843,1,4,3:0:0:0:
470,203,151996,2,0,L|483:342,1,131.220003203613,14|0,0:0|1:0,0:0:0:0:
355,37,152302,1,0,1:0:0:0:
231,295,152455,2,0,L|95:269,1,131.220003203613,14|0,0:0|0:0,0:0:0:0:
196,63,152761,1,4,3:0:0:0:
358,218,152914,2,0,L|494:192,1,131.220003203613,10|0,0:0|1:0,0:0:0:0:
280,23,153220,2,0,L|271:169,1,131.220003203613,10|0,0:0|1:0,0:0:0:0:
367,342,153526,6,0,P|344:273|366:203,1,131.220003203613,6|0,1:0|1:0,0:0:0:0:
196,63,153832,1,8,0:0:0:0:
249,343,153985,2,0,P|238:255|273:151,1,196.83000480542,6|0,1:0|0:0,0:0:0:0:
328,98,154292,1,4,3:0:0:0:
137,313,154445,2,0,P|63:298|36:241,1,131.220003203613,14|0,0:0|0:0,0:0:0:0:
191,54,154751,1,2,1:0:0:0:
353,226,154904,2,0,P|427:211|454:154,1,131.220003203613,12|0,0:0|0:0,0:0:0:0:
274,25,155210,1,2,1:0:0:0:
272,49,155286,1,8,0:0:0:0:
270,68,155363,1,0,1:0:0:0:
279,262,155516,5,2,1:0:0:0:
373,148,155669,1,10,0:0:0:0:
267,86,155822,1,2,1:0:0:0:
424,336,155975,1,10,0:0:0:0:
432,350,156281,6,0,B|333:303|323:391|220:336,1,208.980003188782,14|0,0:0|0:0,0:0:0:0:
161,303,156587,1,10,0:0:0:0:
353,133,156741,1,2,1:0:0:0:
93,262,156894,1,10,0:0:0:0:
457,179,157047,6,0,L|209:156,1,208.980003188782,6|0,1:0|0:0,0:0:0:0:
188,105,157353,1,2,1:0:0:0:
368,96,157506,1,10,0:0:0:0:
142,185,157659,1,8,0:0:0:0:
373,340,157812,2,0,P|376:260|332:216,1,139.320002125855,4|8,3:0|0:0,0:0:0:0:
266,185,158042,1,8,0:0:0:0:
266,185,158118,1,8,3:0:0:0:
71,340,158271,2,0,P|143:344|150:339,1,69.6600010629273,8|8,1:0|1:0,0:0:0:0:
133,148,158424,6,0,L|114:287,1,123.11999849707,4|0,1:0|1:0,0:0:0:0:
213,101,158730,1,10,0:0:0:0:
240,271,158883,1,2,0:0:0:0:
47,199,159036,1,2,1:0:0:0:
220,95,159190,1,6,3:0:0:0:
242,279,159343,1,10,0:0:0:0:
147,62,159496,2,0,P|203:17|260:27,1,123.11999849707,2|0,1:0|3:0,0:0:0:0:
336,229,159802,1,2,1:0:0:0:
327,142,159955,2,0,P|271:97|219:106,1,115.019994208283,10|0,0:0|3:0,0:0:0:0:
154,169,160261,1,0,1:0:0:0:
154,169,160414,1,0,1:0:0:0:
252,178,160567,2,0,L|264:357,1,160.379999510559,10|0,0:0|0:0,0:0:0:0:
267,354,160873,6,0,P|311:318|362:317,1,98.8199959287416,4|0,1:0|0:0,0:0:0:0:
143,254,161179,2,0,P|84:222|94:117,1,148.229993893112,10|0,0:0|0:0,0:0:0:0:
77,135,161485,1,2,1:0:0:0:
335,166,161638,2,0,P|277:191|214:162,1,98.8199959287416,2|8,1:0|0:0,0:0:0:0:
432,44,161945,2,0,P|464:98|461:145,1,98.8199959287416,2|0,1:0|3:0,0:0:0:0:
408,278,162251,1,0,1:0:0:0:
273,108,162404,2,0,L|153:90,1,98.8199959287416,10|0,0:0|0:0,0:0:0:0:
222,305,162710,2,0,L|319:290,1,98.8199959287416,2|0,1:0|1:0,0:0:0:0:
378,115,163016,1,10,0:0:0:0:
246,221,163169,1,0,1:0:0:0:
462,209,163322,6,0,P|392:200|348:185,1,98.8199959287416,2|0,1:0|0:0,0:0:0:0:
144,224,163628,2,0,P|229:214|258:199,1,98.8199959287416,8|2,0:0|0:0,0:0:0:0:
262,111,163934,1,0,1:0:0:0:
217,314,164087,1,4,3:0:0:0:
378,115,164241,1,8,0:0:0:0:
379,324,164394,2,0,P|325:281|418:215,1,197.639991857483,6|0,1:0|1:0,0:0:0:0:
208,318,164853,2,0,P|147:326|99:278,1,98.8199959287416,10|0,0:0|1:0,0:0:0:0:
357,132,165159,2,0,P|418:124|466:172,1,98.8199959287416,2|0,0:0|1:0,0:0:0:0:
174,243,165465,2,0,L|170:175,1,49.4099979643708,10|8,0:0|0:0,0:0:0:0:
228,121,165618,2,0,L|230:71,1,49.4099979643708,8|8,0:0|0:0,0:0:0:0:
155,26,165771,5,2,1:0:0:0:
155,26,165924,1,0,1:0:0:0:
24,212,166077,2,0,L|204:189,1,148.229993893112,14|0,0:0|0:0,0:0:0:0:
187,198,166383,2,0,P|170:255|165:304,1,98.8199959287416,2|0,1:0|1:0,0:0:0:0:
93,116,166690,1,10,0:0:0:0:
105,336,166843,2,0,P|155:368|201:356,1,98.8199959287416,2|0,1:0|3:0,0:0:0:0:
264,171,167149,1,2,1:0:0:0:
165,293,167302,1,10,0:0:0:0:
390,222,167455,2,0,P|302:212|175:205,1,197.639991857483,2|0,1:0|1:0,0:0:0:0:
402,142,167914,2,0,P|457:177|463:248,1,98.8199959287416,8|0,0:0|1:0,0:0:0:0:
254,135,168220,5,10,0:0:0:0:
254,135,168373,1,0,1:0:0:0:
336,343,168526,2,0,P|310:268|321:189,1,148.229993893112,14|0,0:0|0:0,0:0:0:0:
324,189,168832,1,2,1:0:0:0:
216,314,168985,1,2,1:0:0:0:
172,150,169138,1,10,0:0:0:0:
13,275,169292,6,0,L|203:231,1,184.679997745605,6|0,1:0|0:0,0:0:0:0:
265,219,169598,2,0,L|75:175,1,184.679997745605,6|0,1:0|0:0,0:0:0:0:
8,157,169904,2,0,L|198:113,1,184.679997745605,6|0,1:0|0:0,0:0:0:0:
267,96,170210,1,2,1:0:0:0:
371,267,170363,5,8,0:0:0:0:
340,268,170439,1,8,0:0:0:0:
310,259,170516,1,8,0:0:0:0:
285,243,170592,1,8,0:0:0:0:
265,219,170669,6,0,P|308:182|385:182,1,115.019994208283,6|0,1:0|1:0,0:0:0:0:
460,334,170975,1,8,0:0:0:0:
200,289,171128,2,0,P|171:226|192:158,1,115.019994208283,6|0,1:0|0:0,0:0:0:0:
303,41,171434,1,4,3:0:0:0:
261,349,171587,2,0,P|176:370|140:348,1,115.019994208283,14|0,0:0|0:0,0:0:0:0:
46,187,171894,1,0,1:0:0:0:
299,61,172047,2,0,P|332:137|327:175,1,115.019994208283,14|0,0:0|0:0,0:0:0:0:
275,347,172353,1,4,3:0:0:0:
96,101,172506,2,0,L|218:79,1,115.019994208283,10|0,0:0|0:0,0:0:0:0:
304,252,172812,1,2,1:0:0:0:
304,252,173118,5,6,1:0:0:0:
221,221,173271,1,0,1:0:0:0:
393,136,173424,1,8,0:0:0:0:
250,321,173577,1,6,3:0:0:0:
250,321,173883,1,8,0:0:0:0:
221,221,174036,1,6,1:0:0:0:
82,348,174190,1,8,0:0:0:0:
108,263,174343,1,0,1:0:0:0:
326,353,174496,5,6,1:0:0:0:
326,353,174802,1,8,0:0:0:0:
371,79,174955,2,0,P|322:121|319:188,1,115.019994208283,6|0,1:0|0:0,0:0:0:0:
335,244,175184,1,8,0:0:0:0:
339,254,175261,2,0,P|342:314|333:335,3,57.5099971041414,10|0|0|0,0:0|1:0|1:0|1:0,0:0:0:0:
264,286,175567,6,0,B|202:271|207:324|134:306,1,131.220003203613,14|0,1:0|1:0,0:0:0:0:
250,46,175873,1,0,1:0:0:0:
253,53,175950,1,0,1:0:0:0:
256,59,176026,2,0,B|274:120|221:117|242:189,1,131.220003203613,14|0,1:0|0:0,0:0:0:0:
348,325,176332,1,0,1:0:0:0:
345,318,176409,1,0,1:0:0:0:
342,310,176485,2,0,B|361:241|308:244|326:183,1,131.220003203613,14|0,1:0|0:0,0:0:0:0:
434,35,176792,1,4,3:0:0:0:
177,84,176945,6,0,B|149:67|149:67|100:69|100:69|58:40,1,131.220003203613,14|0,1:0|1:0,0:0:0:0:
133,268,177251,1,0,1:0:0:0:
145,271,177328,1,0,1:0:0:0:
158,275,177404,1,14,1:0:0:0:
183,90,177557,1,8,1:0:0:0:
108,346,177710,2,0,B|222:383|222:291|343:348,1,229.635005606323,10|0,1:0|1:0,0:0:0:0:
341,347,178016,6,0,L|376:342,1,32.8050008009033,6|0,0:0|0:0,0:0:0:0:
233,89,180006,6,0,L|250:203,1,105.2999993573,2|0,0:0|0:0,0:0:0:0:
252,235,180465,6,0,P|308:216|367:205,1,90.7200011074219,6|0,1:0|0:0,0:0:0:0:
163,170,180771,1,2,0:0:0:0:
322,126,180925,2,0,P|366:136|408:151,1,90.7200011074219,2|0,1:0|0:0,0:0:0:0:
308,34,181232,1,2,0:0:0:0:
492,146,181385,2,0,P|488:205|478:256,1,90.7200011074219,2|0,1:0|0:0,0:0:0:0:
432,306,181615,1,0,0:0:0:0:
425,301,181692,6,0,P|364:284|312:274,1,82.6200005042725,2|0,1:0|0:0,0:0:0:0:
490,240,181999,1,2,0:0:0:0:
341,196,182152,2,0,P|296:205|258:219,1,74.5199974984132,2|0,1:0|0:0,0:0:0:0:
387,118,182459,1,2,0:0:0:0:
189,155,182613,2,0,P|169:221|170:244,1,66.4200010134888,2|0,1:0|0:0,0:0:0:0:
256,192,182920,12,0,184147,0:0:0:0:
83,112,186745,6,0,P|139:94|179:63,1,98.8199959287416,6|0,1:0|3:0,0:0:0:0:
317,112,187087,1,2,1:0:0:0:
131,211,187259,2,0,P|106:284|106:320,1,98.8199959287416,10|2,0:0|1:0,0:0:0:0:
226,159,187602,1,6,3:0:0:0:
322,341,187773,2,0,L|424:324,1,98.8199959287416,10|0,3:0|1:0,0:0:0:0:
362,55,188116,2,0,P|351:153|350:262,1,197.639991857483,6|2,1:0|1:0,0:0:0:0:
230,143,188630,2,0,P|167:126|116:126,1,98.8199959287416,10|0,0:0|0:0,0:0:0:0:
124,128,188887,1,8,0:0:0:0:
124,128,188973,1,6,3:0:0:0:
355,48,189145,2,0,P|418:31|469:31,1,98.8199959287416,10|0,3:0|1:0,0:0:0:0:
235,154,189487,6,0,L|228:257,1,98.8199959287416,6|0,1:0|3:0,0:0:0:0:
325,127,189830,1,0,1:0:0:0:
159,46,190002,2,0,L|40:37,1,98.8199959287416,10|0,0:0|0:0,0:0:0:0:
132,251,190345,1,2,1:0:0:0:
241,58,190516,1,10,0:0:0:0:
228,252,190687,1,4,3:0:0:0:
496,166,190859,2,0,P|414:183|319:85,1,197.639991857483,6|0,1:0|1:0,0:0:0:0:
484,31,191373,2,0,P|451:90|410:99,1,98.8199959287416,8|0,0:0|1:0,0:0:0:0:
239,132,191716,1,6,3:0:0:0:
403,24,191887,2,0,L|345:17,1,49.4099979643708,10|8,0:0|0:0,0:0:0:0:
149,147,192059,1,6,3:0:0:0:
418,277,192230,6,0,P|359:253|300:261,1,98.8199959287416,6|0,1:0|3:0,0:0:0:0:
173,326,192573,1,2,1:0:0:0:
177,64,192745,2,0,P|227:115|190:231,1,197.639991857483,10|6,0:0|3:0,0:0:0:0:
317,88,193259,1,10,3:0:0:0:
378,198,193430,1,0,1:0:0:0:
149,147,193602,2,0,B|62:144|62:144|23:192|45:252,1,197.639991857483,6|2,1:0|1:0,0:2:0:0:
272,344,194116,2,0,P|289:288|271:223,1,98.8199959287416,10|0,0:0|0:0,0:0:0:0:
280,239,194373,1,8,0:0:0:0:
280,239,194459,1,2,1:0:0:0:
445,352,194630,1,10,0:0:0:0:
371,279,194802,1,0,1:0:0:0:
466,111,194973,6,0,P|459:184|440:229,1,98.8199959287416,6|0,1:0|3:0,0:0:0:0:
370,49,195316,1,0,1:0:0:0:
272,233,195487,2,0,P|209:220|172:183,1,98.8199959287416,10|0,0:0|0:0,0:0:0:0:
176,191,195745,1,8,0:0:0:0:
176,191,195830,1,2,1:0:0:0:
330,140,196002,1,10,0:0:0:0:
285,325,196173,1,8,0:0:0:0:
148,86,196345,6,0,P|93:116|78:235,1,148.229993893112,6|0,1:0|0:0,0:0:0:0:
65,204,196687,1,8,3:0:0:0:
239,117,196859,2,0,P|273:75|279:72,1,49.4099979643708,4|0,3:0|1:0,0:0:0:0:
352,56,197030,1,8,0:0:0:0:
390,261,197202,1,2,1:0:0:0:
340,254,197287,1,0,3:0:0:0:
291,248,197373,1,8,0:0:0:0:
242,242,197459,1,8,0:0:0:0:
193,236,197544,1,8,0:0:0:0:
437,183,197716,6,0,P|479:244|467:299,1,98.8199959287416,6|0,3:0|3:0,0:0:0:0:
447,85,198059,1,2,1:0:0:0:
390,261,198230,1,10,0:0:0:0:
272,163,198402,1,2,0:0:0:0:
432,175,198573,1,6,3:0:0:0:
273,326,198745,1,10,3:0:0:0:
299,241,198916,1,0,1:0:0:0:
114,354,199087,2,0,B|83:315|85:250,1,98.8199959287416,6|0,1:0|3:0,0:0:0:0:
157,106,199430,1,2,1:0:0:0:
304,249,199602,2,0,P|368:245|404:214,1,98.8199959287416,10|0,0:0|1:0,0:0:0:0:
401,214,199859,1,8,0:0:0:0:
401,214,199945,1,6,3:0:0:0:
226,181,200116,1,10,3:0:0:0:
432,119,200287,1,2,1:0:0:0:
183,75,200459,6,0,L|172:290,1,197.639991857483,6|0,1:0|1:0,0:0:0:0:
300,73,200973,2,0,L|398:47,1,98.8199959287416,10|0,0:0|0:0,0:0:0:0:
183,65,201316,1,6,3:0:0:0:
328,157,201487,1,10,3:0:0:0:
101,215,201659,1,0,1:0:0:0:
371,278,201830,1,6,1:0:0:0:
371,278,202173,1,0,1:0:0:0:
190,332,202345,1,8,0:0:0:0:
261,182,202516,1,0,1:0:0:0:
261,191,202601,1,8,0:0:0:0:
262,201,202687,1,6,3:0:0:0:
362,51,202859,2,0,L|367:109,1,49.4099979643708,10|8,0:0|0:0,0:0:0:0:
371,183,203030,1,10,3:0:0:0:
207,45,203202,6,0,P|142:40|88:40,1,98.8199959287416,6|0,1:0|3:0,0:0:0:0:
31,189,203545,1,2,1:0:0:0:
246,130,203716,2,0,P|279:201|301:326,1,197.639991857483,10|6,0:0|3:0,0:0:0:0:
322,83,204230,1,10,3:0:0:0:
213,341,204402,1,0,1:0:0:0:
191,65,204573,2,0,P|285:41|429:31,1,197.639991857483,6|2,1:0|1:0,0:0:0:0:
180,165,205087,2,0,P|108:151|50:148,1,98.8199959287416,10|0,0:0|1:0,0:0:0:0:
71,151,205345,1,8,0:0:0:0:
71,151,205430,1,6,3:0:0:0:
290,137,205602,1,10,3:0:0:0:
199,344,205773,1,10,0:0:0:0:
432,208,205945,6,0,B|337:173|342:263|228:213,1,197.639991857483,6|0,1:0|1:0,0:0:0:0:
406,106,206459,1,10,0:0:0:0:
391,276,206630,1,0,1:0:0:0:
392,285,206715,1,8,0:0:0:0:
393,295,206801,1,6,3:0:0:0:
286,132,206973,2,0,L|178:123,1,98.8199959287416,10|0,3:0|1:0,0:0:0:0:
61,302,207316,6,0,P|141:300|179:211,1,148.229993893112,6|0,1:0|0:0,0:0:0:0:
138,181,207659,2,0,P|115:135|116:129,1,49.4099979643708,8|8,0:0|0:0,0:0:0:0:
134,57,207830,2,0,P|189:40|238:60,1,98.8199959287416,8|8,3:0|0:0,0:0:0:0:
286,132,208087,1,8,0:0:0:0:
291,141,208173,2,0,P|336:158|383:146,1,98.8199959287416,8|8,3:0|0:0,0:0:0:0:
465,77,208430,1,8,0:0:0:0:
469,84,208516,2,0,L|465:141,1,49.4099979643708,8|8,3:0|0:0,0:0:0:0:
387,296,208687,6,0,P|422:223|382:149,1,160.379999510559,6|0,1:0|0:0,0:0:0:0:
383,146,209030,1,0,1:0:0:0:
226,338,209202,2,0,P|167:334|134:285,1,106.919999673706,8|0,0:0|1:0,0:0:0:0:
263,43,209545,2,0,P|294:113|277:157,1,106.919999673706,10|0,0:0|1:0,0:0:0:0:
68,264,209887,1,10,0:0:0:0:
216,105,210059,6,0,B|352:119|352:119|383:146|373:195,1,213.839999347412,6|0,1:0|1:0,0:0:0:0:
136,145,210573,1,8,0:0:0:0:
347,38,210745,1,0,1:0:0:0:
298,280,210916,1,8,0:0:0:0:
216,105,211087,1,2,1:0:0:0:
432,121,211259,1,10,0:0:0:0:
258,189,211430,1,10,3:0:0:0:
471,57,211602,6,0,L|485:177,1,106.919999673706,6|0,1:0|0:0,0:0:0:0:
375,332,211945,1,10,0:0:0:0:
342,177,212116,1,2,0:0:0:0:
460,321,212287,1,0,1:0:0:0:
296,347,212459,1,2,1:0:0:0:
323,97,212630,1,8,0:0:0:0:
211,314,212802,6,0,P|126:308|100:231,1,160.379999510559,6|0,1:0|0:0,0:0:0:0:
97,234,213145,1,0,1:0:0:0:
220,86,213316,1,8,0:0:0:0:
173,247,213487,1,0,1:0:0:0:
119,75,213659,1,8,3:0:0:0:
323,97,213830,1,4,3:0:0:0:
220,86,214002,1,4,3:0:0:0:
392,255,214173,6,0,B|362:135|441:175|402:37,1,213.839999347412,6|2,1:0|1:0,0:0:0:0:
470,210,214687,2,0,P|481:275|451:324,1,106.919999673706,10|2,0:0|1:0,0:0:0:0:
458,321,214945,1,8,0:0:0:0:
458,321,215030,1,6,3:0:0:0:
312,259,215202,1,2,1:0:0:0:
112,355,215373,1,8,0:0:0:0:
166,96,215545,6,0,P|196:164|199:279,1,160.379999510559,6|0,1:0|0:0,0:0:0:0:
202,261,215887,1,2,1:0:0:0:
268,97,216059,1,8,0:0:0:0:
123,246,216230,1,2,1:0:0:0:
282,281,216402,2,0,B|410:318,1,106.919999673706,0|2,1:0|0:0,0:0:0:0:
396,306,216659,1,0,1:0:0:0:
408,303,216745,1,8,0:0:0:0:
370,97,216916,1,0,1:0:0:0:
248,324,217087,5,6,1:0:0:0:
393,200,217259,1,0,1:0:0:0:
147,92,217430,1,8,0:0:0:0:
165,325,217602,2,0,P|237:302|256:216,1,160.379999510559,4|0,1:0|0:0,0:0:0:0:
253,213,217945,1,2,1:0:0:0:
72,62,218116,1,10,0:0:0:0:
315,167,218287,1,6,1:0:0:0:
34,289,218630,5,10,0:0:0:0:
320,163,218801,1,10,0:0:0:0:
398,341,219145,5,10,0:0:0:0:
112,215,219316,2,0,P|176:198|195:296,1,160.379999510559,10|0,0:0|0:0,0:0:0:0:
209,281,219659,6,0,L|224:90,1,181.440002214844,6|0,1:0|1:0,0:0:0:0:
293,306,220173,2,0,P|350:309|388:274,1,90.7200011074219,8|0,0:0|1:0,0:0:0:0:
407,208,220430,1,8,0:0:0:0:
405,199,220516,2,0,L|412:103,1,90.7200011074219,0|0,1:0|0:0,0:0:0:0:
475,268,220859,1,8,0:0:0:0:
329,144,221030,2,0,P|268:130|218:147,1,90.7200011074219,2|0,1:0|3:0,0:0:0:0:
104,234,221373,1,0,1:0:0:0:
213,60,221545,1,10,0:0:0:0:
281,220,221716,1,0,1:0:0:0:
321,223,221801,1,8,0:0:0:0:
362,227,221887,1,2,1:0:0:0:
402,231,221973,1,8,0:0:0:0:
443,234,222058,1,0,1:0:0:0:
374,66,222230,1,10,0:0:0:0:
277,306,222402,6,0,P|218:279|227:156,1,181.440002214844,6|0,1:0|1:0,0:0:0:0:
383,68,222916,2,0,L|279:52,1,90.7200011074219,8|0,0:0|1:0,0:0:0:0:
199,83,223173,1,8,0:0:0:0:
190,89,223259,2,0,L|100:102,1,90.7200011074219,0|0,1:0|1:0,0:0:0:0:
281,220,223602,1,8,0:0:0:0:
450,118,223773,2,0,P|465:175|461:231,1,90.7200011074219,0|0,1:0|0:0,0:0:0:0:
287,138,224116,1,0,1:0:0:0:
159,325,224287,2,0,P|110:286|100:240,1,90.7200011074219,10|0,0:0|1:0,0:0:0:0:
117,176,224545,1,8,0:0:0:0:
118,166,224630,2,0,L|125:56,1,90.7200011074219,2|0,1:0|1:0,0:0:0:0:
215,34,224887,1,8,0:0:0:0:
221,43,224973,2,0,L|232:102,1,45.3600005537109,10|0,3:0|1:0,0:0:0:0:
294,230,225145,6,0,B|264:142|351:146|312:39,1,181.440002214844,6|0,1:0|1:0,0:0:0:0:
196,239,225659,1,8,0:0:0:0:
378,188,225830,1,0,1:0:0:0:
229,87,226002,1,8,0:0:0:0:
298,243,226173,1,0,1:0:0:0:
452,132,226345,1,8,0:0:0:0:
320,333,226516,2,0,B|227:326|227:326|175:294|197:225,1,181.440002214844,4|0,1:0|1:0,0:0:0:0:
287,33,227030,2,0,P|310:94|295:132,1,90.7200011074219,8|0,0:0|1:0,0:0:0:0:
299,128,227287,1,8,0:0:0:0:
299,128,227373,1,6,3:0:0:0:
405,67,227545,1,2,1:0:0:0:
226,173,227716,1,10,0:0:0:0:
413,61,227887,6,0,L|402:261,1,181.440002214844,6|0,1:0|1:0,0:0:0:0:
187,101,228402,2,0,P|248:95|283:125,1,90.7200011074219,8|0,0:0|1:0,0:0:0:0:
315,189,228659,1,8,0:0:0:0:
320,199,228745,2,0,L|312:314,1,90.7200011074219,0|0,1:0|1:0,0:0:0:0:
410,144,229087,1,10,0:0:0:0:
228,329,229259,6,0,P|162:326|127:203,1,181.440002214844,6|0,1:0|1:0,0:0:0:0:
220,95,229773,1,8,0:0:0:0:
244,132,229858,1,8,0:0:0:0:
249,177,229944,1,10,0:0:0:0:
233,219,230030,1,8,0:0:0:0:
199,249,230115,1,0,1:0:0:0:
315,80,230287,1,10,3:0:0:0:
319,75,230630,6,0,P|335:167|325:274,1,181.440002214844,6|0,1:0|1:0,0:0:0:0:
413,65,231145,1,8,0:0:0:0:
249,238,231316,1,0,1:0:0:0:
240,236,231401,1,0,1:0:0:0:
231,234,231487,1,8,0:0:0:0:
446,149,231659,1,0,1:0:0:0:
223,233,231830,1,8,0:0:0:0:
454,148,232002,1,0,1:0:0:0:
184,115,232173,5,8,0:0:0:0:
253,327,232345,1,0,1:0:0:0:
182,108,232516,1,10,0:0:0:0:
335,316,232687,1,0,1:0:0:0:
343,314,232772,1,0,1:0:0:0:
352,312,232858,1,10,0:0:0:0:
114,346,233030,1,0,1:0:0:0:
363,309,233202,1,10,0:0:0:0:
102,75,233373,6,0,B|98:140|98:140|122:186|122:186|119:258,1,181.440002214844,6|0,1:0|1:0,0:0:0:0:
240,45,233887,1,8,0:0:0:0:
194,256,234059,2,0,L|201:328,1,45.3600005537109,0|0,0:0|1:0,0:0:0:0:
178,113,234230,1,10,0:0:0:0:
275,267,234402,1,0,1:0:0:0:
42,241,234573,1,8,0:0:0:0:
254,160,234745,1,2,1:0:0:0:
294,370,234916,5,8,0:0:0:0:
117,249,235087,1,0,1:0:0:0:
322,104,235259,1,8,0:0:0:0:
195,256,235430,1,0,1:0:0:0:
197,265,235516,1,0,1:0:0:0:
198,274,235602,1,10,0:0:0:0:
111,68,235773,1,2,1:0:0:0:
316,216,235945,1,10,0:0:0:0:
198,21,236116,6,0,P|137:85|148:182,1,181.440002214844,6|0,1:0|1:0,0:0:0:0:
347,308,236630,2,0,P|395:279|406:219,1,90.7200011074219,8|8,0:0|0:0,0:0:0:0:
384,140,236887,1,8,0:0:0:0:
377,131,236973,2,0,P|331:114|320:117,1,45.3600005537109,6|2,3:0|0:0,0:0:0:0:
234,135,237145,2,0,P|217:149|215:184,1,45.3600005537109,6|2,3:0|0:0,0:0:0:0:
215,268,237316,2,0,P|224:288|241:302,1,45.3600005537109,10|2,0:0|0:0,0:0:0:0:
305,212,237487,6,0,L|92:193,1,181.440002214844,6|4,1:0|3:0,0:0:0:0:
306,123,238002,1,8,3:0:0:0:
360,319,238173,1,8,0:0:0:0:
115,195,238345,1,10,0:0:0:0:
344,48,238516,1,0,1:0:0:0:
375,80,238601,1,8,0:0:0:0:
387,123,238687,1,8,0:0:0:0:
375,166,238773,1,8,0:0:0:0:
344,199,238858,5,6,1:0:0:0:
251,189,242916,6,0,B|301:176|300:204|362:188,1,100.439996015259,2|0,0:0|0:0,0:0:0:0:
329,100,243825,1,2,0:0:0:0:
178,171,244128,2,0,L|121:165,1,50.2199980076295,2|2,0:0|0:0,0:0:0:0:
57,199,244582,2,0,L|60:238,1,25.1099990038147,2|0,0:0|0:0,0:0:0:0:
128,261,244885,2,0,L|126:286,1,25.1099990038147,2|0,0:0|0:0,0:0:0:0:
277,228,245188,2,0,P|340:204|400:221,1,125.549995019074,2|0,0:0|0:0,0:0:0:0:
449,290,246249,1,2,0:0:0:0:
486,140,246552,6,0,L|475:76,1,50.2199980076295,2|2,0:0|0:0,0:0:0:0:
416,41,247006,2,0,P|389:34|372:33,1,25.1099990038147,2|0,0:0|0:0,0:0:0:0:
315,54,247309,2,0,P|302:56|290:60,1,25.1099990038147,2|0,0:0|0:0,0:0:0:0:
91,38,247612,2,0,P|129:58|168:121,1,100.439996015259,2|0,0:0|0:0,0:0:0:0:
148,179,248370,2,0,L|143:245,1,50.2199980076295,2|0,0:0|0:0,0:0:0:0:
179,300,248825,2,0,P|219:268|282:264,1,100.439996015259,2|0,0:0|0:0,0:0:0:0:
338,292,249582,6,0,P|377:298|439:260,1,99.6300015202332,2|0,0:0|0:0,0:0:0:0:
441,195,250188,5,10,0:0:0:0:
403,10,250340,2,0,L|404:53,1,33.2100005067444,8|0,0:0|0:0,0:0:0:0:
204,169,250643,5,4,3:0:0:0:
428,117,250794,1,6,3:0:0:0:
237,337,251097,5,8,0:0:0:0:
204,169,251249,2,0,L|246:154,1,33.2100005067444,6|0,3:0|0:0,0:0:0:0:
90,209,251552,5,8,3:0:0:0:
317,129,251703,1,8,3:0:0:0:
184,279,251855,5,8,0:0:0:0:
203,263,251931,1,8,0:0:0:0:
230,257,252006,1,8,1:0:0:0:
98,293,252158,5,10,2:1:0:0:
315,260,252309,1,10,2:1:0:0:
82,315,252461,1,10,2:1:0:0:
367,199,252612,6,0,P|397:250|286:338,1,221.130007423188,6|0,1:0|0:0,0:0:0:0:
265,95,253219,2,0,P|202:81|169:90,1,73.7100024743958,8|0,0:0|0:0,0:0:0:0:
61,217,253522,2,0,P|124:203|157:212,1,73.7100024743958,6|0,3:0|0:0,0:0:0:0:
221,352,253825,2,0,P|158:338|125:347,1,73.7100024743958,6|0,3:0|0:0,0:0:0:0:
213,221,254128,1,2,1:0:0:0:
311,353,254279,1,2,3:0:0:0:
284,167,254431,1,8,0:0:0:0:
389,317,254582,2,0,P|444:300|479:298,1,73.7100024743958,6|0,3:0|0:0,0:0:0:0:
365,92,254885,6,0,P|390:153|399:239,1,147.420004948792,6|8,1:0|0:0,0:0:0:0:
459,112,255340,2,0,P|477:64|499:39,1,73.7100024743958,0|0,1:0|0:0,0:0:0:0:
289,160,255643,1,10,0:0:0:0:
368,54,255794,1,0,1:0:0:0:
473,195,255946,1,8,0:0:0:0:
459,112,256097,1,0,1:0:0:0:
289,240,256249,2,0,P|233:222|214:131,1,147.420004948792,6|4,3:0|3:0,0:0:0:0:
257,76,256703,1,0,1:0:0:0:
225,312,256855,1,10,0:0:0:0:
289,240,257006,2,0,L|379:227,1,73.7100024743958,4|0,3:0|0:0,0:0:0:0:
108,187,257309,6,0,B|64:177|64:177|50:110|118:90,1,147.420004948792,6|0,1:0|0:0,0:0:0:0:
271,129,257764,2,0,P|222:112|194:84,1,73.7100024743958,0|0,1:0|0:0,0:0:0:0:
428,46,258067,2,0,P|398:67|362:76,1,73.7100024743958,8|0,0:0|0:0,0:0:0:0:
503,136,258370,1,10,0:0:0:0:
268,35,258522,2,0,L|277:205,1,147.420004948792,6|0,1:0|0:0,0:0:0:0:
349,297,258976,2,0,L|333:382,1,73.7100024743958,0|0,1:0|1:0,0:0:0:0:
199,213,259279,1,8,0:0:0:0:
374,150,259431,1,8,0:0:0:0:
275,257,259582,1,2,1:0:0:0:
130,170,259734,1,10,0:0:0:0:
130,170,259809,1,8,0:0:0:0:
130,170,259885,6,0,P|126:118|133:73,1,73.7100024743958,6|0,1:0|0:0,0:0:0:0:
191,293,260188,1,10,0:0:0:0:
270,150,260340,2,0,P|274:98|267:53,1,73.7100024743958,10|0,3:0|0:0,0:0:0:0:
345,294,260643,1,10,0:0:0:0:
409,139,260794,1,8,0:0:0:0:
478,361,260946,2,0,B|469:327|473:270,1,73.7100024743958,6|0,3:0|0:0,0:0:0:0:
309,365,261249,1,8,0:0:0:0:
377,217,261400,2,0,B|386:183|382:126,1,73.7100024743958,6|0,3:0|0:0,0:0:0:0:
159,324,261703,5,10,0:0:0:0:
345,294,261855,1,8,0:0:0:0:
245,106,262006,5,10,0:0:0:0:
240,312,262158,1,8,0:0:0:0:
307,53,262309,6,0,P|270:26|216:31,1,73.7100024743958,6|0,1:0|0:0,0:0:0:0:
179,217,262612,2,0,P|216:190|270:195,1,73.7100024743958,0|0,1:0|0:0,0:0:0:0:
408,323,262916,2,0,P|371:296|317:301,1,73.7100024743958,8|0,0:0|0:0,0:0:0:0:
157,338,263219,1,2,0:0:0:0:
326,205,263370,2,0,P|327:163|310:131,1,73.7100024743958,2|0,1:0|0:0,0:0:0:0:
240,312,263673,1,2,0:0:0:0:
96,236,263825,2,0,P|95:194|112:162,1,73.7100024743958,2|0,1:0|0:0,0:0:0:0:
330,283,264128,1,8,0:0:0:0:
245,229,264279,2,0,L|228:141,1,73.7100024743958,0|0,1:0|0:0,0:0:0:0:
416,52,264582,1,10,0:0:0:0:
416,52,264658,1,8,0:0:0:0:
416,52,264734,6,0,P|424:110|438:144,1,73.7100024743958,6|0,1:0|0:0,0:0:0:0:
228,145,265037,2,0,P|237:109|240:72,1,73.7100024743958,0|0,1:0|0:0,0:0:0:0:
393,229,265340,1,8,0:0:0:0:
265,282,265491,1,2,1:0:0:0:
326,135,265643,1,2,0:0:0:0:
448,295,265794,1,8,0:0:0:0:
313,216,265946,5,2,1:0:0:0:
429,40,266097,1,8,0:0:0:0:
393,229,266249,2,0,L|399:321,1,73.7100024743958,0|0,1:0|0:0,0:0:0:0:
340,55,266552,1,10,0:0:0:0:
228,201,266703,2,0,L|128:184,1,73.7100024743958,2|0,1:0|0:0,0:0:0:0:
379,137,267006,5,8,0:0:0:0:
391,135,267082,1,8,0:0:0:0:
404,134,267158,1,6,1:0:0:0:
214,112,267309,1,8,0:0:0:0:
436,56,267461,2,0,P|479:94|484:137,1,73.7100024743958,0|0,1:0|0:0,0:0:0:0:
385,322,267764,2,0,P|399:266|413:237,1,73.7100024743958,8|0,0:0|0:0,0:0:0:0:
282,58,268067,1,10,0:0:0:0:
254,254,268219,1,0,1:0:0:0:
371,148,268370,5,2,0:0:0:0:
205,106,268522,1,10,0:0:0:0:
430,90,268673,1,2,0:0:0:0:
267,169,268825,1,2,1:0:0:0:
386,26,268976,2,0,P|429:12|466:25,1,73.7100024743958,8|0,0:0|0:0,0:0:0:0:
472,215,269279,1,2,1:0:0:0:
315,89,269431,5,10,0:0:0:0:
278,81,269506,1,8,0:0:0:0:
242,73,269582,2,0,L|135:82,1,73.7100024743958,0|8,0:0|0:0,0:0:0:0:
385,255,269885,1,6,3:0:0:0:
376,31,270037,1,14,0:0:0:0:
314,292,270188,5,8,0:0:0:0:
206,65,270340,1,10,0:0:0:0:
449,210,270491,1,10,0:0:0:0:
206,65,270643,1,10,0:0:0:0:
213,328,270794,6,0,P|220:278|220:230,1,73.7100024743958,6|0,1:0|0:0,0:0:0:0:
291,66,271097,2,0,P|293:102|298:139,1,73.7100024743958,0|0,1:0|0:0,0:0:0:0:
116,52,271400,2,0,P|60:39|26:37,1,73.7100024743958,8|0,0:0|0:0,0:0:0:0:
206,152,271703,1,2,1:0:0:0:
377,59,271855,6,0,P|433:46|467:44,1,73.7100024743958,2|0,1:0|0:0,0:0:0:0:
311,214,272158,1,10,0:0:0:0:
188,66,272309,2,0,P|132:53|98:51,1,73.7100024743958,2|0,1:0|0:0,0:0:0:0:
346,137,272612,1,8,0:0:0:0:
219,232,272764,2,0,L|231:328,1,73.7100024743958,0|0,1:0|0:0,0:0:0:0:
265,104,273067,5,8,0:0:0:0:
265,104,273143,1,8,0:0:0:0:
265,104,273219,2,0,P|293:64|328:54,1,73.7100024743958,6|0,1:0|0:0,0:0:0:0:
219,232,273522,2,0,P|191:272|156:282,1,73.7100024743958,0|0,1:0|0:0,0:0:0:0:
346,137,273825,1,8,0:0:0:0:
186,150,273976,1,2,1:0:0:0:
323,225,274128,1,2,0:0:0:0:
383,18,274279,1,8,0:0:0:0:
393,267,274431,5,2,1:0:0:0:
266,143,274582,1,8,0:0:0:0:
425,128,274734,2,0,L|505:148,1,73.7100024743958,0|0,1:0|0:0,0:0:0:0:
294,63,275037,1,10,0:0:0:0:
229,219,275188,2,0,L|149:239,1,73.7100024743958,2|0,1:0|0:0,0:0:0:0:
266,143,275491,1,8,0:0:0:0:
341,283,275643,6,0,L|346:115,2,147.420004948792,6|0|8,1:0|1:0|0:0,0:0:0:0:
423,220,276400,1,0,1:0:0:0:
403,330,276552,1,10,0:0:0:0:
263,224,276703,1,0,1:0:0:0:
435,64,276855,1,2,3:0:0:0:
428,142,277006,1,10,0:0:0:0:
265,125,277158,1,2,3:0:0:0:
349,49,277309,1,2,1:0:0:0:
423,220,277461,2,0,L|499:215,1,73.7100024743958,8|0,0:0|0:0,0:0:0:0:
345,137,277764,5,2,1:0:0:0:
341,286,277916,1,10,0:0:0:0:
265,125,278067,2,0,P|221:116|172:127,1,73.7100024743958,2|0,1:0|3:0,0:0:0:0:
260,283,278370,1,10,3:0:0:0:
345,137,278522,2,0,P|389:128|438:139,1,73.7100024743958,10|8,0:0|0:0,0:0:0:0:
420,291,278825,1,10,0:0:0:0:
228,199,278976,1,10,0:0:0:0:
418,210,279128,1,10,0:0:0:0:
190,322,279279,6,0,L|80:337,1,73.7100024743958,6|10,0:0|0:0,0:0:0:0:
228,199,279582,1,2,1:0:0:0:
351,360,279734,2,0,L|461:375,1,73.7100024743958,2|8,1:0|0:0,0:0:0:0:
316,164,280037,2,0,P|329:252|337:286,1,73.7100024743958,2|0,0:0|0:0,0:0:0:0:
174,76,280340,2,0,P|161:164|153:198,1,73.7100024743958,6|0,3:0|0:0,0:0:0:0:
293,40,280643,1,10,0:0:0:0:
228,199,280794,1,2,1:0:0:0:
480,52,281097,1,10,0:0:0:0:
174,76,281400,1,0,1:0:0:0:
101,34,281552,1,8,0:0:0:0:
143,208,281703,6,0,P|150:289|144:307,1,73.7100024743958,6|8,1:0|0:0,0:0:0:0:
264,118,282006,1,2,0:0:0:0:
345,249,282158,2,0,P|338:330|344:348,1,73.7100024743958,2|8,1:0|0:0,0:0:0:0:
337,73,282461,2,0,L|352:157,1,73.7100024743958,2|8,0:0|0:0,0:0:0:0:
196,35,282764,2,0,L|181:119,1,73.7100024743958,6|0,3:0|0:0,0:0:0:0:
356,244,283067,1,10,0:0:0:0:
157,181,283219,2,0,L|75:195,1,73.7100024743958,2|0,1:0|0:0,0:0:0:0:
264,118,283522,1,10,0:0:0:0:
264,118,283673,1,8,0:0:0:0:
184,255,283825,1,2,1:0:0:0:
124,107,283976,1,6,3:0:0:0:
319,202,284128,5,6,1:0:0:0:
78,197,284279,1,10,0:0:0:0:
199,59,284431,1,2,0:0:0:0:
269,274,284582,2,0,P|271:352|266:369,1,73.7100024743958,2|8,1:0|0:0,0:0:0:0:
375,137,284885,2,0,P|372:100|378:64,1,73.7100024743958,2|0,0:0|1:0,0:0:0:0:
195,315,285188,2,0,L|94:297,1,73.7100024743958,6|0,3:0|0:0,0:0:0:0:
262,124,285491,1,10,0:0:0:0:
355,336,285643,2,0,L|456:318,1,73.7100024743958,2|0,1:0|0:0,0:0:0:0:
346,145,285946,1,10,0:0:0:0:
57,344,286249,1,2,1:0:0:0:
33,253,286400,1,10,0:0:0:0:
200,274,286552,6,0,P|119:286|85:268,1,73.7100024743958,4|8,1:0|0:0,0:0:0:0:
214,113,286855,1,2,0:0:0:0:
265,196,287006,1,2,1:0:0:0:
104,184,287158,1,8,0:0:0:0:
173,40,287309,1,2,1:0:0:0:
348,204,287461,1,8,0:0:0:0:
184,190,287612,2,0,L|187:272,1,73.7100024743958,6|0,3:0|0:0,0:0:0:0:
316,125,287916,1,8,0:0:0:0:
388,275,288067,2,0,L|385:357,1,73.7100024743958,6|0,3:0|0:0,0:0:0:0:
390,93,288370,2,0,L|387:19,1,73.7100024743958,10|8,0:0|0:0,0:0:0:0:
348,204,288673,1,2,1:0:0:0:
256,192,288976,12,0,291400,0:0:0:0:
211,72,295052,6,0,P|228:111|229:124,1,41.3100002521362,8|8,0:0|0:0,0:0:0:0:
151,157,295223,6,0,B|271:137|217:236|356:200,1,206.550001260681,6|0,1:0|0:0,0:0:0:0:
381,187,295734,6,0,P|325:181|317:111,1,111.77999624762,10|0,3:0|0:0,0:0:0:0:
330,103,296075,2,0,L|342:230,1,99.6300015202332,6|0,3:0|0:0,0:0:0:0:
342,229,296416,1,10,3:0:0:0:
230,65,296586,6,0,P|167:57|126:57,1,90.7200011074219,2|0,1:0|0:0,0:0:0:0:
298,22,296927,1,2,3:0:0:0:
433,133,297098,2,0,P|420:198|418:235,1,90.7200011074219,10|0,1:0|3:0,0:0:0:0:
330,103,297439,2,0,P|343:168|345:205,1,90.7200011074219,0|0,1:0|3:0,0:0:0:0:
397,55,297780,1,10,1:0:0:0:
419,237,297950,6,0,P|314:269|272:232,1,136.080001661133,6|0,0:0|0:0,0:0:0:0:
289,255,298291,1,2,3:0:0:0:
143,326,298461,1,10,1:0:0:0:
172,144,298632,1,2,3:0:0:0:
175,153,298717,1,0,3:0:0:0:
175,163,298802,2,0,P|178:215|171:269,1,90.7200011074219,0|0,1:0|3:0,0:0:0:0:
261,85,299143,2,0,P|258:137|265:191,1,90.7200011074219,10|0,1:0|3:0,0:0:0:0:
123,63,299484,6,0,L|27:55,1,90.7200011074219,6|0,1:0|3:0,0:0:0:0:
175,163,299825,1,10,1:0:0:0:
261,85,299995,2,0,L|357:77,1,90.7200011074219,2|0,3:0|1:0,0:0:0:0:
251,256,300336,2,0,L|155:248,1,90.7200011074219,2|8,3:0|1:0,0:0:0:0:
352,175,300677,2,0,P|409:164|453:163,1,90.7200011074219,2|0,3:0|1:0,0:0:0:0:
175,163,301018,2,0,P|118:152|74:151,1,90.7200011074219,2|8,3:0|1:0,0:0:0:0:
248,41,301359,2,0,P|261:93|261:110,1,45.3600005537109,2|0,3:0|3:0,3:0:0:0:
253,248,301530,1,0,1:0:0:0:
352,175,301700,1,2,3:0:0:0:
180,144,301870,2,0,P|123:133|103:131,2,45.3600005537109,8|0|0,1:0|3:0|3:0,0:0:0:0:
382,95,302211,6,0,P|429:140|409:239,1,136.080001661133,6|0,1:0|0:0,0:0:0:0:
429,220,302552,1,10,1:0:0:0:
259,300,302723,2,0,P|324:279|367:280,1,90.7200011074219,2|0,3:0|1:0,0:0:0:0:
120,200,303064,2,0,P|164:204|206:221,1,90.7200011074219,2|8,3:0|1:0,0:0:0:0:
162,36,303405,2,0,L|177:143,1,90.7200011074219,2|0,3:0|1:0,0:0:0:0:
339,33,303745,2,0,L|324:140,1,90.7200011074219,2|8,3:0|1:0,0:0:0:0:
476,37,304086,2,0,L|483:95,1,45.3600005537109,2|0,3:0|3:0,3:0:0:0:
435,231,304257,1,0,1:0:0:0:
407,103,304427,1,2,0:0:0:0:
512,263,304598,5,8,1:0:0:0:
484,298,304683,1,8,0:0:0:0:
442,314,304768,1,8,0:0:0:0:
398,307,304853,1,8,0:0:0:0:
364,279,304939,5,14,0:0:0:0:
315,161,305109,1,4,3:0:0:0:
416,186,305280,1,4,3:0:0:0:
182,311,305450,5,12,0:0:0:0:
222,191,305620,1,4,3:0:0:0:
272,293,305791,1,4,3:0:0:0:
291,43,305961,5,12,0:0:0:0:
315,161,306132,1,4,3:0:0:0:
163,44,306302,5,12,0:0:0:0:
139,162,306473,1,4,3:0:0:0:
225,108,306643,1,4,3:0:0:0:
273,314,306814,5,12,0:0:0:0:
245,198,306984,1,4,3:0:0:0:
333,241,307155,1,4,3:0:0:0:
60,209,307325,5,12,0:0:0:0:
225,108,307495,1,0,1:0:0:0:
248,105,307581,1,0,1:0:0:0:
277,102,307666,5,14,0:0:0:0:
58,120,307836,1,4,3:0:0:0:
220,306,308007,1,4,3:0:0:0:
360,92,308177,5,8,0:0:0:0:
163,238,308348,1,4,3:0:0:0:
413,349,308518,1,4,3:0:0:0:
240,72,308670,5,12,0:0:0:0:
144,346,308851,1,4,3:0:0:0:
52,44,309021,5,12,0:0:0:0:
52,44,309703,6,0,L|56:96,1,40.5,2|0,3:0|3:0,3:0:0:0:
144,128,309874,2,0,L|137:170,1,40.5,2|0,3:0|3:0,3:0:0:0:
92,268,310044,1,2,3:0:0:0:
121,261,310129,1,2,3:0:0:0:
151,256,310188,6,0,B|254:223|228:298|351:261,1,197.639991857483,14|2,0:0|3:0,0:0:0:0:
501,178,310698,2,0,P|417:178|382:148,1,98.8199959287416,10|0,0:0|3:0,0:0:0:0:
253,43,311040,1,2,1:0:0:0:
90,130,311210,2,0,P|110:191|110:245,1,98.8199959287416,2|8,3:0|0:0,0:0:0:0:
328,103,311551,6,0,P|396:82|432:79,1,98.8199959287416,6|0,3:0|1:0,0:0:0:0:
174,71,311892,2,0,P|106:50|70:47,1,98.8199959287416,2|8,3:0|0:0,0:0:0:0:
211,212,312233,1,2,3:0:0:0:
249,91,312404,1,0,1:0:0:0:
251,82,312489,1,0,3:0:0:0:
254,73,312574,1,2,3:0:0:0:
284,247,312744,1,10,0:0:0:0:
143,174,312915,1,2,3:0:0:0:
361,196,313085,6,0,P|382:260|387:354,1,148.229993893112,6|0,1:0|0:0,0:0:0:0:
387,352,313426,2,0,P|420:302|459:276,1,98.8199959287416,10|0,0:0|3:0,0:0:0:0:
343,117,313767,1,2,1:0:0:0:
279,295,313937,2,0,P|233:306|160:308,1,98.8199959287416,2|8,3:0|0:0,0:0:0:0:
237,62,314279,6,0,P|251:159|168:221,1,197.639991857483,6|0,3:0|0:0,0:0:0:0:
325,44,314790,2,0,P|381:50|416:97,1,98.8199959287416,10|0,0:0|3:0,0:0:0:0:
435,171,315046,1,0,3:0:0:0:
433,182,315131,2,0,L|427:286,1,98.8199959287416,6|4,3:0|3:0,1:0:0:0:
343,117,315472,1,10,0:0:0:0:
301,335,315642,6,0,P|245:355|179:238,1,197.639991857483,6|2,3:0|3:0,0:0:0:0:
249,98,316154,2,0,P|266:158|269:178,2,49.4099979643708,10|0|0,0:0|3:0|3:0,0:0:0:0:
102,196,316495,2,0,P|150:166|196:170,1,98.8199959287416,0|0,1:0|3:0,0:0:0:0:
245,278,316835,1,10,0:0:0:0:
386,199,317005,6,0,P|315:197|256:113,1,148.229993893112,6|0,3:0|0:0,0:0:0:0:
260,133,317347,1,2,3:0:0:0:
392,114,317517,1,10,0:0:0:0:
380,279,317688,1,2,3:0:0:0:
470,126,317858,2,0,P|459:72|413:38,1,98.8199959287416,0|0,1:0|3:0,0:0:0:0:
293,218,318198,2,0,P|345:205|354:200,1,49.4099979643708,10|0,0:0|0:0,0:0:0:0:
392,114,318370,2,0,P|367:110|344:102,1,49.4099979643708,0|0,3:0|0:0,0:0:0:0:
183,85,318539,6,0,P|245:118|280:155,1,98.8199959287416,6|0,1:0|3:0,0:0:0:0:
331,27,318880,1,10,0:0:0:0:
443,177,319051,2,0,L|451:320,1,98.8199959287416,2|0,3:0|1:0,0:0:0:0:
450,287,319307,1,0,3:0:0:0:
451,298,319392,1,2,3:0:0:0:
293,218,319562,2,0,L|220:215,1,49.4099979643708,8|0,0:0|0:0,0:0:0:0:
359,156,319723,6,0,B|519:132|519:132|435:113,1,221.130007423188,14|0,0:0|0:0,0:0:0:0:
271,132,320063,2,0,P|209:81|303:109,1,221.130007423188,14|0,0:0|0:0,0:0:0:0:
293,218,320404,2,0,B|300:309|300:309|228:374|158:316,1,221.130007423188,14|0,3:0|0:0,0:0:0:0:
132,242,320745,1,2,1:0:0:0:
368,264,320916,5,8,0:0:0:0:
338,291,321001,1,8,0:0:0:0:
296,298,321086,1,8,0:0:0:0:
254,290,321171,1,8,0:0:0:0:
223,263,321247,6,0,L|209:136,1,98.8199959287416,6|0,1:0|3:0,0:0:0:0:
364,55,321588,1,10,0:0:0:0:
398,224,321758,2,0,L|282:209,1,98.8199959287416,2|0,3:0|1:0,0:0:0:0:
279,118,322014,1,0,3:0:0:0:
276,106,322099,2,0,P|237:83|209:83,1,49.4099979643708,2|0,3:0|0:0,0:0:0:0:
142,210,322269,1,8,0:0:0:0:
380,140,322440,6,0,P|457:166|449:292,1,197.639991857483,6|2,3:0|3:0,0:0:0:0:
282,333,322951,1,8,0:0:0:0:
188,146,323122,2,0,P|139:130|80:161,1,98.8199959287416,2|0,3:0|1:0,1:0:0:0:
280,249,323463,1,2,3:0:0:0:
304,112,323633,1,10,0:0:0:0:
398,224,323803,1,2,3:0:0:0:
478,77,323974,6,0,L|369:58,1,98.8199959287416,2|0,1:0|3:0,0:0:0:0:
188,146,324315,1,10,0:0:0:0:
391,142,324485,1,2,3:0:0:0:
161,67,324656,1,2,1:0:0:0:
380,60,324826,1,2,3:0:0:0:
216,223,324997,1,8,0:0:0:0:
281,22,325167,6,0,L|313:243,1,197.639991857483,6|0,3:0|3:0,0:0:0:0:
221,345,325593,1,0,1:0:0:0:
230,347,325678,2,0,L|279:338,3,49.4099979643708,6|0|0|0,3:0|1:0|1:0|1:0,0:0:0:0:
155,286,326019,2,0,L|106:276,3,49.4099979643708,6|0|0|0,3:0|1:0|1:0|1:0,0:0:0:0:
216,223,326360,2,0,L|265:213,3,49.4099979643708,6|0|0|0,3:0|1:0|1:0|1:0,0:0:0:0:
120,178,326680,6,0,P|142:116|145:62,1,98.8199959287416,6|0,1:0|3:0,0:0:0:0:
216,223,327020,1,8,0:0:0:0:
250,128,327191,1,0,3:0:0:0:
192,296,327361,2,0,L|138:285,2,49.4099979643708,0|0|0,1:0|3:0|3:0,0:0:0:0:
327,164,327702,1,10,0:0:0:0:
180,80,327873,6,0,B|296:109|263:36|386:76,1,197.639991857483,6|0,3:0|3:0,0:0:0:0:
362,251,328384,2,0,P|327:195|335:139,1,98.8199959287416,10|0,0:0|3:0,0:0:0:0:
222,334,328725,2,0,P|251:295|257:246,1,98.8199959287416,2|0,1:0|3:0,0:0:0:0:
397,338,329066,2,0,P|367:299|361:250,1,98.8199959287416,10|0,0:0|3:0,0:0:0:0:
176,264,329407,5,2,1:0:0:0:
312,165,329577,1,0,3:0:0:0:
446,271,329748,1,8,0:0:0:0:
299,137,329918,1,0,3:0:0:0:
189,280,330089,1,0,1:0:0:0:
310,115,330259,1,0,3:0:0:0:
434,286,330430,1,10,0:0:0:0:
225,182,330600,6,0,L|117:170,1,98.8199959287416,2|0,3:0|1:0,0:0:0:0:
112,175,330856,1,0,3:0:0:0:
112,175,330941,1,0,3:0:0:0:
300,95,331111,2,0,L|311:289,1,148.229993893112,8|0,0:0|0:0,0:0:0:0:
303,260,331452,2,0,L|320:362,1,98.8199959287416,2|0,1:0|3:0,0:0:0:0:
388,182,331793,1,10,0:0:0:0:
231,309,331964,2,0,L|167:298,1,49.4099979643708,4|4,3:0|3:0,3:0:0:0:
281,160,332135,5,6,1:0:0:0:
388,291,332305,1,2,3:0:0:0:
331,91,332475,1,10,0:0:0:0:
232,229,332645,1,2,3:0:0:0:
196,41,332816,1,2,1:0:0:0:
367,210,332986,2,0,L|467:195,1,98.8199959287416,2|8,3:0|0:0,0:0:0:0:
178,125,333327,6,0,P|127:182|147:305,1,197.639991857483,2|0,1:0|3:0,0:0:0:0:
267,124,333839,2,0,P|252:65|218:41,1,98.8199959287416,10|0,0:0|3:0,0:0:0:0:
232,229,334180,2,0,P|293:232|336:202,1,98.8199959287416,2|0,1:0|3:0,0:0:0:0:
408,62,334520,1,10,0:0:0:0:
405,71,334606,1,0,3:0:0:0:
402,80,334691,2,0,L|408:148,1,49.4099979643708,0|0,3:0|3:0,0:0:0:0:
470,269,334861,5,6,1:0:0:0:
268,134,335032,1,2,3:0:0:0:
483,106,335202,1,10,0:0:0:0:
315,289,335373,1,2,3:0:0:0:
487,101,335543,1,2,1:0:0:0:
231,260,335714,2,0,L|119:245,1,98.8199959287416,2|8,3:0|0:0,0:0:0:0:
356,27,336055,6,0,L|374:240,1,197.639991857483,6|0,3:0|3:0,0:0:0:0:
191,160,336566,2,0,P|264:138|308:134,1,98.8199959287416,10|0,0:0|3:0,0:0:0:0:
467,248,336907,2,0,P|394:226|350:222,1,98.8199959287416,2|8,1:0|0:0,0:0:0:0:
289,279,337162,1,8,0:0:0:0:
282,286,337248,2,0,L|220:273,1,49.4099979643708,6|0,3:0|1:0,0:0:0:0:
185,165,337418,2,0,L|136:175,1,49.4099979643708,8|8,0:0|0:0,0:0:0:0:
30,262,337570,6,0,P|52:184|21:110,1,148.229993893112,6|0,1:0|0:0,0:0:0:0:
26,113,337910,1,8,0:0:0:0:
135,268,338081,2,0,L|242:276,1,98.8199959287416,2|0,3:0|1:0,0:0:0:0:
319,124,338422,1,2,3:0:0:0:
329,282,338592,1,8,0:0:0:0:
189,179,338763,1,0,3:0:0:0:
392,89,338933,5,0,1:0:0:0:
325,203,339104,1,0,3:0:0:0:
144,95,339274,1,8,0:0:0:0:
232,252,339445,1,0,3:0:0:0:
232,262,339530,1,8,0:0:0:0:
232,272,339615,1,0,1:0:0:0:
299,117,339785,1,2,3:0:0:0:
353,282,339956,1,10,0:0:0:0:
313,33,340126,6,0,B|199:33|259:117|136:117,1,197.639991857483,6|0,3:0|3:0,0:0:0:0:
72,256,340638,2,0,L|20:247,2,49.4099979643708,8|0|2,0:0|3:0|3:0,0:0:0:0:
105,46,340979,2,0,L|157:37,2,49.4099979643708,0|0|0,1:0|3:0|3:0,0:0:0:0:
156,258,341320,2,0,L|210:247,1,49.4099979643708,8|0,0:0|3:0,0:0:0:0:
329,169,341490,6,0,P|307:228|301:271,1,98.8199959287416,2|0,3:0|1:0,0:0:0:0:
301,74,341831,2,0,P|319:119|328:168,1,98.8199959287416,2|8,3:0|0:0,0:0:0:0:
220,41,342172,1,2,3:0:0:0:
384,65,342342,1,2,1:0:0:0:
213,165,342513,1,10,3:0:0:0:
400,244,342683,1,4,3:0:0:0:
139,332,342840,6,0,B|78:330|78:330|220:268,1,197.639991857483,6|0,1:0|3:0,0:0:0:0:
413,327,343351,1,8,0:0:0:0:
164,211,343521,2,0,P|227:205|263:233,1,98.8199959287416,2|0,3:0|1:0,0:0:0:0:
437,140,343862,2,0,P|389:130|346:152,1,98.8199959287416,2|8,3:0|0:0,0:0:0:0:
305,301,344203,1,0,3:0:0:0:
265,130,344373,1,0,1:0:0:0:
96,270,344544,2,0,L|80:161,1,98.8199959287416,2|8,3:0|0:0,0:0:0:0:
163,59,344885,1,0,3:0:0:0:
162,68,344970,1,8,0:0:0:0:
161,78,345055,1,0,1:0:0:0:
70,49,345226,1,0,3:0:0:0:
250,36,345396,1,8,0:0:0:0:
246,265,345566,6,0,P|214:220|301:123,1,197.639991857483,6|0,3:0|3:0,0:0:0:0:
314,318,346078,1,8,0:0:0:0:
137,241,346248,2,0,P|134:170|157:122,1,98.8199959287416,2|0,3:0|1:0,0:0:0:0:
370,70,346590,2,0,P|382:117|375:166,1,98.8199959287416,2|8,3:0|0:0,0:0:0:0:
171,64,346909,5,8,0:0:0:0:
124,62,346995,1,8,0:0:0:0:
86,84,347080,1,6,3:0:0:0:
230,117,347250,1,8,0:0:0:0:
62,157,347421,1,10,1:0:0:0:
289,168,347591,1,8,0:0:0:0:
41,227,347762,1,10,1:0:0:0:
349,216,347932,1,8,0:0:0:0:
23,299,348103,1,10,1:0:0:0:
189,223,348275,6,0,B|297:224|228:318|373:313,1,197.639991857483,6|0,1:0|3:0,0:0:0:0:
443,210,348785,2,0,P|376:224|325:198,1,98.8199959287416,8|0,0:0|3:0,0:0:0:0:
270,71,349127,1,2,1:0:0:0:
189,223,349297,1,2,3:0:0:0:
390,145,349468,1,8,0:0:0:0:
130,149,349638,6,0,P|70:127|62:21,1,148.229993893112,6|0,3:0|0:0,0:0:0:0:
52,40,349979,2,0,P|114:54|157:39,1,98.8199959287416,2|8,3:0|0:0,0:0:0:0:
364,66,350320,2,0,P|302:80|259:65,1,98.8199959287416,2|0,3:0|1:0,0:0:0:0:
130,149,350661,1,2,3:0:0:0:
312,6,350831,1,8,0:0:0:0:
276,268,351002,6,0,L|268:59,1,197.639991857483,6|0,3:0|3:0,0:0:0:0:
359,271,351513,2,0,P|333:333|280:348,1,98.8199959287416,8|0,0:0|3:0,0:0:0:0:
293,349,351768,1,8,0:0:0:0:
293,349,351854,1,2,1:0:0:0:
156,262,352024,1,2,3:0:0:0:
276,268,352195,1,8,0:0:0:0:
94,312,352365,6,0,P|79:235|178:185,1,197.639991857483,6|10,3:0|0:0,0:0:0:0:
262,177,352791,1,8,0:0:0:0:
274,172,352876,2,0,P|319:149|324:139,3,49.4099979643708,0|0|2|0,1:0|1:0|1:0|1:0,0:0:0:0:
260,92,353217,1,4,3:0:0:0:
370,217,353388,1,8,3:0:0:0:
336,63,353558,1,8,0:0:0:0:
294,256,353729,6,0,L|309:365,1,98.8199959287416,6|0,1:0|0:0,0:0:0:0:
370,217,354070,1,2,3:0:0:0:
217,291,354240,2,0,L|110:278,1,98.8199959287416,8|0,0:0|3:0,0:0:0:0:
258,183,354581,1,2,1:0:0:0:
378,304,354751,2,0,L|485:291,1,98.8199959287416,2|8,3:0|0:0,0:0:0:0:
377,120,355092,6,0,P|364:182|374:229,1,98.8199959287416,2|0,3:0|1:0,0:0:0:0:
291,99,355433,1,0,3:0:0:0:
216,265,355590,1,10,0:0:0:0:
369,216,355760,1,2,3:0:0:0:
166,150,355931,1,2,1:0:0:0:
247,341,356101,1,2,3:0:0:0:
272,189,356264,1,8,0:0:0:0:
126,336,356434,6,0,L|15:311,1,98.8199959287416,6|0,3:0|0:0,0:0:0:0:
85,173,356775,1,0,3:0:0:0:
262,265,356944,2,0,L|373:240,1,98.8199959287416,10|0,0:0|3:0,0:0:0:0:
274,113,357285,1,2,1:0:0:0:
152,266,357456,2,0,L|41:241,1,98.8199959287416,2|8,3:0|0:0,0:0:0:0:
178,137,357797,1,2,3:0:0:0:
255,258,357968,6,0,P|258:323|240:370,1,98.8199959287416,0|0,1:0|0:0,0:0:0:0:
337,347,358224,1,0,0:0:0:0:
346,340,358309,2,0,P|334:292|339:243,1,98.8199959287416,10|0,0:0|0:0,0:0:0:0:
288,168,358565,1,0,0:0:0:0:
279,161,358650,2,0,P|290:113|285:64,1,98.8199959287416,6|0,3:0|0:0,0:0:0:0:
206,31,358905,1,0,0:0:0:0:
198,41,358990,2,0,P|171:50|133:54,1,49.4099979643708,10|0,0:0|1:0,0:0:0:0:
19,135,359150,6,0,B|136:102|87:205|231:165,1,197.639991857483,6|0,1:0|3:0,0:0:0:0:
362,258,359660,2,0,P|307:252|296:247,2,49.4099979643708,8|0|0,0:0|3:0|3:0,0:0:0:0:
392,98,360001,1,2,1:0:0:0:
449,259,360172,1,2,3:0:0:0:
293,136,360342,1,8,0:0:0:0:
191,297,360513,2,0,P|110:307|76:302,1,98.8199959287416,6|0,3:0|1:0,0:0:0:0:
195,127,360854,2,0,P|276:137|310:132,1,98.8199959287416,2|8,3:0|0:0,0:0:0:0:
183,312,361195,2,0,P|102:322|68:317,1,98.8199959287416,2|0,3:0|1:0,0:0:0:0:
203,116,361535,1,2,3:0:0:0:
265,298,361706,1,10,0:0:0:0:
118,137,361876,6,0,P|133:71|265:56,1,197.639991857483,6|0,1:0|3:0,0:0:0:0:
348,167,362388,2,0,L|334:227,2,49.4099979643708,8|0|0,0:0|3:0|3:0,0:0:0:0:
462,47,362729,1,2,1:0:0:0:
420,227,362899,1,2,3:0:0:0:
345,47,363070,1,8,0:0:0:0:
252,238,363240,2,0,L|141:273,1,98.8199959287416,6|0,3:0|1:0,0:0:0:0:
403,130,363581,2,0,L|514:165,1,98.8199959287416,2|8,3:0|0:0,0:0:0:0:
239,157,363922,1,0,3:0:0:0:
229,159,364007,1,8,0:0:0:0:
219,162,364092,1,2,1:0:0:0:
319,104,364263,1,0,3:0:0:0:
124,147,364433,1,10,0:0:0:0:
230,40,364604,6,0,L|243:281,1,197.639991857483,6|0,1:0|3:0,0:0:0:0:
331,101,365115,1,10,0:0:0:0:
328,236,365285,1,2,3:0:0:0:
235,126,365456,1,2,1:0:0:0:
240,237,365626,1,2,3:0:0:0:
331,101,365797,1,8,0:0:0:0:
240,237,365967,2,0,B|183:215|183:215|116:243|116:243|47:216,1,197.639991857483,6|0,3:0|3:0,0:0:0:0:
118,141,366479,1,8,0:0:0:0:
186,306,366649,1,2,3:0:0:0:
196,308,366734,1,8,0:0:0:0:
206,310,366820,2,0,B|254:322|254:322|332:305,1,98.8199959287416,0|0,1:0|3:0,0:0:0:0:
366,133,367160,1,10,0:0:0:0:
449,355,367305,6,0,P|388:289|432:190,1,197.639991857483,4|0,1:0|3:0,0:0:0:0:
212,197,367815,1,10,0:0:0:0:
373,126,367986,2,0,L|376:21,1,98.8199959287416,2|0,3:0|1:0,0:0:0:0:
125,150,368327,2,0,L|127:248,1,98.8199959287416,2|8,3:0|0:0,0:0:0:0:
280,56,368668,6,0,L|69:38,1,197.639991857483,6|0,1:0|3:0,0:0:0:0:
22,111,369094,1,8,0:0:0:0:
19,121,369179,2,0,L|24:189,1,49.4099979643708,4|8,3:0|0:0,0:0:0:0:
127,248,369350,2,0,L|130:198,1,49.4099979643708,0|8,1:0|0:0,0:0:0:0:
214,143,369520,1,14,3:0:0:0:
262,138,369605,1,8,1:0:0:0:
308,156,369690,1,8,1:0:0:0:
352,177,369775,1,8,1:0:0:0:
401,181,369861,2,0,P|432:176|459:167,3,49.4099979643708,4|8|0|0,3:0|0:0|1:0|1:0,0:0:0:0:
256,192,370884,12,0,377020,0:0:0:0:
