osu file format v14

[General]
AudioFilename: audio.mp3
AudioLeadIn: 0
PreviewTime: 467693
Countdown: 0
SampleSet: Soft
StackLeniency: 0.7
Mode: 0
LetterboxInBreaks: 0
WidescreenStoryboard: 1

[Editor]
DistanceSpacing: 1.2
BeatDivisor: 4
GridSize: 4
TimelineZoom: 2.1

[Metadata]
Title:Songs Compilation
TitleUnicode:Songs Compilation
Artist:fhana
ArtistUnicode:fhána
Creator:-Maruk-
Version:Marathon
Source:
Tags:Sato Jyunichi towana kevin mitsunaga yuxuki waga FLEET s10rw Leggysalad Itsuka no, Ikutsuka no Kimi to no Sekai Que sera sera Relief Appl(E)ication ARE YOU SLEEPING? calling The Color to Gray World Hoshikuzu no Interlude Machi ha Kanaderu Anemone no Hana paradise chronicle Niji wo Ametara What a Wonderful World Line Kimi to Iu Tokuiten [singular you] Wonder Stella tiny lamp divine intervention little secret magic Genzaichi Comet Lucifer ~The Seed and the Sower~ Outside of Melancholy ~Yuuutsu no Mukougawa~ Aozora no Rhapsody
BeatmapID:1233563
BeatmapSetID:582914

[Difficulty]
HPDrainRate:5
CircleSize:4
OverallDifficulty:7
ApproachRate:9
SliderMultiplier:1.8
SliderTickRate:1

[Events]
//Background and Video events
0,0,"Relief.jpg",0,0
//Break Periods
2,45058,50492
2,97792,103011
2,120811,125811
2,163222,167827
2,205869,211673
2,251346,257232
2,293310,299583
2,342194,351872
2,352672,392852
2,393652,424393
2,429056,467093
2,467893,514830
2,515630,558543
2,559343,601359
2,602159,641688
2,642488,689897
2,690697,729751
2,733306,734802
2,735602,780476
2,805518,811422
2,851674,857964
2,895375,901371
//Storyboard Layer 0 (Background)
//Storyboard Layer 1 (Fail)
//Storyboard Layer 2 (Pass)
//Storyboard Layer 3 (Foreground)
//Storyboard Sound Samples

[TimingPoints]
10,606.060606060606,4,2,1,70,1,0
9706,-100,4,2,1,50,0,0
10919,-100,4,2,1,60,0,0
12131,-100,4,2,1,70,0,0
49592,500,4,2,1,70,1,0
51092,-100,4,2,1,60,0,0
52342,-100,4,2,1,50,0,0
52842,-100,4,2,1,60,0,0
53592,-100,4,2,1,70,0,0
100611,500,4,2,1,70,1,0
124378,508.474576271186,4,2,1,70,1,0
166359,517.241379310345,4,2,1,70,1,0
210583,845.070422535211,4,2,1,70,1,0
255610,555.555555555556,4,2,1,70,1,0
296640,472.44094488189,4,2,1,70,1,0
302309,-166.666666666667,4,2,1,70,0,0
302782,-71.4285714285714,4,2,1,70,0,0
303254,-100,4,2,1,70,0,0
317427,-166.666666666667,4,2,1,70,0,0
317900,-71.4285714285714,4,2,1,70,0,0
318372,-100,4,2,1,70,0,0
332546,-71.4285714285714,4,2,1,70,0,0
332900,-100,4,2,1,70,0,0
333490,-71.4285714285714,4,2,1,70,0,0
333963,-166.666666666667,4,2,1,70,0,0
334435,-71.4285714285714,4,2,1,70,0,0
334790,-100,4,2,1,70,0,0
345088,461.538461538462,4,2,1,70,1,0
387219,389.61038961039,4,2,1,70,1,0
423175,454.545454545455,4,2,1,70,1,0
463791,487.80487804878,4,2,1,70,1,0
513653,444.444444444444,4,2,1,70,1,0
550915,342.857142857143,4,2,1,70,1,0
596985,310.880829015544,4,2,1,70,1,0
636925,335.195530726257,4,2,1,70,1,0
686430,338.983050847458,4,2,1,70,1,0
727749,306.122448979592,4,2,1,70,1,0
778652,303.030303030303,4,2,1,70,1,0
792288,-100,4,2,1,50,0,0
792591,-100,4,2,1,60,0,0
792894,-100,4,2,1,70,0,0
809831,273.972602739726,4,2,1,70,1,0
812022,-125,4,2,1,70,0,0
855514,254.237288135593,4,2,1,70,1,0
858564,-200,4,2,1,70,0,0
860598,-142.857142857143,4,2,1,70,0,0
874836,-200,4,2,1,70,0,0
876869,-142.857142857143,4,2,1,70,0,0
900194,444.444444444444,4,2,1,70,1,0
905527,222.222222222222,4,2,1,70,1,0
905527,-142.857142857143,4,2,1,70,0,0
932194,444.444444444444,4,2,1,70,1,0
935749,222.222222222222,4,2,1,70,1,0
935749,-142.857142857143,4,2,1,70,0,0
950860,-142.857142857143,4,2,1,50,0,0
951082,-142.857142857143,4,2,1,30,0,0
951304,-142.857142857143,4,2,1,20,0,0

[Colours]
Combo1 : 128,255,255
Combo2 : 255,128,128
Combo3 : 255,255,128
Combo4 : 128,255,128

[HitObjects]
67,149,4858,5,8,0:0:0:0:
67,149,5161,2,0,P|90:153|112:163,1,45
200,222,5464,2,0,P|223:218|245:208,1,45,8|0,0:0|0:0,0:0:0:0:
317,124,5767,1,0,0:0:0:0:
317,124,5919,2,0,P|310:75|301:25,1,90,2|0,0:0|0:0,0:0:0:0:
450,100,6373,2,0,P|443:149|434:199,1,90,0|8,0:0|0:0,0:0:0:0:
466,311,6979,1,0,0:0:0:0:
341,238,7282,6,0,P|273:231|241:332,1,180,2|8,0:0|0:0,0:0:0:0:
235,321,8191,1,8,0:0:0:0:
235,321,8343,2,0,P|230:288|219:180,1,135
106,84,9100,1,8,0:0:0:0:
106,84,9252,1,8,0:0:0:0:
106,84,9403,2,0,P|84:79|64:70,1,45,8|0,0:0|0:0,0:0:0:0:
29,193,9706,5,8,0:0:0:0:
155,147,10009,1,8,0:0:0:0:
36,81,10313,1,8,0:0:0:0:
104,217,10616,1,8,0:0:0:0:
182,85,10919,5,8,0:0:0:0:
261,215,11222,1,8,0:0:0:0:
110,133,11525,1,8,0:0:0:0:
253,39,11828,1,8,0:0:0:0:
178,192,12131,5,8,0:0:0:0:
356,130,12434,1,8,0:0:0:0:
183,53,12737,1,8,0:0:0:0:
280,214,13040,1,8,0:0:0:0:
435,85,13343,2,0,P|371:37|314:47,1,135,8|0,0:0|0:0,0:0:0:0:
252,128,13949,2,0,B|288:172|264:236|264:236|288:212,1,135,8|0,0:0|0:0,0:0:0:0:
172,190,14555,6,0,P|128:195|79:204,1,90,4|0,0:0|0:0,0:0:0:0:
19,63,15161,1,8,0:0:0:0:
19,63,15464,2,0,P|63:71|107:76,1,90
237,114,16070,2,0,P|261:110|281:98,1,45
319,63,16373,2,0,P|359:71|391:123,1,90,8|0,0:0|0:0,0:0:0:0:
392,162,16828,6,0,P|440:174|472:100,1,135,2|0,0:0|0:0,0:0:0:0:
319,63,17585,1,8,0:0:0:0:
319,63,17888,2,0,P|305:109|309:158,1,90,8|0,0:0|0:0,0:0:0:0:
395,256,18494,2,0,P|411:276|419:302,1,45
420,348,18797,2,0,P|387:370|321:366,1,90,8|0,0:0|0:0,0:0:0:0:
290,345,19252,6,0,P|234:338|160:374,1,135,2|0,0:0|0:0,0:0:0:0:
57,285,20010,2,0,P|67:240|78:193,1,90,8|0,0:0|0:0,0:0:0:0:
102,149,20464,2,0,P|146:155|183:197,1,90,8|0,0:0|0:0,0:0:0:0:
203,233,20919,1,0,0:0:0:0:
297,137,21222,2,0,P|290:69|278:-18,1,135,8|0,0:0|0:0,0:0:0:0:
204,134,21828,6,0,P|224:201|280:231,1,135,4|0,0:0|0:0,0:0:0:0:
363,179,22434,2,0,P|406:161|448:152,1,90,8|0,0:0|0:0,0:0:0:0:
386,300,22888,2,0,P|342:282|301:273,1,90,4|0,0:0|0:0,0:0:0:0:
205,251,23343,1,8,0:0:0:0:
205,251,23646,2,0,P|177:253|155:260,1,45,8|8,0:0|0:0,0:0:0:0:
77,292,23949,2,0,P|49:289|27:283,1,45,8|8,0:0|0:0,0:0:0:0:
6,192,24252,6,0,P|20:123|40:57,1,135,4|0,0:0|0:0,0:0:0:0:
70,17,24858,1,8,0:0:0:0:
122,141,25161,2,0,P|153:175|206:182,1,90
289,115,25767,2,0,P|313:123|330:139,1,45
358,180,26070,2,0,P|401:184|445:134,1,90,8|0,0:0|0:0,0:0:0:0:
477,121,26525,6,0,P|482:196|489:266,1,135,4|0,0:0|0:0,0:0:0:0:
345,332,27282,2,0,P|348:284|354:226,1,90,8|8,0:0|0:0,0:0:0:0:
497,98,27888,2,0,L|506:197,1,90
352,242,28494,2,0,P|312:243|264:213,1,90,8|0,0:0|0:0,0:0:0:0:
231,180,28949,6,0,P|173:183|120:241,1,135,4|0,0:0|0:0,0:0:0:0:
22,327,29706,2,0,P|25:283|33:235,1,90,8|8,0:0|0:0,0:0:0:0:
13,143,30161,1,0,0:0:0:0:
13,143,30313,2,0,P|54:121|97:104,1,90
200,85,30919,1,8,0:0:0:0:
261,205,31222,2,0,P|234:197|208:192,1,45,8|8,0:0|0:0,0:0:0:0:
163,198,31525,6,0,P|144:235|146:286,1,90,4|8,0:0|0:0,0:0:0:0:
167,331,31979,2,0,P|195:359|257:360,1,90,0|8,0:0|0:0,0:0:0:0:
331,262,32585,2,0,P|320:216|315:173,1,90
275,85,33040,2,0,P|279:55|292:33,1,45,8|8,0:0|0:0,0:0:0:0:
368,82,33343,2,0,P|384:56|405:42,1,45,8|8,0:0|0:0,0:0:0:0:
452,119,33646,2,0,P|477:102|502:98,1,45,8|8,0:0|0:0,0:0:0:0:
511,191,33949,6,0,P|494:284|483:377,1,180,4|8,0:0|0:0,0:0:0:0:
373,291,34858,1,8,0:0:0:0:
373,291,35009,2,0,P|324:295|287:316,1,90
253,355,35464,2,0,P|212:371|161:358,1,90,0|8,0:0|0:0,0:0:0:0:
55,193,36222,1,0,0:0:0:0:
55,193,36373,6,0,P|64:115|160:126,1,180,4|8,0:0|0:0,0:0:0:0:
191,149,37131,2,0,L|176:61,1,90,0|8,0:0|0:0,0:0:0:0:
215,24,37585,2,0,P|258:27|298:61,1,90,8|0,0:0|0:0,0:0:0:0:
386,140,38191,1,8,0:0:0:0:
386,140,38343,2,0,P|393:97|405:46,1,90
474,115,38797,6,0,P|484:194|496:297,1,180,4|8,0:0|0:0,0:0:0:0:
374,234,39706,1,8,0:0:0:0:
374,234,40009,1,0,0:0:0:0:
308,217,40161,1,0,0:0:0:0:
243,237,40313,1,0,0:0:0:0:
188,275,40464,2,0,P|162:272|143:265,1,45,0|8,0:0|0:0,0:0:0:0:
25,330,40919,2,0,P|51:333|70:340,1,45
127,371,41222,6,0,P|122:326|117:280,1,90,4|0,0:0|0:0,0:0:0:0:
64,207,41676,2,0,P|74:159|87:112,1,90,0|8,0:0|0:0,0:0:0:0:
115,75,42131,1,8,0:0:0:0:
238,38,42282,1,8,0:0:0:0:
196,170,42434,1,4,0:0:0:0:
256,192,42585,12,0,44858,0:0:0:0:
223,168,51092,5,8,0:0:0:0:
223,168,51342,2,0,P|229:123|240:78,1,90,4|0,0:0|0:0,0:0:0:0:
347,145,51842,2,0,P|356:188|363:233,1,90,8|8,0:0|0:0,0:0:0:0:
434,315,52342,2,0,P|457:311|478:293,2,45,8|8|8,0:0|0:0|0:0,0:0:0:0:
363,233,52842,2,0,P|340:237|319:255,1,45,8|8,0:0|0:0,0:0:0:0:
266,325,53092,2,0,P|243:321|222:303,1,45,8|8,0:0|0:0,0:0:0:0:
153,255,53342,2,0,P|130:259|109:277,1,45,8|8,0:0|0:0,0:0:0:0:
38,332,53592,6,0,P|25:260|19:198,1,135,4|0,0:0|0:0,0:0:0:0:
23,153,54092,2,0,P|47:130|104:126,1,90,8|0,0:0|0:0,0:0:0:0:
206,210,54592,2,0,P|241:203|265:149,1,90,2|0,0:0|0:0,0:0:0:0:
263,76,54967,1,0,0:0:0:0:
263,76,55092,2,0,P|311:68|355:57,1,90,8|0,0:0|0:0,0:0:0:0:
449,189,55592,6,0,P|405:178|360:171,1,90,2|0,0:0|0:0,0:0:0:0:
329,177,55967,1,0,0:0:0:0:
299,186,56092,1,8,0:0:0:0:
397,334,56342,2,0,P|397:288|374:241,1,90,2|0,0:0|0:0,0:0:0:0:
277,159,56842,1,0,0:0:0:0:
352,81,57092,1,8,0:0:0:0:
381,184,57342,1,0,0:0:0:0:
259,76,57592,6,0,P|216:94|192:136,1,90,2|0,0:0|0:0,0:0:0:0:
186,160,57967,1,0,0:0:0:0:
178,190,58092,1,8,0:0:0:0:
124,314,58342,2,0,P|77:298|27:296,1,90,0|2,0:0|0:0,0:0:0:0:
178,190,58842,2,0,P|222:186|265:171,1,90,0|8,0:0|0:0,0:0:0:0:
116,101,59342,6,0,P|70:170|96:258,1,180
215,321,60092,1,8,0:0:0:0:
313,257,60342,2,0,P|354:255|402:267,1,90,0|2,0:0|0:0,0:0:0:0:
468,170,60842,2,0,L|456:125,1,45,8|8,0:0|0:0,0:0:0:0:
367,107,61092,2,0,L|355:62,1,45,8|8,0:0|0:0,0:0:0:0:
264,59,61342,2,0,L|252:14,1,45,8|8,0:0|0:0,0:0:0:0:
176,130,61592,6,0,P|129:134|79:101,1,90,4|0,0:0|0:0,0:0:0:0:
73,89,61967,1,0,0:0:0:0:
63,59,62092,1,8,0:0:0:0:
7,211,62342,2,0,P|8:262|29:306,1,90,0|2,0:0|0:0,0:0:0:0:
152,232,62842,1,0,0:0:0:0:
77,322,63092,1,8,0:0:0:0:
53,170,63342,1,0,0:0:0:0:
141,294,63592,6,0,P|186:316|229:318,1,90,2|0,0:0|0:0,0:0:0:0:
256,313,63967,1,0,0:0:0:0:
285,303,64092,1,8,0:0:0:0:
378,206,64342,2,0,P|365:158|352:114,1,90,0|2,0:0|0:0,0:0:0:0:
275,44,64842,1,0,0:0:0:0:
378,12,65092,1,8,0:0:0:0:
290,137,65342,1,0,0:0:0:0:
290,137,65467,1,0,0:0:0:0:
290,137,65592,6,0,P|322:174|363:182,1,90,2|0,0:0|0:0,0:0:0:0:
471,105,66092,1,8,0:0:0:0:
499,218,66342,2,0,P|509:261|514:311,1,90,0|2,0:0|0:0,0:0:0:0:
367,351,66842,2,0,P|371:306|381:262,1,90,0|8,0:0|0:0,0:0:0:0:
444,132,67342,6,0,P|456:106|374:74,1,135,4|0,0:0|0:0,0:0:0:0:
357,81,67842,1,8,0:0:0:0:
380,262,68092,1,8,0:0:0:0:
272,216,68342,2,0,P|207:197|124:184,1,135,4|0,0:0|0:0,0:0:0:0:
109,186,68842,1,0,0:0:0:0:
0,294,69092,1,8,0:0:0:0:
43,317,69217,1,2,0:0:0:0:
90,302,69342,1,2,0:0:0:0:
110,257,69467,1,2,0:0:0:0:
95,209,69592,6,0,P|102:105|108:65,1,135,4|0,0:0|0:0,0:0:0:0:
89,47,70092,2,0,P|131:52|183:54,1,90,8|0,0:0|0:0,0:0:0:0:
268,144,70592,2,0,P|308:140|344:104,1,90,2|0,0:0|0:0,0:0:0:0:
356,76,70967,1,0,0:0:0:0:
372,48,71092,2,0,P|408:48|460:80,1,90,8|0,0:0|0:0,0:0:0:0:
490,203,71592,6,0,P|502:243|514:299,1,90,2|0,0:0|0:0,0:0:0:0:
485,306,71967,1,0,0:0:0:0:
457,321,72092,1,8,0:0:0:0:
344,353,72342,2,0,P|296:349|256:319,1,90,0|2,0:0|0:0,0:0:0:0:
208,201,72842,1,0,0:0:0:0:
296,156,73092,1,8,0:0:0:0:
260,286,73342,1,0,0:0:0:0:
163,334,73592,6,0,P|125:315|103:275,1,90,2|0,0:0|0:0,0:0:0:0:
97,243,73967,1,0,0:0:0:0:
96,211,74092,1,8,0:0:0:0:
37,89,74342,2,0,P|80:98|134:103,1,90,0|2,0:0|0:0,0:0:0:0:
225,60,74842,1,0,0:0:0:0:
123,23,75092,1,8,0:0:0:0:
152,154,75342,6,0,P|140:242|134:340,1,180
256,361,76092,2,0,P|258:311|264:262,1,90,8|0,0:0|0:0,0:0:0:0:
152,154,76592,2,0,P|102:156|53:162,1,90,2|0,0:0|0:0,0:0:0:0:
119,303,77092,1,8,0:0:0:0:
156,327,77217,1,8,0:0:0:0:
200,327,77342,1,8,0:0:0:0:
240,308,77467,1,8,0:0:0:0:
276,281,77592,6,0,P|318:283|373:294,1,90,4|0,0:0|0:0,0:0:0:0:
492,336,78092,1,8,0:0:0:0:
459,232,78342,2,0,P|465:184|483:137,1,90,0|2,0:0|0:0,0:0:0:0:
382,50,78842,1,0,0:0:0:0:
489,44,79092,1,8,0:0:0:0:
393,138,79342,6,0,P|358:158|305:163,1,90,0|2,0:0|0:0,0:0:0:0:
216,91,79842,1,0,0:0:0:0:
325,175,80092,1,8,0:0:0:0:
199,79,80342,2,0,P|134:64|96:171,1,180
96,285,81092,2,0,P|127:318|177:322,1,90,8|0,0:0|0:0,0:0:0:0:
200,317,81467,1,0,0:0:0:0:
229,306,81592,6,0,P|264:303|350:367,1,135,2|0,0:0|0:0,0:0:0:0:
363,329,82092,2,0,P|355:280|351:232,1,90,8|0,0:0|0:0,0:0:0:0:
468,173,82592,2,0,P|475:217|479:262,1,90,2|0,0:0|0:0,0:0:0:0:
363,329,83092,1,8,0:0:0:0:
374,167,83342,6,0,P|340:101|252:135,1,180,4|8,0:0|0:0,0:0:0:0:
239,158,83967,1,8,0:0:0:0:
224,186,84092,1,8,0:0:0:0:
319,281,84342,1,8,0:0:0:0:
214,366,84592,2,0,P|172:362|132:331,1,90,2|8,0:0|0:0,0:0:0:0:
62,241,85092,1,8,0:0:0:0:
37,203,85217,1,8,0:0:0:0:
43,158,85342,1,8,0:0:0:0:
78,129,85467,1,8,0:0:0:0:
122,132,85592,6,0,P|168:144|232:84,1,135,4|0,0:0|0:0,0:0:0:0:
223,47,86092,2,0,P|266:53|324:56,1,90,8|0,0:0|0:0,0:0:0:0:
435,125,86592,2,0,P|428:83|424:32,1,90,2|0,0:0|0:0,0:0:0:0:
318,123,87092,1,8,0:0:0:0:
407,224,87342,6,0,P|499:198|479:133,1,180,2|0,0:0|0:0,0:0:0:0:
407,224,88092,2,0,P|411:275|418:321,1,90,8|0,0:0|0:0,0:0:0:0:
261,360,88592,2,0,P|265:308|272:263,1,90,2|0,0:0|0:0,0:0:0:0:
115,221,89092,2,0,P|119:272|126:318,1,90,8|0,0:0|0:0,0:0:0:0:
225,149,89592,6,0,P|190:108|149:93,1,90,4|8,0:0|0:0,0:0:0:0:
24,121,90092,1,8,0:0:0:0:
20,228,90342,2,0,P|30:277|62:312,1,90,4|8,0:0|0:0,0:0:0:0:
190,306,90842,2,0,P|180:257|148:222,1,90,8|8,0:0|0:0,0:0:0:0:
104,111,91342,6,0,P|153:118|203:122,1,90,4|0,0:0|0:0,0:0:0:0:
318,105,91842,2,0,P|298:60|287:18,1,90,8|8,0:0|0:0,0:0:0:0:
193,121,92342,2,0,P|173:166|162:208,1,90,4|0,0:0|0:0,0:0:0:0:
222,316,92842,1,8,0:0:0:0:
120,278,93092,1,8,0:0:0:0:
248,235,93342,6,0,P|335:245|434:255,1,180,4|0,0:0|0:0,0:0:0:0:
379,146,94092,2,0,P|383:100|409:53,1,90,8|0,0:0|0:0,0:0:0:0:
491,185,94592,1,2,0:0:0:0:
418,276,94842,2,0,P|382:299|333:306,1,90,0|8,0:0|0:0,0:0:0:0:
220,234,95342,1,4,0:0:0:0:
220,234,95592,6,0,P|224:178|238:96,1,135,8|8,0:0|0:0,0:0:0:0:
148,37,96217,2,0,L|97:31,2,45,8|8|8,0:0|0:0|0:0,0:0:0:0:
237,100,96717,1,8,0:0:0:0:
237,100,97092,2,0,L|292:93,1,45,8|8,0:0|0:0,0:0:0:0:
346,158,97342,2,0,L|395:153,1,45,8|8,0:0|0:0,0:0:0:0:
465,207,97592,5,4,0:0:0:0:
104,89,103611,6,0,L|98:143,3,45,8|8|8|8,0:0|0:0|0:0|0:0,0:0:0:0:
175,154,104111,2,0,L|180:211,3,45,8|8|8|8,0:0|0:0|0:0|0:0,0:0:0:0:
257,206,104611,5,4,0:0:0:0:
257,206,105111,2,0,P|297:215|326:175,1,90,8|0,0:0|0:0,0:0:0:0:
325,180,105486,2,0,P|316:111|306:43,1,135,8|0,0:0|0:0,0:0:0:0:
441,91,106111,2,0,L|456:185,1,90,8|0,0:0|0:0,0:0:0:0:
455,179,106486,6,0,P|440:254|385:296,1,135,8|0,0:0|0:0,0:0:0:0:
285,216,107111,1,8,0:0:0:0:
285,216,107236,1,0,0:0:0:0:
195,340,107486,2,0,P|238:332|293:329,1,90,8|0,0:0|0:0,0:0:0:0:
315,334,107861,1,0,0:0:0:0:
213,230,108111,1,8,0:0:0:0:
213,230,108236,2,0,P|189:229|168:222,1,45
67,134,108611,5,8,0:0:0:0:
67,134,109111,2,0,P|59:89|49:40,1,90,8|0,0:0|0:0,0:0:0:0:
50,45,109486,2,0,P|107:32|161:78,1,135,8|0,0:0|0:0,0:0:0:0:
201,236,110111,2,0,P|209:281|219:330,1,90,8|0,0:0|0:0,0:0:0:0:
218,325,110486,6,0,P|161:338|107:292,1,135,8|0,0:0|0:0,0:0:0:0:
61,173,111111,1,8,0:0:0:0:
61,173,111236,1,0,0:0:0:0:
149,111,111486,2,0,P|192:121|241:129,1,90,8|0,0:0|0:0,0:0:0:0:
268,128,111861,1,0,0:0:0:0:
364,222,112111,1,8,0:0:0:0:
364,222,112236,2,0,P|390:216|417:198,1,45,8|8,0:0|0:0,0:0:0:0:
487,96,112611,5,4,0:0:0:0:
487,96,113111,2,0,P|439:91|407:52,1,90,8|0,0:0|0:0,0:0:0:0:
411,62,113486,2,0,P|402:136|399:204,1,135,8|0,0:0|0:0,0:0:0:0:
423,347,114111,2,0,P|375:341|332:366,1,90,8|0,0:0|0:0,0:0:0:0:
338,359,114486,6,0,P|281:369|210:340,1,135,8|0,0:0|0:0,0:0:0:0:
130,243,115111,1,8,0:0:0:0:
130,243,115236,1,0,0:0:0:0:
201,162,115486,2,0,P|197:119|174:74,1,90,8|0,0:0|0:0,0:0:0:0:
151,57,115861,1,8,0:0:0:0:
50,146,116111,1,8,0:0:0:0:
50,146,116236,2,0,P|22:140|0:130,1,45,8|8,0:0|0:0,0:0:0:0:
120,244,116611,5,4,0:0:0:0:
120,244,117111,2,0,P|163:243|210:270,1,90,8|0,0:0|0:0,0:0:0:0:
204,264,117486,2,0,P|196:193|183:125,1,135,8|0,0:0|0:0,0:0:0:0:
277,32,118111,2,0,P|316:52|361:52,1,90,8|0,0:0|0:0,0:0:0:0:
361,52,118486,6,0,P|369:123|382:191,1,135,8|0,0:0|0:0,0:0:0:0:
455,286,119111,2,0,P|419:317|375:320,1,90,8|0,0:0|0:0,0:0:0:0:
298,246,119611,2,0,L|302:199,3,45,8|8|8|8,0:0|0:0|0:0|0:0,0:0:0:0:
210,196,120111,2,0,L|214:144,1,45,8|8,0:0|0:0,0:0:0:0:
118,144,120361,2,0,L|122:92,1,45,8|8,0:0|0:0,0:0:0:0:
30,103,120611,5,4,0:0:0:0:
425,48,126411,6,0,P|408:88|413:137,1,90,2|8,0:0|0:0,0:0:0:0:
459,230,126920,2,0,P|458:255|452:276,3,45,0|0|8|0,0:0|0:0|0:3|0:0,0:0:0:0:
364,297,127428,2,0,P|358:318|357:341,3,45
266,343,127937,1,8,0:0:0:0:
222,355,128064,1,8,0:0:0:0:
178,345,128191,1,8,0:0:0:0:
139,322,128318,1,8,0:0:0:0:
116,283,128445,6,0,P|79:280|23:301,1,90,4|0,0:0|0:0,0:0:0:0:
38,266,128827,1,0,0:0:0:0:
48,236,128954,1,8,0:0:0:0:
92,108,129208,2,0,P|133:123|178:121,1,90
297,57,129716,1,0,0:0:0:0:
195,18,129971,1,8,0:0:0:0:
230,148,130225,1,0,0:0:0:0:
337,134,130479,6,0,P|373:134|424:154,1,90,2|0,0:0|0:0,0:0:0:0:
447,173,130861,1,0,0:0:0:0:
469,195,130988,1,8,0:0:0:0:
327,223,131242,2,0,P|332:175|337:129,1,90
427,33,131750,1,0,0:0:0:0:
323,64,132005,1,8,0:0:0:0:
398,141,132259,1,0,0:0:0:0:
326,223,132513,6,0,P|284:241|233:245,1,90,2|0,0:0|0:0,0:0:0:0:
131,180,133022,1,8,0:0:0:0:
205,101,133276,2,0,P|190:54|176:2,1,90
77,103,133784,2,0,P|64:146|51:189,1,90,0|8,0:0|0:0,0:0:0:0:
96,316,134293,6,0,P|146:334|170:237,1,180
103,154,135055,1,8,0:0:0:0:
194,96,135310,2,0,P|236:97|288:117,1,90
398,47,135818,1,0,0:0:0:0:
463,164,136072,1,8,0:0:0:0:
482,205,136200,1,8,0:0:0:0:
479,249,136327,1,8,0:0:0:0:
457,288,136454,1,8,0:0:0:0:
412,292,136581,6,0,P|375:291|325:313,1,90,4|0,0:0|0:0,0:0:0:0:
301,330,136962,1,0,0:0:0:0:
277,351,137089,1,8,0:0:0:0:
152,278,137344,2,0,P|156:229|174:192,1,90
263,92,137852,1,0,0:0:0:0:
159,124,138106,1,8,0:0:0:0:
245,188,138361,1,0,0:0:0:0:
134,110,138615,6,0,P|85:109|40:123,1,90,2|0,0:0|0:0,0:0:0:0:
45,120,138996,1,0,0:0:0:0:
45,120,139123,1,8,0:0:0:0:
104,241,139378,2,0,P|147:252|192:251,1,90
298,168,139886,1,0,0:0:0:0:
193,140,140140,1,8,0:0:0:0:
281,78,140394,1,0,0:0:0:0:
340,199,140649,6,0,P|358:236|381:287,1,90,2|0,0:0|0:0,0:0:0:0:
469,180,141157,1,8,0:0:0:0:
364,95,141411,2,0,P|317:94|275:114,1,90
180,204,141920,1,0,0:0:0:0:
205,99,142174,1,8,0:0:0:0:
282,252,142428,6,0,P|216:315|129:306,1,180,2|0,0:0|0:0,0:0:0:0:
59,228,143191,2,0,P|75:185|85:142,1,90,8|0,0:0|0:0,0:0:0:0:
194,62,143700,2,0,P|204:105|219:147,1,90,8|0,0:3|0:0,0:0:0:0:
304,228,144208,1,8,0:0:0:0:
347,216,144335,1,8,0:0:0:0:
372,178,144462,1,8,0:0:0:0:
364,133,144589,1,8,0:0:0:0:
337,96,144716,6,0,P|292:97|247:118,1,90,4|0,0:0|0:0,0:0:0:0:
233,129,145098,1,0,0:0:0:0:
219,147,145225,1,8,0:0:0:0:
304,228,145479,2,0,P|344:245|389:246,1,90
501,187,145988,1,0,0:0:0:0:
467,289,146242,1,8,0:0:0:0:
401,202,146496,1,0,0:0:0:0:
480,135,146750,6,0,P|463:88|418:63,1,90,2|0,0:0|0:0,0:0:0:0:
399,63,147132,1,0,0:0:0:0:
369,72,147259,1,8,0:0:0:0:
295,163,147513,2,0,P|300:209|306:258,1,90
233,367,148022,1,0,0:0:0:0:
205,262,148276,1,8,0:0:0:0:
303,305,148530,1,0,0:0:0:0:
192,366,148784,6,0,P|151:365|106:335,1,90,2|0,0:0|0:0,0:0:0:0:
52,248,149293,1,8,0:0:0:0:
52,248,149547,2,0,P|44:205|33:153,1,90
130,64,150055,1,0,0:0:0:0:
23,84,150310,1,8,0:0:0:0:
121,162,150564,6,0,P|210:152|310:151,1,180,2|0,0:0|0:0,0:0:0:0:
417,83,151327,1,8,0:0:0:0:
313,51,151581,1,0,0:0:0:0:
416,82,151835,2,0,L|408:127,3,45,8|8|8|8,0:0|0:0|0:0|0:0,0:0:0:0:
325,172,152344,2,0,L|334:231,1,45,8|8,0:0|0:0,0:0:0:0:
410,259,152598,2,0,L|405:317,1,45,8|8,0:0|0:0,0:0:0:0:
331,355,152852,6,0,P|287:361|247:342,1,90,4|0,0:0|0:0,0:0:0:0:
172,264,153361,2,0,P|127:263|81:277,1,90,8|0,0:0|0:0,0:0:0:0:
14,160,153869,1,0,0:0:0:0:
119,184,154123,1,0,0:0:0:0:
47,69,154377,1,8,0:0:0:0:
152,93,154632,6,0,P|197:86|237:49,1,90
298,146,155140,2,0,P|327:111|334:57,1,90,0|8,0:0|0:0,0:0:0:0:
205,104,155649,2,0,P|159:177|197:255,1,180
321,308,156411,1,8,0:0:0:0:
430,166,156666,6,0,P|330:176|243:185,1,180,2|0,0:0|0:0,0:0:0:0:
165,264,157428,2,0,L|63:254,1,90,8|0,0:0|0:0,0:0:0:0:
24,149,157937,1,0,0:0:0:0:
24,149,158064,1,0,0:0:0:0:
24,149,158191,1,0,0:0:0:0:
100,60,158445,1,8,0:0:0:0:
100,60,158572,1,0,0:0:0:0:
100,60,158700,1,0,0:0:0:0:
165,187,158954,6,0,P|205:194|250:165,1,90,2|0,0:0|0:0,0:0:0:0:
259,141,159335,1,0,0:0:0:0:
265,110,159462,1,8,0:0:0:0:
386,33,159716,2,0,P|393:79|402:129,1,90,0|8,0:0|0:0,0:0:0:0:
460,264,160225,1,0,0:0:0:0:
345,238,160479,1,8,0:0:0:0:
304,230,160606,1,8,0:0:0:0:
264,222,160733,1,8,0:0:0:0:
224,214,160861,1,8,0:0:0:0:
184,206,160988,5,4,0:0:0:0:
256,192,161115,12,0,163022,0:0:0:0:
59,270,168427,5,0,0:0:0:0:
153,200,168686,1,0,0:0:0:0:
170,315,168945,1,0,0:0:0:0:
259,240,169203,1,0,0:0:0:0:
132,192,169462,5,0,0:0:0:0:
259,148,169721,1,0,0:0:0:0:
130,108,169979,1,0,0:0:0:0:
212,214,170238,1,0,0:0:0:0:
318,92,170496,5,0,0:0:0:0:
376,243,170755,1,0,0:0:0:0:
250,139,171014,1,0,0:0:0:0:
302,291,171272,1,0,0:0:0:0:
403,131,171531,5,8,0:0:0:0:
406,122,171660,1,8,0:0:0:0:
409,113,171790,1,8,0:0:0:0:
409,104,171919,1,8,0:0:0:0:
408,95,172048,1,8,0:0:0:0:
403,87,172177,1,8,0:0:0:0:
398,79,172307,1,8,0:0:0:0:
390,73,172436,1,8,0:0:0:0:
382,68,172565,6,0,P|346:61|295:77,1,90,4|0,0:0|0:0,0:0:0:0:
232,175,173083,1,8,0:0:0:0:
232,175,173341,2,0,P|184:172|142:152,1,90,0|2,0:0|0:0,0:0:0:0:
82,35,173859,1,0,0:0:0:0:
44,220,174117,1,8,0:0:0:0:
12,117,174376,1,0,0:0:0:0:
130,180,174634,6,0,P|168:200|216:209,1,90,2|0,0:0|0:0,0:0:0:0:
322,126,175152,1,8,0:0:0:0:
351,229,175410,2,0,P|364:273|375:315,1,90,0|2,0:0|0:0,0:0:0:0:
483,271,175927,1,0,0:0:0:0:
387,115,176186,1,8,0:0:0:0:
485,162,176445,1,0,0:0:0:0:
368,229,176703,5,2,0:0:0:0:
268,271,176962,2,0,P|224:268|183:240,1,90,0|8,0:0|0:0,0:0:0:0:
68,326,177479,2,0,P|112:329|149:353,1,90,0|2,0:0|0:0,0:0:0:0:
268,271,177996,1,0,0:0:0:0:
199,153,178255,2,0,P|201:108|220:62,1,90,8|0,0:0|0:0,0:0:0:0:
291,210,178772,6,0,P|231:260|133:242,1,180,2|8,0:0|0:0,0:0:0:0:
60,154,179548,1,0,0:0:0:0:
143,85,179807,2,0,P|139:38|120:-7,1,90,2|0,0:0|0:0,0:0:0:0:
60,154,180324,1,8,0:0:0:0:
17,54,180583,1,8,0:0:0:0:
143,85,180841,6,0,P|185:91|231:98,1,90,4|0,0:0|0:0,0:0:0:0:
352,36,181359,1,8,0:0:0:0:
389,136,181617,2,0,P|405:180|418:222,1,90,0|2,0:0|0:0,0:0:0:0:
274,144,182134,2,0,P|289:101|302:58,1,90,0|8,0:0|0:0,0:0:0:0:
425,135,182652,6,0,P|469:119|511:106,1,90,4|0,0:0|0:0,0:0:0:0:
402,262,183169,2,0,P|358:246|316:233,1,90,0|8,0:0|0:0,0:0:0:0:
205,173,183686,2,0,P|162:186|119:201,1,90,0|2,0:0|0:0,0:0:0:0:
33,110,184203,1,8,0:0:0:0:
65,300,184462,1,8,0:0:0:0:
2,213,184721,1,8,0:0:0:0:
133,241,184979,6,0,P|177:233|214:200,1,90,2|0,0:0|0:0,0:0:0:0:
296,259,185496,2,0,P|311:216|300:168,1,90,8|0,0:0|0:0,0:0:0:0:
392,124,186014,2,0,P|363:89|315:74,1,90,2|0,0:0|0:0,0:0:0:0:
226,126,186531,2,0,P|184:110|155:76,1,90,8|0,0:0|0:0,0:0:0:0:
60,108,187048,6,0,P|52:64|68:23,1,90,4|0,0:0|0:0,0:0:0:0:
174,91,187565,2,0,P|181:134|166:176,1,90,8|0,0:0|0:0,0:0:0:0:
165,282,188083,2,0,P|121:274|87:245,1,90,8|8,0:0|0:0,0:0:0:0:
197,168,188600,2,0,P|240:175|274:204,1,90,8|0,0:0|0:0,0:0:0:0:
302,327,189117,6,0,P|298:276|293:225,1,90,4|0,0:0|0:0,0:0:0:0:
235,125,189635,1,8,0:0:0:0:
298,37,189893,2,0,P|341:34|388:54,1,90,0|2,0:0|0:0,0:0:0:0:
479,133,190411,1,0,0:0:0:0:
420,302,190669,1,8,0:0:0:0:
495,239,190927,1,0,0:0:0:0:
367,193,191186,6,0,P|321:194|272:207,1,90,2|0,0:0|0:0,0:0:0:0:
195,300,191704,1,8,0:0:0:0:
90,271,191962,2,0,P|89:223|103:179,1,90,0|2,0:0|0:0,0:0:0:0:
177,82,192479,1,0,0:0:0:0:
80,105,192738,1,8,0:0:0:0:
191,180,192997,1,0,0:0:0:0:
94,203,193255,5,2,0:0:0:0:
177,82,193514,2,0,P|218:83|268:99,1,90,0|8,0:0|0:0,0:0:0:0:
342,171,194031,2,0,P|385:168|425:146,1,90,0|2,0:0|0:0,0:0:0:0:
476,30,194548,1,0,0:0:0:0:
380,81,194807,1,8,0:0:0:0:
461,176,195065,6,0,P|468:259|474:363,1,180,2|0,0:0|0:0,0:0:0:0:
353,275,195841,1,8,0:0:0:0:
461,176,196100,1,0,0:0:0:0:
322,135,196359,1,2,0:0:0:0:
353,275,196617,1,0,0:0:0:0:
222,214,196876,1,8,0:0:0:0:
382,193,197134,1,8,0:3:0:0:
250,302,197393,6,0,P|177:294|130:207,1,180,4|8,0:0|0:0,0:0:0:0:
202,103,198169,1,0,0:0:0:0:
133,19,198427,2,0,P|86:23|30:48,1,90,2|0,0:0|0:0,0:0:0:0:
116,164,198945,1,8,0:0:0:0:
116,164,199203,6,0,P|102:262|93:343,1,180,4|0,0:0|0:0,0:0:0:0:
210,275,199979,1,8,0:0:0:0:
303,328,200238,2,0,P|346:333|395:298,1,90,0|2,0:0|0:0,0:0:0:0:
451,203,200755,1,0,0:0:0:0:
490,303,201014,1,8,0:0:0:0:
362,236,201272,6,0,P|373:136|382:48,1,180,4|0,0:0|0:0,0:0:0:0:
496,127,202048,2,0,L|486:228,1,90,8|0,0:0|0:0,0:0:0:0:
428,318,202565,1,8,0:3:0:0:
391,345,202695,1,8,0:3:0:0:
346,352,202824,1,8,0:3:0:0:
302,342,202953,1,8,0:3:0:0:
263,318,203083,1,8,0:3:0:0:
201,229,203341,1,4,0:0:0:0:
201,229,203859,5,2,0:0:0:0:
141,139,204117,1,2,0:0:0:0:
276,90,204376,1,2,0:0:0:0:
276,90,204893,1,2,0:0:0:0:
276,90,205669,5,4,0:0:0:0:
278,149,212273,6,0,L|284:193,1,45,8|0,0:0|0:0,0:0:0:0:
401,261,212695,2,0,L|408:217,1,45,8|8,0:3|0:0,0:0:0:0:
261,133,213118,2,0,L|214:140,1,45,8|8,0:3|0:0,0:0:0:0:
340,270,213540,2,0,L|389:277,1,45,8|8,0:3|0:0,0:0:0:0:
218,71,213963,6,0,P|151:117|180:199,1,180,4|8,0:0|0:0,0:0:0:0:
324,259,215019,1,0,0:0:0:0:
338,123,215230,2,0,P|315:126|294:133,1,45
135,220,215653,2,0,P|176:236|221:239,1,90,2|0,0:0|0:0,0:0:0:0:
87,91,216287,2,0,P|63:100|43:114,1,45,0|8,0:0|0:0,0:0:0:0:
181,259,216709,2,0,P|205:250|225:236,1,45
271,87,217132,1,0,0:0:0:0:
108,215,217343,6,0,P|101:296|177:348,1,180,4|8,0:0|0:0,0:0:0:0:
297,320,218399,1,0,0:0:0:0:
322,196,218611,2,0,P|296:202|279:208,1,45
340,335,219033,2,0,P|361:342|383:347,1,45,8|8,0:0|0:0,0:0:0:0:
291,165,219456,2,0,P|283:185|278:208,1,45
461,273,219878,2,0,P|456:250|448:230,1,45,8|8,0:0|0:0,0:0:0:0:
298,125,220301,2,0,P|314:141|336:154,1,45
279,20,220723,6,0,P|206:68|197:160,1,180,4|8,0:0|0:0,0:0:0:0:
352,192,221780,2,0,P|342:164|325:145,1,45
198,217,222202,2,0,P|185:235|178:256,1,45
275,353,222625,1,0,0:0:0:0:
337,234,222836,2,0,L|354:184,1,45
304,62,223259,1,8,0:0:0:0:
406,99,223470,1,0,0:0:0:0:
304,188,223681,2,0,L|248:178,1,45
95,65,224104,6,0,P|137:66|193:91,1,90,4|0,0:0|0:0,0:0:0:0:
259,180,224737,1,0,0:0:0:0:
328,63,224949,2,0,P|316:41|299:20,1,45,8|0,0:0|0:0,0:0:0:0:
259,180,225371,2,0,P|269:200|282:217,1,45
370,77,225794,2,0,P|347:67|320:62,1,45,8|8,0:0|0:0,0:0:0:0:
239,204,226216,2,0,P|259:212|281:217,1,45
411,60,226639,2,0,P|387:67|363:81,1,45,8|0,0:0|0:0,0:0:0:0:
240,234,227061,2,0,P|261:227|281:217,1,45,8|8,0:0|0:0,0:0:0:0:
151,158,227484,6,0,P|118:228|155:320,1,180,4|8,0:0|0:0,0:0:0:0:
296,358,228540,1,0,0:0:0:0:
349,220,228752,2,0,P|327:224|304:230,1,45
178,317,229174,2,0,P|262:328|376:343,1,180,4|8,0:0|0:0,0:0:0:0:
461,255,230230,1,0,0:0:0:0:
376,180,230442,1,0,0:0:0:0:
481,141,230653,1,0,0:0:0:0:
371,284,230864,6,0,P|324:273|293:239,1,90,2|0,0:0|0:0,0:0:0:0:
193,177,231498,2,0,P|170:179|149:189,1,45,0|8,0:0|0:0,0:0:0:0:
81,323,231921,2,0,P|104:321|125:311,1,45
214,224,232343,1,0,0:0:0:0:
139,121,232554,2,0,P|145:77|154:33,1,90,8|0,0:0|0:0,0:0:0:0:
253,172,233188,1,0,0:0:0:0:
153,249,233399,2,0,P|126:246|104:239,1,45,8|8,0:0|0:0,0:0:0:0:
30,97,233822,2,0,P|57:100|79:107,1,45,8|8,0:0|0:0,0:0:0:0:
193,207,234244,6,0,P|232:204|283:173,1,90,4|0,0:0|0:0,0:0:0:0:
336,74,234878,1,0,0:0:0:0:
240,22,235090,2,0,P|208:14|171:16,2,67.5,8|0|0,0:0|0:0|0:0,0:0:0:0:
337,146,235935,2,0,P|332:169|329:195,1,45,8|8,0:0|0:0,0:0:0:0:
460,125,236357,2,0,P|455:101|452:76,1,45
303,167,236780,2,0,L|320:270,1,90,8|0,0:0|0:0,0:0:0:0:
262,368,237413,1,0,0:0:0:0:
387,330,237625,6,0,P|432:318|475:309,1,90,2|0,0:0|0:0,0:0:0:0:
317,255,238259,1,0,0:0:0:0:
214,300,238470,2,0,P|189:297|166:289,1,45,8|0,0:0|0:0,0:0:0:0:
47,188,238892,2,0,P|71:190|95:199,1,45
199,123,239315,2,0,P|205:73|213:28,1,90,8|0,0:0|0:0,0:0:0:0:
89,119,239949,1,0,0:0:0:0:
161,216,240160,2,0,P|176:226|205:233,1,45,8|8,0:0|0:0,0:0:0:0:
301,147,240583,1,8,0:0:0:0:
212,77,240794,1,8,0:0:0:0:
337,27,241005,6,0,P|359:24|390:19,1,45,4|0,0:0|0:0,0:0:0:0:
487,59,241428,1,0,0:0:0:0:
429,155,241639,2,0,P|434:181|441:210,1,45,0|8,0:0|0:0,0:0:0:0:
327,260,242061,2,0,P|332:233|339:205,1,45
448,125,242484,2,0,P|471:127|493:129,1,45,0|8,0:0|0:0,0:0:0:0:
443,254,242906,1,8,0:0:0:0:
336,216,243118,2,0,P|313:214|291:212,1,45
186,251,243540,1,8,0:0:0:0:
114,150,243752,2,0,P|102:104|154:72,1,112.5
149,71,244385,6,0,P|151:49|154:26,1,45,4|0,0:0|0:0,0:0:0:0:
240,129,244808,2,0,P|223:145|207:160,1,45,8|0,0:0|0:0,0:0:0:0:
194,268,245230,2,0,P|216:266|238:265,1,45,8|0,0:0|0:0,0:0:0:0:
324,335,245653,2,0,P|305:347|287:361,1,45,8|0,0:0|0:0,0:0:0:0:
430,335,246075,2,0,P|425:313|419:291,1,45,8|0,0:0|0:0,0:0:0:0:
344,183,246498,2,0,L|366:93,1,90,8|8,0:0|0:0,0:0:0:0:
480,172,247132,1,8,0:0:0:0:
480,172,247237,1,8,0:0:0:0:
480,172,247343,1,8,0:0:0:0:
342,213,247554,1,8,0:0:0:0:
413,46,247766,5,4,0:0:0:0:
256,192,247871,12,0,251146,0:0:0:0:
293,298,257832,5,8,0:0:0:0:
372,255,258110,1,8,0:0:0:0:
293,212,258387,1,8,0:0:0:0:
372,169,258665,1,8,0:0:0:0:
269,225,258943,5,8,0:0:0:0:
166,169,259221,1,8,0:0:0:0:
209,324,259498,1,8,0:0:0:0:
107,269,259776,1,8,0:0:0:0:
245,230,260054,5,8,0:0:0:0:
122,153,260332,1,8,0:0:0:0:
256,100,260610,1,8,0:0:0:0:
174,249,260887,1,8,0:0:0:0:
174,249,261026,1,8,0:0:0:0:
174,249,261165,2,0,P|152:245|129:234,1,45,8|8,0:0|0:0,0:0:0:0:
250,161,261443,2,0,P|272:165|295:176,1,45,8|8,0:3|0:3,0:0:0:0:
312,286,261721,2,0,P|334:282|357:271,1,45,8|8,0:0|0:0,0:0:0:0:
461,312,261998,2,0,P|468:290|470:265,1,45,8|8,0:0|0:0,0:0:0:0:
442,143,262276,6,0,P|401:118|358:111,1,90,4|0,0:0|0:0,0:0:0:0:
220,209,262832,2,0,P|197:208|176:197,1,45,8|0,0:0|0:0,0:0:0:0:
119,131,263110,2,0,P|123:85|130:32,1,90,4|0,0:0|0:0,0:0:0:0:
11,179,263665,1,0,0:0:0:0:
119,131,263943,1,8,0:0:0:0:
17,72,264221,1,0,0:0:0:0:
66,206,264498,6,0,P|52:256|45:298,1,90,4|0,0:0|0:0,0:0:0:0:
64,319,264915,1,0,0:0:0:0:
82,344,265054,1,8,0:0:0:0:
214,267,265332,2,0,P|206:222|193:179,1,90,4|0,0:0|0:0,0:0:0:0:
45,293,265887,1,0,0:0:0:0:
145,369,266165,1,8,0:0:0:0:
188,380,266304,1,8,0:0:0:0:
231,367,266443,1,8,0:0:0:0:
263,335,266582,1,8,0:0:0:0:
286,296,266721,6,0,P|329:294|379:288,1,90,4|0,0:0|0:0,0:0:0:0:
449,228,267137,1,0,0:0:0:0:
449,228,267276,2,0,P|444:200|436:175,1,45,8|0,0:0|0:0,0:0:0:0:
363,128,267554,2,0,P|372:80|380:27,1,90,4|0,0:0|0:0,0:0:0:0:
480,128,268110,1,0,0:0:0:0:
364,196,268387,1,8,0:0:0:0:
473,236,268665,1,0,0:0:0:0:
363,128,268943,6,0,P|331:91|304:53,1,90,4|0,0:0|0:0,0:0:0:0:
307,57,269360,1,0,0:0:0:0:
307,57,269498,1,8,0:0:0:0:
226,154,269776,2,0,P|205:193|192:236,1,90,4|0,0:0|0:0,0:0:0:0:
236,343,270332,1,0,0:0:0:0:
93,360,270610,1,8,0:0:0:0:
56,334,270748,1,8,0:0:0:0:
46,289,270887,1,8,0:0:0:0:
55,245,271026,1,8,0:0:0:0:
82,209,271165,6,0,P|75:160|56:125,1,90,4|0,0:0|0:0,0:0:0:0:
148,26,271721,2,0,P|160:44|178:59,1,45,8|0,0:0|0:0,0:0:0:0:
245,124,271998,1,4,0:0:0:0:
245,124,272137,2,0,P|235:175|230:213,1,90
200,258,272554,1,0,0:0:0:0:
284,363,272832,2,0,P|329:361|366:337,1,90,8|0,0:0|0:0,0:0:0:0:
469,246,273387,6,0,P|459:198|450:152,1,90,4|0,0:0|0:0,0:0:0:0:
466,64,273804,1,0,0:0:0:0:
466,64,273943,2,0,L|420:71,1,45,8|0,0:0|0:0,0:0:0:0:
344,129,274221,2,0,L|244:114,1,90,4|0,0:0|0:0,0:0:0:0:
147,49,274776,1,0,0:0:0:0:
170,200,275054,1,8,0:0:0:0:
155,242,275192,1,8,0:0:0:0:
119,269,275331,1,8,0:0:0:0:
74,271,275470,1,8,0:0:0:0:
32,253,275610,6,0,P|38:207|45:164,1,90,4|0,0:0|0:0,0:0:0:0:
92,83,276026,1,0,0:0:0:0:
92,83,276165,2,0,L|142:97,1,45,8|0,0:0|0:0,0:0:0:0:
228,120,276443,2,0,P|223:69|220:25,1,90,4|0,0:0|0:0,0:0:0:0:
92,83,276998,1,0,0:0:0:0:
135,217,277276,1,8,0:0:0:0:
135,217,277415,2,0,P|163:251|213:263,1,90
247,246,277832,6,0,P|257:291|267:337,1,90,4|0,0:0|0:0,0:0:0:0:
295,344,278248,1,0,0:0:0:0:
324,354,278387,1,8,0:0:0:0:
452,287,278665,2,0,P|441:243|432:199,1,90,4|0,0:0|0:0,0:0:0:0:
477,61,279221,1,0,0:0:0:0:
363,115,279498,1,8,0:0:0:0:
318,123,279637,1,8,0:0:0:0:
274,111,279776,1,8,0:0:0:0:
239,82,279915,1,8,0:0:0:0:
216,43,280054,6,0,P|171:52|126:62,1,90,4|0,0:0|0:0,0:0:0:0:
44,168,280610,2,0,L|-4:157,1,45,8|0,0:0|0:0,0:0:0:0:
65,262,280887,1,4,0:0:0:0:
65,262,281026,2,0,L|159:242,1,90
197,250,281443,1,0,0:0:0:0:
321,338,281721,2,0,P|328:290|338:244,1,90,8|0,0:0|0:0,0:0:0:0:
397,178,282137,1,0,0:0:0:0:
397,178,282276,6,0,P|390:130|380:84,1,90,4|0,0:0|0:0,0:0:0:0:
257,33,282832,2,0,P|236:39|216:49,1,45,8|0,0:0|0:0,0:0:0:0:
153,119,283110,1,4,0:0:0:0:
153,119,283248,2,0,P|109:105|66:96,1,90
22,108,283665,1,0,0:0:0:0:
2,250,283943,1,8,0:0:0:0:
24,289,284082,1,8,0:0:0:0:
64,308,284221,1,8,0:0:0:0:
108,303,284360,1,8,0:0:0:0:
149,286,284498,6,0,P|196:278|245:275,1,90,4|0,0:0|0:0,0:0:0:0:
363,326,285054,2,0,P|367:302|374:278,1,45,8|0,0:0|0:0,0:0:0:0:
373,187,285332,2,0,P|413:195|466:207,1,90,4|0,0:0|0:0,0:0:0:0:
385,92,285887,1,0,0:0:0:0:
296,239,286165,1,8,0:0:0:0:
258,130,286443,1,0,0:0:0:0:
373,187,286721,6,0,P|413:195|466:207,1,90,4|0,0:0|0:0,0:0:0:0:
483,203,287137,1,0,0:0:0:0:
504,196,287276,1,8,0:0:0:0:
407,71,287554,2,0,P|366:79|314:91,1,90,4|0,0:0|0:0,0:0:0:0:
184,37,288110,1,0,0:0:0:0:
119,185,288387,1,8,0:0:0:0:
108,210,288526,1,8,0:0:0:0:
96,234,288665,1,8,0:0:0:0:
84,258,288804,1,8,0:0:0:0:
73,282,288943,5,4,0:0:0:0:
256,192,289082,12,4,293110,0:0:0:0:
392,61,300183,5,0,0:0:0:0:
392,61,300419,6,0,P|407:149|418:246,1,180,4|0,0:0|0:0,0:0:0:0:
353,336,301128,1,0,0:0:0:0:
353,336,301246,1,0,0:0:0:0:
353,336,301364,2,0,P|303:337|262:308,1,90,8|0,0:0|0:0,0:0:0:0:
199,220,301837,1,8,0:0:0:0:
169,209,301955,1,8,0:0:0:0:
137,213,302073,1,8,0:0:0:0:
108,225,302191,1,8,0:0:0:0:
80,239,302309,6,0,P|83:285|87:330,1,80.9999975280763,4|0,0:0|0:0,0:0:0:0:
40,279,302782,6,0,L|50:153,1,125.999996154785,4|0,0:0|0:0,0:0:0:0:
114,55,303254,2,0,P|159:56|203:78,1,90,2|0,0:0|0:0,0:0:0:0:
236,120,303608,2,0,P|274:121|320:92,1,90,8|0,0:0|0:0,0:0:0:0:
340,41,303963,1,0,0:0:0:0:
477,194,304199,5,0,0:0:0:0:
350,300,304435,1,0,0:0:0:0:
244,258,304672,1,0,0:0:0:0:
252,260,304790,1,0,0:0:0:0:
151,263,305026,2,0,L|188:158,1,90
149,111,305380,2,0,L|217:102,1,45
273,67,305616,1,0,0:0:0:0:
314,99,305735,2,0,L|429:117,1,90
445,272,306089,6,0,L|349:231,1,90
267,207,306561,1,0,0:0:0:0:
337,312,306798,1,0,0:0:0:0:
248,310,307034,2,0,P|192:296|176:230,1,90
174,232,307388,2,0,L|61:234,1,90
39,256,307742,1,0,0:0:0:0:
47,117,307979,6,0,L|159:93,1,90
209,146,308332,2,0,L|156:62,1,90
109,56,308687,1,0,0:0:0:0:
270,114,308924,1,0,0:0:0:0:
308,147,309042,1,0,0:0:0:0:
309,196,309160,1,0,0:0:0:0:
280,238,309278,1,0,0:0:0:0:
282,222,309396,1,0,0:0:0:0:
209,294,309632,1,0,0:0:0:0:
409,289,309868,5,4,0:0:0:0:
302,351,310105,1,0,0:0:0:0:
313,174,310340,2,0,L|305:289,1,90
156,218,310813,2,0,L|240:136,1,90
250,143,311168,2,0,L|337:115,1,90
363,147,311522,1,0,0:0:0:0:
417,283,311758,6,0,L|310:268,1,90
293,300,312113,2,0,L|189:295,1,90
174,305,312467,1,0,0:0:0:0:
60,264,312703,2,0,L|110:152,1,90
96,61,313175,1,0,0:0:0:0:
187,150,313412,1,0,0:0:0:0:
197,177,313648,6,0,L|328:177,1,90
363,186,314002,2,0,L|315:100,1,90
281,77,314357,1,0,0:0:0:0:
166,141,314593,2,0,P|97:147|81:79,1,135
77,57,315065,2,0,L|-31:69,1,90
58,313,315538,6,0,P|118:305|244:306,1,180
328,261,316246,1,0,0:0:0:0:
341,245,316483,1,0,0:0:0:0:
378,245,316601,1,0,0:0:0:0:
409,232,316719,1,0,0:0:0:0:
457,202,316837,1,0,0:0:0:0:
479,192,316955,1,0,0:0:0:0:
482,164,317073,1,0,0:0:0:0:
478,134,317191,1,0,0:0:0:0:
450,109,317309,1,0,0:0:0:0:
417,92,317427,6,0,P|352:99|317:109,1,80.9999975280763,4|0,0:0|0:0,0:0:0:0:
285,165,317900,6,0,L|293:28,1,125.999996154785,4|0,0:0|0:0,0:0:0:0:
212,256,318372,2,0,L|112:189,1,90,8|0,0:0|0:0,0:0:0:0:
78,112,318845,1,0,0:0:0:0:
59,300,319081,1,0,0:0:0:0:
228,286,319317,6,0,L|332:294,1,90,8|0,0:0|0:0,0:0:0:0:
391,316,319671,2,0,L|263:307,1,90
273,339,320026,1,0,0:0:0:0:
110,224,320262,2,0,L|129:136,1,90
232,79,320735,1,0,0:0:0:0:
263,91,320853,1,0,0:0:0:0:
290,121,320971,1,0,0:0:0:0:
322,147,321089,1,0,0:0:0:0:
348,148,321206,5,4,0:0:0:0:
436,236,321443,1,0,0:0:0:0:
442,114,321679,2,0,L|488:15,1,90
285,151,322152,2,0,L|184:142,1,90
176,185,322506,2,0,L|70:148,1,90
47,134,322861,1,0,0:0:0:0:
79,314,323096,6,0,L|177:296,1,90
199,331,323451,2,0,L|297:337,1,90
334,353,323805,1,0,0:0:0:0:
381,266,324042,1,0,0:0:0:0:
414,234,324160,1,0,0:0:0:0:
417,197,324278,1,0,0:0:0:0:
395,169,324396,1,0,0:0:0:0:
355,160,324514,1,0,0:0:0:0:
323,176,324632,1,0,0:0:0:0:
287,162,324750,1,0,0:0:0:0:
137,239,324987,6,0,L|39:156,1,90,4|0,0:0|0:0,0:0:0:0:
60,157,325341,2,0,L|108:60,1,90
137,64,325695,1,0,0:0:0:0:
283,69,325931,2,0,L|287:174,1,90
302,211,326286,2,0,L|305:308,1,90
260,355,326640,1,0,0:0:0:0:
163,262,326876,5,0,0:0:0:0:
140,117,327113,1,0,0:0:0:0:
336,124,327348,1,0,0:0:0:0:
323,164,327467,1,0,0:0:0:0:
475,214,327703,2,0,L|470:107,1,90
482,83,328057,1,0,0:0:0:0:
367,56,328294,1,0,0:0:0:0:
282,165,328530,1,0,0:0:0:0:
109,215,328766,6,0,P|48:168|59:130,1,90
39,138,329120,2,0,L|75:49,1,90
108,39,329475,1,0,0:0:0:0:
199,123,329711,2,0,L|225:251,1,90
343,344,330183,2,0,L|343:235,1,90
286,177,330656,6,0,P|201:163|96:151,1,180,4|0,0:0|0:0,0:0:0:0:
242,90,331364,1,0,0:0:0:0:
246,176,331483,1,0,0:0:0:0:
298,137,331601,2,0,L|400:103,1,90
454,229,332073,1,0,0:0:0:0:
476,269,332191,1,0,0:0:0:0:
469,310,332309,1,0,0:0:0:0:
435,332,332427,1,0,0:0:0:0:
400,329,332546,6,0,L|262:318,1,125.999996154785,4|0,0:0|0:0,0:0:0:0:
277,330,332900,6,0,L|174:318,1,90
153,344,333254,1,0,0:0:0:0:
77,264,333490,6,0,L|80:91,1,125.999996154785,4|0,0:0|0:0,0:0:0:0:
204,92,333963,6,0,L|239:168,1,80.9999975280763
295,197,334435,6,0,L|315:44,1,125.999996154785,4|0,0:0|0:0,0:0:0:0:
286,51,334790,2,0,L|198:88,1,90
125,97,335144,1,0,0:0:0:0:
88,261,335380,2,0,L|-8:215,1,90,4|0,0:0|0:0,0:0:0:0:
128,170,335853,1,0,0:0:0:0:
157,164,335971,1,0,0:0:0:0:
172,145,336089,1,0,0:0:0:0:
202,174,336325,6,0,L|321:192,1,90,4|0,0:0|0:0,0:0:0:0:
340,209,336679,2,0,L|426:175,1,90
466,153,337034,1,0,0:0:0:0:
386,118,337270,2,0,L|271:89,1,90,4|0,0:0|0:0,0:0:0:0:
167,136,337742,1,0,0:0:0:0:
167,136,337979,6,0,P|92:165|183:35,1,450,4|0,0:0|0:0,0:0:0:0:
134,254,339395,2,0,L|104:180,1,45
247,159,339632,2,0,L|254:221,1,45
342,171,339868,1,4,0:0:0:0:
256,192,339987,12,4,341994,0:0:0:0:
285,172,352472,5,4,0:0:0:0:
271,200,393452,5,4,0:0:0:0:
254,216,424993,5,4,0:0:0:0:
247,91,428175,2,0,L|266:229,1,135
224,206,428629,6,0,L|232:83,1,90,4|0,0:0|0:0,0:0:0:0:
257,247,467693,5,4,0:0:0:0:
230,184,515430,5,4,0:0:0:0:
209,158,559143,5,4,0:0:0:0:
242,165,601959,5,4,0:0:0:0:
212,202,642288,5,4,0:0:0:0:
259,206,690497,5,4,0:0:0:0:
384,36,730351,6,0,P|431:102|476:190,1,180,4|8,0:0|0:0,0:0:0:0:
337,76,730810,2,0,P|404:121|476:189,1,180,4|8,0:0|0:0,0:0:0:0:
306,130,731269,2,0,P|384:150|475:189,1,180,4|8,0:0|0:0,0:0:0:0:
296,190,731728,2,0,P|340:185|393:188,1,90,4|0,0:0|0:0,0:0:0:0:
310,310,732034,2,0,P|265:311|220:307,1,90,8|0,0:0|0:0,0:0:0:0:
100,228,732340,2,0,P|95:272|97:317,1,90,8|0,0:0|0:0,0:0:0:0:
230,372,732646,1,8,0:0:0:0:
206,217,732800,6,0,P|178:150|78:121,1,180,4|0,0:0|0:0,0:0:0:0:
269,159,735402,5,4,0:0:0:0:
272,216,781076,5,4,0:0:0:0:
272,216,781530,2,0,P|295:212|323:209,2,45,8|8|8,0:0|0:0|0:0,0:0:0:0:
167,146,781833,1,8,0:0:0:0:
268,108,781985,1,8,0:0:0:0:
142,59,782136,1,8,0:0:0:0:
185,215,782288,5,4,0:0:0:0:
185,215,782591,1,8,0:0:0:0:
67,170,782742,1,8,0:0:0:0:
90,294,782894,1,8,0:0:0:0:
185,215,783045,1,8,0:0:0:0:
248,324,783197,1,8,0:0:0:0:
315,218,783348,1,8,0:0:0:0:
246,111,783500,6,0,P|270:52|374:58,1,180,4|8,0:0|0:0,0:0:0:0:
421,163,783955,1,0,0:0:0:0:
315,218,784106,2,0,P|266:214|225:183,1,90
152,83,784409,1,8,0:0:0:0:
43,163,784561,6,0,P|50:246|56:345,1,180
155,265,785015,2,0,P|202:269|245:289,1,90,8|0,0:0|0:0,0:0:0:0:
316,364,785318,2,0,P|363:360|406:340,1,90
452,247,785621,2,0,P|461:202|477:152,1,90,8|0,0:0|0:0,0:0:0:0:
366,50,785924,6,0,P|327:91|405:160,1,180,2|8,0:0|0:0,0:0:0:0:
478,64,786379,1,0,0:0:0:0:
366,50,786530,2,0,P|314:44|274:42,1,90
174,79,786833,1,8,0:0:0:0:
175,187,786985,6,0,P|75:162|-30:141,1,180
110,141,787439,2,0,L|224:134,1,90,8|0,0:0|0:0,0:0:0:0:
274,58,787742,1,0,0:0:0:0:
332,172,787894,1,0,0:0:0:0:
376,96,788045,2,0,L|483:101,1,90,8|0,0:0|0:0,0:0:0:0:
489,262,788348,6,0,L|387:242,1,90,2|0,0:0|0:0,0:0:0:0:
336,300,788652,1,8,0:0:0:0:
216,262,788803,2,0,L|253:175,1,90
191,41,789106,2,0,L|179:134,1,90,0|8,0:0|0:0,0:0:0:0:
139,283,789409,6,0,L|-42:208,1,180
49,102,789864,2,0,L|147:141,1,90,8|0,0:0|0:0,0:0:0:0:
234,70,790167,2,0,L|242:168,1,90
389,146,790470,2,0,L|354:257,1,90,8|0,0:0|0:0,0:0:0:0:
267,346,790773,6,0,L|270:238,1,90,2|0,0:0|0:0,0:0:0:0:
174,162,791076,1,8,0:0:0:0:
277,89,791227,2,0,L|383:78,1,90,8|0,0:0|0:0,0:0:0:0:
400,231,791530,2,0,L|282:211,1,90,0|8,0:0|0:0,0:0:0:0:
198,169,791833,1,0,0:0:0:0:
300,134,791985,6,0,L|390:128,1,90,2|0,0:0|0:0,0:0:0:0:
425,212,792288,2,0,L|355:200,3,45,8|8|8|8,0:0|0:0|0:0|0:0,0:0:0:0:
359,311,792591,2,0,L|289:299,3,45,8|8|8|8,0:0|0:0|0:0|0:0,0:0:0:0:
222,258,792894,1,8,0:0:0:0:
190,274,792970,1,8,0:0:0:0:
166,291,793045,1,8,0:0:0:0:
119,288,793121,1,8,0:0:0:0:
80,275,793197,6,0,L|103:91,1,180,4|4,0:0|0:0,0:0:0:0:
174,62,793652,1,0,0:0:0:0:
254,138,793803,2,0,L|373:94,1,90
259,40,794106,1,8,0:0:0:0:
174,164,794258,6,0,P|187:223|299:204,1,180
355,159,794712,2,0,L|460:151,1,90,8|0,0:0|0:0,0:0:0:0:
414,80,795015,2,0,L|507:79,1,90
463,255,795318,2,0,L|356:238,1,90,8|0,0:0|0:0,0:0:0:0:
265,198,795621,6,0,L|300:6,1,180,4|8,0:0|0:0,0:0:0:0:
190,50,796076,1,0,0:0:0:0:
132,178,796227,2,0,L|163:271,1,90
32,214,796530,1,8,0:0:0:0:
256,261,796682,6,0,L|317:76,1,180
417,187,797136,2,0,L|391:279,1,90,8|0,0:0|0:0,0:0:0:0:
289,294,797439,1,0,0:0:0:0:
314,224,797591,1,0,0:0:0:0:
225,344,797742,2,0,L|143:287,1,90,8|0,0:0|0:0,0:0:0:0:
120,203,798045,6,0,L|135:107,1,90,2|0,0:0|0:0,0:0:0:0:
224,52,798348,1,8,0:0:0:0:
237,149,798500,2,0,L|265:256,1,90
387,235,798803,2,0,L|422:130,1,90,0|8,0:0|0:0,0:0:0:0:
265,63,799106,6,0,L|227:252,1,180
117,232,799561,2,0,L|119:335,1,90,8|0,0:0|0:0,0:0:0:0:
283,335,799864,2,0,L|277:235,1,90
401,174,800167,2,0,L|388:274,1,90,8|0,0:0|0:0,0:0:0:0:
475,329,800470,6,0,L|507:146,1,180,0|8,0:0|0:0,0:0:0:0:
426,64,800924,1,8,0:0:0:0:
419,59,801076,2,0,L|310:54,1,90
219,140,801379,1,8,0:0:0:0:
139,81,801530,1,0,0:0:0:0:
117,175,801682,6,0,L|121:269,1,90,8|0,0:0|0:0,0:0:0:0:
259,334,801985,1,8,0:0:0:0:
332,260,802136,2,0,L|367:157,1,90
282,52,802439,2,0,L|281:157,1,90,0|8,0:0|0:0,0:0:0:0:
203,261,802742,1,0,0:0:0:0:
112,120,802894,5,4,0:0:0:0:
256,192,802970,12,0,805318,0:0:0:0:
297,130,812022,6,0,P|224:123|151:119,1,144,4|8,0:0|0:0,0:0:0:0:
373,216,812433,2,0,P|413:161|403:86,1,144,4|8,0:0|0:0,0:0:0:0:
262,244,812844,2,0,P|296:306|366:332,1,144,4|8,0:0|0:0,0:0:0:0:
249,129,813255,6,2,P|183:155|149:216,1,144,4|0,0:0|0:0,0:0:0:0:
167,352,813666,1,8,0:0:0:0:
167,352,813940,1,8,0:0:0:0:
167,352,814214,6,0,P|145:318|127:289,1,72,4|0,0:0|0:0,0:0:0:0:
61,186,814488,2,0,P|39:220|21:249,1,72,8|0,0:0|0:0,0:0:0:0:
176,170,814762,2,0,P|154:136|136:107,1,72
69,26,815036,2,0,P|47:60|29:89,1,72,8|0,0:0|0:0,0:0:0:0:
112,222,815310,6,0,P|161:251|240:224,1,144,4|8,0:0|0:0,0:0:0:0:
409,132,815721,2,0,P|360:103|281:130,1,144
227,252,816132,1,8,0:0:0:0:
179,155,816269,1,0,0:0:0:0:
304,209,816406,6,0,P|343:197|369:176,1,72
292,103,816680,2,0,P|301:63|295:30,1,72,8|0,0:0|0:0,0:0:0:0:
195,63,816954,2,0,P|165:35|133:23,1,72
41,106,817228,2,0,P|70:128|105:138,1,72,8|0,0:0|0:0,0:0:0:0:
215,192,817502,6,0,P|221:264|227:339,1,144,4|8,0:0|0:0,0:0:0:0:
363,286,817913,2,0,P|369:214|375:139,1,144
320,40,818324,1,8,0:0:0:0:
430,71,818461,1,0,0:0:0:0:
310,138,818598,5,4,0:0:0:0:
310,138,818872,2,0,P|276:164|240:169,1,72,8|0,0:0|0:0,0:0:0:0:
178,92,819146,2,0,P|151:125|146:161,1,72
65,225,819420,2,0,P|98:251|134:256,1,72,8|0,0:0|0:0,0:0:0:0:
199,332,819694,6,0,P|225:298|230:262,1,72,4|0,0:0|0:0,0:0:0:0:
184,172,819967,1,8,0:0:0:0:
297,109,820104,2,0,P|372:102|447:95,1,144
490,196,820515,2,0,P|455:198|410:203,1,72,8|0,0:0|0:0,0:0:0:0:
316,236,820789,6,0,P|336:271|364:292,1,72
252,153,821063,2,0,P|226:178|215:212,1,72,8|0,0:0|0:0,0:0:0:0:
326,77,821337,2,0,P|294:55|263:48,1,72
385,162,821611,2,0,P|413:136|424:101,1,72,8|0,0:0|0:0,0:0:0:0:
252,153,821885,6,0,P|176:144|106:138,1,144,0|8,0:0|0:0,0:0:0:0:
35,271,822296,1,0,0:0:0:0:
35,271,822433,2,0,P|106:264|178:256,1,144,0|8,0:0|0:0,0:0:0:0:
293,299,822844,1,8,0:0:0:0:
268,135,822981,5,4,0:0:0:0:
268,135,823255,2,0,P|272:97|290:62,1,72,8|0,0:0|0:0,0:0:0:0:
374,128,823529,2,0,P|408:112|448:110,1,72
434,217,823803,2,0,P|464:239|486:272,1,72,8|0,0:0|0:0,0:0:0:0:
385,310,824077,6,0,P|380:348|362:383,1,72
278,315,824351,1,8,0:0:0:0:
209,231,824488,2,0,P|133:222|60:212,1,144
32,96,824899,2,0,L|103:106,1,72,8|0,0:0|0:0,0:0:0:0:
259,32,825173,6,0,L|188:42,1,72
230,152,825447,2,0,L|305:162,1,72,8|0,0:0|0:0,0:0:0:0:
457,88,825721,2,0,L|377:100,1,72
428,208,825995,2,0,L|499:217,1,72,8|0,0:0|0:0,0:0:0:0:
353,299,826269,6,0,P|311:243|321:169,1,144,4|8,0:0|0:0,0:0:0:0:
424,21,826680,2,0,P|466:77|452:150,1,144,4|0,0:0|0:0,0:0:0:0:
318,172,827091,1,8,0:0:0:0:
454,146,827228,1,8,0:0:0:0:
346,73,827365,5,4,0:0:0:0:
346,73,827639,2,0,P|307:71|274:81,1,72,8|0,0:0|0:0,0:0:0:0:
198,8,827913,2,0,P|176:40|168:74,1,72
65,104,828187,2,0,P|82:138|107:162,1,72,8|0,0:0|0:0,0:0:0:0:
79,265,828461,6,0,P|152:259|203:205,1,144,4|8,0:0|0:0,0:0:0:0:
289,124,828872,2,0,P|238:75|168:71,1,144,4|0,0:0|0:0,0:0:0:0:
343,251,829283,6,0,P|403:210|418:136,1,144,8|0,0:0|0:0,0:0:0:0:
358,44,829694,1,0,0:0:0:0:
246,74,829831,2,0,L|266:149,1,72,8|0,0:0|0:0,0:0:0:0:
212,231,830104,2,0,L|193:300,1,72
269,372,830378,1,8,0:0:0:0:
315,282,830515,1,0,0:0:0:0:
193,300,830652,6,0,P|157:295|125:271,1,72,4|0,0:0|0:0,0:0:0:0:
69,192,830926,1,8,0:0:0:0:
137,118,831063,2,0,P|132:82|114:47,1,72
69,192,831337,2,0,P|139:219|201:196,1,144,4|0,0:0|0:0,0:0:0:0:
264,82,831748,5,4,0:0:0:0:
264,82,832022,1,8,0:0:0:0:
264,82,832159,2,0,P|303:68|352:57,1,72,8|0,0:0|0:0,0:0:0:0:
425,115,832433,2,0,P|437:86|435:39,1,72,8|0,0:0|0:0,0:0:0:0:
320,103,832707,2,0,P|318:138|331:172,1,72,8|8,0:0|0:0,0:0:0:0:
330,269,832981,6,0,P|366:264|402:240,1,72,8|0,0:0|0:0,0:0:0:0:
462,328,833255,2,0,P|486:301|497:268,1,72,8|0,0:0|0:0,0:0:0:0:
442,165,833529,2,0,P|417:191|406:224,1,72,8|0,0:0|0:0,0:0:0:0:
462,328,833803,1,8,0:0:0:0:
360,365,833940,6,0,P|324:363|288:339,1,72,8|0,0:0|0:0,0:0:0:0:
212,272,834214,1,8,0:0:0:0:
282,190,834351,2,0,P|272:155|248:123,1,72,0|8,0:0|0:0,0:0:0:0:
176,51,834625,2,0,P|155:80|145:114,1,72,0|8,0:0|0:0,0:0:0:0:
188,214,834899,6,0,P|206:277|222:360,1,144,8|0,0:0|0:0,0:0:0:0:
91,340,835310,2,0,P|81:302|77:269,1,72,8|0,0:0|0:0,0:0:0:0:
174,143,835584,2,0,P|183:180|188:214,1,72,8|0,0:0|0:0,0:0:0:0:
58,148,835858,2,0,P|48:110|44:77,1,72,8|0,0:0|0:0,0:0:0:0:
176,51,836132,5,4,0:0:0:0:
176,51,836406,1,8,0:0:0:0:
176,51,836543,2,0,P|213:44|246:33,1,72,0|8,0:0|0:0,0:0:0:0:
343,81,836817,2,0,P|357:117|370:148,1,72,0|8,0:0|0:0,0:0:0:0:
324,246,837091,6,0,P|348:325|402:315,1,144,8|0,0:0|0:0,0:0:0:0:
455,212,837502,1,0,0:0:0:0:
369,147,837639,2,0,P|334:152|292:158,1,72,8|0,0:0|0:0,0:0:0:0:
215,86,837913,2,0,P|193:118|187:151,1,72,8|0,0:0|0:0,0:0:0:0:
226,251,838187,1,8,0:0:0:0:
164,339,838324,6,0,P|126:340|91:323,1,72,8|0,0:0|0:0,0:0:0:0:
52,226,838598,1,8,0:0:0:0:
52,226,838735,2,0,P|43:188|30:150,1,72,0|8,0:0|0:0,0:0:0:0:
114,57,839009,2,0,P|122:92|134:126,1,72,0|8,0:0|0:0,0:0:0:0:
204,209,839283,6,0,P|234:226|273:229,1,72,8|0,0:0|0:0,0:0:0:0:
369,182,839557,1,8,0:0:0:0:
405,80,839694,2,0,P|397:44|377:9,1,72,0|8,0:0|0:0,0:0:0:0:
296,81,839967,1,0,0:0:0:0:
296,81,840104,2,0,P|278:112|271:147,1,72,8|8,0:0|0:0,0:0:0:0:
302,252,840378,1,8,0:0:0:0:
386,319,840515,6,0,P|422:321|459:301,1,72,12|0,0:0|0:0,0:0:0:0:
397,216,840789,2,0,P|425:195|440:163,1,72,8|0,0:0|0:0,0:0:0:0:
343,129,841063,2,0,P|351:93|337:53,1,72,8|0,0:0|0:0,0:0:0:0:
245,96,841337,2,0,P|230:65|200:44,1,72,8|0,0:0|0:0,0:0:0:0:
151,136,841611,6,0,P|117:121|76:127,1,72,8|0,0:0|0:0,0:0:0:0:
211,226,841885,2,0,P|244:240|285:234,1,72,8|0,0:0|0:0,0:0:0:0:
126,295,842159,2,0,P|92:280|51:286,1,72,8|0,0:0|0:0,0:0:0:0:
212,364,842433,2,0,P|245:378|286:372,1,72,8|0,0:0|0:0,0:0:0:0:
372,317,842707,6,0,P|367:280|349:249,1,72,8|0,0:0|0:0,0:0:0:0:
285,171,842981,1,8,0:0:0:0:
285,171,843118,2,0,P|287:132|301:100,1,72,0|8,0:0|0:0,0:0:0:0:
380,39,843392,1,0,0:0:0:0:
442,118,843529,2,0,L|517:104,1,72,8|0,0:0|0:0,0:0:0:0:
454,230,843803,6,0,L|378:215,1,72,8|8,0:0|0:0,0:0:0:0:
253,152,844077,2,0,L|335:137,1,72,8|8,0:0|0:0,0:0:0:0:
265,264,844351,2,0,L|182:245,1,72,8|8,0:0|0:0,0:0:0:0:
61,190,844625,2,0,L|140:175,1,72,8|0,0:0|0:0,0:0:0:0:
232,105,844899,6,0,P|228:63|208:34,1,72,8|0,0:0|0:0,0:0:0:0:
118,118,845173,1,0,0:0:0:0:
118,118,845310,2,0,P|100:148|98:184,1,72,8|0,0:0|0:0,0:0:0:0:
135,302,845584,2,0,P|161:326|205:332,1,72,0|8,0:0|0:0,0:0:0:0:
305,276,845858,1,0,0:0:0:0:
224,183,845995,6,0,P|231:146|250:116,1,72,8|0,0:0|0:0,0:0:0:0:
276,14,846269,2,0,P|309:29|336:56,1,72,8|0,0:0|0:0,0:0:0:0:
362,155,846543,2,0,P|398:140|419:115,1,72,8|0,0:0|0:0,0:0:0:0:
387,11,846817,1,8,0:0:0:0:
492,35,846954,1,0,0:0:0:0:
424,145,847091,6,0,P|431:184|438:223,1,72,8|0,0:0|0:0,0:0:0:0:
335,255,847365,2,0,P|316:285|298:317,1,72,8|0,0:0|0:0,0:0:0:0:
191,296,847639,2,0,P|156:307|123:320,1,72,8|0,0:0|0:0,0:0:0:0:
75,222,847913,2,0,P|41:209|7:197,1,72,8|0,0:0|0:0,0:0:0:0:
104,89,848187,5,8,0:0:0:0:
158,53,848324,1,8,0:0:0:0:
222,48,848461,1,8,0:0:0:0:
277,81,848598,1,8,0:0:0:0:
327,122,848735,1,8,0:0:0:0:
388,141,848872,1,8,0:0:0:0:
448,117,849009,1,8,0:0:0:0:
464,54,849146,1,8,0:0:0:0:
417,8,849283,6,0,P|386:55|393:151,1,144,4|8,0:0|0:0,0:0:0:0:
469,259,849694,2,0,P|399:261|335:312,1,144,4|8,0:0|0:0,0:0:0:0:
217,377,850104,2,0,P|223:313|234:226,1,144,4|8,0:0|0:0,0:0:0:0:
84,73,850515,2,0,P|90:137|101:224,1,144,4|0,0:0|0:0,0:0:0:0:
244,148,850926,1,8,0:0:0:0:
244,148,851063,1,8,0:0:0:0:
244,148,851474,5,4,0:0:0:0:
97,67,858564,6,0,B|136:77|199:57|199:57|171:94,1,135,4|0,0:0|0:0,0:0:0:0:
119,162,859073,2,0,B|130:208|110:273|110:273|135:257,1,135,4|0,0:0|0:0,0:0:0:0:
220,213,859581,2,0,P|241:212|268:220,1,45,8|8,0:0|0:0,0:0:0:0:
346,282,859836,2,0,P|369:279|391:266,1,45,8|8,0:0|0:0,0:0:0:0:
453,189,860090,1,8,0:0:0:0:
377,117,860217,2,0,P|383:68|392:22,1,90,8|0,0:3|0:0,0:0:0:0:
453,189,860598,6,0,P|396:226|336:218,1,125.999996154785,4|0,0:0|0:0,0:0:0:0:
250,160,860980,2,0,P|217:166|192:182,1,62.9999980773926,0|8,0:0|0:0,0:0:0:0:
118,258,861234,1,0,0:0:0:0:
118,258,861361,2,0,P|85:252|60:236,1,62.9999980773926
15,132,861615,6,0,P|15:68|61:24,1,125.999996154785,8|0,0:0|0:0,0:0:0:0:
114,112,861997,1,0,0:0:0:0:
114,112,862124,2,0,P|144:109|172:92,1,62.9999980773926,8|0,0:0|0:0,0:0:0:0:
263,143,862378,2,0,P|275:115|274:82,1,62.9999980773926
156,177,862632,6,0,P|183:227|248:256,1,125.999996154785,4|0,0:0|0:0,0:0:0:0:
337,202,863014,2,0,P|369:204|398:214,1,62.9999980773926,0|8,0:0|0:0,0:0:0:0:
484,151,863268,2,0,P|498:179|504:209,1,62.9999980773926
483,315,863522,1,0,0:0:0:0:
483,315,863649,6,0,P|458:335|427:342,1,62.9999980773926,8|8,0:0|0:0,0:0:0:0:
340,282,863903,2,0,P|304:285|279:297,1,62.9999980773926,8|0,0:0|0:0,0:0:0:0:
191,357,864158,2,0,P|195:295|198:224,1,125.999996154785,8|0,0:0|0:0,0:0:0:0:
288,163,864539,1,0,0:0:0:0:
288,163,864666,6,0,P|237:122|171:119,1,125.999996154785,4|0,0:0|0:0,0:0:0:0:
77,154,865047,1,0,0:0:0:0:
29,196,865175,1,8,0:0:0:0:
11,256,865302,2,0,P|13:290|24:317,1,62.9999980773926
120,361,865556,2,0,P|151:356|180:337,1,62.9999980773926,0|8,0:0|0:0,0:0:0:0:
240,256,865810,6,0,P|298:267|366:273,1,125.999996154785
439,195,866191,2,0,P|459:218|467:248,1,62.9999980773926,8|0,0:0|0:0,0:0:0:0:
336,170,866446,2,0,P|344:139|364:116,1,62.9999980773926
364,272,866700,6,0,P|301:267|240:256,1,125.999996154785,4|0,0:0|0:0,0:0:0:0:
138,287,867081,2,0,P|117:263|114:230,1,62.9999980773926,0|8,0:0|0:0,0:0:0:0:
26,174,867336,2,0,P|45:151|76:136,1,62.9999980773926
179,164,867590,1,0,0:0:0:0:
178,163,867717,6,0,P|241:151|254:84,1,125.999996154785,8|0,0:0|0:0,0:0:0:0:
188,10,868098,1,0,0:0:0:0:
188,10,868225,2,0,P|164:37|153:65,1,62.9999980773926,8|0,0:0|0:0,0:0:0:0:
178,163,868480,2,0,P|180:195|173:226,1,62.9999980773926,8|0,0:0|0:0,0:0:0:0:
97,300,868734,6,0,P|125:320|157:330,1,62.9999980773926,4|0,0:0|0:0,0:0:0:0:
244,271,868988,1,0,0:0:0:0:
244,271,869115,2,0,P|275:275|304:288,1,62.9999980773926,0|8,0:0|0:0,0:0:0:0:
377,363,869369,2,0,P|398:338|405:308,1,62.9999980773926
350,216,869624,1,0,0:0:0:0:
350,216,869751,6,0,P|359:154|374:90,1,125.999996154785,8|0,0:0|0:0,0:0:0:0:
450,17,870132,1,0,0:0:0:0:
450,17,870259,2,0,P|468:39|479:71,1,62.9999980773926,8|0,0:0|0:0,0:0:0:0:
429,170,870514,2,0,P|397:169|364:151,1,62.9999980773926,0|8,0:0|0:0,0:0:0:0:
317,65,870768,6,0,P|291:82|274:109,1,62.9999980773926,8|0,0:0|0:0,0:0:0:0:
299,218,871022,1,0,0:0:0:0:
279,277,871149,1,0,0:0:0:0:
226,312,871276,2,0,P|171:315|115:265,1,125.999996154785,8|8,0:0|0:0,0:0:0:0:
19,236,871658,1,8,0:0:0:0:
19,236,871785,6,0,P|32:206|55:187,1,62.9999980773926,8|0,0:0|0:0,0:0:0:0:
36,85,872039,2,0,P|68:81|96:91,1,62.9999980773926
176,24,872293,2,0,P|195:50|200:79,1,62.9999980773926,8|0,0:0|0:0,0:0:0:0:
145,185,872547,1,0,0:0:0:0:
124,245,872675,1,0,0:0:0:0:
106,305,872802,6,0,P|142:344|216:344,1,125.999996154785,4|0,0:0|0:0,0:0:0:0:
299,284,873183,1,0,0:0:0:0:
299,284,873310,2,0,P|313:310|318:342,1,62.9999980773926,8|0,0:0|0:0,0:0:0:0:
199,236,873564,1,0,0:0:0:0:
231,181,873691,1,0,0:0:0:0:
287,151,873819,6,0,P|319:154|354:167,1,62.9999980773926,8|8,0:0|0:0,0:0:0:0:
426,238,874073,2,0,P|446:209|453:179,1,62.9999980773926,8|0,0:0|0:0,0:0:0:0:
455,71,874327,2,0,P|392:82|353:128,1,125.999996154785,8|0,0:0|0:0,0:0:0:0:
348,255,874708,1,0,0:0:0:0:
348,255,874836,6,0,B|380:300|356:349|356:349|384:305,1,135,8|0,0:0|0:0,0:0:0:0:
274,310,875344,2,0,B|245:338|214:329|214:329|202:341|202:341|168:333|141:351,1,135,8|0,0:0|0:0,0:0:0:0:
63,366,875852,2,0,P|64:311|84:282,1,90,8|8,0:0|0:0,0:0:0:0:
175,228,876234,1,8,0:0:0:0:
206,196,876361,1,8,0:0:0:0:
218,152,876488,1,8,0:0:0:0:
204,109,876615,1,8,0:0:0:0:
170,79,876742,1,8,0:0:0:0:
130,60,876869,6,0,P|91:64|52:141,1,125.999996154785,4|0,0:0|0:0,0:0:0:0:
3,228,877251,2,0,P|35:239|75:237,1,62.9999980773926,0|8,0:0|0:0,0:0:0:0:
122,326,877505,1,0,0:0:0:0:
122,326,877632,2,0,P|150:302|159:278,1,62.9999980773926
178,171,877886,5,8,0:0:0:0:
178,171,878014,2,0,P|236:194|265:253,1,125.999996154785
268,354,878395,2,0,P|302:348|330:330,1,62.9999980773926,8|0,0:0|0:0,0:0:0:0:
433,344,878649,2,0,P|430:311|418:281,1,62.9999980773926
504,220,878903,6,0,P|457:183|388:183,1,125.999996154785,4|0,0:0|0:0,0:0:0:0:
302,242,879285,2,0,P|265:236|239:217,1,62.9999980773926,0|8,0:0|0:0,0:0:0:0:
151,270,879539,2,0,P|137:234|141:202,1,62.9999980773926
49,155,879793,1,0,0:0:0:0:
49,155,879920,6,0,P|72:125|102:112,1,62.9999980773926,8|8,0:0|0:0,0:0:0:0:
156,30,880175,2,0,P|129:13|98:10,1,62.9999980773926,8|0,0:0|0:0,0:0:0:0:
203,128,880429,2,0,P|266:122|300:62,1,125.999996154785,8|0,0:0|0:0,0:0:0:0:
399,34,880810,1,0,0:0:0:0:
399,34,880937,6,0,P|409:94|418:165,1,125.999996154785,4|0,0:0|0:0,0:0:0:0:
475,250,881318,1,0,0:0:0:0:
448,307,881446,1,8,0:0:0:0:
390,333,881573,2,0,P|363:336|318:318,1,62.9999980773926
245,259,881827,2,0,P|211:267|180:286,1,62.9999980773926,0|8,0:0|0:0,0:0:0:0:
108,353,882081,6,0,P|101:289|96:225,1,125.999996154785,8|0,0:0|0:0,0:0:0:0:
18,157,882462,2,0,P|43:137|72:127,1,62.9999980773926,8|0,0:0|0:0,0:0:0:0:
98,25,882717,2,0,P|127:36|150:56,1,62.9999980773926
189,158,882971,6,0,P|201:222|217:298,1,125.999996154785,4|0,0:0|0:0,0:0:0:0:
162,370,883352,2,0,P|133:353|118:325,1,62.9999980773926,0|8,0:0|0:0,0:0:0:0:
16,332,883607,2,0,P|16:298|32:271,1,62.9999980773926
124,217,883861,1,0,0:0:0:0:
124,217,883988,6,0,P|186:212|254:207,1,125.999996154785,8|0,0:0|0:0,0:0:0:0:
332,137,884369,1,0,0:0:0:0:
387,105,884497,1,8,0:0:0:0:
449,114,884624,1,8,0:0:0:0:
488,162,884751,1,8,0:0:0:0:
491,224,884878,1,8,0:0:0:0:
462,280,885005,6,0,P|438:294|402:300,1,62.9999980773926,4|0,0:0|0:0,0:0:0:0:
302,260,885259,1,0,0:0:0:0:
302,260,885386,2,0,P|270:264|243:280,1,62.9999980773926,0|8,0:0|0:0,0:0:0:0:
177,360,885640,2,0,P|150:335|143:309,1,62.9999980773926
38,290,885895,1,0,0:0:0:0:
38,290,886022,6,0,P|62:240|126:205,1,125.999996154785,8|0,0:0|0:0,0:0:0:0:
209,146,886403,1,0,0:0:0:0:
209,146,886530,2,0,P|185:120|159:108,1,62.9999980773926,8|0,0:0|0:0,0:0:0:0:
147,6,886785,2,0,P|112:13|89:30,1,62.9999980773926
3,89,887039,6,0,P|26:115|52:127,1,62.9999980773926,8|0,0:0|0:0,0:0:0:0:
160,108,887293,1,0,0:0:0:0:
220,90,887420,1,0,0:0:0:0:
282,79,887547,2,0,P|350:73|423:70,1,125.999996154785,8|8,0:0|0:0,0:0:0:0:
493,130,887929,1,8,0:0:0:0:
493,130,888056,6,0,P|473:154|445:168,1,62.9999980773926,8|8,0:0|0:0,0:0:0:0:
434,271,888310,2,0,P|403:265|377:247,1,62.9999980773926,8|0,0:0|0:0,0:0:0:0:
282,294,888564,2,0,P|271:264|273:233,1,62.9999980773926,8|0,0:0|0:0,0:0:0:0:
315,131,888818,1,0,0:0:0:0:
338,78,888946,1,0,0:0:0:0:
320,24,889073,6,0,P|255:18|199:56,1,125.999996154785,4|0,0:0|0:0,0:0:0:0:
143,135,889454,1,0,0:0:0:0:
143,135,889581,2,0,P|118:111|106:85,1,62.9999980773926,8|0,0:0|0:0,0:0:0:0:
25,159,889836,1,8,0:0:0:0:
12,220,889962,1,0,0:0:0:0:
31,280,890090,6,0,P|49:305|89:316,1,62.9999980773926,8|8,0:0|0:0,0:0:0:0:
172,266,890344,2,0,P|197:268|232:283,1,62.9999980773926,8|8,0:0|0:0,0:0:0:0:
287,374,890598,2,0,P|328:329|336:265,1,125.999996154785,8|8,0:0|0:0,0:0:0:0:
285,149,890979,1,0,0:0:0:0:
285,149,891107,6,0,B|325:164|370:133|370:133|389:151|389:151|424:126|467:152,1,188.999994232178,8|0,0:0|0:0,0:0:0:0:
223,80,891615,2,0,P|192:148|251:235,1,188.999994232178,8|0,0:0|0:0,0:0:0:0:
331,316,892123,2,0,P|305:257|250:235,1,125.999996154785,8|8,0:0|0:0,0:0:0:0:
139,308,892505,1,8,0:0:0:0:
77,319,892632,1,8,0:0:0:0:
27,280,892759,1,8,0:0:0:0:
17,217,892886,1,8,0:0:0:0:
41,158,893014,1,8,0:0:0:0:
95,125,893141,5,4,0:0:0:0:
256,192,893204,12,0,895175,0:0:0:0:
256,192,901971,5,4,0:0:0:0:
256,192,903749,5,4,0:0:0:0:
256,192,904638,2,0,P|188:184|115:177,2,135,4|8|8,0:0|0:0|0:0,0:0:0:0:
291,185,905416,1,0,0:0:0:0:
323,166,905527,6,0,P|347:98|328:43,1,125.999996154785,4|0,0:0|0:0,0:0:0:0:
243,100,905860,1,0,0:0:0:0:
243,100,905971,2,0,P|211:89|190:68,1,62.9999980773926,8|0,0:0|0:0,0:0:0:0:
94,99,906193,2,0,P|87:66|95:37,1,62.9999980773926
0,132,906416,6,0,P|32:186|92:203,1,125.999996154785,8|0,0:0|0:0,0:0:0:0:
182,165,906749,1,0,0:0:0:0:
182,165,906860,2,0,P|192:200|188:228,1,62.9999980773926,8|0,0:0|0:0,0:0:0:0:
271,284,907082,2,0,P|245:310|219:320,1,62.9999980773926
113,384,907305,6,0,P|92:329|115:258,1,125.999996154785,8|0,0:0|0:0,0:0:0:0:
182,165,907638,1,0,0:0:0:0:
182,165,907749,2,0,B|217:167|254:142|254:142|225:184,1,125.999996154785,8|0,0:0|0:0,0:0:0:0:
178,337,908082,1,0,0:0:0:0:
178,337,908193,6,0,B|213:335|250:359|250:359|222:320,1,125.999996154785,8|0,0:0|0:0,0:0:0:0:
126,193,908527,1,0,0:0:0:0:
182,165,908638,1,8,0:0:0:0:
244,166,908749,1,8,0:0:0:0:
301,192,908860,1,8,0:0:0:0:
341,240,908971,1,8,0:0:0:0:
366,292,909082,6,0,P|370:224|376:167,1,125.999996154785,4|0,0:0|0:0,0:0:0:0:
451,85,909416,1,0,0:0:0:0:
451,85,909527,2,0,P|447:55|431:22,1,62.9999980773926,8|0,0:0|0:0,0:0:0:0:
346,80,909749,2,0,P|323:59|290:44,1,62.9999980773926
265,146,909971,6,0,P|242:167|151:182,1,125.999996154785,8|0,0:0|0:0,0:0:0:0:
74,116,910305,1,0,0:0:0:0:
74,116,910416,2,0,P|54:144|49:172,1,62.9999980773926,8|0,0:0|0:0,0:0:0:0:
178,98,910638,2,0,P|171:67|152:42,1,62.9999980773926
151,182,910860,6,0,P|213:180|265:146,1,125.999996154785,8|0,0:0|0:0,0:0:0:0:
356,91,911193,1,0,0:0:0:0:
356,91,911305,2,0,P|369:120|370:151,1,62.9999980773926,8|0,0:0|0:0,0:0:0:0:
407,249,911527,2,0,P|435:234|455:210,1,62.9999980773926
370,150,911749,6,0,P|314:192|299:245,1,125.999996154785,8|0,0:0|0:0,0:0:0:0:
345,338,912082,1,0,0:0:0:0:
344,338,912194,2,0,P|286:349|225:318,1,125.999996154785,8|0,0:0|0:0,0:0:0:0:
128,233,912527,1,0,0:0:0:0:
128,233,912638,6,0,P|68:244|-2:259,1,125.999996154785,8|0,0:0|0:0,0:0:0:0:
36,153,912971,1,0,0:0:0:0:
36,153,913082,2,0,P|43:123|51:92,1,62.9999980773926,8|0,0:0|0:0,0:0:0:0:
155,99,913304,2,0,P|162:69|170:38,1,62.9999980773926
277,47,913527,6,0,P|342:45|412:40,1,125.999996154785,8|0,0:0|0:0,0:0:0:0:
457,135,913860,1,0,0:0:0:0:
457,135,913971,2,0,L|390:140,1,62.9999980773926,8|0,0:0|0:0,0:0:0:0:
293,175,914194,2,0,P|309:204|333:221,1,62.9999980773926
314,322,914416,5,4,0:0:0:0:
314,322,914527,2,0,P|347:322|373:310,1,62.9999980773926,0|8,0:0|0:0,0:0:0:0:
457,373,914749,1,8,0:0:0:0:
457,373,914860,2,0,P|474:344|476:315,1,62.9999980773926,0|8,0:0|0:0,0:0:0:0:
436,222,915082,1,8,0:0:0:0:
436,222,915193,6,0,P|404:220|376:233,1,62.9999980773926,0|8,0:0|0:0,0:0:0:0:
314,322,915416,1,8,0:0:0:0:
314,322,915527,2,0,P|288:303|274:276,1,62.9999980773926,0|8,0:0|0:0,0:0:0:0:
225,159,915749,1,8,0:0:0:0:
169,128,915860,1,8,0:0:0:0:
106,124,915971,1,8,0:0:0:0:
47,147,916082,1,8,0:0:0:0:
9,198,916194,6,0,P|-1:259|18:321,1,125.999996154785,4|0,0:0|0:0,0:0:0:0:
133,375,916527,1,0,0:0:0:0:
133,375,916638,2,0,P|144:341|144:314,1,62.9999980773926,8|0,0:0|0:0,0:0:0:0:
82,228,916860,2,0,P|110:212|142:209,1,62.9999980773926
229,263,917083,6,0,P|272:294|356:283,1,125.999996154785,8|0,0:0|0:0,0:0:0:0:
446,300,917416,1,0,0:0:0:0:
446,300,917527,2,0,P|444:266|433:240,1,62.9999980773926,8|0,0:0|0:0,0:0:0:0:
333,200,917749,2,0,P|350:171|372:153,1,62.9999980773926
474,120,917972,6,0,P|439:68|377:47,1,125.999996154785,8|0,0:0|0:0,0:0:0:0:
290,100,918305,1,0,0:0:0:0:
290,100,918416,2,0,P|277:69|276:40,1,62.9999980773926,8|0,0:0|0:0,0:0:0:0:
195,152,918638,2,0,P|215:178|239:194,1,62.9999980773926
116,223,918861,6,0,P|86:169|99:109,1,125.999996154785,8|0,0:0|0:0,0:0:0:0:
193,28,919194,1,0,0:0:0:0:
193,28,919305,2,0,P|210:56|215:85,1,62.9999980773926,8|0,0:0|0:0,0:0:0:0:
240,194,919527,1,0,0:0:0:0:
263,252,919638,1,0,0:0:0:0:
262,314,919749,6,0,P|228:347|139:342,1,125.999996154785,8|0,0:0|0:0,0:0:0:0:
47,283,920083,1,0,0:0:0:0:
47,283,920194,2,0,P|63:259|93:239,1,62.9999980773926,8|0,0:0|0:0,0:0:0:0:
197,243,920415,2,0,P|195:211|181:183,1,62.9999980773926
145,87,920638,6,0,P|92:118|78:178,1,125.999996154785,8|0,0:0|0:0,0:0:0:0:
71,287,920972,1,0,0:0:0:0:
71,287,921083,2,0,P|102:286|131:273,1,62.9999980773926,8|0,0:0|0:0,0:0:0:0:
237,280,921304,2,0,P|234:310|215:343,1,62.9999980773926
338,300,921527,6,0,P|337:238|295:194,1,125.999996154785,8|0,0:0|0:0,0:0:0:0:
193,165,921860,1,0,0:0:0:0:
193,165,921971,2,0,P|224:110|289:93,1,125.999996154785,8|0,0:0|0:0,0:0:0:0:
363,20,922305,1,0,0:0:0:0:
363,20,922415,6,0,P|395:74|377:139,1,125.999996154785,8|0,0:0|0:0,0:0:0:0:
294,193,922749,1,0,0:0:0:0:
294,193,922860,2,0,P|312:215|350:235,1,62.9999980773926,8|0,0:0|0:0,0:0:0:0:
438,187,923082,1,8,0:0:0:0:
448,249,923194,1,8,0:0:0:0:
419,305,923305,6,0,P|356:338|303:332,1,125.999996154785,8|0,0:0|0:0,0:0:0:0:
229,257,923638,1,0,0:0:0:0:
229,257,923749,2,0,P|206:290|199:322,1,62.9999980773926,8|0,0:0|0:0,0:0:0:0:
126,235,923971,2,0,P|103:202|96:170,1,62.9999980773926
112,61,924194,6,0,P|169:80|204:135,1,125.999996154785,8|0,0:0|0:0,0:0:0:0:
97,180,924527,1,0,0:0:0:0:
97,180,924638,2,0,P|60:169|34:151,1,62.9999980773926,8|0,0:0|0:0,0:0:0:0:
136,280,924860,2,0,P|163:264|185:242,1,62.9999980773926
29,287,925082,6,0,P|53:351|111:379,1,125.999996154785,8|0,0:0|0:0,0:0:0:0:
189,313,925416,1,0,0:0:0:0:
189,313,925527,2,0,P|221:317|251:329,1,62.9999980773926,8|0,0:0|0:0,0:0:0:0:
345,377,925749,2,0,P|354:346|350:302,1,62.9999980773926
315,220,925971,6,0,P|325:155|337:85,1,125.999996154785,8|8,0:0|0:0,0:0:0:0:
433,52,926305,1,0,0:0:0:0:
476,106,926416,1,8,0:0:0:0:
483,174,926527,1,8,0:0:0:0:
445,232,926638,1,8,0:0:0:0:
378,250,926749,1,8,0:0:0:0:
315,220,926860,6,0,P|252:207|189:196,1,125.999996154785,4|8,0:0|0:0,0:0:0:0:
123,117,927194,1,0,0:0:0:0:
123,117,927304,2,0,P|107:97|97:61,2,62.9999980773926,8|0|8,0:0|0:0|0:0,0:0:0:0:
191,196,927638,1,4,0:0:0:0:
191,196,927749,6,0,P|157:218|122:223,1,62.9999980773926
104,325,927971,2,0,P|67:306|46:278,1,62.9999980773926,8|0,0:0|0:0,0:0:0:0:
66,182,928193,2,0,P|96:190|121:208,1,62.9999980773926,8|0,0:0|0:0,0:0:0:0:
191,293,928415,2,0,P|231:287|261:269,1,62.9999980773926,8|0,0:0|0:0,0:0:0:0:
304,184,928638,6,0,P|349:229|356:290,1,125.999996154785,4|8,0:0|0:0,0:0:0:0:
285,368,928971,1,0,0:0:0:0:
285,368,929082,2,0,P|264:345|252:317,2,62.9999980773926,8|0|8,0:0|0:0|0:0,0:0:0:0:
356,288,929415,6,0,P|379:264|400:240,1,62.9999980773926,0|8,0:0|0:0,0:0:0:0:
470,160,929638,1,0,0:0:0:0:
470,160,929749,2,0,P|493:184|514:208,1,62.9999980773926,8|0,0:0|0:0,0:0:0:0:
378,222,929971,2,0,P|355:198|334:174,1,62.9999980773926,8|0,0:0|0:0,0:0:0:0:
405,93,930193,2,0,P|425:69|447:46,1,62.9999980773926,8|0,0:0|0:0,0:0:0:0:
312,150,930416,6,0,P|252:141|177:135,1,125.999996154785,4|8,0:0|0:0,0:0:0:0:
123,50,930749,1,0,0:0:0:0:
123,50,930860,2,0,P|85:108|86:166,1,125.999996154785,8|8,0:0|0:0,0:0:0:0:
65,264,931193,1,0,0:0:0:0:
65,264,931304,6,0,P|29:254|11:236,1,62.9999980773926,8|0,0:0|0:0,0:0:0:0:
115,357,931527,2,0,P|142:343|160:312,1,62.9999980773926,8|0,0:0|0:0,0:0:0:0:
227,236,931749,2,0,P|251:263|262:292,1,62.9999980773926,8|0,0:0|0:0,0:0:0:0:
329,369,931971,2,0,P|351:344|363:314,1,62.9999980773926,8|0,0:0|0:0,0:0:0:0:
310,168,932194,5,4,0:0:0:0:
310,168,932638,2,0,P|315:126|324:80,1,90,8|0,0:0|0:0,0:0:0:0:
442,14,933082,1,8,0:0:0:0:
467,200,933305,1,0,0:0:0:0:
507,100,933527,1,8,0:0:0:0:
376,132,933749,1,0,0:0:0:0:
376,132,933860,1,0,0:0:0:0:
376,132,933971,6,0,P|332:132|286:107,1,90,8|0,0:0|0:0,0:0:0:0:
216,37,934416,2,0,P|189:77|186:120,1,90,8|0,0:0|0:0,0:0:0:0:
120,196,934860,2,0,P|75:184|32:173,1,90,8|0,0:0|0:0,0:0:0:0:
62,287,935305,2,0,L|64:338,1,45,8|8,0:0|0:0,0:0:0:0:
160,329,935527,2,0,L|163:373,1,45,8|8,0:0|0:0,0:0:0:0:
267,358,935749,6,0,P|327:349|391:341,1,125.999996154785,4|8,0:0|0:0,0:0:0:0:
493,309,936082,1,0,0:0:0:0:
493,309,936193,2,0,P|477:276|453:255,1,62.9999980773926,8|0,0:0|0:0,0:0:0:0:
354,229,936415,2,0,P|318:232|288:247,1,62.9999980773926,8|0,0:0|0:0,0:0:0:0:
221,322,936637,6,0,P|189:267|195:207,1,125.999996154785,8|8,0:0|0:0,0:0:0:0:
218,104,936971,1,0,0:0:0:0:
218,104,937082,2,0,P|184:102|152:114,1,62.9999980773926,8|0,0:0|0:0,0:0:0:0:
67,171,937304,1,8,0:0:0:0:
26,219,937415,1,0,0:0:0:0:
19,281,937526,6,0,P|43:336|105:361,1,125.999996154785,8|8,0:0|0:0,0:0:0:0:
192,303,937860,1,0,0:0:0:0:
192,303,937971,2,0,P|225:306|256:318,1,62.9999980773926,8|0,0:0|0:0,0:0:0:0:
343,372,938193,2,0,P|357:339|355:302,1,62.9999980773926,8|0,0:0|0:0,0:0:0:0:
298,224,938415,6,0,P|343:207|436:243,1,125.999996154785,8|8,0:0|0:0,0:0:0:0:
493,299,938749,1,0,0:0:0:0:
493,299,938860,2,0,P|497:235|503:174,1,125.999996154785,8|8,0:0|0:0,0:0:0:0:
489,70,939193,1,0,0:0:0:0:
489,70,939304,6,0,P|430:93|402:158,1,125.999996154785,8|8,0:0|0:0,0:0:0:0:
335,229,939637,1,0,0:0:0:0:
335,229,939749,2,0,P|311:202|301:177,1,62.9999980773926,8|0,0:0|0:0,0:0:0:0:
197,156,939971,2,0,P|206:126|224:101,1,62.9999980773926,8|0,0:0|0:0,0:0:0:0:
234,259,940193,6,0,P|167:263|118:228,1,125.999996154785,8|8,0:0|0:0,0:0:0:0:
89,132,940526,1,0,0:0:0:0:
89,132,940637,2,0,P|58:145|36:168,1,62.9999980773926,8|0,0:0|0:0,0:0:0:0:
21,271,940860,1,8,0:0:0:0:
42,330,940971,1,0,0:0:0:0:
93,366,941082,6,0,P|135:370|198:319,1,125.999996154785,8|8,0:0|0:0,0:0:0:0:
223,217,941415,1,0,0:0:0:0:
223,217,941526,2,0,P|249:227|282:257,1,62.9999980773926,8|0,0:0|0:0,0:0:0:0:
378,222,941749,2,0,P|382:249|372:293,1,62.9999980773926,8|0,0:0|0:0,0:0:0:0:
306,364,941971,6,0,P|273:311|275:248,1,125.999996154785,8|8,0:0|0:0,0:0:0:0:
232,157,942304,1,0,0:0:0:0:
232,157,942415,2,0,P|267:147|296:149,1,62.9999980773926,8|0,0:0|0:0,0:0:0:0:
378,222,942637,2,0,P|394:195|401:164,1,62.9999980773926,8|0,0:0|0:0,0:0:0:0:
362,54,942860,6,0,P|424:50|476:85,1,125.999996154785,4|8,0:0|0:0,0:0:0:0:
506,186,943193,1,0,0:0:0:0:
506,186,943304,2,0,P|500:223|483:245,1,62.9999980773926,8|0,0:0|0:0,0:0:0:0:
429,329,943526,2,0,P|399:305|389:279,1,62.9999980773926,8|0,0:0|0:0,0:0:0:0:
286,278,943749,6,0,P|292:240|309:219,1,62.9999980773926,8|0,0:0|0:0,0:0:0:0:
259,129,943971,2,0,P|294:115|321:119,1,62.9999980773926,8|0,0:0|0:0,0:0:0:0:
374,29,944193,2,0,P|403:52|413:78,1,62.9999980773926,8|0,0:0|0:0,0:0:0:0:
420,182,944415,1,8,0:0:0:0:
371,221,944526,1,0,0:0:0:0:
306,221,944637,6,0,P|240:211|175:207,1,125.999996154785,8|8,0:0|0:0,0:0:0:0:
100,125,944971,1,0,0:0:0:0:
100,125,945082,2,0,P|128:102|159:92,1,62.9999980773926,8|0,0:0|0:0,0:0:0:0:
77,230,945304,2,0,P|43:217|18:195,1,62.9999980773926,8|0,0:0|0:0,0:0:0:0:
180,207,945526,6,0,P|184:238|178:268,1,62.9999980773926,8|0,0:0|0:0,0:0:0:0:
62,325,945749,2,0,P|57:293|63:263,1,62.9999980773926,8|0,0:0|0:0,0:0:0:0:
180,207,945971,1,8,0:0:0:0:
229,196,946082,1,8,0:0:0:0:
278,184,946193,1,8,0:0:0:0:
327,173,946304,1,8,0:0:0:0:
376,161,946415,1,8,0:0:0:0:
376,161,946860,5,4,0:0:0:0:
256,192,946916,12,0,951527,0:0:0:0:
