osu file format v14

[General]
AudioFilename: audio.mp3
AudioLeadIn: 0
PreviewTime: 106304
Countdown: 0
SampleSet: Soft
StackLeniency: 0.7
Mode: 0
LetterboxInBreaks: 0
WidescreenStoryboard: 1

[Editor]
Bookmarks: 520,11948,42424,57662,72900,90996,106948,136710,155757
DistanceSpacing: 2.1
BeatDivisor: 4
GridSize: 16
TimelineZoom: 2.7

[Metadata]
Title:STORIES
TitleUnicode:STORIES
Artist:fhana
ArtistUnicode:fhána
Creator:Sotarks
Version:Hard
Source:
Tags:5th anniversary best album towana
BeatmapID:1883714
BeatmapSetID:895152

[Difficulty]
HPDrainRate:4.5
CircleSize:3.2
OverallDifficulty:7.5
ApproachRate:8
SliderMultiplier:2.02
SliderTickRate:1

[Events]
//Background and Video events
0,0,"bg.jpg",0,0
//Break Periods
2,73170,79839
//Storyboard Layer 0 (Background)
//Storyboard Layer 1 (Fail)
//Storyboard Layer 2 (Pass)
//Storyboard Layer 3 (Foreground)
//Storyboard Sound Samples

[TimingPoints]
590,476.190476190476,4,2,22,52,1,0
590,-192.307692307692,4,2,22,52,0,0
1066,-121.951219512195,4,2,22,52,0,0
1542,-192.307692307692,4,2,22,52,0,0
2018,-121.951219512195,4,2,22,52,0,0
2494,-192.307692307692,4,2,22,52,0,0
2970,-121.951219512195,4,2,22,52,0,0
4399,-192.307692307692,4,2,22,52,0,0
5828,-121.951219512195,4,2,22,52,0,0
6304,-192.307692307692,4,2,22,52,0,0
8685,-121.951219512195,4,2,22,52,0,0
10113,-312.5,4,2,22,52,0,0
11959,-312.5,4,2,22,5,0,0
12018,-121.951219512195,4,2,22,52,0,0
42494,-108.695652173913,4,2,22,62,0,0
55828,-98.0392156862745,4,2,22,62,0,0
57732,-81.9672131147541,4,2,22,82,0,1
67613,-75.7575757575758,4,2,22,82,0,1
67970,-70.4225352112676,4,2,22,82,0,1
68328,-81.9672131147541,4,2,22,82,0,1
72970,-161.290322580645,4,2,22,72,0,0
73089,-161.290322580645,4,2,22,42,0,0
86304,-121.951219512195,4,2,22,52,0,0
86661,-121.951219512195,4,2,22,12,0,0
86780,-138.888888888889,4,2,22,52,0,0
87137,-138.888888888889,4,2,22,12,0,0
87256,-161.290322580645,4,2,22,52,0,0
87613,-161.290322580645,4,2,22,12,0,0
87732,-192.307692307692,4,2,22,52,0,0
88089,-192.307692307692,4,2,22,12,0,0
88209,-238.095238095238,4,2,22,42,0,0
88566,-238.095238095238,4,2,22,12,0,0
88685,-312.5,4,2,22,42,0,0
89042,-312.5,4,2,22,12,0,0
89161,-454.545454545455,4,2,22,42,0,0
89518,-454.545454545455,4,2,22,12,0,0
89637,-833.333333333333,4,2,22,32,0,0
91006,-833.333333333333,4,2,22,5,0,0
91066,476.190476190476,4,2,22,72,1,0
91066,-98.0392156862745,4,2,22,72,0,0
107018,-65.7894736842105,4,2,22,82,0,1
107375,-81.9672131147541,4,2,22,82,0,1
116185,-75.7575757575758,4,2,22,82,0,1
116542,-70.4225352112676,4,2,22,82,0,1
117018,-81.9672131147541,4,2,22,82,0,1
121542,-81.9672131147541,4,2,22,82,0,1
131423,-75.7575757575758,4,2,22,82,0,1
131780,-70.4225352112676,4,2,22,82,0,1
132256,-81.9672131147541,4,2,22,82,0,1
134875,-75.7575757575758,4,2,22,82,0,1
136780,-98.0392156862745,4,2,22,52,0,0
140113,-121.951219512195,4,2,22,52,0,0
155113,-121.951219512195,4,2,22,62,0,0

[Colours]
Combo1 : 58,148,220
Combo2 : 255,243,100
Combo3 : 87,219,230
Combo4 : 255,139,53

[HitObjects]
161,51,590,6,0,P|179:110|185:145,1,78.779999519165,2|0,0:2|3:2,0:0:0:0:
258,176,1066,2,0,P|240:235|231:310,1,124.230001895599,2|0,3:2|0:2,0:0:0:0:
303,349,1542,2,0,P|340:342|350:343,2,26.2599998397217,2|0|0,0:2|0:2|0:2,0:0:0:0:
455,160,2018,2,0,P|419:102|363:90,1,124.230001895599,2|0,3:2|0:2,0:0:0:0:
286,134,2494,6,0,P|229:143|196:144,1,78.779999519165,2|0,0:2|0:2,0:0:0:0:
145,80,2970,2,0,P|95:46|25:60,1,124.230001895599,2|0,3:2|0:2,0:0:0:0:
3,137,3447,2,0,P|16:181|17:195,2,41.4100006318665,2|0|0,0:2|0:2|0:2,0:0:0:0:
153,297,3923,2,0,P|206:270|291:262,1,124.230001895599,2|0,3:2|0:2,0:0:0:0:
360,306,4399,6,0,P|370:247|381:210,1,78.779999519165,2|0,0:2|0:2,0:0:0:0:
451,172,4875,2,0,P|445:133|436:94,1,78.779999519165,2|0,3:2|0:0,0:0:0:0:
351,46,5351,2,0,P|358:9|360:4,2,26.2599998397217,2|0|0,0:2|0:2|0:2,0:0:0:0:
162,213,5828,6,0,P|107:200|73:134,1,124.230001895599,2|0,3:2|0:2,0:0:0:0:
136,78,6304,2,0,P|196:68|228:57,1,78.779999519165,2|0,0:2|0:0,0:0:0:0:
282,124,6780,2,0,P|342:134|374:145,1,78.779999519165,2|0,3:2|0:0,0:0:0:0:
443,100,7256,2,0,P|449:67|453:53,2,26.2599998397217,2|0|0,0:2|0:2|0:2,0:0:0:0:
401,281,7732,2,0,P|358:279|318:308,1,78.779999519165,2|0,3:2|0:0,0:0:0:0:
252,232,8209,6,0,P|209:234|169:205,1,78.779999519165,2|0,0:2|3:2,0:0:0:0:
86,271,8685,2,0,P|77:210|57:141,1,124.230001895599,2|0,3:2|0:2,0:0:0:0:
84,66,9161,2,0,P|90:20|93:8,2,41.4100006318665,2|0|0,0:2|0:0|0:2,0:0:0:0:
229,144,9637,1,0,3:2:0:0:
256,192,10113,12,0,11542,0:0:0:0:
256,192,12018,6,0,B|151:202|204:246|100:258,1,165.640002527466,4|8,1:2|0:2,0:0:0:0:
206,103,12732,1,0,0:2:0:0:
298,260,12970,2,0,P|291:310|288:319,1,41.4100006318665,2|0,1:2|0:2,0:0:0:0:
380,329,13209,2,0,P|376:308|375:287,1,41.4100006318665,2|0,0:2|0:2,0:0:0:0:
429,214,13447,1,10,0:2:0:0:
344,52,13685,1,2,0:2:0:0:
228,193,13923,6,0,P|155:178|80:90,1,165.640002527466,0|8,1:2|0:2,0:0:0:0:
181,275,14637,1,0,0:2:0:0:
274,118,14875,1,0,1:2:0:0:
367,274,15113,2,0,P|376:324|378:343,1,41.4100006318665,2|0,0:2|0:2,0:0:0:0:
456,274,15351,2,0,P|459:253|463:233,1,41.4100006318665,10|0,0:2|0:2,0:0:0:0:
385,186,15589,1,2,0:2:0:0:
260,319,15828,6,0,P|209:360|104:338,1,165.640002527466,0|10,1:2|0:2,0:0:0:0:
27,186,16542,1,2,0:2:0:0:
197,251,16780,2,0,P|206:196|211:178,1,41.4100006318665,2|0,1:2|0:2,0:0:0:0:
154,132,17018,2,0,P|143:62|130:28,1,82.8200012637329,2|8,0:2|0:2,0:0:0:0:
316,7,17494,6,0,P|305:46|301:88,1,82.8200012637329,2|0,0:2|1:2,0:0:0:0:
422,224,17970,1,2,0:2:0:0:
422,224,18089,1,0,0:2:0:0:
422,224,18209,2,0,B|311:228|378:280|259:288,1,165.640002527466,8|0,0:2|1:2,0:0:0:0:
128,177,18923,2,0,P|142:233|145:249,1,41.4100006318665,2|0,0:2|0:2,0:0:0:0:
229,210,19161,2,0,P|233:189|239:169,1,41.4100006318665,10|0,0:2|0:2,0:0:0:0:
180,100,19399,1,2,0:2:0:0:
355,149,19637,6,0,P|411:131|425:132,1,41.4100006318665,2|0,1:2|0:2,0:0:0:0:
450,62,19875,2,0,P|394:44|380:45,1,41.4100006318665,2|0,0:2|0:2,0:0:0:0:
322,60,20113,2,0,P|266:78|252:77,1,41.4100006318665,10|0,0:2|0:2,0:0:0:0:
209,23,20351,2,0,P|150:3|96:15,1,82.8200012637329,2|0,0:2|1:2,0:0:0:0:
33,159,20828,1,2,0:2:0:0:
208,206,21066,1,10,0:2:0:0:
41,278,21304,1,2,0:2:0:0:
191,175,21542,6,0,P|199:128|200:109,1,41.4100006318665,2|0,1:2|0:2,0:0:0:0:
281,97,21780,2,0,P|283:117|288:137,1,41.4100006318665,2|0,0:2|0:2,0:0:0:0:
365,185,22018,2,0,P|369:164|372:144,1,41.4100006318665,10|0,0:2|0:2,0:0:0:0:
445,89,22256,2,0,P|457:155|468:197,1,82.8200012637329,2|0,0:2|1:2,0:0:0:0:
300,257,22732,1,2,0:2:0:0:
247,82,22970,1,10,0:2:0:0:
158,242,23209,1,2,0:2:0:0:
154,59,23447,6,0,P|219:92|243:189,1,165.640002527466,0|10,1:2|0:2,0:0:0:0:
170,342,24161,1,2,0:2:0:0:
322,241,24399,2,0,P|337:301|342:317,1,41.4100006318665,2|0,1:2|0:0,0:0:0:0:
411,324,24637,2,0,P|420:262|434:206,1,82.8200012637329,2|8,0:2|0:2,0:0:0:0:
479,68,25113,1,2,0:2:0:0:
307,129,25351,6,0,B|200:128|264:68|141:68,2,165.640002527466,0|8|0,0:0|0:2|1:2,0:0:0:0:
129,174,26542,2,0,P|146:220|148:239,1,41.4100006318665,8|0,0:2|0:2,0:0:0:0:
234,224,26780,2,0,P|217:270|215:289,1,41.4100006318665,8|0,0:2|0:2,0:0:0:0:
149,321,27018,1,8,0:2:0:0:
323,267,27256,5,6,1:2:0:0:
323,267,27494,2,0,P|336:324|342:333,1,41.4100006318665,0|0,0:2|0:2,0:0:0:0:
413,275,27732,1,8,0:2:0:0:
413,275,27970,2,0,P|417:254|418:234,1,41.4100006318665,0|0,0:2|0:2,0:0:0:0:
346,176,28209,1,2,1:2:0:0:
220,308,28447,1,2,0:2:0:0:
125,153,28685,1,10,0:2:0:0:
302,193,28923,1,2,0:2:0:0:
130,255,29161,5,0,1:2:0:0:
130,255,29399,2,0,P|104:245|54:245,1,41.4100006318665,0|0,0:2|0:2,0:0:0:0:
54,159,29637,1,8,0:2:0:0:
54,159,29875,2,0,P|80:149|130:149,1,41.4100006318665,0|0,0:2|0:2,0:0:0:0:
180,173,30113,1,0,1:2:0:0:
307,42,30351,2,0,P|328:94|332:105,1,41.4100006318665,2|0,0:2|0:2,0:0:0:0:
413,90,30589,2,0,P|392:142|388:153,1,41.4100006318665,10|0,0:2|0:2,0:0:0:0:
351,207,30828,1,2,0:2:0:0:
258,363,31066,5,0,1:2:0:0:
116,248,31304,1,0,3:2:0:0:
116,248,31423,1,0,3:2:0:0:
116,248,31542,1,10,0:2:0:0:
279,328,31780,1,2,0:2:0:0:
103,278,32018,1,2,1:2:0:0:
278,229,32256,2,0,P|282:163|287:128,1,82.8200012637329,2|8,0:2|0:2,0:0:0:0:
124,59,32732,6,0,P|128:100|130:141,1,82.8200012637329,2|0,0:2|1:2,0:0:0:0:
278,34,33209,2,0,P|295:101|296:108,1,41.4100006318665,2|0,0:2|0:2,0:0:0:0:
257,159,33447,1,8,0:2:0:0:
429,100,33685,2,0,P|412:167|411:174,1,41.4100006318665,0|0,0:2|0:2,0:0:0:0:
450,225,33923,1,0,1:2:0:0:
274,191,34161,1,2,0:2:0:0:
345,358,34399,1,10,0:2:0:0:
168,312,34637,1,2,0:2:0:0:
343,264,34875,6,0,P|359:216|366:201,1,41.4100006318665,2|0,1:2|0:2,0:0:0:0:
274,191,35113,2,0,P|258:143|251:128,1,41.4100006318665,2|0,0:2|0:2,0:0:0:0:
342,109,35351,2,0,P|358:61|365:46,1,41.4100006318665,10|0,0:2|0:2,0:0:0:0:
269,37,35589,2,0,P|203:22|166:35,1,82.8200012637329,2|0,0:2|1:2,0:0:0:0:
39,129,36066,1,2,0:2:0:0:
207,197,36304,1,10,0:2:0:0:
36,259,36542,1,2,0:2:0:0:
200,336,36780,6,0,P|248:316|265:313,1,41.4100006318665,2|0,1:2|0:2,0:0:0:0:
299,251,37018,2,0,P|347:271|364:274,1,41.4100006318665,2|0,0:2|0:2,0:0:0:0:
405,335,37256,2,0,P|425:290|435:278,1,41.4100006318665,10|0,0:2|0:2,0:0:0:0:
397,208,37494,2,0,P|383:139|374:98,1,82.8200012637329,2|0,0:2|1:2,0:0:0:0:
198,140,37970,1,2,0:2:0:0:
358,51,38209,1,10,0:2:0:0:
285,218,38447,1,2,0:2:0:0:
247,39,38685,5,0,1:2:0:0:
385,156,38923,1,0,0:0:0:0:
385,156,39042,1,0,0:0:0:0:
385,156,39161,2,0,P|377:216|375:251,1,82.8200012637329,10|0,0:2|0:0,0:0:0:0:
208,310,39637,1,2,1:2:0:0:
104,160,39875,2,0,P|84:100|84:83,1,41.4100006318665,2|0,0:2|0:2,0:0:0:0:
134,44,40113,1,10,0:2:0:0:
223,202,40351,1,2,0:2:0:0:
310,42,40589,6,0,P|376:26|414:35,1,82.8200012637329,0|0,1:2|0:0,0:0:0:0:
454,198,41066,1,8,0:2:0:0:
284,132,41304,2,0,P|218:116|180:125,1,82.8200012637329,0|0,0:2|1:2,0:0:0:0:
125,281,41780,2,0,P|112:239|102:214,1,41.4100006318665,10|0,0:2|0:2,0:0:0:0:
35,192,42018,2,0,P|40:172|47:152,1,41.4100006318665,10|0,0:2|0:2,0:0:0:0:
94,74,42256,1,10,0:2:0:0:
246,210,42494,6,0,P|300:187|364:179,1,92.9199968807374,6|0,1:2|0:0,0:0:0:0:
473,329,42970,1,10,0:2:0:0:
462,124,43209,1,2,0:2:0:0:
462,124,43328,2,0,P|453:202|451:238,1,92.9199968807374,2|0,1:2|0:2,0:0:0:0:
370,277,43685,2,0,P|316:257|307:255,1,46.4599984403687,0|0,1:2|0:2,0:0:0:0:
237,309,43923,2,0,P|188:337|120:318,1,92.9199968807374,8|2,0:2|1:2,0:0:0:0:
65,150,44399,6,0,P|79:67|82:27,1,92.9199968807374,2|0,1:2|0:0,0:0:0:0:
280,19,44875,1,10,0:2:0:0:
280,19,44994,2,0,P|288:76|295:102,1,46.4599984403687,2|0,0:2|0:2,0:0:0:0:
356,138,45232,2,0,P|272:166|254:201,1,92.9199968807374,2|0,1:2|0:2,0:0:0:0:
217,252,45589,1,0,1:2:0:0:
408,326,45828,2,0,P|420:250|428:213,1,92.9199968807374,8|0,0:2|1:2,0:0:0:0:
247,338,46304,6,0,P|167:329|141:290,1,92.9199968807374,4|0,1:2|0:0,0:0:0:0:
139,120,46780,1,10,0:2:0:0:
33,295,47018,1,2,0:2:0:0:
33,295,47137,2,0,P|44:262|54:196,1,92.9199968807374,2|0,1:2|0:2,0:0:0:0:
28,106,47494,1,2,1:2:0:0:
175,247,47732,1,10,0:2:0:0:
275,68,47970,1,2,1:2:0:0:
411,221,48209,6,0,P|399:285|392:350,1,92.9199968807374,2|0,1:2|0:0,0:0:0:0:
254,164,48685,1,10,0:2:0:0:
254,164,48804,2,0,P|214:149|196:146,1,46.4599984403687,2|0,0:2|0:2,0:0:0:0:
134,217,49042,2,0,P|68:227|12:243,1,92.9199968807374,2|0,1:2|0:2,0:0:0:0:
11,330,49399,1,0,1:2:0:0:
62,132,49637,1,8,0:2:0:0:
416,335,50113,6,0,P|446:267|426:196,1,139.379995321106,6|0,1:2|0:2,0:0:0:0:
339,163,50589,2,0,P|347:65|345:32,1,92.9199968807374,10|0,0:2|0:2,0:0:0:0:
244,66,50947,2,0,P|257:157|262:231,1,139.379995321106,2|0,1:2|1:2,0:0:0:0:
98,328,51542,1,8,0:2:0:0:
35,133,51780,1,2,1:2:0:0:
179,276,52018,6,0,P|222:310|320:299,1,139.379995321106,2|0,1:2|0:2,0:0:0:0:
381,242,52494,2,0,P|326:225|270:202,1,92.9199968807374,10|0,0:2|0:2,0:0:0:0:
218,141,52851,2,0,P|330:114|379:91,1,139.379995321106,2|0,1:2|1:2,0:0:0:0:
162,26,53447,1,8,0:2:0:0:
432,332,53923,6,0,P|444:264|453:233,1,92.9199968807374,2|2,1:2|3:2,0:0:0:0:
321,82,54399,1,8,0:2:0:0:
187,236,54637,2,0,B|53:223|144:180|9:174,1,185.839993761475,2|2,0:2|1:2,0:0:0:0:
184,55,55351,1,10,0:2:0:0:
472,284,55828,6,0,P|393:259|350:224,1,103.020000628784,8|0,1:3|0:3,0:0:0:0:
279,190,56185,2,0,P|233:214|183:225,1,103.020000628784,8|0,1:3|0:3,0:0:0:0:
82,175,56542,1,8,1:3:0:0:
414,40,57732,6,0,P|423:116|433:195,1,123.219994923493,6|0,1:2|0:2,0:0:0:0:
349,248,58089,2,0,P|340:314|338:327,1,61.6099974617463,2|8,1:2|0:2,0:0:0:0:
219,107,58447,2,0,P|124:75|51:135,1,184.829992385239,2|0,1:2|0:2,0:0:0:0:
67,235,58923,2,0,P|130:255|149:265,1,61.6099974617463,2|0,1:2|0:2,0:0:0:0:
233,207,59161,2,0,P|312:188|362:161,1,123.219994923493,10|2,0:2|1:2,0:0:0:0:
495,352,59637,6,0,P|479:268|472:186,1,123.219994923493,6|0,1:2|0:2,0:0:0:0:
426,123,59994,2,0,P|441:46|443:32,1,61.6099974617463,2|8,1:2|0:2,0:0:0:0:
235,179,60351,2,0,B|119:162|191:98|53:87,1,184.829992385239,2|0,1:2|0:2,0:0:0:0:
28,196,60828,1,2,1:2:0:0:
233,83,61066,1,10,0:2:0:0:
183,311,61304,1,2,1:2:0:0:
394,210,61542,6,0,P|403:128|354:72,1,123.219994923493,6|0,1:2|0:2,0:0:0:0:
279,41,61899,2,0,P|203:60|192:60,1,61.6099974617463,2|8,1:2|0:2,0:0:0:0:
3,146,62256,2,0,P|116:158|155:227,1,184.829992385239,2|0,1:2|0:2,0:0:0:0:
169,326,62732,1,2,1:2:0:0:
287,124,62970,1,10,0:2:0:0:
409,324,63209,1,2,1:2:0:0:
389,90,63447,6,0,P|345:30|262:23,1,123.219994923493,6|0,1:2|0:2,0:0:0:0:
189,54,63804,2,0,P|124:76|111:77,1,61.6099974617463,2|8,1:2|0:2,0:0:0:0:
15,56,64042,1,2,0:2:0:0:
15,56,64161,2,0,B|64:186|-14:131|50:291,1,184.829992385239,2|0,1:2|0:2,0:0:0:0:
131,296,64637,2,0,P|204:273|216:273,1,61.6099974617463,10|8,0:2|0:2,0:0:0:0:
270,191,64875,2,0,P|343:214|355:214,1,61.6099974617463,10|8,0:2|0:2,0:0:0:0:
417,286,65113,1,8,0:3:0:0:
417,286,65232,1,4,0:3:0:0:
417,286,65351,6,0,P|455:217|427:127,1,123.219994923493,6|0,1:2|0:2,0:0:0:0:
372,87,65709,2,0,P|359:23|361:1,1,61.6099974617463,2|8,1:2|0:2,0:0:0:0:
211,208,66066,2,0,B|100:208|152:264|25:267,1,184.829992385239,2|0,1:2|1:2,0:0:0:0:
42,149,66542,1,2,1:2:0:0:
206,315,66780,2,0,P|301:280|348:274,1,123.219994923493,10|2,0:2|1:2,0:0:0:0:
475,99,67256,6,0,P|393:128|341:135,1,123.219994923493,6|0,1:2|0:2,0:0:0:0:
255,58,67613,2,0,P|154:24|99:23,1,133.31999959314,14|0,1:2|0:2,0:0:0:0:
28,115,67970,2,0,P|49:215|67:346,1,215.129989167344,14|0,1:2|0:2,0:0:0:0:
174,369,68447,1,8,0:2:0:0:
324,189,68685,2,0,P|311:120|303:95,1,61.6099974617463,10|8,0:2|0:2,0:0:0:0:
212,68,68923,2,0,P|205:98|201:128,1,61.6099974617463,8|4,0:3|0:3,0:0:0:0:
223,243,69161,6,0,P|284:296|337:300,1,123.219994923493,6|0,1:2|0:2,0:0:0:0:
418,233,69518,2,0,P|487:213|502:215,1,61.6099974617463,2|8,1:2|0:2,0:0:0:0:
327,31,69875,2,0,P|262:94|139:88,1,184.829992385239,2|0,1:2|0:2,0:0:0:0:
69,45,70351,1,2,0:2:0:0:
38,277,70589,1,10,0:2:0:0:
38,277,70709,2,0,P|123:249|190:241,1,123.219994923493,2|0,1:2|0:2,0:0:0:0:
253,307,71066,6,0,B|304:162|211:208|276:42,2,246.439989846985,6|10|2,1:2|0:2|1:2,0:0:0:0:
415,137,72256,1,0,1:2:0:0:
194,215,72494,2,0,P|121:195|111:196,1,61.6099974617463,10|8,0:2|0:2,0:0:0:0:
92,86,72732,2,0,P|19:106|9:105,1,61.6099974617463,8|8,0:2|0:2,0:0:0:0:
22,213,72970,5,4,0:2:0:0:
179,90,80589,6,0,P|240:66|284:72,1,93.9299962735292,2|2,0:2|3:2,0:0:0:0:
407,179,81304,2,0,P|391:264|376:379,1,187.859992547058,2|0,0:2|3:2,0:0:0:0:
283,291,82256,1,2,0:2:0:0:
283,291,82375,1,2,0:2:0:0:
283,291,82494,6,0,P|232:267|185:269,1,93.9299962735292,2|2,0:2|0:2,0:0:0:0:
42,173,83209,2,0,P|126:157|249:114,1,187.859992547058,2|0,0:2|3:2,0:0:0:0:
290,27,84161,1,2,0:2:0:0:
290,27,84280,1,2,0:2:0:0:
290,27,84399,6,0,P|361:46|375:73,1,93.9299962735292,2|2,0:2|3:2,0:0:0:0:
416,231,85113,2,0,P|363:239|289:271,1,125.239995031372,2|2,0:2|0:2,0:0:0:0:
189,215,85828,1,2,3:2:0:0:
91,282,86066,1,2,0:2:0:0:
50,130,86304,5,2,0:2:0:0:
215,351,86780,5,2,0:2:0:0:
395,196,87256,5,2,0:2:0:0:
198,161,87732,5,2,0:2:0:0:
290,293,88209,5,2,0:2:0:0:
352,187,88685,5,2,0:2:0:0:
270,208,89161,5,2,0:2:0:0:
109,148,91066,6,0,P|185:111|256:119,1,154.530000943176,6|0,1:2|0:2,0:0:0:0:
329,178,91542,1,8,0:2:0:0:
428,346,91780,2,0,P|440:260|453:185,1,154.530000943176,0|0,1:2|0:2,0:0:0:0:
401,109,92256,1,2,1:2:0:0:
256,241,92494,2,0,P|188:253|148:243,1,103.020000628784,10|2,0:2|0:2,0:0:0:0:
68,71,92970,6,0,B|173:73|111:127|258:125,1,154.530000943176,4|0,1:2|1:2,0:0:0:0:
294,73,93446,1,8,0:2:0:0:
440,204,93685,2,0,P|428:256|427:280,1,51.5100003143921,2|2,1:2|0:2,0:0:0:0:
341,298,93923,2,0,P|353:350|354:374,2,51.5100003143921,2|0|2,0:2|0:2|1:2,0:0:0:0:
148,334,94399,2,0,P|86:312|62:258,1,103.020000628784,10|0,0:2|1:2,0:0:0:0:
116,93,94875,6,0,P|184:80|229:63,1,103.020000628784,6|0,1:2|0:2,0:0:0:0:
299,118,95232,2,0,P|356:138|377:140,1,51.5100003143921,2|8,1:2|0:2,0:0:0:0:
467,290,95589,2,0,P|365:249|263:266,1,206.040001257568,2|2,1:2|1:2,0:0:0:0:
92,343,96304,1,10,0:2:0:0:
133,151,96542,1,2,0:2:0:0:
133,151,96661,1,2,0:2:0:0:
133,151,96780,6,0,P|201:185|267:163,1,103.020000628784,6|0,1:2|0:2,0:0:0:0:
291,110,97137,2,0,P|342:88|367:88,1,51.5100003143921,2|8,1:2|0:2,0:0:0:0:
476,225,97494,2,0,B|352:233|419:298|276:308,1,206.040001257568,2|10,1:2|0:2,0:0:0:0:
206,262,98089,1,10,0:2:0:0:
206,262,98208,2,0,P|150:239|126:236,1,51.5100003143921,10|0,0:2|1:2,0:0:0:0:
77,294,98446,1,8,0:3:0:0:
77,294,98566,1,4,0:3:0:0:
77,294,98685,6,0,P|56:235|51:226,2,51.5100003143921,6|2|2,1:2|0:2|0:2,0:0:0:0:
175,125,99161,1,8,0:2:0:0:
344,222,99399,2,0,P|365:163|370:154,2,51.5100003143921,2|2|2,1:2|0:2|0:2,0:0:0:0:
246,53,99875,1,0,1:2:0:0:
137,215,100113,2,0,P|61:190|52:181,2,51.5100003143921,10|2|2,0:2|0:2|0:2,0:0:0:0:
310,124,100589,1,4,1:2:0:0:
114,121,100827,2,0,P|38:146|29:155,2,51.5100003143921,2|2|10,0:2|1:2|0:2,0:0:0:0:
287,212,101303,1,0,1:2:0:0:
132,333,101542,6,0,P|214:299|265:307,1,103.020000628784,2|0,0:2|0:0,0:0:0:0:
421,338,102018,2,0,P|436:266|445:246,1,51.5100003143921,8|8,0:2|0:2,0:0:0:0:
390,197,102256,1,8,0:2:0:0:
390,197,102375,1,8,0:3:0:0:
390,197,102494,6,0,P|351:120|247:103,1,154.530000943176,6|0,1:2|1:2,0:0:0:0:
197,125,102970,1,8,0:2:0:0:
53,258,103208,2,0,B|170:261|126:328|278:333,1,206.040001257568,0|2,1:2|1:2,0:0:0:0:
437,321,103923,2,0,P|456:204|470:155,1,154.530000943176,8|0,0:2|0:2,0:0:0:0:
391,105,104399,6,0,P|329:88|315:81,3,51.5100003143921,6|2|2|2,1:2|0:2|0:2|1:2,0:0:0:0:
256,142,104875,2,0,P|231:149|206:153,3,51.5100003143921,10|2|2|2,0:2|0:2|1:2|0:2,0:0:0:0:
120,105,105351,2,0,P|94:100|70:93,3,51.5100003143921,10|2|2|2,0:2|0:2|0:2|1:2,0:0:0:0:
5,166,105827,1,10,0:2:0:0:
16,216,105946,1,10,0:2:0:0:
27,266,106065,1,10,0:2:0:0:
38,316,106185,2,0,P|45:348|51:370,1,51.5100003143921,10|2,0:2|0:2,0:0:0:0:
50,365,107018,6,0,B|181:356|93:266|274:261,1,230.279997188965,6|0,1:2|0:2,0:0:0:0:
355,300,107494,1,2,1:2:0:0:
349,66,107732,2,0,P|251:110|200:111,1,123.219994923493,10|2,0:2|0:2,0:0:0:0:
17,32,108208,6,0,P|33:116|40:198,1,123.219994923493,2|0,1:2|0:2,0:0:0:0:
86,261,108565,2,0,P|71:338|69:352,1,61.6099974617463,2|8,1:2|0:2,0:0:0:0:
277,205,108922,2,0,B|393:222|321:286|459:297,1,184.829992385239,2|0,1:2|0:2,0:0:0:0:
484,188,109399,1,2,1:2:0:0:
279,301,109637,1,10,0:2:0:0:
329,73,109875,1,2,1:2:0:0:
118,174,110113,6,0,P|109:256|158:312,1,123.219994923493,6|0,1:2|0:2,0:0:0:0:
233,343,110470,2,0,P|309:324|320:324,1,61.6099974617463,2|8,1:2|0:2,0:0:0:0:
509,238,110827,2,0,P|396:226|357:157,1,184.829992385239,2|0,1:2|0:2,0:0:0:0:
343,58,111303,1,2,1:2:0:0:
225,260,111541,1,10,0:2:0:0:
103,60,111780,1,2,1:2:0:0:
123,294,112018,6,0,P|167:354|250:361,1,123.219994923493,6|0,1:2|0:2,0:0:0:0:
323,330,112375,2,0,P|388:308|401:307,1,61.6099974617463,2|8,1:2|0:2,0:0:0:0:
497,328,112613,1,2,0:2:0:0:
497,328,112732,2,0,B|448:198|526:253|462:93,1,184.829992385239,2|0,1:2|0:2,0:0:0:0:
381,88,113208,2,0,P|308:111|296:111,1,61.6099974617463,10|8,0:2|0:2,0:0:0:0:
242,193,113446,2,0,P|169:170|157:170,1,61.6099974617463,10|8,0:2|0:2,0:0:0:0:
95,98,113684,1,8,0:3:0:0:
95,98,113803,1,4,0:3:0:0:
95,98,113922,6,0,P|57:167|85:257,1,123.219994923493,6|0,1:2|0:2,0:0:0:0:
140,297,114280,2,0,P|153:361|151:383,1,61.6099974617463,2|8,1:2|0:2,0:0:0:0:
301,176,114637,2,0,B|412:176|360:120|487:117,1,184.829992385239,2|0,1:2|1:2,0:0:0:0:
470,235,115113,1,2,1:2:0:0:
306,69,115351,2,0,P|211:104|164:110,1,123.219994923493,10|2,0:2|1:2,0:0:0:0:
37,285,115827,6,0,P|119:256|171:249,1,123.219994923493,6|0,1:2|0:2,0:0:0:0:
257,326,116185,2,0,P|358:360|413:361,1,133.31999959314,14|0,1:2|0:0,0:0:0:0:
484,269,116542,2,0,P|463:169|445:38,1,215.129989167344,14|0,1:2|0:0,0:0:0:0:
338,15,117018,1,8,0:2:0:0:
188,195,117256,2,0,P|201:264|209:289,1,61.6099974617463,10|8,0:2|0:2,0:0:0:0:
300,316,117494,2,0,P|307:286|311:256,1,61.6099974617463,8|4,0:3|0:3,0:0:0:0:
289,141,117732,6,0,P|228:88|175:84,1,123.219994923493,6|0,1:2|0:2,0:0:0:0:
94,151,118089,2,0,P|25:171|10:169,1,61.6099974617463,2|8,1:2|0:2,0:0:0:0:
185,353,118446,2,0,P|250:290|373:296,1,184.829992385239,2|0,1:2|0:2,0:0:0:0:
443,339,118922,1,2,1:2:0:0:
474,107,119160,1,10,0:2:0:0:
474,107,119280,2,0,P|389:135|322:143,1,123.219994923493,2|0,1:2|0:2,0:0:0:0:
259,77,119637,6,0,B|208:222|301:176|236:342,2,246.439989846985,6|10|2,1:2|0:2|1:2,0:0:0:0:
114,260,120827,1,0,1:2:0:0:
331,172,121065,2,0,P|404:192|414:191,1,61.6099974617463,10|8,0:2|0:2,0:0:0:0:
426,302,121303,2,0,P|499:282|509:283,1,61.6099974617463,8|8,0:2|0:2,0:0:0:0:
476,151,121542,6,0,P|439:77|379:61,1,123.219994923493,6|0,1:2|0:0,0:0:0:0:
288,53,121899,2,0,P|222:79|209:80,1,61.6099974617463,2|8,1:2|0:0,0:0:0:0:
14,164,122256,2,0,P|121:174|187:267,1,184.829992385239,2|0,1:2|0:2,0:0:0:0:
206,338,122732,1,2,1:2:0:0:
352,155,122970,2,0,P|367:239|380:289,1,123.219994923493,10|2,0:2|0:2,0:0:0:0:
415,44,123446,6,0,P|344:23|257:65,1,123.219994923493,2|0,1:2|0:2,0:0:0:0:
213,116,123804,2,0,P|150:142|132:140,1,61.6099974617463,2|8,1:2|0:2,0:0:0:0:
43,345,124161,2,0,P|125:256|198:259,1,184.829992385239,2|0,1:2|0:2,0:0:0:0:
282,314,124637,1,2,1:2:0:0:
422,127,124875,1,10,0:2:0:0:
368,354,125113,1,2,1:2:0:0:
327,123,125351,6,0,P|269:72|182:75,1,123.219994923493,6|0,1:2|0:2,0:0:0:0:
124,122,125708,2,0,P|55:156|33:158,1,61.6099974617463,2|8,1:2|0:2,0:0:0:0:
263,284,126065,2,0,P|338:236|438:242,1,184.829992385239,2|0,1:2|0:2,0:0:0:0:
509,327,126542,1,2,1:2:0:0:
434,104,126780,2,0,P|348:64|305:71,1,123.219994923493,10|2,0:2|1:2,0:0:0:0:
88,77,127256,6,0,P|118:158|130:207,1,123.219994923493,6|0,1:2|0:2,0:0:0:0:
212,273,127613,2,0,P|193:345|192:358,1,61.6099974617463,2|8,1:2|0:2,0:0:0:0:
311,325,127851,1,2,0:2:0:0:
311,325,127970,2,0,P|301:238|282:139,1,184.829992385239,2|0,1:2|0:2,0:0:0:0:
358,53,128446,2,0,P|423:27|443:28,1,61.6099974617463,10|8,0:2|0:2,0:0:0:0:
453,139,128685,2,0,P|427:155|397:164,1,61.6099974617463,10|8,0:2|0:2,0:0:0:0:
285,130,128923,1,8,0:3:0:0:
285,130,129042,1,4,0:3:0:0:
285,130,129161,6,0,P|213:76|157:76,1,123.219994923493,6|0,1:2|0:2,0:0:0:0:
68,99,129518,2,0,P|85:191|88:214,1,61.6099974617463,2|8,1:2|0:2,0:0:0:0:
236,333,129875,2,0,B|327:315|292:254|409:228,1,184.829992385239,2|0,1:2|1:2,0:0:0:0:
500,264,130351,1,2,1:2:0:0:
366,71,130589,2,0,P|289:111|245:117,1,123.219994923493,10|2,0:2|1:2,0:0:0:0:
35,33,131065,6,0,P|99:136|107:164,1,123.219994923493,6|0,1:2|0:2,0:0:0:0:
203,210,131423,2,0,P|162:290|156:374,1,133.31999959314,14|0,1:2|0:0,0:0:0:0:
283,376,131780,2,0,P|388:341|397:225,1,215.129989167344,14|0,1:2|0:0,0:0:0:0:
334,156,132256,1,8,0:2:0:0:
133,276,132494,2,0,P|63:249|50:246,1,61.6099974617463,10|8,0:2|0:2,0:0:0:0:
26,146,132732,1,8,0:3:0:0:
26,146,132851,1,4,0:3:0:0:
26,146,132970,6,0,P|115:99|173:101,1,123.219994923493,6|0,1:2|0:2,0:0:0:0:
244,162,133327,2,0,P|306:195|345:201,1,61.6099974617463,2|8,1:2|0:2,0:0:0:0:
481,46,133685,2,0,P|415:128|408:245,1,184.829992385239,2|0,1:2|0:2,0:0:0:0:
448,311,134161,1,2,0:2:0:0:
223,243,134399,1,10,0:2:0:0:
223,243,134518,2,0,P|139:249|66:276,1,123.219994923493,2|0,1:2|0:2,0:0:0:0:
15,167,134875,6,0,P|84:72|278:73,2,266.639999186279,6|10|2,1:2|0:2|1:2,0:0:0:0:
496,326,136304,2,0,P|475:239|476:227,1,66.6599997965698,10|8,0:2|0:2,0:0:0:0:
349,260,136542,2,0,P|370:173|369:161,1,66.6599997965698,8|8,0:2|0:2,0:0:0:0:
438,128,136780,1,6,1:2:0:0:
256,192,136899,12,0,139399,0:0:0:0:
158,82,140113,5,10,0:2:0:0:
285,199,140351,2,0,P|350:161|442:172,1,165.640002527466,2|2,0:2|0:2,0:0:0:0:
355,322,141065,2,0,P|276:300|182:284,1,165.640002527466,10|2,0:2|1:2,0:0:0:0:
19,282,141780,2,0,P|50:224|50:170,1,82.8200012637329,2|8,0:2|0:2,0:0:0:0:
69,34,142256,2,0,B|166:51|112:85|242:113,1,165.640002527466,2|0,0:2|0:0,0:0:0:0:
380,51,142970,1,8,0:2:0:0:
226,363,143446,2,0,P|213:272|183:195,1,165.640002527466,0|8,1:2|0:2,0:0:0:0:
296,67,144161,6,0,P|371:106|392:201,1,165.640002527466,2|2,0:2|3:2,0:0:0:0:
242,262,144875,2,0,P|182:238|145:234,1,82.8200012637329,10|2,0:2|0:2,0:0:0:0:
66,91,145351,1,2,1:2:0:0:
235,128,145589,1,2,0:2:0:0:
81,209,145827,1,10,0:2:0:0:
170,60,146065,2,0,P|232:33|328:94,1,165.640002527466,2|0,0:2|0:0,0:0:0:0:
366,239,146780,2,0,P|290:239|196:278,1,165.640002527466,8|0,0:2|1:2,0:0:0:0:
49,343,147494,1,8,0:2:0:0:
102,177,147732,2,0,P|94:98|87:65,1,82.8200012637329,8|8,0:2|0:2,0:0:0:0:
248,16,148208,5,2,1:2:0:0:
370,138,148446,1,0,3:2:0:0:
370,138,148565,1,0,3:2:0:0:
370,138,148685,2,0,P|353:192|349:235,1,82.8200012637329,10|0,0:2|0:2,0:0:0:0:
205,314,149161,2,0,P|198:273|184:234,1,82.8200012637329,0|0,1:2|0:2,0:0:0:0:
66,106,149637,2,0,P|131:63|167:63,1,82.8200012637329,10|0,0:2|0:2,0:0:0:0:
307,49,150113,5,2,1:2:0:0:
200,186,150351,1,0,0:2:0:0:
348,275,150589,2,0,P|368:197|380:169,1,82.8200012637329,10|0,0:2|0:2,0:0:0:0:
486,66,151065,2,0,P|498:105|506:145,1,82.8200012637329,0|0,1:2|0:2,0:0:0:0:
446,309,151542,2,0,P|406:359|361:371,1,82.8200012637329,10|0,0:2|0:2,0:0:0:0:
228,303,152018,5,2,1:2:0:0:
302,145,152256,1,0,3:2:0:0:
302,145,152375,1,0,3:2:0:0:
302,145,152494,2,0,P|255:109|222:102,1,82.8200012637329,10|0,0:2|0:2,0:0:0:0:
59,92,152970,2,0,P|106:56|139:49,1,82.8200012637329,0|0,1:2|0:2,0:0:0:0:
139,223,153446,2,0,P|127:283|123:330,1,82.8200012637329,10|0,0:2|0:2,0:0:0:0:
284,233,153923,5,2,1:2:0:0:
418,343,154161,1,0,0:2:0:0:
473,178,154399,2,0,P|478:136|487:96,2,82.8200012637329,10|0|0,0:2|0:2|1:2,0:0:0:0:
358,47,155113,1,8,0:2:0:0:
221,154,155351,1,10,0:2:0:0:
69,68,155589,1,8,0:2:0:0:
