osu file format v14

[General]
AudioFilename: audio.mp3
AudioLeadIn: 0
PreviewTime: 221664
Countdown: 0
SampleSet: Soft
StackLeniency: 0.2
Mode: 0
LetterboxInBreaks: 0
WidescreenStoryboard: 1

[Editor]
Bookmarks: 202599,274374
DistanceSpacing: 2.7
BeatDivisor: 8
GridSize: 8
TimelineZoom: 2.2

[Metadata]
Title:Rebuilt world
TitleUnicode:Rebuilt world
Artist:fhana
ArtistUnicode:fhána
Creator:Sotarks
Version:Melancholy
Source:
Tags:作詞:林 英樹 作曲:佐藤純一 編曲 lantis Junichi Sato yuxuki waga kevin mitsunaga towana moon river ムーンリバー appleeaterx collab collaboration
BeatmapID:1316375
BeatmapSetID:624586

[Difficulty]
HPDrainRate:6.2
CircleSize:4.2
OverallDifficulty:8.2
ApproachRate:9
SliderMultiplier:2.02
SliderTickRate:2

[Events]
//Background and Video events
0,0,"BG.jpg",0,0
//Break Periods
//Storyboard Layer 0 (Background)
//Storyboard Layer 1 (Fail)
//Storyboard Layer 2 (Pass)
//Storyboard Layer 3 (Foreground)
//Storyboard Sound Samples

[TimingPoints]
2973,560.747663551402,4,2,22,42,1,0
2973,-161.290322580645,4,2,22,42,0,0
3673,-161.290322580645,4,2,22,12,0,0
3814,-161.290322580645,4,2,22,42,0,0
4234,-161.290322580645,4,2,22,12,0,0
4374,-161.290322580645,4,2,22,42,0,0
5916,-161.290322580645,4,2,22,12,0,0
6057,-161.290322580645,4,2,22,42,0,0
6477,-161.290322580645,4,2,22,12,0,0
6617,-161.290322580645,4,2,22,42,0,0
8159,-161.290322580645,4,2,22,12,0,0
8300,-161.290322580645,4,2,22,42,0,0
11103,-161.290322580645,4,2,22,12,0,0
11384,-192.307692307692,4,2,22,42,0,0
11874,-192.307692307692,4,2,22,5,0,0
11944,-81.9672131147541,4,2,22,72,0,0
36617,-121.951219512195,4,2,22,42,0,0
38860,-161.290322580645,4,2,22,42,0,0
42645,-121.951219512195,4,2,22,42,0,0
43276,-121.951219512195,4,2,22,5,0,0
43346,-98.0392156862744,4,2,2,52,0,0
65776,-192.307692307692,4,2,2,32,0,0
70262,-138.888888888889,4,2,2,32,0,0
76991,-138.888888888889,4,2,22,42,0,0
77482,-138.888888888889,4,2,22,5,0,0
77552,-192.307692307693,4,2,22,42,0,0
78323,-192.307692307693,4,2,22,5,0,0
78393,-121.951219512195,4,2,22,42,0,0
79164,-121.951219512195,4,2,22,5,0,0
79234,-98.0392156862746,4,2,22,42,0,0
80286,-138.888888888889,4,2,22,5,0,0
80356,-98.0392156862745,4,2,22,52,0,0
81477,-70.4225352112676,4,2,22,82,0,1
112879,-70.4225352112676,4,2,22,82,0,0
113300,-70.4225352112676,4,2,22,5,0,0
113440,-161.290322580645,4,2,22,42,0,0
115122,-81.9672131147541,4,2,22,72,0,0
124094,-161.290322580645,4,2,22,42,0,0
128580,-138.888888888889,4,2,22,52,0,0
128930,-138.888888888889,4,2,22,5,0,0
129001,-138.888888888889,4,2,22,52,0,0
129351,-138.888888888889,4,2,22,5,0,0
129421,-138.888888888889,4,2,22,52,0,0
130753,-138.888888888889,4,2,22,5,0,0
130823,-138.888888888889,4,2,22,52,0,0
131173,-138.888888888889,4,2,22,5,0,0
131244,-138.888888888889,4,2,22,52,0,0
131594,-138.888888888889,4,2,22,5,0,0
131664,-138.888888888889,4,2,22,52,0,0
133557,-138.888888888889,4,2,22,5,0,0
133627,-138.888888888889,4,2,22,52,0,0
133977,-138.888888888889,4,2,22,5,0,0
134047,-138.888888888889,4,2,22,52,0,0
134398,-138.888888888889,4,2,22,5,0,0
134468,-138.888888888889,4,2,22,52,0,0
134678,-138.888888888889,4,2,22,5,0,0
134748,-138.888888888889,4,2,22,52,0,0
135659,-138.888888888889,4,2,22,5,0,0
135730,-138.888888888889,4,2,22,52,0,0
136080,-138.888888888889,4,2,22,5,0,0
136150,-138.888888888889,4,2,22,52,0,0
136501,-138.888888888889,4,2,22,32,0,0
136991,-138.888888888889,4,2,22,52,0,0
137482,-138.888888888889,4,2,22,5,0,0
137552,-121.951219512195,4,2,2,52,0,0
142038,-108.695652173913,4,2,2,52,0,0
148767,-138.888888888889,4,2,22,52,0,0
149258,-138.888888888889,4,2,22,5,0,0
149328,-192.307692307692,4,2,22,52,0,0
150099,-192.307692307692,4,2,22,5,0,0
150169,-121.951219512195,4,2,22,52,0,0
150940,-121.951219512195,4,2,22,5,0,0
151010,-98.0392156862745,4,2,22,52,0,0
152061,-98.0392156862745,4,2,22,5,0,0
152131,-98.0392156862745,4,2,22,52,0,0
153253,-70.4225352112676,4,2,22,82,0,1
175683,-70.4225352112676,4,2,22,82,0,0
176173,-70.4225352112676,4,2,22,5,0,0
176244,-161.290322580645,4,2,22,42,0,0
177926,-121.951219512195,4,2,2,62,0,0
198113,-98.0392156862744,4,2,2,72,0,0
200356,-81.9672131147541,4,2,2,82,0,0
201477,-81.9672131147541,4,2,2,92,0,1
202599,-161.290322580645,4,2,22,62,0,0
202669,-161.290322580645,4,2,22,42,0,0
222715,-161.290322580645,4,2,22,5,0,0
222786,-70.4225352112676,4,2,22,82,0,1
241290,-133.333333333333,4,2,22,82,0,1
241851,-70.4225352112676,4,2,22,82,0,1
242412,-133.333333333333,4,2,22,82,0,1
242973,-70.4225352112676,4,2,22,82,0,1
244655,-133.333333333333,4,2,22,82,0,1
245215,-70.4225352112676,4,2,22,82,0,1
245776,-133.333333333333,4,2,22,82,0,1
246337,-70.4225352112676,4,2,22,82,0,1
246898,-133.333333333333,4,2,22,82,0,1
247458,-70.4225352112676,4,2,22,82,0,1
249141,-133.333333333333,4,2,22,82,0,1
249701,-70.4225352112676,4,2,22,82,0,1
254187,-70.4225352112676,4,2,22,82,0,0
254748,-161.290322580645,4,2,22,42,0,0
256430,-81.9672131147541,4,2,22,72,0,0
274374,-75.7575757575758,4,2,22,72,0,0
302973,-100,4,2,0,5,0,0

[Colours]
Combo1 : 116,99,99
Combo2 : 207,232,245
Combo3 : 233,183,158
Combo4 : 124,134,224
SliderBorder : 255,255,255
SliderTrackOverride : 0,0,10

[HitObjects]
237,124,2973,6,0,P|233:109|228:95,2,31.3099987578431,2|2|2,0:0|0:0|0:0,0:0:0:0:
206,192,3393,2,0,P|241:201|288:179,1,62.6199975156861,2|0,0:0|0:0,0:0:0:0:
311,134,3814,2,0,P|341:128|393:165,1,93.9299962735292,2|0,0:0|0:0,0:0:0:0:
413,229,4374,1,2,0:0:0:0:
406,39,4655,1,2,0:0:0:0:
330,211,4935,1,2,0:0:0:0:
234,48,5215,6,0,L|191:42,1,31.3099987578431,2|2,0:0|0:0,0:0:0:0:
148,93,5496,1,2,0:0:0:0:
200,147,5636,2,0,P|213:178|221:218,1,62.6199975156861,2|0,0:0|0:0,0:0:0:0:
187,273,6057,2,0,P|227:277|282:248,1,93.9299962735292,2|0,0:0|0:0,0:0:0:0:
291,185,6617,2,0,P|333:178|368:184,2,62.6199975156861,2|2|2,0:0|0:0|0:0,0:0:0:0:
115,313,7458,6,0,P|106:291|106:274,2,31.3099987578431,2|2|2,0:0|0:0|0:0,0:0:0:0:
183,279,7879,2,0,L|182:191,1,62.6199975156861,2|2,0:2|0:0,0:0:0:0:
181,147,8300,1,2,0:0:0:0:
462,317,8860,1,2,0:0:0:0:
395,279,9141,1,2,0:0:0:0:
330,239,9421,1,2,0:0:0:0:
256,192,9701,12,0,11103,0:0:0:0:
240,194,11384,6,0,P|246:162|283:187,1,91.9099994390259,4|0,3:0|0:0,0:0:0:0:
249,274,11944,6,0,P|190:254|184:247,2,61.6099974617463,6|0|0,1:0|0:0|0:0,0:0:0:0:
350,130,12365,1,2,0:0:0:0:
398,320,12505,2,0,P|401:290|397:260,1,61.6099974617463,8|0,0:0|0:0,0:0:0:0:
280,75,12786,2,0,P|259:132|284:187,1,123.219994923493,2|0,0:0|1:0,0:0:0:0:
350,130,13206,1,0,3:0:0:0:
192,255,13346,2,0,P|119:253|115:251,1,61.6099974617463,2|0,0:0|0:0,0:0:0:0:
396,259,13627,2,0,P|469:257|473:255,1,61.6099974617463,10|0,0:0|0:0,0:0:0:0:
283,186,13907,1,2,0:0:0:0:
283,186,14187,6,0,P|300:252|306:326,1,123.219994923493,2|0,1:0|0:0,0:0:0:0:
365,192,14608,1,2,0:0:0:0:
216,251,14748,2,0,L|142:238,1,61.6099974617463,8|0,0:0|0:0,0:0:0:0:
347,113,15029,2,0,P|421:132|441:198,1,123.219994923493,2|0,0:0|1:0,0:0:0:0:
365,192,15449,1,0,3:0:0:0:
277,69,15589,2,0,P|246:58|202:57,1,61.6099974617463,2|0,0:0|0:0,0:0:0:0:
62,140,15870,2,0,P|93:129|137:128,1,61.6099974617463,10|0,0:0|0:0,0:0:0:0:
216,251,16150,1,2,0:0:0:0:
216,251,16430,5,2,1:0:0:0:
231,166,16571,2,0,P|223:124|220:116,2,30.8049987308732,0|0|0,0:0|0:0|0:0,0:0:0:0:
197,329,16851,1,2,0:0:0:0:
231,166,16991,2,0,L|305:160,1,61.6099974617463,8|0,0:0|0:0,0:0:0:0:
440,256,17272,2,0,P|373:263|336:210,1,123.219994923493,2|0,0:0|1:0,0:0:0:0:
382,145,17692,1,0,3:0:0:0:
440,256,17832,2,0,P|449:311|450:341,1,61.6099974617463,2|0,0:0|0:0,0:0:0:0:
382,145,18113,2,0,P|385:115|392:85,1,61.6099974617463,10|0,0:0|0:0,0:0:0:0:
340,225,18393,1,2,0:0:0:0:
340,225,18673,5,2,1:0:0:0:
299,301,18814,2,0,L|304:347,2,30.8049987308732,0|0|0,0:0|0:0|0:0,0:0:0:0:
382,147,19094,1,2,0:0:0:0:
299,301,19234,2,0,L|231:295,1,61.6099974617463,8|0,0:0|0:0,0:0:0:0:
191,111,19515,2,0,B|223:135|223:135|241:232,1,123.219994923493,2|0,0:0|1:0,0:0:0:0:
255,58,19935,2,0,L|327:45,1,61.6099974617463,8|2,0:0|0:0,0:0:0:0:
373,114,20215,1,0,3:0:0:0:
155,187,20356,2,0,L|83:174,1,61.6099974617463,10|0,0:0|0:0,0:0:0:0:
145,46,20636,2,0,P|159:99|161:126,1,61.6099974617463,2|0,0:0|0:0,0:0:0:0:
149,267,20916,5,6,1:0:0:0:
238,216,21057,2,0,P|277:220|284:223,2,30.8049987308732,0|0|0,0:0|0:0|0:0,0:0:0:0:
63,311,21337,1,2,0:0:0:0:
238,216,21477,2,0,L|242:289,1,61.6099974617463,8|0,0:0|0:0,0:0:0:0:
328,119,21758,2,0,L|314:256,1,123.219994923493,2|0,0:0|1:0,0:0:0:0:
236,190,22178,1,0,3:0:0:0:
397,166,22318,2,0,L|390:238,1,61.6099974617463,2|0,0:0|0:0,0:0:0:0:
228,107,22599,2,0,L|235:179,1,61.6099974617463,10|0,0:0|0:0,0:0:0:0:
341,43,22879,1,2,0:0:0:0:
341,43,23159,6,0,B|275:32|288:81|218:54,1,123.219994923493,2|0,1:0|0:0,0:0:0:0:
418,62,23580,1,2,0:0:0:0:
222,55,23720,2,0,P|178:69|152:83,1,61.6099974617463,8|0,0:0|0:0,0:0:0:0:
348,127,24001,2,0,P|391:167|386:238,1,123.219994923493,2|0,0:0|1:0,0:0:0:0:
469,169,24421,1,0,3:0:0:0:
316,201,24561,2,0,P|271:202|247:196,1,61.6099974617463,2|0,0:0|0:0,0:0:0:0:
421,301,24842,2,0,P|466:302|490:296,1,61.6099974617463,10|0,0:0|0:0,0:0:0:0:
296,356,25122,1,2,0:0:0:0:
296,356,25402,6,0,B|249:346|249:346|212:355|212:355|161:344,1,123.219994923493,2|0,1:0|0:0,0:0:0:0:
132,190,25823,1,2,0:0:0:0:
58,299,25963,2,0,P|99:293|130:285,1,61.6099974617463,8|0,0:0|0:0,0:0:0:0:
208,158,26244,2,0,B|230:227|180:227|219:297,1,123.219994923493,2|0,0:0|1:0,0:0:0:0:
288,252,26664,1,0,3:0:0:0:
132,190,26804,2,0,P|83:191|53:194,1,61.6099974617463,2|0,0:0|0:0,0:0:0:0:
288,252,27085,2,0,P|337:253|367:256,1,61.6099974617463,10|0,0:0|0:0,0:0:0:0:
118,288,27365,1,2,0:0:0:0:
118,288,27645,5,2,1:0:0:0:
205,269,27786,2,0,P|214:307|216:322,2,30.8049987308732,0|0|0,0:0|0:0|0:0,0:0:0:0:
36,306,28066,1,2,0:0:0:0:
205,269,28206,2,0,L|203:204,1,61.6099974617463,8|0,0:0|0:0,0:0:0:0:
107,90,28487,2,0,L|105:151,1,61.6099974617463,2|0,0:0|0:0,0:0:0:0:
197,59,28767,1,0,1:0:0:0:
263,217,28907,2,0,P|226:214|196:204,1,61.6099974617463,8|2,0:0|0:0,0:0:0:0:
249,133,29187,1,0,3:0:0:0:
282,296,29328,2,0,P|318:293|349:283,1,61.6099974617463,10|0,0:0|0:0,0:0:0:0:
358,136,29608,2,0,P|335:201|334:213,1,61.6099974617463,2|0,0:0|0:0,0:0:0:0:
402,339,29888,6,0,P|427:292|390:223,1,123.219994923493,6|0,1:0|0:0,0:0:0:0:
262,169,30309,1,2,0:0:0:0:
272,356,30449,2,0,P|281:308|280:277,1,61.6099974617463,8|0,0:0|0:0,0:0:0:0:
189,124,30730,2,0,B|158:180|158:180|202:235,1,123.219994923493,2|0,0:0|1:0,0:0:0:0:
262,169,31150,1,0,3:0:0:0:
139,278,31290,2,0,L|148:348,1,61.6099974617463,2|0,0:0|0:0,0:0:0:0:
335,213,31571,2,0,L|342:151,1,61.6099974617463,10|0,0:0|0:0,0:0:0:0:
181,62,31851,2,0,L|188:123,1,61.6099974617463,2|0,0:0|0:0,0:0:0:0:
264,259,32131,5,2,1:0:0:0:
262,169,32272,2,0,L|261:125,2,30.8049987308732,0|0|0,0:0|0:0|0:0,0:0:0:0:
266,338,32552,1,2,0:0:0:0:
262,169,32692,2,0,L|323:164,1,61.6099974617463,8|0,0:0|0:0,0:0:0:0:
412,294,32973,2,0,B|391:324|391:324|355:242,1,123.219994923493,2|0,0:0|1:0,0:0:0:0:
323,163,33393,1,0,3:0:0:0:
389,55,33533,2,0,B|399:92|399:92|394:128,1,61.6099974617463,2|0,0:0|0:0,0:0:0:0:
237,203,33814,2,0,B|234:175|234:175|243:142,1,61.6099974617463,10|0,0:0|0:0,0:0:0:0:
405,65,34094,2,0,B|415:102|415:102|410:138,1,61.6099974617463,2|0,0:0|0:0,0:0:0:0:
332,249,34374,5,2,1:0:0:0:
326,162,34515,2,0,L|322:111,2,30.8049987308732,0|0|0,0:0|0:0|0:0,0:0:0:0:
338,334,34795,1,2,0:0:0:0:
326,163,34935,2,0,L|261:155,1,61.6099974617463,8|0,0:0|0:0,0:0:0:0:
128,254,35215,2,0,B|169:301|169:301|222:237,1,123.219994923493,2|0,0:0|1:0,0:0:0:0:
167,178,35636,1,0,3:0:0:0:
101,353,35776,2,0,L|50:292,1,61.6099974617463,2|0,0:0|0:0,0:0:0:0:
240,349,36057,2,0,L|291:290,1,61.6099974617463,10|0,0:0|0:0,0:0:0:0:
169,298,36337,1,2,0:0:0:0:
169,298,36617,6,0,L|167:251,1,41.4100006318665,2|2,0:0|0:0,0:0:0:0:
167,178,36898,1,2,0:0:0:0:
238,236,37038,2,0,L|250:140,1,82.8200012637329,2|0,0:0|3:0,0:0:0:0:
316,77,37458,2,0,P|274:78|224:52,1,82.8200012637329,2|0,0:0|3:0,0:0:0:0:
236,62,37879,1,0,3:0:0:0:
207,160,38019,2,0,P|244:155|261:149,1,41.4100006318665,2|0,0:0|0:0,0:0:0:0:
278,242,38300,2,0,P|241:237|224:231,1,41.4100006318665,2|0,0:0|0:0,0:0:0:0:
201,322,38580,2,0,P|238:317|255:311,1,41.4100006318665,2|0,0:0|0:0,0:0:0:0:
358,213,38860,5,2,0:0:0:0:
138,255,39281,1,2,0:0:0:0:
232,52,39701,2,0,B|255:118|211:120|232:177,1,125.239995031372,2|2,0:0|0:0,0:0:0:0:
162,86,40543,2,0,P|123:88|93:94,1,62.6199975156861,2|2,0:0|0:0,0:0:0:0:
309,147,41103,1,2,0:0:0:0:
70,172,41524,1,2,0:0:0:0:
350,214,41944,1,2,0:0:0:0:
199,71,42225,5,2,3:0:0:0:
199,71,42645,6,0,L|200:105,1,20.7050003159332,0|0,3:0|3:0,0:0:0:0:
202,191,42786,1,0,3:0:0:0:
122,106,42926,1,0,3:0:0:0:
277,88,43066,2,0,P|306:79|347:90,1,62.1150009477997,2|0,3:0|0:0,0:0:0:0:
312,154,43346,6,0,L|317:210,1,51.5100003143921,4|0,1:0|0:0,0:0:0:0:
409,270,43627,2,0,L|413:218,1,51.5100003143921,2|0,0:0|0:0,0:0:0:0:
327,280,43907,1,8,0:0:0:0:
228,188,44047,2,0,L|157:181,1,51.5100003143921,2|0,0:0|0:0,0:0:0:0:
102,274,44328,2,0,L|173:267,1,51.5100003143921,2|0,0:0|1:0,0:0:0:0:
100,180,44608,1,0,0:0:0:0:
22,260,44748,2,0,P|22:300|31:319,1,51.5100003143921,2|0,0:0|0:0,0:0:0:0:
118,351,45029,1,10,0:0:0:0:
220,301,45169,2,0,P|226:276|224:251,2,51.5100003143921,2|0|0,0:0|0:0|0:0,0:0:0:0:
166,179,45589,6,0,L|238:167,1,51.5100003143921,2|0,1:0|0:0,0:0:0:0:
302,220,45870,2,0,L|352:228,1,51.5100003143921,2|0,0:0|0:0,0:0:0:0:
452,179,46150,2,0,P|467:215|470:238,1,51.5100003143921,8|0,0:0|0:0,0:0:0:0:
410,291,46430,1,0,0:0:0:0:
352,228,46571,2,0,P|357:202|369:179,1,51.5100003143921,2|0,0:0|0:0,0:0:0:0:
282,270,46851,2,0,P|274:245|272:219,1,51.5100003143921,2|0,0:0|0:0,0:0:0:0:
214,322,47131,1,2,0:0:0:0:
151,257,47272,2,0,L|36:251,1,103.020000628784,8|0,0:0|0:0,0:0:0:0:
159,41,47832,6,0,L|221:49,1,51.5100003143921,0|0,1:0|0:0,0:0:0:0:
185,141,48113,2,0,L|236:134,1,51.5100003143921,0|0,0:0|0:0,0:0:0:0:
320,40,48393,1,8,0:0:0:0:
337,139,48533,2,0,L|332:200,1,51.5100003143921,2|0,0:0|0:0,0:0:0:0:
398,68,48814,1,2,0:0:0:0:
438,146,48954,1,2,0:0:0:0:
457,17,49094,2,0,P|474:46|477:75,1,51.5100003143921,2|0,0:0|0:0,0:0:0:0:
438,146,49374,1,2,0:0:0:0:
488,218,49515,2,0,L|493:283,1,51.5100003143921,8|0,0:0|0:0,0:0:0:0:
391,269,49795,2,0,L|394:217,1,51.5100003143921,2|0,0:0|0:0,0:0:0:0:
441,333,50075,6,0,P|406:350|342:339,1,103.020000628784,2|0,1:0|0:0,0:0:0:0:
276,278,50496,1,2,0:0:0:0:
179,354,50636,2,0,L|110:344,1,51.5100003143921,8|0,0:0|0:0,0:0:0:0:
143,170,50916,2,0,P|167:211|165:275,1,103.020000628784,2|0,0:0|1:0,0:0:0:0:
76,104,51337,2,0,L|195:85,1,103.020000628784,2|0,0:0|0:0,0:0:0:0:
237,157,51758,1,10,0:0:0:0:
237,157,51898,1,2,0:0:0:0:
337,97,52038,2,0,L|276:85,1,51.5100003143921,2|0,0:0|0:0,0:0:0:0:
305,270,52318,6,0,B|323:209|323:209|313:171,1,103.020000628784,2|0,1:0|0:0,0:0:0:0:
219,242,52739,1,2,0:0:0:0:
301,350,52879,2,0,P|336:345|353:332,1,51.5100003143921,8|0,0:0|0:0,0:0:0:0:
387,238,53159,1,2,0:0:0:0:
311,93,53300,2,0,P|276:98|259:111,1,51.5100003143921,2|0,0:0|1:0,0:0:0:0:
354,30,53580,2,0,P|331:17|306:16,1,51.5100003143921,2|0,0:0|0:0,0:0:0:0:
393,101,53860,1,2,0:0:0:0:
220,173,54001,2,0,L|99:151,1,103.020000628784,8|0,0:0|0:0,0:0:0:0:
161,238,54421,1,0,0:0:0:0:
294,294,54561,6,0,B|270:221|332:221|295:128,1,154.530000943176,6|0,1:0|0:0,0:0:0:0:
374,264,55122,2,0,L|430:251,1,51.5100003143921,8|0,0:0|0:0,0:0:0:0:
399,52,55402,2,0,P|384:89|379:111,1,51.5100003143921,2|0,0:0|0:0,0:0:0:0:
450,246,55683,1,0,1:0:0:0:
464,167,55823,2,0,B|413:155|414:196|357:175,1,103.020000628784,0|0,3:0|3:0,0:0:0:0:
233,104,56244,1,8,0:0:0:0:
233,104,56524,1,2,0:0:0:0:
233,104,56804,6,0,B|240:154|240:154|218:214,1,103.020000628784,6|0,1:0|0:0,0:0:0:0:
156,302,57225,1,2,0:0:0:0:
97,198,57365,2,0,P|147:203|164:211,1,51.5100003143921,8|0,0:0|0:0,0:0:0:0:
156,302,57645,2,0,B|119:313|85:303,1,51.5100003143921,2|0,0:0|0:0,0:0:0:0:
236,149,57926,1,0,1:0:0:0:
326,246,58066,2,0,B|248:240|248:240|205:252,1,103.020000628784,2|0,0:0|0:0,0:0:0:0:
105,307,58487,1,10,0:0:0:0:
105,307,58627,1,2,0:0:0:0:
121,174,58767,2,0,B|142:206|142:206|148:238,1,51.5100003143921,2|0,0:0|0:0,0:0:0:0:
207,69,59047,6,0,P|259:61|319:57,1,103.020000628784,2|0,1:0|0:0,0:0:0:0:
375,126,59468,1,2,0:0:0:0:
488,52,59608,2,0,P|446:32|426:24,1,51.5100003143921,8|0,0:0|0:0,0:0:0:0:
445,169,59888,2,0,P|453:122|451:103,1,51.5100003143921,2|0,0:0|0:0,0:0:0:0:
382,235,60169,1,2,0:0:0:0:
279,246,60309,2,0,L|406:232,1,103.020000628784,0|0,3:0|3:0,0:0:0:0:
217,309,60730,2,0,L|277:328,1,51.5100003143921,8|0,0:0|0:0,0:0:0:0:
127,338,61010,2,0,L|161:380,1,51.5100003143921,0|0,0:0|0:0,0:0:0:0:
46,319,61290,5,0,1:0:0:0:
46,319,61571,2,0,L|42:257,1,51.5100003143921,2|0,0:0|0:0,0:0:0:0:
95,144,61851,1,10,0:0:0:0:
134,221,61991,2,0,L|199:203,1,51.5100003143921,2|0,0:0|0:0,0:0:0:0:
268,149,62272,2,0,P|237:147|205:124,1,51.5100003143921,2|0,0:0|1:0,0:0:0:0:
310,217,62552,2,0,P|286:227|261:228,1,51.5100003143921,2|0,0:0|0:0,0:0:0:0:
365,279,62832,1,2,0:0:0:0:
406,150,62973,2,0,P|391:192|388:211,1,51.5100003143921,10|0,0:0|0:0,0:0:0:0:
389,101,63253,2,0,P|404:143|407:162,1,51.5100003143921,2|0,0:0|0:0,0:0:0:0:
315,64,63533,6,0,B|257:57|271:100|208:84,1,103.020000628784,2|0,1:0|0:0,0:0:0:0:
124,55,63954,1,2,0:0:0:0:
188,163,64094,2,0,P|195:197|195:231,1,51.5100003143921,8|0,0:0|0:0,0:0:0:0:
223,11,64374,5,10,0:0:0:0:
188,163,64515,1,10,0:0:0:0:
217,86,64655,1,0,1:0:0:0:
261,250,64795,2,0,P|221:288|161:280,1,103.020000628784,10|8,0:0|0:0,0:0:0:0:
118,240,65145,1,8,0:0:0:0:
118,240,65215,2,0,P|102:271|99:294,1,51.5100003143921,8|8,3:0|3:0,0:0:0:0:
261,250,65496,1,8,0:0:0:0:
261,250,65776,6,0,B|327:235|323:280|394:257,1,131.299999198608,2|0,0:0|0:0,0:0:0:0:
400,187,66617,2,0,P|372:186|363:188,1,26.2599998397217,2|2,0:0|0:0,0:0:0:0:
285,163,66898,2,0,P|266:134|336:99,1,131.299999198608,2|0,0:0|0:0,0:0:0:0:
349,22,67739,2,0,P|322:17|314:17,1,26.2599998397217,2|0,0:0|0:0,0:0:0:0:
229,48,68019,2,0,L|147:33,2,78.779999519165,2|2|2,0:0|0:0|0:0,0:0:0:0:
169,154,69141,2,0,P|160:186|163:211,1,52.5199996794434,2|2,0:0|0:0,0:0:0:0:
188,275,69561,1,2,0:0:0:0:
188,275,70262,6,0,L|233:269,3,36.3600008876953,2|0|0|0,0:0|0:0|0:0|0:0,0:0:0:0:
251,197,70823,2,0,L|287:201,2,36.3600008876953,2|0|2,0:0|0:0|0:0,0:0:0:0:
322,128,71244,1,2,0:0:0:0:
322,128,71384,2,0,L|350:150,3,36.3600008876953,2|0|0|0,0:0|0:0|0:0|0:0,0:0:0:0:
417,104,71944,2,0,L|430:137,2,36.3600008876953,2|0|2,0:0|0:0|0:0,0:0:0:0:
475,205,72365,1,2,0:0:0:0:
475,205,72505,6,0,P|430:219|368:190,2,109.080002663086,2|2|2,0:0|0:0|0:0,0:0:0:0:
286,90,73627,1,2,0:0:0:0:
252,286,73907,1,2,0:0:0:0:
252,286,74047,2,0,L|177:281,1,72.7200017753907,2|0,0:0|0:0,0:0:0:0:
125,220,74468,2,0,L|82:222,1,36.3600008876953,2|2,0:0|0:0,0:0:0:0:
22,274,74748,5,0,0:0:0:0:
22,274,75029,2,0,P|10:240|11:235,1,36.3600008876953,2|0,0:0|0:0,0:0:0:0:
30,167,75309,1,2,0:0:0:0:
88,221,75449,2,0,L|125:220,1,36.3600008876953,2|0,0:0|0:0,0:0:0:0:
235,193,75730,2,0,P|199:187|152:132,1,109.080002663086,2|2,0:0|0:0,0:0:0:0:
152,134,76430,1,2,0:0:0:0:
212,76,76571,2,0,L|294:86,1,72.7200017753907,2|0,0:0|0:0,0:0:0:0:
329,152,76991,6,0,B|348:222|299:216|325:287,1,127.260003106934,0|0,0:0|0:0,0:0:0:0:
328,299,77552,6,0,B|289:292|289:292|245:313|245:313|187:304,1,144.429999118469,2|0,0:0|0:0,0:0:0:0:
159,298,78393,6,0,P|172:266|106:93,1,227.755003475266,2|0,0:0|0:0,0:0:0:0:
89,111,79234,6,0,B|158:134|158:134|215:104|215:104|246:140|288:146|343:148|328:100|368:75|398:74|451:100,1,386.325002357941,2|0,0:0|0:0,0:0:0:0:
403,165,80356,5,8,0:0:0:0:
281,60,80496,2,0,L|278:34,2,25.755000157196,8|8|8,0:0|0:0|0:0,0:0:0:0:
207,194,80776,1,8,0:0:0:0:
342,114,80916,1,8,3:0:0:0:
245,127,81057,1,4,3:0:0:0:
306,272,81197,1,4,3:0:0:0:
322,190,81337,1,8,3:0:0:0:
436,327,81477,6,0,P|444:292|444:243,1,71.7099963891146,6|0,1:0|3:0,0:0:0:0:
399,60,81758,2,0,P|400:95|408:130,1,71.7099963891146,2|0,0:0|3:0,0:0:0:0:
349,280,82038,1,10,0:0:0:0:
307,207,82178,2,0,B|370:177|376:237|455:197,1,143.419992778229,2|0,0:0|3:0,0:0:0:0:
267,140,82599,2,0,P|235:173|229:202,1,71.7099963891146,2|0,1:0|3:0,0:0:0:0:
280,349,82879,2,0,P|268:315|242:291,1,71.7099963891146,2|0,0:0|0:0,0:0:0:0:
109,235,83159,2,0,P|162:247|234:176,1,143.419992778229,10|0,0:0|0:0,0:0:0:0:
160,32,83720,6,0,B|143:74|143:74|156:177,1,143.419992778229,6|0,1:0|0:0,0:0:0:0:
234,277,84141,1,2,0:0:0:0:
222,103,84281,2,0,L|233:179,1,71.7099963891146,8|0,0:0|3:0,0:0:0:0:
313,301,84561,2,0,P|313:255|286:211,1,71.7099963891146,2|0,0:0|0:0,0:0:0:0:
154,299,84842,1,2,1:0:0:0:
233,277,84982,2,0,B|207:239|207:239|167:212|98:230,1,143.419992778229,2|0,0:0|3:0,0:0:0:0:
127,374,85402,2,0,P|173:375|199:362,1,71.7099963891146,8|0,0:0|3:0,0:0:0:0:
233,277,85683,1,2,0:0:0:0:
233,277,85823,1,2,0:0:0:0:
303,170,85963,6,0,P|318:226|322:251,1,71.7099963891146,6|0,1:0|3:0,0:0:0:0:
416,90,86244,2,0,P|401:146|397:171,1,71.7099963891146,2|0,0:0|3:0,0:0:0:0:
280,32,86524,1,8,0:0:0:0:
280,32,86804,2,0,L|353:25,1,71.7099963891146,2|0,0:0|0:0,0:0:0:0:
184,105,87085,2,0,L|111:98,1,71.7099963891146,2|0,1:0|3:0,0:0:0:0:
39,149,87365,1,2,0:0:0:0:
79,27,87505,1,2,0:0:0:0:
144,177,87645,2,0,L|133:254,1,71.7099963891146,8|0,0:0|3:0,0:0:0:0:
219,96,87926,2,0,L|229:166,1,71.7099963891146,2|0,0:0|3:0,0:0:0:0:
291,30,88206,6,0,B|354:9|356:62|441:24,1,143.419992778229,6|0,1:0|0:0,0:0:0:0:
324,102,88627,1,2,0:0:0:0:
483,104,88767,2,0,L|477:189,1,71.7099963891146,8|0,0:0|3:0,0:0:0:0:
315,173,89047,2,0,L|323:101,1,71.7099963891146,2|0,0:0|0:0,0:0:0:0:
385,245,89328,1,0,1:0:0:0:
401,103,89468,2,0,L|385:249,1,143.419992778229,10|0,0:0|3:0,0:0:0:0:
245,189,89888,2,0,P|305:173|327:172,1,71.7099963891146,8|0,0:0|0:0,0:0:0:0:
401,103,90169,2,0,P|341:87|319:86,1,71.7099963891146,2|0,0:0|3:0,0:0:0:0:
245,189,90449,6,0,P|188:185|146:163,1,71.7099963891146,6|0,1:0|0:0,0:0:0:0:
209,39,90730,2,0,P|218:93|218:127,1,71.7099963891146,2|0,0:0|0:0,0:0:0:0:
147,267,91010,1,10,0:0:0:0:
106,193,91150,2,0,B|180:159|175:233|273:174,1,143.419992778229,2|0,0:0|3:0,0:0:0:0:
280,79,91571,2,0,P|237:92|214:115,1,71.7099963891146,2|0,1:0|3:0,0:0:0:0:
315,221,91851,2,0,P|318:173|298:134,1,71.7099963891146,2|0,0:0|0:0,0:0:0:0:
254,281,92131,2,0,B|316:315|316:315|386:272,1,143.419992778229,10|2,0:0|0:0,0:0:0:0:
217,109,92692,6,0,P|182:153|108:112,1,143.419992778229,6|0,1:0|0:0,0:0:0:0:
154,44,93113,1,2,0:0:0:0:
177,191,93253,2,0,L|178:280,1,71.7099963891146,8|0,0:0|3:0,0:0:0:0:
43,140,93533,2,0,P|96:122|121:124,1,71.7099963891146,2|0,0:0|0:0,0:0:0:0:
260,217,93814,1,2,1:0:0:0:
176,191,93954,2,0,P|213:144|298:140,1,143.419992778229,0|0,3:0|3:0,0:0:0:0:
327,266,94374,2,0,P|296:296|259:297,1,71.7099963891146,8|0,0:0|0:0,0:0:0:0:
260,217,94655,1,2,0:0:0:0:
260,217,94795,1,2,0:0:0:0:
323,59,94935,6,0,L|404:49,1,71.7099963891146,6|0,1:0|3:0,0:0:0:0:
173,60,95215,2,0,L|92:50,1,71.7099963891146,2|0,0:0|0:0,0:0:0:0:
292,137,95496,1,8,0:0:0:0:
292,137,95776,2,0,B|300:176|300:176|295:215,1,71.7099963891146,2|0,0:0|0:0,0:0:0:0:
141,322,96057,2,0,B|136:290|136:290|144:251,1,71.7099963891146,2|0,1:0|3:0,0:0:0:0:
213,181,96337,1,2,0:0:0:0:
242,269,96477,1,2,0:0:0:0:
136,167,96617,2,0,P|155:126|182:113,1,71.7099963891146,8|0,0:0|3:0,0:0:0:0:
313,296,96898,2,0,P|296:327|264:342,1,71.7099963891146,2|0,0:0|0:0,0:0:0:0:
309,105,97178,6,0,P|334:77|362:153,1,143.419992778229,6|0,1:0|0:0,0:0:0:0:
242,269,97599,1,2,0:0:0:0:
105,123,97739,2,0,L|182:113,1,71.7099963891146,8|0,0:0|0:0,0:0:0:0:
295,244,98019,2,0,L|218:234,1,71.7099963891146,2|0,0:0|0:0,0:0:0:0:
229,50,98300,1,0,1:0:0:0:
155,198,98440,1,0,3:0:0:0:
244,24,98580,2,0,L|256:106,1,71.7099963891146,2|0,0:0|0:0,0:0:0:0:
223,234,98860,1,10,0:0:0:0:
223,234,99001,1,2,0:0:0:0:
105,123,99141,2,0,P|159:110|190:117,1,71.7099963891146,2|0,0:0|0:0,0:0:0:0:
240,313,99421,6,0,P|190:311|165:289,1,71.7099963891146,6|0,1:0|0:0,0:0:0:0:
138,221,99701,1,2,0:0:0:0:
254,94,99842,1,2,0:0:0:0:
223,234,99982,1,8,0:0:0:0:
223,234,100543,6,0,L|213:147,1,71.7099963891146,6|0,1:0|0:0,0:0:0:0:
258,69,100823,1,2,0:0:0:0:
306,254,100963,1,2,0:0:0:0:
165,104,101103,1,8,0:0:0:0:
165,104,101664,6,0,L|89:97,1,71.7099963891146,6|0,1:0|0:0,0:0:0:0:
19,155,101944,1,2,0:0:0:0:
133,24,102085,1,2,0:0:0:0:
204,179,102225,2,0,L|280:172,1,71.7099963891146,8|0,0:0|3:0,0:0:0:0:
364,57,102505,2,0,P|335:93|327:129,1,71.7099963891146,2|0,0:0|0:0,0:0:0:0:
276,333,102786,6,0,P|271:284|260:245,1,71.7099963891146,6|0,1:0|0:0,0:0:0:0:
204,179,103066,1,2,0:0:0:0:
349,264,103206,1,2,0:0:0:0:
133,252,103346,1,8,0:0:0:0:
133,252,103907,6,0,B|112:221|112:221|138:163,1,71.7099963891146,6|0,1:0|0:0,0:0:0:0:
178,98,104187,1,2,0:0:0:0:
227,245,104328,1,2,0:0:0:0:
314,78,104468,1,8,0:0:0:0:
314,78,105029,6,0,L|400:62,1,71.7099963891146,6|0,1:0|0:0,0:0:0:0:
478,46,105309,1,2,0:0:0:0:
384,166,105449,1,2,0:0:0:0:
223,61,105589,1,8,0:0:0:0:
223,61,106150,6,0,L|146:53,1,71.7099963891146,6|0,1:0|0:0,0:0:0:0:
54,41,106430,1,2,0:0:0:0:
188,135,106571,1,2,0:0:0:0:
14,216,106711,2,0,L|25:293,1,71.7099963891146,8|0,0:0|3:0,0:0:0:0:
106,175,106991,2,0,L|95:252,1,71.7099963891146,2|0,0:0|0:0,0:0:0:0:
268,88,107272,6,0,P|339:78|363:80,1,71.7099963891146,6|0,1:0|0:0,0:0:0:0:
426,104,107552,1,2,0:0:0:0:
188,135,107692,1,2,0:0:0:0:
449,113,107832,1,8,0:0:0:0:
449,113,108393,6,0,B|471:163|473:217|473:217|454:260,1,143.419992778229,6|0,1:0|0:0,0:0:0:0:
416,327,108814,1,2,0:0:0:0:
332,215,108954,2,0,P|405:200|416:205,1,71.7099963891146,10|0,0:0|3:0,0:0:0:0:
318,329,109234,2,0,P|282:329|251:312,1,71.7099963891146,2|0,0:0|3:0,0:0:0:0:
270,115,109515,2,0,P|292:195|300:283,1,143.419992778229,2|0,1:0|0:0,0:0:0:0:
363,174,109935,1,2,0:0:0:0:
192,246,110075,2,0,L|111:227,1,71.7099963891146,8|0,0:0|3:0,0:0:0:0:
421,105,110356,6,0,B|381:74|333:72|303:95|296:122|238:162|209:153|189:130|182:106|200:83|233:82,1,286.839985556458,6|0,1:0|3:0,0:0:0:0:
296,328,111197,1,8,0:0:0:0:
229,299,111337,2,0,P|297:255|351:281,1,143.419992778229,2|0,0:0|3:0,0:0:0:0:
237,372,111758,2,0,P|172:347|163:273,1,143.419992778229,2|0,1:0|3:0,0:0:0:0:
218,224,112178,1,2,0:0:0:0:
85,329,112318,2,0,B|58:283|87:231|87:231|120:176|90:110,1,215.129989167344,8|0,0:0|3:0,0:0:0:0:
35,180,112879,6,0,B|114:192|114:192|171:165|171:165|289:183,1,250.984987361901,2|0,0:0|0:0,0:0:0:0:
230,249,113440,6,0,L|172:243,1,31.3099987578431,2|0,0:0|0:0,0:0:0:0:
162,310,113720,1,2,0:0:0:0:
265,316,113860,2,0,P|297:288|304:253,1,62.6199975156861,2|0,0:0|0:0,0:0:0:0:
277,181,114281,2,0,P|273:147|273:142,1,31.3099987578431,2|0,0:0|0:0,0:0:0:0:
318,88,114561,1,2,0:0:0:0:
375,149,114701,2,0,P|382:190|386:225,1,62.6199975156861,2|0,0:0|0:0,0:0:0:0:
376,288,115122,6,0,P|435:268|441:261,2,61.6099974617463,6|0|0,1:0|0:0|0:0,0:0:0:0:
328,152,115543,1,2,0:0:0:0:
309,324,115683,2,0,B|298:293|298:293|307:239,1,61.6099974617463,8|0,0:0|0:0,0:0:0:0:
389,95,115964,2,0,B|408:147|408:147|380:222,1,123.219994923493,2|0,0:0|1:0,0:0:0:0:
328,152,116384,1,0,3:0:0:0:
432,269,116524,2,0,B|473:275|473:275|509:265,1,61.6099974617463,2|0,0:0|0:0,0:0:0:0:
302,264,116805,2,0,B|254:269|254:269|225:260,1,61.6099974617463,10|0,0:0|0:0,0:0:0:0:
389,95,117085,1,2,0:0:0:0:
389,95,117365,6,0,P|384:37|324:39,1,123.219994923493,2|0,1:0|0:0,0:0:0:0:
338,157,117786,1,2,0:0:0:0:
259,57,117926,2,0,P|220:64|195:89,1,61.6099974617463,8|0,0:0|0:0,0:0:0:0:
322,235,118207,2,0,B|369:233|369:233|399:210|399:210|420:154,1,123.219994923493,2|0,0:0|1:0,0:0:0:0:
338,157,118627,1,0,3:0:0:0:
250,280,118767,2,0,P|219:291|175:292,1,61.6099974617463,2|0,0:0|0:0,0:0:0:0:
343,316,119048,2,0,P|374:327|418:328,1,61.6099974617463,10|0,0:0|0:0,0:0:0:0:
338,157,119328,1,2,0:0:0:0:
338,157,119608,5,0,1:0:0:0:
256,185,119749,2,0,P|213:183|204:181,2,30.8049987308732,0|0|0,0:0|0:0|0:0,0:0:0:0:
412,126,120029,1,2,0:0:0:0:
256,185,120169,2,0,L|261:259,1,61.6099974617463,8|0,0:0|0:0,0:0:0:0:
167,87,120450,2,0,L|149:209,1,123.219994923493,2|0,0:0|1:0,0:0:0:0:
250,104,120870,1,0,3:0:0:0:
260,246,121010,2,0,P|315:246|345:242,1,61.6099974617463,2|0,0:0|0:0,0:0:0:0:
149,209,121291,2,0,P|119:216|91:228,1,61.6099974617463,10|0,0:0|0:0,0:0:0:0:
347,242,121571,1,2,0:0:0:0:
347,242,121851,5,0,1:0:0:0:
306,318,121992,2,0,L|311:364,2,30.8049987308732,0|0|0,0:0|0:0|0:0,0:0:0:0:
389,164,122272,1,2,0:0:0:0:
306,318,122412,2,0,L|238:312,1,61.6099974617463,8|0,0:0|0:0,0:0:0:0:
198,128,122693,2,0,B|239:172|248:249,1,123.219994923493,2|0,0:0|1:0,0:0:0:0:
262,75,123113,2,0,P|292:67|334:62,1,61.6099974617463,8|2,0:0|0:0,0:0:0:0:
380,131,123393,1,0,3:0:0:0:
146,205,123534,2,0,P|107:201|74:192,1,61.6099974617463,10|0,0:0|0:0,0:0:0:0:
300,157,123814,1,0,3:0:0:0:
300,157,124094,6,0,L|308:235,1,62.6199975156861,2|0,0:0|0:0,0:0:0:0:
226,124,124515,2,0,L|218:202,1,62.6199975156861,2|0,0:0|0:0,0:0:0:0:
375,94,124935,2,0,L|385:206,1,93.9299962735292,2|0,0:0|0:0,0:0:0:0:
311,250,125496,2,0,P|305:214|303:190,1,31.3099987578431,2|0,0:0|3:0,0:0:0:0:
299,112,125776,1,2,0:0:0:0:
326,342,126057,1,2,0:0:0:0:
326,342,126337,6,0,L|370:333,2,31.3099987578431,2|2|2,0:0|0:0|0:0,0:0:0:0:
245,306,126758,2,0,P|208:291|160:306,1,62.6199975156861,2|0,0:0|3:0,0:0:0:0:
68,365,127178,2,0,P|31:348|26:292,1,93.9299962735292,2|0,0:0|3:0,0:0:0:0:
70,220,127739,2,0,P|77:184|76:172,1,31.3099987578431,2|0,0:0|3:0,0:0:0:0:
42,100,128019,1,2,0:0:0:0:
186,292,128300,1,2,0:0:0:0:
186,292,128580,6,0,B|226:274|239:311|285:284,1,90.9000022192383,2|0,0:0|0:0,0:0:0:0:
288,272,129001,2,0,P|312:264|386:259,1,90.9000022192383,2|0,0:0|0:0,0:0:0:0:
400,264,129421,2,0,P|416:224|408:184,1,72.7200017753907,0|0,0:0|3:0,0:0:0:0:
336,56,130262,2,0,L|293:57,1,36.3600008876953,2|2,0:0|0:0,0:0:0:0:
274,144,130543,2,0,P|243:144|218:128,1,54.540001331543,2|0,0:0|0:0,0:0:0:0:
207,120,130823,6,0,L|214:214,1,90.9000022192383,2|0,0:0|0:0,0:0:0:0:
195,204,131244,2,0,L|188:298,1,90.9000022192383,2|0,0:0|0:0,0:0:0:0:
179,312,131664,1,2,0:0:0:0:
129,136,131944,1,0,3:0:0:0:
323,138,132225,1,2,0:0:0:0:
157,224,132505,1,0,3:0:0:0:
367,294,132786,1,0,3:0:0:0:
91,328,133066,5,2,0:0:0:0:
91,328,133346,2,0,P|91:288|88:261,1,54.540001331543,2|0,0:0|0:0,0:0:0:0:
81,254,133627,1,2,0:0:0:0:
20,175,133767,2,0,P|49:165|84:161,1,54.540001331543,2|0,0:0|0:0,0:0:0:0:
100,172,134047,2,0,P|127:177|201:168,1,90.9000022192383,2|0,0:0|0:0,0:0:0:0:
208,157,134468,2,0,P|240:149|267:148,1,54.540001331543,2|0,0:0|0:0,0:0:0:0:
289,151,134748,1,2,0:0:0:0:
139,101,135029,1,2,0:0:0:0:
316,218,135309,6,0,P|339:204|358:135,1,90.9000022192383,2|0,0:0|0:0,0:0:0:0:
289,151,135730,2,0,P|293:124|255:64,1,90.9000022192383,2|0,0:0|0:0,0:0:0:0:
223,126,136150,1,2,0:0:0:0:
270,297,136430,2,0,L|267:337,2,36.3600008876953,0|0|0,0:0|3:0|3:0,0:0:0:0:
40,209,136991,2,0,P|69:201|141:257,1,127.260003106934,2|0,0:0|0:0,0:0:0:0:
145,292,137552,6,0,L|232:278,1,82.8200012637329,2|0,0:0|0:0,0:0:0:0:
300,262,137973,1,0,0:0:0:0:
403,354,138113,2,0,P|368:360|324:328,1,82.8200012637329,0|2,3:0|0:0,0:0:0:0:
376,242,138533,1,2,0:0:0:0:
467,291,138673,2,0,B|476:254|449:254|463:205,1,82.8200012637329,2|0,0:0|0:0,0:0:0:0:
491,140,139094,1,0,0:0:0:0:
332,149,139234,2,0,L|250:128,1,82.8200012637329,0|2,3:0|0:0,0:0:0:0:
180,107,139655,1,2,0:0:0:0:
114,247,139795,6,0,P|146:222|150:178,1,82.8200012637329,2|0,0:0|0:0,0:0:0:0:
81,182,140215,1,2,0:0:0:0:
154,315,140356,1,0,3:0:0:0:
183,71,140636,1,2,0:0:0:0:
238,318,140916,2,0,P|270:319|321:308,1,82.8200012637329,2|2,0:0|0:0,0:0:0:0:
274,243,141337,2,0,P|302:227|340:192,1,82.8200012637329,2|0,0:0|0:0,0:0:0:0:
262,162,141758,1,0,0:0:0:0:
262,162,142038,6,0,B|258:132|249:109,2,46.4599984403687,2|0|0,0:0|0:0|0:0,0:0:0:0:
274,243,142458,1,0,0:0:0:0:
180,155,142599,2,0,L|74:151,1,92.9199968807374,0|2,3:0|0:0,0:0:0:0:
24,203,143019,1,2,0:0:0:0:
49,80,143159,2,0,P|82:70|99:71,2,46.4599984403687,2|0|0,0:0|0:0|0:0,0:0:0:0:
87,151,143580,1,0,0:0:0:0:
177,62,143720,2,0,P|228:63|276:76,1,92.9199968807374,0|2,3:0|0:0,0:0:0:0:
320,133,144141,1,2,0:0:0:0:
464,39,144281,6,0,P|437:65|417:126,1,92.9199968807374,2|0,0:0|0:0,0:0:0:0:
420,194,144701,1,2,0:0:0:0:
456,341,144842,2,0,P|462:308|463:290,1,46.4599984403687,0|0,3:0|0:0,0:0:0:0:
427,216,145122,1,2,0:0:0:0:
426,217,145402,2,0,L|319:209,1,92.9199968807374,2|2,0:0|0:0,0:0:0:0:
336,126,145823,2,0,L|239:172,1,92.9199968807374,2|0,0:0|0:0,0:0:0:0:
253,82,146244,1,0,0:0:0:0:
242,327,146524,5,0,0:0:0:0:
242,327,146804,2,0,B|197:344|195:305|132:333,1,92.9199968807374,2|2,0:0|3:2,0:0:0:0:
76,363,147225,2,0,P|70:331|73:310,1,46.4599984403687,2|0,0:0|0:0,0:0:0:0:
114,251,147505,1,2,0:0:0:0:
80,93,147645,2,0,P|63:138|62:191,2,92.9199968807374,0|2|2,0:0|0:0|3:2,0:0:0:0:
196,37,148346,2,0,L|294:32,1,92.9199968807374,2|0,0:0|0:0,0:0:0:0:
330,109,148767,6,0,P|338:151|348:245,1,127.260003106934,2|0,0:0|0:0,0:0:0:0:
352,280,149328,6,0,P|359:194|371:132,1,144.429999118469,2|0,0:0|0:0,0:0:0:0:
382,105,150169,6,0,P|393:176|401:344,1,227.755003475266,2|0,0:0|0:0,0:0:0:0:
403,358,151010,6,0,B|470:232|364:204|375:145|385:107|420:78|463:87|495:112|505:156|472:182,1,386.325002357941,2|0,0:0|0:0,0:0:0:0:
448,203,152131,5,8,0:0:0:0:
346,91,152272,2,0,P|331:126|332:135,2,25.755000157196,8|8|8,0:0|0:0|0:0,0:0:0:0:
348,282,152552,1,8,0:0:0:0:
365,187,152692,1,8,3:0:0:0:
403,358,152832,1,4,3:0:0:0:
435,279,152973,1,4,3:0:0:0:
490,351,153113,1,8,3:0:0:0:
348,282,153253,6,0,P|313:293|265:297,1,71.7099963891146,6|0,1:0|3:0,0:0:0:0:
78,268,153534,2,0,P|112:265|148:270,1,71.7099963891146,2|0,0:0|3:0,0:0:0:0:
293,199,153814,1,10,0:0:0:0:
217,163,153954,2,0,B|192:228|252:229|219:311,1,143.419992778229,2|0,0:0|3:0,0:0:0:0:
145,132,154375,2,0,P|175:97|203:88,1,71.7099963891146,2|0,1:0|3:0,0:0:0:0:
353,231,154655,2,0,P|318:222|291:198,1,71.7099963891146,2|0,0:0|0:0,0:0:0:0:
394,28,154935,2,0,P|410:79|346:157,1,143.419992778229,10|0,0:0|0:0,0:0:0:0:
350,366,155496,6,0,B|366:320|366:320|345:275|345:275|354:221,1,143.419992778229,6|0,1:0|0:0,0:0:0:0:
289,118,155917,1,2,0:0:0:0:
283,315,156057,2,0,B|269:281|269:281|280:237,1,71.7099963891146,8|0,0:0|3:0,0:0:0:0:
211,94,156337,2,0,B|209:133|209:133|238:184,1,71.7099963891146,2|0,0:0|0:0,0:0:0:0:
369,96,156618,1,2,1:0:0:0:
290,118,156758,2,0,B|329:173|329:173|424:173,1,143.419992778229,2|0,0:0|3:0,0:0:0:0:
396,21,157178,2,0,B|357:15|357:15|324:33,1,71.7099963891146,8|0,0:0|3:0,0:0:0:0:
290,118,157459,1,2,0:0:0:0:
290,118,157599,1,2,0:0:0:0:
229,224,157739,6,0,P|214:168|210:143,1,71.7099963891146,6|0,1:0|3:0,0:0:0:0:
116,304,158020,2,0,P|131:248|135:223,1,71.7099963891146,2|0,0:0|3:0,0:0:0:0:
256,360,158300,1,8,0:0:0:0:
256,360,158580,2,0,L|183:367,1,71.7099963891146,2|0,0:0|0:0,0:0:0:0:
348,289,158861,2,0,L|421:296,1,71.7099963891146,2|0,1:0|3:0,0:0:0:0:
493,245,159141,1,2,0:0:0:0:
453,367,159281,1,2,0:0:0:0:
421,207,159421,2,0,L|432:130,1,71.7099963891146,8|0,0:0|3:0,0:0:0:0:
348,289,159702,2,0,L|338:219,1,71.7099963891146,2|0,0:0|3:0,0:0:0:0:
275,351,159982,6,0,B|229:358|229:358|187:340|187:340|125:357,1,143.419992778229,6|0,1:0|0:0,0:0:0:0:
243,279,160403,1,2,0:0:0:0:
82,276,160543,2,0,B|75:242|75:242|88:191,1,71.7099963891146,8|0,0:0|3:0,0:0:0:0:
250,209,160823,2,0,B|254:244|254:244|242:281,1,71.7099963891146,2|0,0:0|0:0,0:0:0:0:
179,137,161104,1,0,1:0:0:0:
165,278,161244,2,0,B|173:232|173:232|166:192|166:192|181:132,1,143.419992778229,10|0,0:0|3:0,0:0:0:0:
316,71,161664,2,0,L|234:88,1,71.7099963891146,8|0,0:0|0:0,0:0:0:0:
47,74,161945,2,0,L|129:91,1,71.7099963891146,2|0,0:0|3:0,0:0:0:0:
295,145,162225,6,0,P|298:202|283:246,1,71.7099963891146,6|0,1:0|0:0,0:0:0:0:
151,201,162506,2,0,P|203:184|236:179,1,71.7099963891146,2|0,0:0|0:0,0:0:0:0:
385,230,162786,1,10,0:0:0:0:
222,320,162926,2,0,B|252:244|178:253|232:152,1,143.419992778229,2|0,0:0|3:0,0:0:0:0:
181,125,163347,2,0,P|199:165|225:185,1,71.7099963891146,2|0,1:0|3:0,0:0:0:0:
280,50,163627,2,0,P|256:91|257:135,1,71.7099963891146,2|0,0:0|0:0,0:0:0:0:
383,55,163907,2,0,P|339:113|360:206,1,143.419992778229,10|2,0:0|0:0,0:0:0:0:
73,192,164468,6,0,B|131:232|131:232|88:302,1,143.419992778229,6|0,1:0|0:0,0:0:0:0:
17,263,164889,1,2,0:0:0:0:
159,221,165029,2,0,L|246:207,1,71.7099963891146,8|0,0:0|3:0,0:0:0:0:
119,359,165309,2,0,P|93:309|92:283,1,71.7099963891146,2|0,0:0|0:0,0:0:0:0:
173,134,165590,1,2,1:0:0:0:
159,221,165730,2,0,L|16:202,1,143.419992778229,0|0,3:0|3:0,0:0:0:0:
118,64,166150,2,0,L|200:45,1,71.7099963891146,8|0,0:0|0:0,0:0:0:0:
173,134,166431,1,2,0:0:0:0:
173,134,166571,1,2,0:0:0:0:
344,39,166711,6,0,L|415:30,1,71.7099963891146,6|0,1:0|3:0,0:0:0:0:
259,56,166991,2,0,L|187:47,1,71.7099963891146,2|0,0:0|0:0,0:0:0:0:
306,124,167272,1,8,0:0:0:0:
306,124,167552,2,0,B|314:163|309:194,1,71.7099963891146,2|0,0:0|0:0,0:0:0:0:
155,309,167833,2,0,B|150:277|158:238,1,71.7099963891146,2|0,1:0|3:0,0:0:0:0:
227,168,168113,1,2,0:0:0:0:
251,259,168253,1,2,0:0:0:0:
150,154,168393,2,0,B|160:120|160:120|191:101,1,71.7099963891146,8|0,0:0|3:0,0:0:0:0:
326,283,168674,2,0,B|309:313|309:313|273:334,1,71.7099963891146,2|0,0:0|0:0,0:0:0:0:
377,85,168954,6,0,B|400:60|400:60|385:185,1,143.419992778229,6|0,1:0|0:0,0:0:0:0:
251,259,169375,1,2,0:0:0:0:
252,41,169515,2,0,L|323:31,1,71.7099963891146,8|0,0:0|0:0,0:0:0:0:
457,178,169795,2,0,L|385:168,1,71.7099963891146,2|0,0:0|0:0,0:0:0:0:
252,41,170076,1,0,1:0:0:0:
309,192,170216,1,0,3:0:0:0:
323,31,170356,2,0,L|333:101,1,71.7099963891146,2|0,0:0|0:0,0:0:0:0:
237,221,170636,1,10,0:0:0:0:
237,221,170777,1,2,0:0:0:0:
181,55,170917,2,0,L|259:39,1,71.7099963891146,2|0,0:0|0:0,0:0:0:0:
157,185,171197,6,0,L|146:334,1,143.419992778229,2|0,1:0|3:0,0:0:0:0:
236,251,171617,1,2,0:0:0:0:
74,213,171758,2,0,L|67:304,1,71.7099963891146,8|0,0:0|3:0,0:0:0:0:
230,322,172038,2,0,L|235:250,1,71.7099963891146,2|0,0:0|3:0,0:0:0:0:
430,118,172318,2,0,P|351:125|256:78,1,143.419992778229,2|0,1:0|3:0,0:0:0:0:
228,26,172739,1,2,0:0:0:0:
255,181,172879,2,0,L|232:259,1,71.7099963891146,8|0,0:0|3:0,0:0:0:0:
362,46,173159,6,0,B|408:114|365:180|365:180|318:246|366:333,1,286.839985556458,6|0,1:0|3:0,0:0:0:0:
212,42,174001,1,8,0:0:0:0:
150,128,174141,2,0,L|308:101,1,143.419992778229,2|0,0:0|3:0,0:0:0:0:
92,66,174561,2,0,B|57:129|57:129|115:229,1,143.419992778229,0|0,1:0|3:0,0:0:0:0:
6,64,174982,1,2,0:0:0:0:
9,211,175122,2,0,P|53:264|174:201,1,215.129989167344,8|0,0:0|3:0,0:0:0:0:
119,292,175683,6,0,B|224:340|229:242|315:275|315:275|274:299,1,250.984987361901,0|0,0:0|0:0,0:0:0:0:
323,359,176244,6,0,L|357:338,1,31.3099987578431,2|0,0:0|0:0,0:0:0:0:
404,292,176524,1,2,0:0:0:0:
475,340,176664,2,0,P|489:307|483:267,1,62.6199975156861,2|0,0:0|0:0,0:0:0:0:
438,218,177085,2,0,P|433:183|435:173,1,31.3099987578431,2|0,0:0|0:0,0:0:0:0:
463,112,177365,1,2,0:0:0:0:
370,126,177505,2,0,L|295:112,1,62.6199975156861,2|0,0:0|0:0,0:0:0:0:
200,96,177926,6,0,P|224:136|232:200,1,82.8200012637329,6|0,1:0|3:0,0:0:0:0:
218,259,178346,1,0,0:0:0:0:
119,213,178487,2,0,P|164:202|171:202,1,41.4100006318665,0|0,3:0|0:0,0:0:0:0:
272,322,178767,1,2,0:0:0:0:
218,259,178907,2,0,P|257:246|324:244,1,82.8200012637329,2|0,3:0|3:0,0:0:0:0:
312,326,179328,2,0,P|261:318|251:313,1,41.4100006318665,2|0,0:0|0:0,0:0:0:0:
364,198,179608,1,0,3:0:0:0:
298,241,179749,2,0,P|281:196|296:153,1,82.8200012637329,2|0,3:0|0:0,0:0:0:0:
446,58,180169,6,0,L|343:46,1,82.8200012637329,2|0,1:0|3:0,0:0:0:0:
284,82,180589,1,0,0:0:0:0:
212,32,180730,2,0,P|254:8|267:8,1,41.4100006318665,0|0,3:0|0:0,0:0:0:0:
206,115,181010,1,2,0:0:0:0:
129,43,181150,2,0,L|240:28,1,82.8200012637329,2|0,3:0|0:0,0:0:0:0:
130,149,181571,2,0,L|123:226,1,41.4100006318665,2|0,0:0|0:0,0:0:0:0:
198,278,181851,1,0,3:0:0:0:
202,195,181991,1,2,3:0:0:0:
282,244,182131,2,0,L|278:297,1,41.4100006318665,2|0,0:0|0:0,0:0:0:0:
86,354,182412,6,0,P|48:325|53:276,1,82.8200012637329,2|0,1:0|3:0,0:0:0:0:
79,221,182832,1,0,0:0:0:0:
56,119,182973,2,0,P|33:168|33:177,1,41.4100006318665,0|0,3:0|0:0,0:0:0:0:
128,291,183253,1,0,3:0:0:0:
159,217,183393,2,0,B|95:212|95:212|57:232,1,82.8200012637329,2|0,3:0|0:0,0:0:0:0:
128,291,183814,2,0,L|178:295,1,41.4100006318665,0|0,3:0|0:0,0:0:0:0:
189,99,184094,2,0,L|174:164,1,41.4100006318665,2|2,0:0|3:0,0:0:0:0:
248,298,184374,2,0,L|238:257,1,41.4100006318665,2|0,0:0|0:0,0:0:0:0:
274,68,184655,6,0,L|249:170,1,82.8200012637329,2|0,1:0|3:0,0:0:0:0:
316,237,185075,1,0,0:0:0:0:
369,166,185215,2,0,P|318:151|310:150,1,41.4100006318665,0|0,3:0|0:0,0:0:0:0:
394,250,185496,1,0,3:0:0:0:
450,151,185636,2,0,P|401:157|357:170,1,82.8200012637329,2|0,3:0|0:0,0:0:0:0:
470,266,186057,2,0,P|468:218|463:209,1,41.4100006318665,0|0,3:0|0:0,0:0:0:0:
450,151,186337,1,0,3:0:0:0:
394,250,186477,1,2,3:0:0:0:
369,166,186617,2,0,P|318:151|310:150,1,41.4100006318665,2|0,0:0|0:0,0:0:0:0:
170,252,186898,6,0,P|237:249|260:206,1,82.8200012637329,2|0,1:0|3:0,0:0:0:0:
200,181,187318,1,0,0:0:0:0:
92,233,187458,2,0,P|95:277|107:292,1,41.4100006318665,2|0,3:0|0:0,0:0:0:0:
288,301,187739,1,2,0:0:0:0:
322,236,187879,2,0,P|265:229|231:257,1,82.8200012637329,2|0,3:0|3:0,0:0:0:0:
262,371,188300,2,0,P|311:370|317:365,1,41.4100006318665,2|0,0:0|0:0,0:0:0:0:
166,313,188580,2,0,P|185:306|205:309,1,41.4100006318665,2|2,0:0|3:0,0:0:0:0:
62,374,188860,2,0,P|82:376|101:370,1,41.4100006318665,2|0,0:0|0:0,0:0:0:0:
63,189,189141,6,0,L|78:307,1,82.8200012637329,2|0,1:0|3:0,0:0:0:0:
151,207,189561,1,0,0:0:0:0:
244,240,189701,2,0,L|291:225,1,41.4100006318665,0|0,3:0|0:0,0:0:0:0:
346,67,189982,1,2,0:0:0:0:
389,136,190122,2,0,P|338:150|301:130,1,82.8200012637329,2|0,3:0|3:0,0:0:0:0:
232,88,190543,2,0,P|279:73|292:76,1,41.4100006318665,2|0,0:0|0:0,0:0:0:0:
287,171,190823,2,0,P|320:134|332:130,1,41.4100006318665,2|2,0:0|3:0,0:0:0:0:
386,217,191103,2,0,P|396:168|405:159,1,41.4100006318665,2|0,0:0|0:0,0:0:0:0:
480,347,191384,6,0,P|408:336|378:325,1,82.8200012637329,2|0,1:0|3:0,0:0:0:0:
319,297,191804,1,0,0:0:0:0:
242,346,191944,2,0,P|221:351|201:351,1,41.4100006318665,0|0,3:0|0:0,0:0:0:0:
188,163,192225,1,2,0:0:0:0:
166,254,192365,2,0,L|247:236,1,82.8200012637329,2|0,3:0|3:0,0:0:0:0:
228,154,192786,2,0,L|164:168,1,41.4100006318665,0|4,3:0|3:0,0:0:0:0:
87,275,193066,1,8,3:0:0:0:
34,217,193206,2,0,P|80:195|120:205,1,82.8200012637329,2|0,3:0|3:0,0:0:0:0:
324,266,193627,5,2,1:0:0:0:
324,266,193907,2,0,L|329:212,1,41.4100006318665,2|0,0:0|0:0,0:0:0:0:
387,140,194187,2,0,L|390:181,1,41.4100006318665,2|0,0:0|0:0,0:0:0:0:
353,340,194468,2,0,P|303:342|295:339,1,41.4100006318665,2|2,0:0|3:0,0:0:0:0:
210,283,194748,2,0,P|260:281|268:284,1,41.4100006318665,2|0,0:0|3:0,0:0:0:0:
237,360,195029,2,0,P|187:362|179:359,1,41.4100006318665,2|0,0:0|0:0,0:0:0:0:
94,303,195309,2,0,P|144:301|152:304,1,41.4100006318665,2|2,0:0|3:0,0:0:0:0:
34,368,195589,1,2,0:0:0:0:
40,41,195870,6,0,B|102:18|103:73|183:34,1,124.230001895599,2|0,1:0|3:0,0:0:0:0:
80,153,196430,2,0,P|67:109|67:104,1,41.4100006318665,4|0,3:0|0:0,0:0:0:0:
234,77,196711,1,4,3:0:0:0:
190,164,196851,2,0,L|200:257,1,82.8200012637329,2|0,3:0|3:0,0:0:0:0:
208,333,197272,1,8,3:0:0:0:
208,333,197552,1,0,3:0:0:0:
275,273,197692,2,0,P|315:258|366:281,1,82.8200012637329,2|0,3:0|3:0,0:0:0:0:
492,350,198113,6,0,P|487:291|485:220,1,103.020000628784,6|0,1:0|3:0,0:0:0:0:
491,174,198533,1,0,0:0:0:0:
370,48,198673,2,0,P|400:94|404:104,1,51.5100003143921,0|0,1:0|0:0,0:0:0:0:
352,268,198954,2,0,P|323:216|331:179,1,51.5100003143921,0|0,3:0|0:0,0:0:0:0:
264,76,199234,2,0,P|212:117|169:90,1,103.020000628784,0|0,1:0|3:0,0:0:0:0:
113,69,199655,1,0,0:0:0:0:
43,237,199795,2,0,P|68:177|71:171,1,51.5100003143921,0|0,1:0|0:0,0:0:0:0:
175,326,200075,2,0,P|150:266|147:260,1,51.5100003143921,0|0,3:0|0:0,0:0:0:0:
304,138,200356,6,0,P|371:128|382:129,1,61.6099974617463,6|0,1:0|0:0,0:0:0:0:
463,334,200636,2,0,P|396:344|385:343,1,61.6099974617463,0|0,1:0|0:0,0:0:0:0:
247,118,200916,6,0,P|310:142|319:149,1,61.6099974617463,4|0,1:0|0:0,0:0:0:0:
286,365,201196,2,0,P|222:340|213:333,1,61.6099974617463,0|0,1:0|0:0,0:0:0:0:
92,198,201477,5,4,1:0:0:0:
252,197,201617,1,8,0:0:0:0:
155,297,201758,5,4,1:0:0:0:
189,133,201898,1,8,0:0:0:0:
329,174,202038,5,4,1:0:0:0:
174,217,202178,1,8,0:0:0:0:
269,115,202318,5,4,1:0:0:0:
240,282,202458,1,8,0:0:0:0:
329,174,202599,6,0,L|333:208,1,31.3099987578431,2|2,0:0|0:0,0:0:0:0:
396,338,202879,1,2,0:0:0:0:
390,251,203019,2,0,P|358:274|319:277,1,62.6199975156861,2|0,0:0|0:0,0:0:0:0:
263,246,203440,2,0,P|231:299|234:369,1,125.239995031372,2|2,0:0|0:0,0:0:0:0:
124,296,204281,1,2,0:0:0:0:
10,324,204561,1,2,0:0:0:0:
145,212,204842,6,0,L|157:169,1,31.3099987578431,2|0,0:0|0:0,0:0:0:0:
203,44,205122,1,0,0:0:0:0:
145,104,205262,2,0,P|111:115|82:144,1,62.6199975156861,2|0,0:0|0:0,0:0:0:0:
224,128,205683,2,0,P|285:126|330:67,1,125.239995031372,2|2,0:0|0:0,0:0:0:0:
431,3,206524,1,2,0:0:0:0:
507,111,206804,1,2,0:0:0:0:
395,198,207085,6,0,L|386:247,1,31.3099987578431,2|2,0:0|0:0,0:0:0:0:
331,372,207365,1,2,0:0:0:0:
315,296,207505,2,0,L|305:230,1,62.6199975156861,2|0,0:0|0:0,0:0:0:0:
223,210,207926,2,0,P|173:246|101:246,1,125.239995031372,2|2,0:0|0:0,0:0:0:0:
53,48,208767,1,2,0:0:0:0:
26,159,209047,2,0,L|16:200,1,31.3099987578431,2|0,0:0|0:0,0:0:0:0:
110,133,209328,6,0,L|102:163,2,31.3099987578431,2|2|2,0:0|0:0|0:0,0:0:0:0:
196,119,209748,1,2,0:0:0:0:
196,119,209888,2,0,L|186:160,1,31.3099987578431
278,98,210169,2,0,P|330:132|410:122,1,125.239995031372,2|2,0:0|0:0,0:0:0:0:
487,219,211010,1,2,0:0:0:0:
413,333,211290,1,2,0:0:0:0:
289,242,211571,6,0,L|334:233,2,31.3099987578431,2|2|2,0:0|0:0|0:0,0:0:0:0:
227,296,211991,1,2,0:0:0:0:
227,296,212131,2,0,L|184:287,1,31.3099987578431,0|0,0:0|0:0,0:0:0:0:
148,220,212412,2,0,P|119:273|123:337,1,125.239995031372,2|2,0:0|0:0,0:0:0:0:
33,234,213253,1,2,0:0:0:0:
106,124,213533,2,0,L|99:83,1,31.3099987578431,2|0,0:0|0:0,0:0:0:0:
191,145,213814,6,0,L|184:104,2,31.3099987578431,2|2|2,0:0|0:0|0:0,0:0:0:0:
262,192,214234,1,2,0:0:0:0:
262,192,214374,2,0,L|331:178,1,62.6199975156861,0|0,3:0|0:0,0:0:0:0:
495,149,214935,2,0,L|487:188,2,31.3099987578431,0|0|2,3:0|0:0|0:0,0:0:0:0:
320,267,215496,1,2,0:0:0:0:
284,98,215776,1,2,0:0:0:0:
409,296,216057,6,0,L|416:266,2,31.3099987578431,2|2|2,0:0|0:0|0:0,0:0:0:0:
340,357,216477,1,2,0:0:0:0:
340,357,216617,2,0,L|251:343,1,62.6199975156861,0|2,3:0|0:0,0:0:0:0:
96,340,217178,2,0,L|101:376,2,31.3099987578431,0|0|2,3:0|0:0|0:0,0:0:0:0:
119,137,217739,1,2,0:0:0:0:
307,216,218019,1,2,0:0:0:0:
81,234,218300,6,0,L|29:246,1,31.3099987578431,2|2,0:0|0:0,0:0:0:0:
119,137,218580,2,0,L|67:149,1,31.3099987578431,2|2,0:0|0:0,0:0:0:0:
158,35,218860,2,0,L|71:50,1,62.6199975156861,0|2,3:0|0:0,0:0:0:0:
301,99,219281,1,0,3:0:0:0:
301,99,219421,2,0,L|214:114,1,62.6199975156861,2|2,0:0|0:0,0:0:0:0:
81,234,219982,1,2,0:0:0:0:
295,203,220262,1,2,0:0:0:0:
120,382,220543,6,0,L|108:330,1,31.3099987578431,2|2,0:0|0:0,0:0:0:0:
254,356,220823,2,0,L|242:303,1,31.3099987578431,2|2,0:0|0:0,0:0:0:0:
391,328,221103,2,0,L|375:253,1,62.6199975156861,0|2,3:0|0:0,0:0:0:0:
421,202,221524,1,0,3:0:0:0:
343,199,221664,6,0,B|306:214|301:258|301:258|280:180|327:98,1,234.824990683823,2|0,0:0|0:0,0:0:0:0:
345,85,222786,6,0,P|293:130|209:125,1,143.419992778229,6|2,1:0|0:0,0:0:0:0:
162,66,223206,1,0,3:0:0:0:
72,217,223346,1,10,0:0:0:0:
34,137,223487,2,0,P|104:136|157:182,1,143.419992778229,2|0,0:0|3:0,0:0:0:0:
172,274,223907,2,0,L|155:360,1,71.7099963891146,2|0,1:0|3:0,0:0:0:0:
250,214,224187,1,2,0:0:0:0:
270,299,224328,1,0,0:0:0:0:
344,237,224468,2,0,P|411:232|471:282,1,143.419992778229,10|0,0:0|0:0,0:0:0:0:
384,322,224888,1,0,0:0:0:0:
250,214,225029,6,0,P|258:124|295:77,1,143.419992778229,6|0,1:0|0:0,0:0:0:0:
417,103,225449,2,0,P|360:136|338:137,1,71.7099963891146,2|8,0:0|0:0,0:0:0:0:
214,40,225730,1,0,3:0:0:0:
294,0,225870,2,0,P|327:10|354:34,1,71.7099963891146,2|0,0:0|0:0,0:0:0:0:
192,19,226150,1,2,1:0:0:0:
154,103,226290,2,0,P|102:144|13:140,1,143.419992778229,2|0,0:0|3:0,0:0:0:0:
181,193,226711,2,0,P|200:242|201:267,1,71.7099963891146,8|0,0:0|3:0,0:0:0:0:
20,273,226991,1,2,0:0:0:0:
107,243,227131,1,2,0:0:0:0:
36,373,227271,6,0,P|93:331|174:342,1,143.419992778229,6|0,1:0|0:0,0:0:0:0:
243,384,227692,1,0,3:0:0:0:
373,232,227832,1,8,0:0:0:0:
373,232,228113,2,0,P|386:275|387:310,1,71.7099963891146,2|0,0:0|0:0,0:0:0:0:
330,158,228393,2,0,P|344:76|391:31,1,143.419992778229,2|2,1:0|0:0,0:0:0:0:
266,216,228814,2,0,P|226:240|191:244,1,71.7099963891146,2|8,0:0|0:0,0:0:0:0:
219,54,229094,1,0,3:0:0:0:
198,145,229234,2,0,P|157:122|136:94,1,71.7099963891146,2|0,0:0|3:0,0:0:0:0:
6,265,229515,6,0,P|54:219|138:212,1,143.419992778229,6|0,1:0|0:0,0:0:0:0:
127,209,229935,1,2,0:0:0:0:
172,337,230075,2,0,L|74:313,1,71.7099963891146,8|0,0:0|3:0,0:0:0:0:
291,263,230356,2,0,L|193:239,1,71.7099963891146,2|0,0:0|0:0,0:0:0:0:
429,380,230636,1,0,1:0:0:0:
297,354,230776,2,0,B|385:335|343:303|430:291,1,143.419992778229,10|0,0:0|3:0,0:0:0:0:
309,194,231197,2,0,P|295:233|290:295,1,71.7099963891146,8|0,0:0|0:0,0:0:0:0:
473,194,231477,2,0,P|466:158|454:125,1,71.7099963891146,2|0,0:0|3:0,0:0:0:0:
253,51,231758,6,0,P|298:100|387:93,1,143.419992778229,6|2,1:0|0:0,0:0:0:0:
336,22,232178,1,0,0:0:0:0:
215,158,232318,1,10,0:0:0:0:
159,84,232458,2,0,P|89:84|40:134,1,143.419992778229,2|0,0:0|3:0,0:0:0:0:
99,273,232879,2,0,L|90:183,1,71.7099963891146,2|0,1:0|3:0,0:0:0:0:
159,337,233159,1,2,0:0:0:0:
187,247,233300,1,0,0:0:0:0:
252,315,233440,2,0,P|307:351|386:339,1,143.419992778229,10|2,0:0|0:0,0:0:0:0:
418,263,233860,1,0,0:0:0:0:
342,127,234001,6,0,B|320:167|320:167|331:276,1,143.419992778229,6|0,1:0|0:0,0:0:0:0:
485,168,234421,2,0,L|408:186,1,71.7099963891146,2|8,0:0|0:0,0:0:0:0:
209,78,234701,1,0,3:0:0:0:
272,143,234842,2,0,L|349:125,1,71.7099963891146,2|0,0:0|0:0,0:0:0:0:
194,45,235122,1,2,1:0:0:0:
107,78,235262,2,0,P|47:160|50:210,1,143.419992778229,0|0,3:0|3:0,0:0:0:0:
196,285,235683,2,0,P|185:215|136:165,1,143.419992778229,8|2,0:0|0:0,0:0:0:0:
106,258,236103,1,2,0:0:0:0:
252,365,236244,6,0,P|279:325|285:298,1,71.7099963891146,6|0,1:0|3:0,0:0:0:0:
228,222,236524,2,0,P|201:262|195:289,1,71.7099963891146,2|0,0:0|0:0,0:0:0:0:
368,175,236804,1,8,0:0:0:0:
368,175,236944,1,0,0:0:0:0:
283,147,237085,2,0,L|267:70,1,71.7099963891146,2|0,0:0|0:0,0:0:0:0:
135,20,237365,2,0,P|87:69|-3:67,1,143.419992778229,2|2,1:0|0:0,0:0:0:0:
176,110,237786,2,0,P|167:164|144:196,1,71.7099963891146,2|8,0:0|0:0,0:0:0:0:
104,307,238066,1,0,3:0:0:0:
57,236,238206,2,0,P|42:203|40:167,1,71.7099963891146,2|0,0:0|0:0,0:0:0:0:
195,292,238487,6,0,P|264:242|335:242,1,143.419992778229,6|0,1:0|0:0,0:0:0:0:
319,238,238907,1,2,0:0:0:0:
339,380,239047,2,0,P|305:354|286:324,1,71.7099963891146,8|0,0:0|0:0,0:0:0:0:
319,238,239328,2,0,P|324:195|340:164,1,71.7099963891146,2|0,0:0|0:0,0:0:0:0:
454,110,239608,2,0,B|365:121|406:71|305:88,1,143.419992778229,0|2,1:0|0:0,0:0:0:0:
242,140,240029,1,0,0:0:0:0:
134,12,240169,1,10,0:0:0:0:
227,50,240309,1,2,0:0:0:0:
145,110,240449,2,0,P|92:134|58:134,1,71.7099963891146,2|0,0:0|0:0,0:0:0:0:
187,217,240730,6,0,P|221:224|252:242,1,71.7099963891146,6|0,1:0|0:0,0:0:0:0:
79,370,241010,1,2,0:0:0:0:
187,303,241150,1,2,0:0:0:0:
1,323,241290,6,0,P|38:289|107:285,1,113.62500433445,8|0,0:0|0:0,0:0:0:0:
251,368,241851,6,0,L|328:354,1,71.7099963891146,6|0,1:0|0:0,0:0:0:0:
396,179,242131,1,2,0:0:0:0:
422,335,242272,1,2,0:0:0:0:
272,281,242412,6,0,L|392:259,1,113.62500433445,8|0,0:0|0:0,0:0:0:0:
197,223,242973,6,0,P|170:278|170:300,1,71.7099963891146,6|0,1:0|0:0,0:0:0:0:
193,137,243253,1,2,0:0:0:0:
315,194,243393,1,2,0:0:0:0:
117,178,243533,2,0,L|38:201,1,71.7099963891146,8|0,0:0|3:0,0:0:0:0:
274,116,243814,2,0,L|257:43,1,71.7099963891146,2|0,0:0|0:0,0:0:0:0:
231,228,244094,6,0,P|287:275|372:269,1,143.419992778229,6|2,1:0|0:0,0:0:0:0:
365,189,244515,1,2,0:0:0:0:
422,344,244655,6,0,P|442:303|441:230,1,113.62500433445,8|0,0:0|0:0,0:0:0:0:
454,48,245215,6,0,P|435:104|436:133,1,71.7099963891146,6|0,1:0|0:0,0:0:0:0:
365,189,245496,1,2,0:0:0:0:
330,95,245636,1,2,0:0:0:0:
160,142,245776,6,0,P|208:171|264:170,1,113.62500433445,8|0,0:0|0:0,0:0:0:0:
103,70,246337,6,0,P|67:126|65:156,1,71.7099963891146,6|0,1:0|0:0,0:0:0:0:
193,244,246617,1,2,0:0:0:0:
160,142,246758,1,2,0:0:0:0:
5,264,246898,6,0,P|39:231|107:217,1,113.62500433445,8|0,0:0|0:0,0:0:0:0:
179,345,247458,6,0,L|260:331,1,71.7099963891146,6|0,1:0|0:0,0:0:0:0:
443,208,247739,1,2,0:0:0:0:
409,347,247879,1,2,0:0:0:0:
367,265,248019,2,0,L|296:252,1,71.7099963891146,8|0,0:0|3:0,0:0:0:0:
500,286,248300,2,0,L|483:388,1,71.7099963891146,2|0,0:0|0:0,0:0:0:0:
352,169,248580,2,0,P|368:68|396:42,1,143.419992778229,6|2,1:0|0:0,0:0:0:0:
367,265,249001,1,2,0:0:0:0:
256,166,249141,6,0,L|140:143,1,113.62500433445,8|0,0:0|0:0,0:0:0:0:
5,271,249701,6,0,P|71:277|132:215,1,143.419992778229,6|0,1:0|0:0,0:0:0:0:
62,172,250122,1,2,0:0:0:0:
195,298,250262,2,0,P|205:326|204:371,1,71.7099963891146,10|0,0:0|3:0,0:0:0:0:
265,235,250543,2,0,P|255:207|256:162,1,71.7099963891146,2|0,0:0|3:0,0:0:0:0:
491,191,250823,2,0,B|404:217|432:165|344:190,1,143.419992778229,2|0,1:0|0:0,0:0:0:0:
468,40,251244,2,0,L|455:111,1,71.7099963891146,2|8,0:0|0:0,0:0:0:0:
382,269,251524,1,0,3:0:0:0:
226,91,251664,6,0,B|276:116|327:80|327:80|236:144|266:238,1,286.839985556458,6|0,1:0|3:0,0:0:0:0:
56,56,252505,1,8,0:0:0:0:
19,141,252645,2,0,P|93:142|146:75,1,143.419992778229,2|0,0:0|3:0,0:0:0:0:
59,228,253066,2,0,L|36:309,2,71.7099963891146,2|0|0,1:0|0:0|3:0,0:0:0:0:
136,175,253487,1,2,0:0:0:0:
243,294,253627,1,8,0:0:0:0:
224,206,253767,2,0,P|283:158|350:154,1,143.419992778229,0|0,0:0|3:0,0:0:0:0:
432,199,254187,6,0,B|395:211|382:236|382:236|356:145|413:86,1,215.129989167344,2|0,0:0|0:0,0:0:0:0:
451,281,254748,6,0,L|439:332,1,31.3099987578431,2|0,0:0|0:0,0:0:0:0:
312,376,255029,1,2,0:0:0:0:
366,318,255169,2,0,P|337:299|298:297,1,62.6199975156861,2|0,0:0|0:0,0:0:0:0:
246,247,255589,2,0,P|226:293|225:299,1,31.3099987578431,2|0,0:0|0:0,0:0:0:0:
323,215,255870,1,2,0:0:0:0:
238,349,256010,2,0,P|209:368|170:370,1,62.6199975156861,2|0,0:0|0:0,0:0:0:0:
33,268,256430,6,0,P|91:261|150:305,1,123.219994923493,6|0,1:0|0:0,0:0:0:0:
71,346,256851,1,2,0:0:0:0:
181,219,256991,2,0,P|171:179|149:150,1,61.6099974617463,8|0,0:0|0:0,0:0:0:0:
71,96,257272,2,0,P|56:122|50:152,1,61.6099974617463,2|0,0:0|0:0,0:0:0:0:
167,73,257552,2,0,P|235:71|285:32,1,123.219994923493,0|2,1:0|0:0,0:0:0:0:
278,40,257973,1,0,0:0:0:0:
394,191,258113,2,0,L|380:262,1,61.6099974617463,10|0,0:0|0:0,0:0:0:0:
361,88,258393,2,0,L|375:17,1,61.6099974617463,2|0,0:0|0:0,0:0:0:0:
307,163,258673,5,2,1:0:0:0:
443,115,258814,2,0,L|477:105,2,30.8049987308732,0|0|0,0:0|0:0|0:0,0:0:0:0:
394,191,259094,1,2,0:0:0:0:
277,132,259234,2,0,P|246:181|242:195,1,61.6099974617463,8|0,0:0|0:0,0:0:0:0:
403,314,259515,2,0,P|349:269|286:262,1,123.219994923493,2|0,0:0|1:0,0:0:0:0:
315,354,259935,1,0,3:0:0:0:
210,272,260075,2,0,L|194:341,1,61.6099974617463,2|0,0:0|0:0,0:0:0:0:
122,223,260356,2,0,L|106:292,1,61.6099974617463,10|0,0:0|0:0,0:0:0:0:
34,176,260636,1,2,0:0:0:0:
34,176,260916,6,0,P|101:176|152:128,1,123.219994923493,0|0,1:0|0:0,0:0:0:0:
214,10,261337,2,0,P|174:51|166:74,1,61.6099974617463,2|8,0:0|0:0,0:0:0:0:
220,190,261617,1,0,0:0:0:0:
289,125,261758,2,0,P|349:122|398:158,1,123.219994923493,2|0,0:0|1:0,0:0:0:0:
398,158,262178,1,0,3:0:0:0:
480,102,262318,2,0,P|497:145|500:167,1,61.6099974617463,2|0,0:0|0:0,0:0:0:0:
468,293,262599,2,0,P|451:250|448:228,1,61.6099974617463,10|0,0:0|0:0,0:0:0:0:
406,363,262879,1,2,0:0:0:0:
406,363,263159,5,0,1:0:0:0:
311,244,263300,2,0,L|320:185,2,30.8049987308732,0|0|0,0:0|0:0|0:0,0:0:0:0:
393,279,263580,1,2,0:0:0:0:
260,315,263720,2,0,P|226:329|200:332,1,61.6099974617463,8|0,0:0|0:0,0:0:0:0:
16,326,264001,2,0,P|92:342|122:393,1,123.219994923493,2|0,0:0|1:0,0:0:0:0:
117,375,264421,1,8,0:0:0:0:
202,244,264561,2,0,L|189:164,1,61.6099974617463,2|0,0:0|3:0,0:0:0:0:
74,245,264842,2,0,L|83:305,1,61.6099974617463,10|0,0:0|0:0,0:0:0:0:
83,110,265122,1,0,3:0:0:0:
83,110,265402,6,0,B|157:108|117:78|202:78,1,123.219994923493,6|0,1:0|0:0,0:0:0:0:
276,12,265823,2,0,P|297:58|299:81,1,61.6099974617463,2|8,0:0|0:0,0:0:0:0:
256,147,266103,1,0,0:0:0:0:
408,157,266244,2,0,P|380:199|295:216,1,123.219994923493,2|0,0:0|1:0,0:0:0:0:
312,219,266664,1,0,3:0:0:0:
178,249,266804,2,0,L|162:327,1,61.6099974617463,2|0,0:0|0:0,0:0:0:0:
268,305,267085,2,0,L|255:365,1,61.6099974617463,10|0,0:0|0:0,0:0:0:0:
360,355,267365,1,2,0:0:0:0:
360,355,267645,5,2,1:0:0:0:
472,245,267786,2,0,L|514:256,2,30.8049987308732,0|0|0,0:0|0:0|0:0,0:0:0:0:
437,329,268066,1,2,0:0:0:0:
420,168,268206,2,0,L|350:154,1,61.6099974617463,8|0,0:0|0:0,0:0:0:0:
193,185,268487,2,0,P|190:122|231:58,1,123.219994923493,2|0,0:0|1:0,0:0:0:0:
275,141,268907,1,0,3:0:0:0:
176,274,269047,2,0,P|123:292|106:293,1,61.6099974617463,2|0,0:0|0:0,0:0:0:0:
43,180,269328,2,0,P|96:162|113:161,1,61.6099974617463,10|0,0:0|0:0,0:0:0:0:
272,240,269608,1,2,0:0:0:0:
272,240,269888,6,0,P|323:279|396:274,1,123.219994923493,0|0,1:0|0:0,0:0:0:0:
451,338,270309,2,0,P|468:287|470:271,1,61.6099974617463,2|8,0:0|0:0,0:0:0:0:
462,126,270589,1,0,0:0:0:0:
384,84,270730,2,0,P|358:146|350:220,1,123.219994923493,2|0,0:0|1:0,0:0:0:0:
349,201,271150,1,0,3:0:0:0:
260,72,271290,2,0,P|255:28|257:1,1,61.6099974617463,2|0,0:0|0:0,0:0:0:0:
242,177,271571,2,0,P|247:221|245:248,1,61.6099974617463,10|0,0:0|0:0,0:0:0:0:
159,108,271851,1,2,0:0:0:0:
159,108,272131,5,0,1:0:0:0:
38,39,272272,2,0,L|4:49,2,30.8049987308732,0|0|0,0:0|0:0|0:0,0:0:0:0:
125,14,272552,1,2,0:0:0:0:
75,159,272692,2,0,L|1:176,1,61.6099974617463,8|0,0:0|0:0,0:0:0:0:
159,108,272973,2,0,P|176:144|177:172,1,61.6099974617463,2|0,0:0|0:0,0:0:0:0:
120,352,273252,1,0,1:0:0:0:
120,352,273393,1,8,0:0:0:0:
175,270,273533,2,0,P|139:254|98:248,1,61.6099974617463,2|0,0:0|3:0,0:0:0:0:
263,333,273813,2,0,P|270:301|287:249,1,61.6099974617463,10|0,0:0|0:0,0:0:0:0:
423,193,274093,1,0,3:0:0:0:
279,117,274234,1,0,0:0:0:0:
352,257,274374,6,0,P|317:205|248:203,2,133.31999959314,6|2|10,1:0|0:0|0:0,0:0:0:0:
187,147,275075,2,0,P|168:199|162:238,1,66.6599997965698,2|2,0:0|0:0,0:0:0:0:
278,273,275356,1,2,0:0:0:0:
264,117,275496,1,0,1:0:0:0:
252,202,275636,1,0,3:0:0:0:
396,186,275776,2,0,P|327:188|316:190,1,66.6599997965698,2|0,0:0|0:0,0:0:0:0:
197,115,276057,2,0,P|266:117|277:119,1,66.6599997965698,10|0,0:0|0:0,0:0:0:0:
161,226,276337,1,2,0:0:0:0:
161,226,276617,6,0,B|135:291|187:288|156:364,1,133.31999959314,2|0,1:0|0:0,0:0:0:0:
236,255,277038,1,2,0:0:0:0:
83,320,277178,2,0,P|44:302|26:276,1,66.6599997965698,8|0,0:0|0:0,0:0:0:0:
85,113,277458,2,0,P|93:162|87:196,1,66.6599997965698,2|0,0:0|0:0,0:0:0:0:
188,38,277739,1,2,1:0:0:0:
217,127,277879,2,0,L|81:112,1,133.31999959314,0|0,3:0|0:0,0:0:0:0:
284,81,278300,2,0,B|301:111|301:111|295:154,1,66.6599997965698,10|0,0:0|0:0,0:0:0:0:
180,219,278580,1,2,0:0:0:0:
217,127,278720,1,2,0:0:0:0:
259,270,278860,6,0,P|260:326|252:354,1,66.6599997965698,2|0,1:0|0:0,0:0:0:0:
303,166,279141,1,0,0:0:0:0:
351,280,279281,1,2,0:0:0:0:
304,137,279421,2,0,P|303:81|311:53,1,66.6599997965698,8|0,0:0|0:0,0:0:0:0:
425,247,279701,2,0,P|430:280|427:314,1,66.6599997965698,2|0,0:0|0:0,0:0:0:0:
380,107,279982,1,0,1:0:0:0:
346,296,280122,1,0,3:0:0:0:
236,198,280262,2,0,P|289:186|328:187,1,66.6599997965698,2|0,0:0|0:0,0:0:0:0:
490,259,280543,2,0,P|437:247|398:248,1,66.6599997965698,10|0,0:0|0:0,0:0:0:0:
274,342,280823,1,2,0:0:0:0:
274,342,281103,6,0,P|224:351|193:351,1,66.6599997965698,0|0,1:0|0:0,0:0:0:0:
330,263,281384,1,0,0:0:0:0:
189,267,281524,2,0,P|155:264|123:257,1,66.6599997965698,2|8,0:0|0:0,0:0:0:0:
276,167,281804,1,0,0:0:0:0:
104,186,281944,2,0,P|66:211|49:232,1,66.6599997965698,2|0,0:0|0:0,0:0:0:0:
183,354,282225,1,0,1:0:0:0:
187,175,282365,2,0,P|177:94|175:81,1,66.6599997965698,8|2,0:0|0:0,0:0:0:0:
122,270,282645,1,0,3:0:0:0:
102,104,282786,2,0,P|112:23|114:10,1,66.6599997965698,10|0,0:0|0:0,0:0:0:0:
192,200,283066,1,2,0:0:0:0:
254,96,283206,1,0,0:0:0:0:
368,340,283346,6,0,P|370:294|359:201,1,133.31999959314,6|2,1:0|0:0,0:0:0:0:
333,80,283767,1,2,0:0:0:0:
295,257,283907,1,10,0:0:0:0:
254,96,284047,2,0,P|257:48|287:19,1,66.6599997965698,2|2,0:0|0:0,0:0:0:0:
360,207,284328,1,2,0:0:0:0:
414,54,284468,1,0,1:0:0:0:
430,225,284608,2,0,P|387:280|312:261,1,133.31999959314,0|0,3:0|0:0,0:0:0:0:
198,124,285029,2,0,P|226:98|266:100,1,66.6599997965698,10|0,0:0|0:0,0:0:0:0:
260,232,285309,2,0,P|232:258|192:256,1,66.6599997965698,2|0,0:0|0:0,0:0:0:0:
126,83,285589,6,0,B|116:120|116:120|128:174,1,66.6599997965698,2|0,1:0|0:0,0:0:0:0:
178,265,285870,1,0,0:0:0:0:
205,102,286010,2,0,B|211:74|211:74|201:37,1,66.6599997965698,2|8,0:0|0:0,0:0:0:0:
274,213,286290,1,0,0:0:0:0:
292,56,286430,2,0,L|439:41,1,133.31999959314,2|0,0:0|1:0,0:0:0:0:
401,255,286851,2,0,L|254:240,1,133.31999959314,0|0,3:0|0:0,0:0:0:0:
277,38,287272,2,0,L|365:28,1,66.6599997965698,10|0,0:0|0:0,0:0:0:0:
277,169,287552,1,2,0:0:0:0:
343,30,287692,1,2,0:0:0:0:
120,37,287832,6,0,P|105:79|102:121,1,66.6599997965698,2|0,1:0|0:0,0:0:0:0:
138,267,288113,1,0,0:0:0:0:
201,151,288253,2,0,P|195:118|183:87,1,66.6599997965698,2|8,0:0|0:0,0:0:0:0:
136,248,288533,1,0,0:0:0:0:
86,165,288673,2,0,P|90:131|101:100,1,66.6599997965698,2|0,0:0|0:0,0:0:0:0:
139,288,288954,1,0,1:0:0:0:
205,169,289094,1,0,3:0:0:0:
247,300,289234,2,0,L|240:367,1,66.6599997965698,2|0,0:0|0:0,0:0:0:0:
286,191,289515,2,0,L|279:124,1,66.6599997965698,10|0,0:0|0:0,0:0:0:0:
328,284,289795,2,0,L|321:351,1,66.6599997965698,2|0,0:0|0:0,0:0:0:0:
361,144,290075,6,0,B|409:141|409:141|440:157|440:157|500:154,1,133.31999959314,2|0,1:0|0:0,0:0:0:0:
374,68,290496,1,2,0:0:0:0:
285,214,290636,2,0,L|205:208,1,66.6599997965698,8|0,0:0|0:0,0:0:0:0:
218,30,290916,2,0,P|255:64|258:159,1,133.31999959314,2|0,0:0|1:0,0:0:0:0:
188,342,291337,2,0,P|177:289|181:270,1,66.6599997965698,8|2,0:0|0:0,0:0:0:0:
190,113,291617,1,0,3:0:0:0:
321,288,291758,2,0,L|242:299,1,66.6599997965698,10|0,0:0|0:0,0:0:0:0:
125,135,292038,2,0,L|204:146,1,66.6599997965698,2|0,0:0|0:0,0:0:0:0:
396,231,292318,6,0,P|345:251|292:190,1,133.31999959314,4|0,1:0|0:0,0:0:0:0:
178,277,292739,2,0,P|126:292|107:284,1,66.6599997965698,2|8,0:0|0:0,0:0:0:0:
205,162,293019,1,0,0:0:0:0:
293,307,293159,2,0,P|345:322|364:314,1,66.6599997965698,2|0,0:0|0:0,0:0:0:0:
432,151,293440,1,0,1:0:0:0:
472,257,293580,1,0,3:0:0:0:
499,112,293720,2,0,L|485:42,1,66.6599997965698,2|0,0:0|0:0,0:0:0:0:
479,272,294001,1,10,0:0:0:0:
437,169,294141,2,0,B|374:148|375:210|300:180,1,133.31999959314,0|0,0:0|0:0,0:0:0:0:
138,109,294561,6,0,P|155:155|160:192,1,66.6599997965698,0|0,1:0|0:0,0:0:0:0:
212,47,294842,1,0,0:0:0:0:
233,182,294982,2,0,L|219:263,1,66.6599997965698,2|8,0:0|0:0,0:0:0:0:
328,108,295262,1,0,0:0:0:0:
351,248,295402,2,0,L|365:329,1,66.6599997965698,2|0,0:0|0:0,0:0:0:0:
411,95,295683,2,0,P|403:141|374:180,1,66.6599997965698,0|0,1:0|3:0,0:0:0:0:
284,299,295963,2,0,P|270:268|266:235,1,66.6599997965698,2|0,0:0|0:0,0:0:0:0:
310,44,296244,2,0,P|323:74|327:107,1,66.6599997965698,10|0,0:0|0:0,0:0:0:0:
190,242,296524,2,0,P|193:208|207:178,1,66.6599997965698,2|0,0:0|0:0,0:0:0:0:
367,289,296804,6,0,P|313:292|265:226,1,133.31999959314,0|0,1:0|0:0,0:0:0:0:
291,72,297225,1,2,0:0:0:0:
335,154,297365,2,0,P|340:206|333:232,1,66.6599997965698,8|0,0:0|0:0,0:0:0:0:
217,114,297645,2,0,P|213:81|296:84,1,133.31999959314,2|0,0:0|1:0,0:0:0:0:
335,154,298066,1,0,3:0:0:0:
205,197,298206,2,0,L|132:180,1,66.6599997965698,2|0,0:0|0:0,0:0:0:0:
92,58,298487,1,10,0:0:0:0:
66,153,298627,2,0,B|38:224|93:221|72:293,1,133.31999959314,0|0,0:0|0:0,0:0:0:0:
211,111,299047,6,0,P|276:106|309:105,1,66.6599997965698,2|0,1:0|0:0,0:0:0:0:
140,181,299328,1,0,0:0:0:0:
273,184,299468,2,0,P|306:186|339:189,1,66.6599997965698,2|8,0:0|0:0,0:0:0:0:
179,251,299748,1,0,0:0:0:0:
322,264,299888,2,0,P|353:274|384:286,1,66.6599997965698,2|0,0:0|0:0,0:0:0:0:
388,124,300169,2,0,P|419:186|417:211,1,66.6599997965698,0|0,1:0|0:0,0:0:0:0:
456,312,300449,1,2,0:0:0:0:
339,189,300589,1,2,3:2:0:0:
496,164,300730,1,10,0:0:0:0:
480,237,300870,1,0,0:0:0:0:
388,124,301010,5,2,0:0:0:0:
384,286,301150,1,2,0:0:0:0:
256,192,301290,12,0,302973,0:0:0:0:
