osu file format v14

[General]
AudioFilename: aozora no rhapsody.mp3
AudioLeadIn: 0
PreviewTime: 128488
Countdown: 0
SampleSet: Soft
StackLeniency: 0.7
Mode: 0
LetterboxInBreaks: 1
WidescreenStoryboard: 1

[Editor]
DistanceSpacing: 1.2
BeatDivisor: 4
GridSize: 8
TimelineZoom: 1.2

[Metadata]
Title:RHAPSODY OF BLUE SKY - Natino Remix
TitleUnicode:青空のラプソディ - Natino Remix
Artist:fhana
ArtistUnicode:fhána
Creator:HICCA
Version:maji yabakune
Source:小林さんちのメイドラゴン
Tags:おにたん onitan miss kobayashi-san chi no maid dragon aozora no hicari
BeatmapID:1296204
BeatmapSetID:605397

[Difficulty]
HPDrainRate:6
CircleSize:4
OverallDifficulty:8.5
ApproachRate:9.3
SliderMultiplier:1.8
SliderTickRate:1

[Events]
//Background and Video events
0,0,"BG.jpg",0,0
//Break Periods
//Storyboard Layer 0 (Background)
//Storyboard Layer 1 (Fail)
//Storyboard Layer 2 (Pass)
//Storyboard Layer 3 (Foreground)
//Storyboard Sound Samples

[TimingPoints]
18,352.941176470588,4,2,1,70,1,0
12723,-100,4,2,1,75,0,0
28253,-80,4,2,1,80,0,0
42370,-100,4,2,1,75,0,0
55076,-133.333333333333,4,2,1,70,0,0
64959,-100,4,2,1,75,0,0
67782,-100,4,2,1,20,0,0
68841,-100,4,2,1,40,0,0
69194,-80,4,2,1,80,0,1
80488,-133.333333333333,4,2,1,60,0,0
80841,-66.6666666666667,4,2,1,80,0,1
81106,-80,4,2,1,80,0,1
101665,-133.333333333333,4,2,1,70,0,0
107665,-80,4,2,1,75,0,0
107929,-100,4,2,1,75,0,0
114370,-133.333333333333,4,2,1,70,0,0
124253,-100,4,2,1,75,0,0
127076,-100,4,2,1,20,0,0
128135,-100,4,2,1,40,0,0
128488,-80,4,2,1,80,0,1
139782,-133.333333333333,4,2,1,60,0,0
140135,-66.6666666666667,4,2,1,80,0,1
140400,-80,4,2,1,80,0,1
152488,-80,4,2,1,80,0,0
158135,-100,4,2,1,80,0,0
160959,-80,4,2,1,80,0,0
166606,-100,4,2,1,75,0,0
190606,-80,4,2,1,80,0,1
203312,-80,4,2,1,30,0,1
204370,-80,4,2,1,50,0,1
204723,-133.333333333333,4,2,1,60,0,0
210370,-100,4,2,1,70,0,0
214606,-80,4,2,1,80,0,1
216017,-133.333333333333,4,2,1,60,0,0
216370,-66.6666666666667,4,2,1,80,0,1
216723,-133.333333333333,4,2,1,60,0,0
217076,-66.6666666666667,4,2,1,80,0,1
217429,-133.333333333333,4,2,1,60,0,0
217782,-66.6666666666667,4,2,1,80,0,1
218841,-133.333333333333,4,2,1,60,0,0
219194,-66.6666666666667,4,2,1,80,0,1
219459,-80,4,2,1,80,0,1
240017,-100,4,2,1,60,0,0
240370,-200,4,2,1,80,0,1
240459,-200,4,2,1,40,0,1
244253,-100,4,2,1,5,0,0

[HitObjects]
123,327,1429,6,0,P|114:284|122:240,1,90,2|0,0:0|0:0,0:0:0:0:
177,152,1694,1,0,0:0:0:0:
177,152,1782,2,0,L|52:148,1,90,8|0,0:0|0:0,0:0:0:0:
215,64,2135,1,2,0:0:0:0:
250,225,2312,1,2,0:0:0:0:
389,117,2488,2,0,L|264:113,1,90,8|2,0:0|0:0,0:0:0:0:
215,64,2753,5,2,0:0:0:0:
215,64,2841,2,0,L|302:64,2,45
295,225,3194,2,0,L|250:225,2,45,8|0|0,0:0|0:0|0:0,0:0:0:0:
185,161,3547,1,2,0:0:0:0:
142,297,3723,1,10,0:0:0:0:
300,350,3900,2,0,P|276:288|294:224,1,135,8|0,0:0|0:0,0:0:0:0:
389,240,4253,6,0,P|394:270|392:299,1,45,2|0,0:0|0:0,0:0:0:0:
390,321,4429,1,0,0:0:0:0:
230,270,4606,1,8,0:0:0:0:
352,162,4782,1,0,0:0:0:0:
329,162,4870,1,0,0:0:0:0:
302,160,4959,2,0,L|257:160,1,45,2|0,0:0|0:0,0:0:0:0:
285,274,5135,2,0,L|330:274,1,45,2|0,0:0|0:0,0:0:0:0:
261,121,5312,2,0,L|206:132,1,45,8|0,0:0|0:0,0:0:0:0:
326,313,5488,2,0,L|381:302,1,45,2|2,0:0|0:0,0:0:0:0:
441,207,5665,5,0,0:0:0:0:
441,207,5753,1,0,0:0:0:0:
441,207,5841,1,0,0:0:0:0:
348,78,6017,1,8,0:0:0:0:
309,246,6194,2,0,L|309:201,1,45
305,160,6370,5,2,0:0:0:0:
280,133,6459,1,0,0:0:0:0:
247,118,6547,1,8,0:0:0:0:
211,118,6635,1,2,0:0:0:0:
180,136,6723,1,0,0:0:0:0:
146,149,6812,1,0,0:0:0:0:
110,151,6900,1,10,0:0:0:0:
74,144,6988,1,0,0:0:0:0:
44,123,7076,6,0,P|37:87|90:56,1,90,2|0,0:0|0:0,0:0:0:0:
199,47,7341,1,0,0:0:0:0:
198,46,7429,2,0,P|241:59|285:51,1,90,8|0,0:0|0:0,0:0:0:0:
246,177,7782,1,2,0:0:0:0:
132,129,7959,1,2,0:0:0:0:
364,118,8135,1,8,0:0:0:0:
282,277,8312,2,0,L|284:232,1,45,2|2,0:0|0:0,0:0:0:0:
285,51,8488,6,0,L|292:100,2,45
208,221,8841,2,0,L|145:215,2,45,8|0|0,0:0|0:0|0:0,0:0:0:0:
361,187,9194,1,2,0:0:0:0:
309,319,9370,1,2,0:0:0:0:
465,224,9547,1,8,0:0:0:0:
465,224,9635,2,0,P|467:171|436:110,1,90,2|0,0:0|0:0,0:0:0:0:
376,66,9900,5,2,0:0:0:0:
402,64,9988,1,0,0:0:0:0:
428,62,10076,1,0,0:0:0:0:
314,165,10253,1,8,0:0:0:0:
337,176,10341,1,0,0:0:0:0:
361,187,10429,1,0,0:0:0:0:
208,221,10606,1,2,0:0:0:0:
291,95,10782,1,2,0:0:0:0:
99,174,10959,1,8,0:0:0:0:
106,209,11047,1,0,0:0:0:0:
113,244,11135,1,0,0:0:0:0:
120,279,11223,1,0,0:0:0:0:
126,313,11312,6,0,P|148:321|170:322,1,45,2|2,0:0|0:0,0:0:0:0:
291,351,11488,2,0,P|313:350|334:342,1,45,8|0,0:0|0:0,0:0:0:0:
496,264,11665,6,0,P|474:271|452:272,1,45,2|2,0:0|0:0,0:0:0:0:
332,244,11841,2,0,P|309:243|288:235,1,45,8|0,0:0|0:0,0:0:0:0:
140,134,12017,6,0,P|150:153|154:175,1,45,2|2,0:0|0:0,0:0:0:0:
141,355,12194,2,0,P|152:335|170:321,1,45,8|0,0:0|0:0,0:0:0:0:
334,342,12370,5,10,0:0:0:0:
85,245,12547,1,8,0:0:0:0:
334,154,12723,6,0,L|331:263,1,90,6|0,0:0|0:0,0:0:0:0:
424,184,12988,1,0,0:0:0:0:
424,184,13076,2,0,L|421:94,1,90,8|0,0:0|0:0,0:0:0:0:
287,89,13429,1,2,0:0:0:0:
331,243,13606,1,2,0:0:0:0:
222,180,13782,1,8,0:0:0:0:
421,94,13959,1,2,0:0:0:0:
421,94,14047,1,2,0:0:0:0:
421,94,14135,6,0,L|419:170,1,45
418,227,14312,1,0,0:0:0:0:
408,361,14488,2,0,L|410:285,1,45,8|0,0:0|0:0,0:0:0:0:
418,227,14665,1,0,0:0:0:0:
259,298,14841,1,2,0:0:0:0:
322,179,15017,1,10,0:0:0:0:
328,350,15194,2,0,P|260:369|159:348,1,135,8|2,0:0|0:0,0:0:0:0:
94,294,15547,5,2,0:0:0:0:
94,320,15635,1,0,0:0:0:0:
96,346,15723,1,0,0:0:0:0:
198,201,15900,1,8,0:0:0:0:
198,227,15988,1,0,0:0:0:0:
200,253,16076,1,0,0:0:0:0:
49,119,16253,2,0,L|52:216,1,90,2|2,0:0|0:0,0:0:0:0:
176,57,16606,1,8,0:0:0:0:
125,228,16782,1,2,0:0:0:0:
123,202,16870,1,2,0:0:0:0:
123,176,16959,6,0,L|118:98,2,45
265,180,17312,1,8,0:0:0:0:
85,66,17488,2,0,P|118:69|148:68,1,45
236,32,17665,5,2,0:0:0:0:
271,50,17753,1,0,0:0:0:0:
310,56,17841,1,8,0:0:0:0:
350,53,17929,1,2,0:0:0:0:
386,35,18017,1,0,0:0:0:0:
412,66,18106,1,0,0:0:0:0:
421,105,18194,1,10,0:0:0:0:
417,145,18282,1,0,0:0:0:0:
399,180,18370,6,0,P|361:159|317:163,1,90,2|0,0:0|0:0,0:0:0:0:
387,285,18635,1,0,0:0:0:0:
387,285,18723,2,0,P|431:289|469:267,1,90,8|0,0:0|0:0,0:0:0:0:
309,222,19076,1,2,0:0:0:0:
378,356,19253,1,2,0:0:0:0:
399,180,19429,1,8,0:0:0:0:
219,264,19606,1,2,0:0:0:0:
248,273,19694,1,2,0:0:0:0:
279,271,19782,6,0,P|301:263|338:259,2,45
486,198,20135,2,0,P|464:190|427:186,2,45,8|0|0,0:0|0:0|0:0,0:0:0:0:
338,108,20488,1,2,0:0:0:0:
389,284,20665,1,10,0:0:0:0:
431,99,20841,1,8,0:0:0:0:
431,99,20929,2,0,P|418:156|391:186,1,90,2|0,0:0|0:0,0:0:0:0:
262,206,21194,6,0,P|301:197|355:202,1,90,2|0,0:0|0:0,0:0:0:0:
303,113,21459,1,0,0:0:0:0:
303,113,21547,1,8,0:0:0:0:
312,296,21723,1,0,0:0:0:0:
312,296,21812,1,0,0:0:0:0:
312,296,21900,2,0,P|293:283|272:275,1,45,2|0,0:0|0:0,0:0:0:0:
128,356,22076,2,0,P|149:351|170:342,1,45,2|0,0:0|0:0,0:0:0:0:
186,225,22253,1,8,0:0:0:0:
163,197,22341,1,0,0:0:0:0:
157,161,22429,1,0,0:0:0:0:
163,125,22517,1,0,0:0:0:0:
182,94,22606,6,0,P|171:76|149:59,1,45,2|8,0:0|0:0,0:0:0:0:
83,304,22870,2,0,L|142:299,1,45,0|8,0:0|0:0,0:0:0:0:
31,118,23135,2,0,P|13:132|1:151,1,45,0|8,0:0|0:0,0:0:0:0:
317,240,23400,2,0,L|272:236,1,45,0|8,0:0|0:0,0:0:0:0:
349,348,23665,5,2,0:0:0:0:
122,212,23841,1,8,0:0:0:0:
405,86,24017,6,0,P|432:95|456:96,1,45,2|8,0:0|0:0,0:0:0:0:
198,35,24282,2,0,L|189:110,1,45,0|8,0:0|0:0,0:0:0:0:
420,299,24547,2,0,L|429:224,1,45,0|8,0:0|0:0,0:0:0:0:
112,175,24812,2,0,P|134:172|155:164,1,45,0|8,0:0|0:0,0:0:0:0:
311,52,25076,5,2,0:0:0:0:
288,316,25253,1,8,0:0:0:0:
120,243,25429,5,2,0:0:0:0:
120,243,25517,1,8,0:0:0:0:
348,192,25694,1,0,0:0:0:0:
348,192,25782,1,8,0:0:0:0:
69,171,25959,1,0,0:0:0:0:
69,171,26047,1,8,0:0:0:0:
356,305,26223,1,0,0:0:0:0:
356,305,26312,1,8,0:0:0:0:
101,335,26488,5,2,0:0:0:0:
411,222,26665,1,8,0:0:0:0:
237,49,26841,5,2,0:0:0:0:
237,49,26929,1,8,0:0:0:0:
263,294,27106,1,0,0:0:0:0:
263,294,27194,1,8,0:0:0:0:
131,41,27370,1,0,0:0:0:0:
131,41,27459,1,8,0:0:0:0:
384,315,27635,1,0,0:0:0:0:
384,315,27723,1,8,0:0:0:0:
60,193,27900,6,0,L|104:186,1,45,10|0,0:0|0:0,0:0:0:0:
448,98,28076,2,0,L|403:91,1,45,8|0,0:0|0:0,0:0:0:0:
219,277,28253,5,4,0:0:0:0:
386,229,28429,1,0,0:0:0:0:
293,362,28606,1,8,0:0:0:0:
256,347,28694,1,0,0:0:0:0:
217,341,28782,1,2,0:0:0:0:
179,353,28870,1,2,0:0:0:0:
150,380,28959,1,2,0:0:0:0:
248,194,29135,1,0,0:0:0:0:
384,315,29312,2,8,L|328:305,1,56.25
87,292,29488,2,0,L|142:301,1,56.25
107,190,29665,5,2,0:0:0:0:
102,145,29753,1,2,0:0:0:0:
127,108,29841,1,0,0:0:0:0:
171,100,29929,1,2,0:0:0:0:
209,123,30017,1,10,0:0:0:0:
250,140,30106,1,0,0:0:0:0:
294,137,30194,2,0,P|328:136|357:120,1,56.25,2|2,0:0|0:0,0:0:0:0:
512,73,30370,6,0,P|476:75|424:62,2,75,2|2|2,0:0|0:0|0:0,0:0:0:0:
328,77,30723,2,0,P|344:44|381:6,2,75,10|2|2,0:0|0:0|0:0,0:0:0:0:
434,175,31076,6,0,P|449:221|430:288,1,112.5,2|0,0:0|0:0,0:0:0:0:
294,137,31429,1,8,0:0:0:0:
370,351,31606,1,2,0:0:0:0:
370,351,31694,1,2,0:0:0:0:
370,351,31782,1,2,0:0:0:0:
496,237,31959,1,0,0:0:0:0:
346,143,32135,1,8,0:0:0:0:
341,170,32223,1,0,0:0:0:0:
336,198,32312,1,2,0:0:0:0:
332,225,32400,1,2,0:0:0:0:
328,252,32488,5,2,0:0:0:0:
284,239,32576,1,2,0:0:0:0:
241,254,32665,2,0,P|212:272|164:287,1,56.25,0|2,0:0|0:0,0:0:0:0:
370,349,32841,2,0,P|399:331|447:316,1,56.25,10|0,0:0|0:0,0:0:0:0:
209,343,33017,2,0,P|175:335|131:311,1,56.25,2|2,0:0|0:0,0:0:0:0:
393,251,33194,2,0,B|423:256|460:291|460:291|510:260|492:166,1,168.75,2|0,0:0|0:0,0:0:0:0:
408,116,33547,6,0,P|445:116|507:94,2,75,10|2|2,0:0|0:0|0:0,0:0:0:0:
328,65,33900,5,2,0:0:0:0:
332,109,33988,1,0,0:0:0:0:
320,152,34076,1,0,0:0:0:0:
287,183,34165,1,2,0:0:0:0:
244,197,34253,2,0,L|172:187,1,56.25,8|0,0:0|0:0,0:0:0:0:
30,239,34429,2,0,L|74:181,1,56.25,2|0,0:0|0:0,0:0:0:0:
100,33,34606,6,0,L|127:100,1,56.25,2|0,0:0|0:0,0:0:0:0:
146,243,34782,1,0,0:0:0:0:
146,243,34870,1,2,0:0:0:0:
146,243,34959,2,0,P|151:290|147:309,1,56.25,8|0,0:0|0:0,0:0:0:0:
74,115,35135,2,0,P|112:87|130:81,1,56.25,2|0,0:0|0:0,0:0:0:0:
243,130,35312,5,2,0:0:0:0:
44,191,35488,1,0,0:0:0:0:
44,191,35576,1,2,0:0:0:0:
44,191,35665,1,8,0:0:0:0:
202,308,35841,1,2,0:0:0:0:
149,115,36017,5,2,0:0:0:0:
214,64,36135,1,2,0:0:0:0:
280,113,36253,1,2,0:0:0:0:
268,194,36370,5,10,0:0:0:0:
326,252,36488,1,2,0:0:0:0:
403,223,36606,1,2,0:0:0:0:
426,143,36723,5,2,0:0:0:0:
381,342,36900,1,2,0:0:0:0:
211,198,37076,2,0,L|304:190,2,56.25,8|0|0,0:0|0:0|0:0,0:0:0:0:
136,297,37341,2,0,L|276:282,1,112.5,2|0,0:0|0:0,0:0:0:0:
381,342,37606,1,0,0:0:0:0:
381,342,37694,1,0,0:0:0:0:
381,342,37782,2,0,L|295:353,1,56.25,10|0,0:0|0:0,0:0:0:0:
458,215,37959,2,0,L|372:226,1,56.25,10|0,0:0|0:0,0:0:0:0:
247,285,38135,5,2,0:0:0:0:
351,145,38312,1,2,0:0:0:0:
127,61,38488,2,0,L|53:72,1,56.25,8|0,0:0|0:0,0:0:0:0:
146,178,38665,1,0,0:0:0:0:
146,178,38753,2,0,P|210:150|264:77,1,112.5,2|0,0:0|0:0,0:0:0:0:
279,28,39017,1,0,0:0:0:0:
294,64,39106,1,0,0:0:0:0:
293,103,39194,1,10,0:0:0:0:
239,85,39282,1,0,0:0:0:0:
182,87,39370,1,10,0:0:0:0:
131,113,39459,1,0,0:0:0:0:
98,158,39547,5,2,0:0:0:0:
42,38,39723,1,2,0:0:0:0:
213,198,39900,2,0,L|197:136,2,56.25,8|0|0,0:0|0:0|0:0,0:0:0:0:
146,293,40165,2,0,P|196:315|298:282,1,112.5,2|0,0:0|0:0,0:0:0:0:
129,201,40429,2,0,P|95:204|61:214,1,56.25,2|0,0:0|0:0,0:0:0:0:
78,350,40606,1,8,0:0:0:0:
86,120,40782,1,10,0:0:0:0:
341,243,40959,6,2,P|307:220|189:242,1,168.75,2|0,0:0|0:0,0:0:0:0:
272,384,41312,2,0,L|259:232,1,112.5,8|0,0:0|0:0,0:0:0:0:
368,114,41576,1,0,0:0:0:0:
368,114,41665,6,2,P|408:208|336:291,1,168.75,2|0,0:0|0:0,0:0:0:0:
205,249,42017,2,0,L|260:241,1,56.25,8|0,0:0|0:0,0:0:0:0:
450,171,42194,2,0,L|506:179,1,56.25
380,352,42370,5,4,0:0:0:0:
256,192,42459,12,0,44753,0:0:0:0:
394,165,44841,5,8,0:0:0:0:
268,116,45017,1,0,0:0:0:0:
326,289,45194,2,0,P|373:289|443:269,1,90
446,152,45459,1,0,0:0:0:0:
446,152,45547,2,0,P|422:111|370:60,1,90,8|0,0:0|0:0,0:0:0:0:
362,207,45812,2,0,P|339:245|325:288,1,90
412,345,46076,1,0,0:0:0:0:
269,225,46253,1,8,0:0:0:0:
161,354,46429,5,0,0:0:0:0:
191,348,46517,1,0,0:0:0:0:
222,346,46606,1,0,0:0:0:0:
414,280,46782,1,0,0:0:0:0:
414,280,46870,2,0,P|378:270|348:252,1,45,0|8,0:0|0:0,0:0:0:0:
186,236,47047,2,0,P|170:208|171:184,1,45
287,99,47223,2,0,P|299:117|303:139,1,45
304,349,47400,1,0,0:0:0:0:
304,349,47488,2,0,P|275:324|233:310,1,45
146,314,47665,1,10,0:0:0:0:
109,297,47753,1,2,0:0:0:0:
86,263,47841,1,0,0:0:0:0:
83,222,47929,1,2,0:0:0:0:
95,183,48017,5,2,0:0:0:0:
262,212,48194,1,0,0:0:0:0:
51,296,48370,1,8,0:0:0:0:
51,296,48459,2,0,L|50:251,1,45
164,359,48635,2,0,P|222:331|266:348,1,90
382,363,48900,2,0,P|371:344|369:322,1,45
231,292,49076,2,0,P|232:269|245:251,1,45,8|0,0:0|0:0,0:0:0:0:
403,89,49253,5,0,0:0:0:0:
392,123,49341,1,0,0:0:0:0:
380,157,49429,2,0,P|331:151|278:162,2,90,0|0|8,0:0|0:0|0:0,0:0:0:0:
246,252,49870,2,0,P|226:240|212:222,1,45
239,60,50047,1,0,0:0:0:0:
337,247,50223,1,2,0:0:0:0:
414,51,50400,1,2,0:0:0:0:
414,51,50488,1,10,0:0:0:0:
291,157,50665,1,2,0:0:0:0:
427,303,50841,5,0,0:0:0:0:
296,316,51017,1,0,0:0:0:0:
419,130,51194,2,0,L|418:185,1,45,8|0,0:0|0:0,0:0:0:0:
272,73,51370,1,0,0:0:0:0:
272,73,51459,2,0,L|341:73,1,45
212,223,51635,1,0,0:0:0:0:
212,223,51723,2,0,L|143:223,1,45
372,144,51900,2,0,L|373:199,1,45,8|0,0:0|0:0,0:0:0:0:
299,315,52076,5,0,0:0:0:0:
299,315,52165,1,0,0:0:0:0:
298,314,52253,2,0,P|256:296|211:295,1,90
154,206,52517,2,0,P|118:233|95:271,1,90
146,359,52782,1,0,0:0:0:0:
146,359,52870,2,0,P|130:339|124:315,1,45
269,218,53047,1,0,0:0:0:0:
269,218,53135,1,0,0:0:0:0:
35,195,53312,2,0,L|79:190,1,45,8|0,0:0|0:0,0:0:0:0:
298,314,53488,6,0,L|253:318,1,45,2|2,0:0|0:0,0:0:0:0:
65,273,53665,1,2,0:0:0:0:
143,59,53841,1,0,0:0:0:0:
143,59,53929,1,2,0:0:0:0:
143,59,54017,2,0,P|164:71|195:72,2,45,8|0|2,0:0|0:0|0:0,0:0:0:0:
238,232,54282,2,0,P|194:212|132:206,1,90,0|2,0:0|0:0,0:0:0:0:
344,257,54547,2,0,P|342:238|344:212,1,45
233,383,54723,2,0,P|235:364|233:338,1,45,10|0,0:0|0:0,0:0:0:0:
79,189,54900,2,0,P|94:200|117:211,1,45,8|0,0:0|0:0,0:0:0:0:
306,124,55076,6,0,P|288:131|252:166,2,67.5000025749208,2|0|0,0:0|0:0|0:0,0:0:0:0:
344,213,55517,2,0,L|369:242,1,33.7500012874604,0|2,0:0|0:0,0:0:0:0:
362,56,55694,2,0,P|313:42|264:52,1,101.250003862381,2|0,0:0|0:0,0:0:0:0:
144,120,56135,1,8,0:0:0:0:
70,43,56312,1,0,0:0:0:0:
218,197,56488,5,2,0:0:0:0:
45,251,56665,2,0,L|45:179,1,67.5000025749208,2|0,0:0|0:0,0:0:0:0:
144,120,56929,1,0,0:0:0:0:
145,120,57017,2,0,B|198:144|243:117,1,101.250003862381,2|0,0:0|0:0,0:0:0:0:
355,48,57370,2,0,L|295:35,1,33.7500012874604,2|0,0:0|0:0,0:0:0:0:
389,162,57547,2,0,L|356:154,1,33.7500012874604,10|0,0:0|0:0,0:0:0:0:
422,275,57723,2,0,L|390:268,1,33.7500012874604,2|0,0:0|0:0,0:0:0:0:
480,119,57900,5,2,0:0:0:0:
308,215,58076,1,0,0:0:0:0:
396,339,58253,1,0,0:0:0:0:
395,339,58341,2,0,P|412:336|426:343,1,33.7500012874604,0|2,0:0|0:0,0:0:0:0:
295,384,58517,2,0,P|267:342|266:292,1,101.250003862381,2|0,0:0|0:0,0:0:0:0:
176,344,58959,1,8,0:0:0:0:
347,319,59135,1,0,0:0:0:0:
240,210,59312,6,0,L|308:215,1,67.5000025749208,2|0,0:0|0:0,0:0:0:0:
320,117,59576,2,0,L|282:173,1,67.5000025749208,2|0,0:0|0:0,0:0:0:0:
375,263,59841,2,0,L|331:171,1,101.250003862381,2|0,0:0|0:0,0:0:0:0:
367,92,60194,1,2,0:0:0:0:
341,70,60282,1,0,0:0:0:0:
307,66,60370,1,10,0:0:0:0:
276,81,60459,1,0,0:0:0:0:
242,85,60547,1,2,0:0:0:0:
210,73,60635,1,0,0:0:0:0:
188,47,60723,5,2,0:0:0:0:
39,106,60900,1,0,0:0:0:0:
191,194,61076,1,0,0:0:0:0:
191,194,61165,2,0,L|191:160,1,33.7500012874604,0|2,0:0|0:0,0:0:0:0:
111,33,61341,2,0,L|112:136,1,101.250003862381,2|0,0:0|0:0,0:0:0:0:
148,298,61782,1,8,0:0:0:0:
34,214,61959,1,0,0:0:0:0:
234,238,62135,5,2,0:0:0:0:
79,367,62312,2,0,L|46:365,1,33.7500012874604
148,298,62488,1,0,0:0:0:0:
148,298,62576,1,0,0:0:0:0:
148,298,62665,2,0,L|252:291,1,101.250003862381,2|0,0:0|0:0,0:0:0:0:
367,285,63017,1,2,0:0:0:0:
195,162,63194,1,10,0:0:0:0:
207,366,63370,1,2,0:0:0:0:
194,141,63547,5,2,0:0:0:0:
249,291,63723,1,0,0:0:0:0:
274,280,63812,1,0,0:0:0:0:
291,259,63900,1,8,0:0:0:0:
134,199,64076,1,2,0:0:0:0:
131,226,64165,1,2,0:0:0:0:
138,252,64253,2,0,P|154:248|171:248,1,33.7500012874604
308,168,64429,2,0,P|291:163|274:163,1,33.7500012874604
314,312,64606,2,0,P|312:285|330:254,1,33.7500012874604,8|0,0:0|0:0,0:0:0:0:
422,159,64782,2,0,P|424:175|421:192,1,33.7500012874604,2|0,0:0|0:0,0:0:0:0:
425,325,64959,6,0,L|477:319,1,45,2|8,0:0|0:0,0:0:0:0:
171,248,65223,2,0,L|223:242,1,45,0|8,0:0|0:0,0:0:0:0:
417,42,65488,2,0,L|419:86,1,45,0|8,0:0|0:0,0:0:0:0:
316,356,65753,2,0,L|313:311,1,45,0|8,0:0|0:0,0:0:0:0:
211,132,66017,5,2,0:0:0:0:
345,191,66194,1,8,0:0:0:0:
105,239,66370,5,2,0:0:0:0:
105,239,66459,1,8,0:0:0:0:
396,294,66635,1,0,0:0:0:0:
396,294,66723,1,8,0:0:0:0:
188,356,66900,1,0,0:0:0:0:
188,356,66988,1,8,0:0:0:0:
318,59,67165,1,0,0:0:0:0:
318,59,67253,1,8,0:0:0:0:
434,165,67429,5,2,0:0:0:0:
105,67,67606,1,8,0:0:0:0:
187,355,67782,6,0,P|154:326|139:284,1,90,2|0,0:0|0:0,0:0:0:0:
372,284,68047,2,0,P|357:326|324:355,1,90,2|0,0:0|0:0,0:0:0:0:
309,174,68312,2,0,L|379:164,1,45,2|0,0:0|0:0,0:0:0:0:
453,72,68488,1,2,0:0:0:0:
476,229,68665,1,0,0:0:0:0:
96,286,68841,6,0,L|93:263,6,22.5
23,218,69194,6,0,P|63:180|117:184,1,112.5,6|0,0:0|0:0,0:0:0:0:
232,277,69459,1,2,0:0:0:0:
232,277,69547,2,0,P|241:230|240:182,1,56.25,8|0,0:0|0:0,0:0:0:0:
95,83,69723,2,0,P|98:110|104:138,1,56.25,2|0,0:0|0:0,0:0:0:0:
225,19,69900,1,2,0:0:0:0:
233,187,70076,1,0,0:0:0:0:
233,187,70165,1,2,0:0:0:0:
233,187,70253,2,0,P|205:187|159:168,1,56.25,8|0,0:0|0:0,0:0:0:0:
391,77,70429,2,0,P|363:78|337:85,1,56.25,2|0,0:0|0:0,0:0:0:0:
312,239,70606,5,2,0:0:0:0:
223,93,70782,1,0,0:0:0:0:
223,93,70870,2,0,P|251:92|277:85,1,56.25,2|8,0:0|0:0,0:0:0:0:
448,149,71047,1,0,0:0:0:0:
448,149,71135,1,2,0:0:0:0:
314,329,71312,2,0,P|372:313|426:318,2,112.5,2|0|8,0:0|0:0|0:0,0:0:0:0:
128,274,71841,5,2,0:0:0:0:
172,270,71929,1,2,0:0:0:0:
216,267,72017,2,0,P|208:226|195:209,1,56.25,2|0,0:0|0:0,0:0:0:0:
42,340,72194,2,0,P|50:299|63:282,1,56.25
141,142,72370,1,8,0:0:0:0:
253,365,72547,1,2,0:0:0:0:
208,363,72635,1,0,0:0:0:0:
163,361,72723,2,0,P|155:335|161:299,1,56.25,2|0,0:0|0:0,0:0:0:0:
347,234,72900,2,0,P|328:253|294:266,1,56.25
141,142,73076,1,8,0:0:0:0:
57,287,73253,1,2,0:0:0:0:
36,110,73429,5,2,0:0:0:0:
72,84,73517,1,0,0:0:0:0:
115,72,73606,1,0,0:0:0:0:
159,76,73694,1,2,0:0:0:0:
200,92,73782,1,8,0:0:0:0:
221,137,73870,1,0,0:0:0:0:
221,188,73959,1,2,0:0:0:0:
239,235,74047,1,0,0:0:0:0:
283,258,74135,6,0,P|316:263|364:251,1,56.25,2|0,0:0|0:0,0:0:0:0:
423,123,74312,2,0,P|395:118|367:120,1,56.25
459,290,74488,2,0,P|467:264|456:207,1,56.25,8|0,0:0|0:0,0:0:0:0:
246,92,74665,5,2,0:0:0:0:
238,119,74753,1,0,0:0:0:0:
239,147,74841,2,0,P|267:198|234:235,1,112.5,2|0,0:0|0:0,0:0:0:0:
60,175,75106,1,2,0:0:0:0:
60,175,75194,2,0,L|178:172,1,112.5,8|2,0:0|0:0,0:0:0:0:
102,379,75547,1,2,0:0:0:0:
102,379,75635,2,0,L|99:314,1,56.25
169,228,75812,1,2,0:0:0:0:
169,228,75900,2,0,L|171:171,1,56.25,8|0,0:0|0:0,0:0:0:0:
82,78,76076,5,2,0:0:0:0:
82,78,76165,1,0,0:0:0:0:
82,78,76253,2,0,P|152:83|201:58,1,112.5,2|0,0:0|0:0,0:0:0:0:
336,55,76517,2,0,L|275:44,1,56.25,2|8,0:0|0:0,0:0:0:0:
240,204,76694,1,0,0:0:0:0:
240,204,76782,2,0,L|301:193,1,56.25,2|0,0:0|0:0,0:0:0:0:
489,138,76959,2,0,P|419:143|370:118,1,112.5,2|0,0:0|0:0,0:0:0:0:
336,55,77223,1,0,0:0:0:0:
291,48,77312,1,8,0:0:0:0:
253,73,77400,1,0,0:0:0:0:
240,116,77488,5,2,0:0:0:0:
255,158,77576,1,2,0:0:0:0:
240,204,77665,1,2,0:0:0:0:
138,59,77841,1,0,0:0:0:0:
138,59,77929,1,2,0:0:0:0:
138,59,78017,1,8,0:0:0:0:
324,127,78194,1,2,0:0:0:0:
229,291,78370,2,0,L|312:297,1,56.25,2|0,0:0|0:0,0:0:0:0:
99,194,78547,2,0,L|155:198,1,56.25,0|2,0:0|0:0,0:0:0:0:
213,365,78723,2,0,L|157:361,1,56.25,8|0,0:0|0:0,0:0:0:0:
376,220,78900,2,0,L|319:215,1,56.25,2|0,0:0|0:0,0:0:0:0:
159,106,79076,5,10,0:0:0:0:
296,328,79253,1,0,0:0:0:0:
296,328,79341,1,8,0:0:0:0:
143,222,79517,1,0,0:0:0:0:
143,222,79606,1,8,0:0:0:0:
429,271,79782,1,0,0:0:0:0:
429,271,79870,1,8,0:0:0:0:
189,294,80047,1,0,0:0:0:0:
189,294,80135,1,8,0:0:0:0:
325,43,80312,1,8,0:0:0:0:
289,301,80488,6,2,L|188:293,1,101.250003862381,2|0,0:0|0:0,0:0:0:0:
227,372,80841,6,0,P|242:319|231:232,1,135.000005149842,12|0,0:0|0:0,0:0:0:0:
176,84,81106,1,0,0:0:0:0:
176,84,81194,2,0,L|83:89,1,56.25,2|0,0:0|0:0,0:0:0:0:
209,195,81370,1,0,0:0:0:0:
252,182,81459,1,2,0:0:0:0:
293,197,81547,1,8,0:0:0:0:
224,39,81723,2,0,L|158:34,1,56.25,2|0,0:0|0:0,0:0:0:0:
26,165,81900,6,0,L|82:156,1,56.25,2|0,0:0|0:0,0:0:0:0:
268,127,82076,1,0,0:0:0:0:
268,127,82165,2,0,P|293:116|321:119,1,56.25,2|8,0:0|0:0,0:0:0:0:
213,251,82341,1,0,0:0:0:0:
213,251,82429,2,0,L|208:188,1,56.25,2|0,0:0|0:0,0:0:0:0:
368,314,82606,2,0,P|316:336|262:326,2,112.5,2|0|8,0:0|0:0|0:0,0:0:0:0:
494,102,83135,5,2,0:0:0:0:
449,95,83223,1,2,0:0:0:0:
403,89,83312,2,0,L|344:101,1,56.25,2|0,0:0|0:0,0:0:0:0:
248,215,83488,2,0,L|192:203,1,56.25,0|2,0:0|0:0,0:0:0:0:
349,22,83665,1,8,0:0:0:0:
115,87,83841,1,2,0:0:0:0:
160,80,83929,1,0,0:0:0:0:
206,74,84018,2,0,L|265:86,1,56.25,2|0,0:0|0:0,0:0:0:0:
397,229,84194,2,0,L|450:213,1,56.25,0|2,0:0|0:0,0:0:0:0:
349,22,84370,1,8,0:0:0:0:
319,222,84547,1,2,0:0:0:0:
115,87,84723,5,2,0:0:0:0:
132,134,84812,1,0,0:0:0:0:
132,184,84900,1,0,0:0:0:0:
115,231,84988,1,2,0:0:0:0:
78,265,85076,1,8,0:0:0:0:
134,269,85165,1,0,0:0:0:0:
189,273,85253,1,2,0:0:0:0:
244,278,85341,1,0,0:0:0:0:
299,282,85429,5,2,0:0:0:0:
319,222,85517,1,0,0:0:0:0:
310,160,85606,1,0,0:0:0:0:
275,108,85694,1,0,0:0:0:0:
217,86,85782,1,8,0:0:0:0:
78,265,85959,5,2,0:0:0:0:
69,220,86047,1,2,0:0:0:0:
74,175,86135,2,0,P|141:179|199:162,1,112.5,2|0,0:0|0:0,0:0:0:0:
244,278,86400,1,2,0:0:0:0:
244,277,86488,2,0,P|291:247|323:185,1,112.5,8|2,0:0|0:0,0:0:0:0:
72,66,86841,2,0,P|59:120|81:186,1,112.5,2|0,0:0|0:0,0:0:0:0:
148,316,87106,1,2,0:0:0:0:
148,316,87194,2,0,L|144:259,1,56.25,8|0,0:0|0:0,0:0:0:0:
323,142,87371,6,0,L|319:198,1,56.25,2|0,0:0|0:0,0:0:0:0:
113,165,87547,2,0,P|168:139|257:147,1,112.5,2|0,0:0|0:0,0:0:0:0:
381,259,87812,1,2,0:0:0:0:
381,259,87900,2,0,L|385:203,1,56.25,8|0,0:0|0:0,0:0:0:0:
402,58,88076,1,2,0:0:0:0:
205,199,88253,5,2,0:0:0:0:
267,263,88370,1,2,0:0:0:0:
354,245,88488,1,2,0:0:0:0:
298,176,88606,5,10,0:0:0:0:
264,261,88723,1,2,0:0:0:0:
327,330,88841,1,2,0:0:0:0:
416,315,88959,5,2,0:0:0:0:
179,279,89135,1,0,0:0:0:0:
398,165,89312,2,0,L|389:267,2,56.25,8|0|2,0:0|0:0|0:0,0:0:0:0:
309,64,89576,2,0,L|297:179,1,112.5,2|0,0:0|0:0,0:0:0:0:
168,125,89841,1,0,0:0:0:0:
168,125,89929,1,0,0:0:0:0:
168,125,90017,2,0,L|255:119,1,56.25,8|0,0:0|0:0,0:0:0:0:
398,165,90194,2,0,L|454:161,1,56.25,2|0,0:0|0:0,0:0:0:0:
311,39,90370,5,2,0:0:0:0:
353,244,90547,1,0,0:0:0:0:
191,315,90723,2,0,P|174:302|122:288,1,56.25,8|0,0:0|0:0,0:0:0:0:
52,146,90900,1,2,0:0:0:0:
52,146,90988,2,0,P|62:208|41:301,1,112.5,2|0,0:0|0:0,0:0:0:0:
126,370,91253,1,0,0:0:0:0:
167,353,91341,1,0,0:0:0:0:
191,315,91429,2,0,P|204:285|202:227,1,56.25,8|0,0:0|0:0,0:0:0:0:
52,146,91606,2,0,P|71:172|122:199,1,56.25,2|0,0:0|0:0,0:0:0:0:
267,110,91782,6,0,P|234:113|185:144,1,56.25,2|0,0:0|0:0,0:0:0:0:
129,272,91959,1,0,0:0:0:0:
115,55,92135,2,0,P|125:86|120:131,2,56.25,8|0|2,0:0|0:0|0:0,0:0:0:0:
58,192,92400,2,0,P|104:219|186:192,1,112.5,2|0,0:0|0:0,0:0:0:0:
212,95,92665,2,0,L|270:111,1,56.25
388,144,92841,1,8,0:0:0:0:
160,211,93017,1,2,0:0:0:0:
333,375,93194,1,4,0:0:0:0:
256,192,93282,12,0,95488,0:0:0:0:
200,288,95665,5,2,0:0:0:0:
208,112,95841,1,2,0:0:0:0:
36,233,96017,5,8,0:0:0:0:
268,199,96194,1,0,0:0:0:0:
106,110,96370,1,8,0:0:0:0:
272,324,96547,1,0,0:0:0:0:
126,243,96723,5,8,0:0:0:0:
281,68,96900,1,0,0:0:0:0:
422,203,97076,1,8,0:0:0:0:
189,159,97253,1,0,0:0:0:0:
378,321,97429,5,8,0:0:0:0:
384,98,97606,1,0,0:0:0:0:
378,321,97782,1,8,0:0:0:0:
384,98,97959,1,0,0:0:0:0:
207,215,98135,5,8,0:0:0:0:
457,262,98312,1,0,0:0:0:0:
281,68,98488,1,8,0:0:0:0:
281,68,98576,2,0,P|230:104|170:93,1,112.5,2|0,0:0|0:0,0:0:0:0:
27,43,98841,6,0,L|89:33,1,56.25,2|8,0:0|0:0,0:0:0:0:
170,299,99106,2,0,L|225:307,1,56.25,0|8,0:0|0:0,0:0:0:0:
336,86,99370,2,0,L|351:15,1,56.25,0|8,0:0|0:0,0:0:0:0:
74,170,99635,2,0,L|83:225,1,56.25,0|8,0:0|0:0,0:0:0:0:
293,211,99900,5,2,0:0:0:0:
148,89,100076,1,8,0:0:0:0:
406,125,100253,5,2,0:0:0:0:
406,125,100341,1,8,0:0:0:0:
319,363,100517,1,0,0:0:0:0:
319,363,100606,1,8,0:0:0:0:
106,221,100782,1,0,0:0:0:0:
106,221,100870,1,8,0:0:0:0:
466,244,101047,1,0,0:0:0:0:
466,244,101135,1,8,0:0:0:0:
238,40,101312,5,2,0:0:0:0:
171,333,101488,1,8,0:0:0:0:
40,136,101665,6,0,P|76:144|126:132,1,67.5000025749208,4|0,0:0|0:0,0:0:0:0:
238,40,102017,1,0,0:0:0:0:
211,173,102194,1,0,0:0:0:0:
211,173,102282,2,0,P|221:220|208:248,1,67.5000025749208
110,204,102547,2,0,P|100:157|113:129,1,67.5000025749208,0|8,0:0|0:0,0:0:0:0:
156,294,102900,5,0,0:0:0:0:
129,288,102988,1,0,0:0:0:0:
101,294,103076,2,0,P|79:296|60:303,1,33.7500012874604
192,373,103253,2,0,P|214:371|233:364,1,33.7500012874604
370,313,103429,1,8,0:0:0:0:
370,313,103517,2,0,P|353:308|336:307,1,33.7500012874604
465,277,103694,2,0,P|471:324|467:354,2,67.5000025749208
463,245,104135,1,10,0:0:0:0:
344,366,104312,1,2,0:0:0:0:
325,190,104488,6,0,L|416:181,1,67.5000025749208,2|0,0:0|0:0,0:0:0:0:
267,53,104841,2,0,L|230:49,1,33.7500012874604,8|0,0:0|0:0,0:0:0:0:
368,90,105017,1,0,0:0:0:0:
368,90,105106,2,0,L|459:81,1,67.5000025749208
459,189,105370,2,0,L|368:180,1,67.5000025749208,0|8,0:0|0:0,0:0:0:0:
242,133,105723,5,0,0:0:0:0:
239,160,105812,1,0,0:0:0:0:
248,185,105900,2,0,P|265:221|265:264,1,67.5000025749208,2|0,0:0|0:0,0:0:0:0:
267,248,106165,1,0,0:0:0:0:
151,141,106341,2,0,P|169:128|198:128,1,33.7500012874604,2|0,0:0|0:0,0:0:0:0:
344,194,106517,2,0,P|343:156|350:138,1,33.7500012874604,2|0,0:0|0:0,0:0:0:0:
406,294,106694,1,0,0:0:0:0:
406,294,106782,2,0,P|364:305|347:305,1,33.7500012874604
242,355,106959,1,2,0:0:0:0:
242,355,107047,2,0,P|224:347|206:330,1,33.7500012874604,2|0,0:0|0:0,0:0:0:0:
96,240,107223,1,2,0:0:0:0:
96,240,107312,6,2,P|113:291|101:346,1,101.250003862381,2|0,0:0|0:0,0:0:0:0:
242,355,107665,6,0,L|357:342,1,112.5,12|0,0:0|0:0,0:0:0:0:
487,280,107929,2,0,P|493:309|486:333,1,45
318,238,108106,1,0,0:0:0:0:
318,238,108194,2,0,P|312:216|318:190,1,45
495,161,108370,2,0,P|475:145|429:155,1,45,8|0,0:0|0:0,0:0:0:0:
291,53,108547,5,0,0:0:0:0:
284,88,108635,1,0,0:0:0:0:
290,127,108723,2,0,P|292:173|310:218,2,90,0|0|8,0:0|0:0|0:0,0:0:0:0:
396,257,109165,2,0,P|376:280|326:295,1,45
167,273,109341,1,0,0:0:0:0:
366,359,109517,1,2,0:0:0:0:
366,160,109694,1,2,0:0:0:0:
366,160,109782,1,10,0:0:0:0:
257,335,109959,1,2,0:0:0:0:
226,136,110135,5,2,0:0:0:0:
93,242,110312,1,0,0:0:0:0:
335,203,110488,2,0,L|264:197,1,45,8|0,0:0|0:0,0:0:0:0:
176,347,110665,1,0,0:0:0:0:
176,347,110753,2,0,L|245:338,1,45
396,257,110929,1,0,0:0:0:0:
396,257,111017,2,0,L|391:310,1,45
227,136,111194,2,0,L|232:189,1,45,8|0,0:0|0:0,0:0:0:0:
283,348,111370,5,0,0:0:0:0:
283,348,111459,1,0,0:0:0:0:
283,347,111547,2,0,P|310:313|308:269,1,90
150,300,111812,2,0,P|155:256|187:226,1,90
232,94,112076,1,0,0:0:0:0:
232,94,112165,2,0,L|171:85,1,45
21,199,112341,1,0,0:0:0:0:
21,199,112429,1,0,0:0:0:0:
248,180,112606,2,0,P|271:179|292:172,1,45,8|0,0:0|0:0,0:0:0:0:
56,97,112782,6,0,P|77:90|100:89,1,45,2|2,0:0|0:0,0:0:0:0:
150,300,112959,1,2,0:0:0:0:
300,30,113135,1,0,0:0:0:0:
300,30,113223,1,2,0:0:0:0:
300,30,113312,2,0,L|292:75,2,45,8|0|2,0:0|0:0|0:0,0:0:0:0:
327,214,113576,2,0,P|274:203|243:173,1,90
420,266,113841,2,0,P|430:246|435:224,1,45,2|0,0:0|0:0,0:0:0:0:
335,92,114017,2,0,P|330:113|311:142,1,45,10|0,0:0|0:0,0:0:0:0:
264,333,114194,2,0,P|247:318|232:287,1,45,10|0,0:0|0:0,0:0:0:0:
91,152,114370,6,0,P|112:145|163:146,2,67.5000025749208,2|0|0,0:0|0:0|0:0,0:0:0:0:
134,258,114812,2,0,L|130:199,1,33.7500012874604,0|2,0:0|0:0,0:0:0:0:
67,79,114988,2,0,P|115:63|165:69,1,101.250003862381,2|0,0:0|0:0,0:0:0:0:
270,174,115429,1,8,0:0:0:0:
313,43,115606,1,0,0:0:0:0:
155,145,115782,5,2,0:0:0:0:
391,203,115959,1,0,0:0:0:0:
391,203,116047,2,0,L|391:124,1,67.5000025749208,2|0,0:0|0:0,0:0:0:0:
270,174,116312,2,0,L|270:279,1,101.250003862381,2|0,0:0|0:0,0:0:0:0:
404,296,116665,2,0,P|385:287|347:285,1,33.7500012874604,2|0,0:0|0:0,0:0:0:0:
194,306,116841,2,0,P|213:297|251:295,1,33.7500012874604,10|0,0:0|0:0,0:0:0:0:
375,350,117017,2,0,P|363:332|331:311,1,33.7500012874604,2|0,0:0|0:0,0:0:0:0:
206,234,117194,5,2,0:0:0:0:
110,357,117370,1,0,0:0:0:0:
24,226,117547,1,0,0:0:0:0:
24,226,117635,2,0,L|28:164,1,33.7500012874604,0|2,0:0|0:0,0:0:0:0:
112,312,117812,2,0,L|119:211,1,101.250003862381,2|0,0:0|0:0,0:0:0:0:
58,77,118253,1,8,0:0:0:0:
24,226,118429,1,0,0:0:0:0:
158,131,118606,6,0,P|186:127|253:142,1,67.5000025749208,2|0,0:0|0:0,0:0:0:0:
270,219,118870,2,0,P|242:223|175:208,1,67.5000025749208,2|0,0:0|0:0,0:0:0:0:
81,165,119135,2,0,P|74:115|96:70,1,101.250003862381,2|0,0:0|0:0,0:0:0:0:
195,26,119488,1,2,0:0:0:0:
227,44,119576,1,0,0:0:0:0:
263,52,119665,1,10,0:0:0:0:
298,42,119753,1,0,0:0:0:0:
332,55,119841,1,2,0:0:0:0:
354,84,119929,1,0,0:0:0:0:
347,120,120017,5,2,0:0:0:0:
268,284,120194,1,0,0:0:0:0:
429,198,120370,1,0,0:0:0:0:
429,198,120459,2,0,L|377:192,1,33.7500012874604,0|2,0:0|0:0,0:0:0:0:
247,173,120635,2,0,P|301:184|339:224,1,101.250003862381,2|0,0:0|0:0,0:0:0:0:
347,120,121076,1,8,0:0:0:0:
380,300,121253,1,0,0:0:0:0:
452,115,121429,5,2,0:0:0:0:
342,247,121606,2,0,P|335:227|337:198,1,33.7500012874604,0|2,0:0|0:0,0:0:0:0:
436,343,121782,1,0,0:0:0:0:
436,343,121870,1,0,0:0:0:0:
436,343,121959,2,0,P|384:357|316:348,1,101.250003862381,2|0,0:0|0:0,0:0:0:0:
218,305,122312,1,2,0:0:0:0:
394,276,122488,1,10,0:0:0:0:
181,240,122665,1,2,0:0:0:0:
405,206,122841,5,2,0:0:0:0:
277,330,123017,1,0,0:0:0:0:
243,326,123106,1,0,0:0:0:0:
212,340,123194,1,8,0:0:0:0:
49,264,123370,1,2,0:0:0:0:
83,260,123459,1,2,0:0:0:0:
114,274,123547,2,0,P|129:278|146:275,1,33.7500012874604
302,204,123723,2,0,P|286:208|269:205,1,33.7500012874604
126,137,123900,2,0,P|122:153|125:170,1,33.7500012874604,8|0,0:0|0:0,0:0:0:0:
287,119,124076,2,0,P|289:102|286:85,1,33.7500012874604
155,23,124253,6,0,L|110:29,1,45,2|8,0:0|0:0,0:0:0:0:
389,115,124517,2,0,L|433:108,1,45,0|8,0:0|0:0,0:0:0:0:
122,243,124782,2,0,L|77:249,1,45,0|8,0:0|0:0,0:0:0:0:
428,329,125046,2,0,L|472:322,1,45,0|8,0:0|0:0,0:0:0:0:
173,345,125312,5,2,0:0:0:0:
200,135,125488,1,8,0:0:0:0:
403,241,125665,5,2,0:0:0:0:
403,241,125753,1,8,0:0:0:0:
97,289,125929,1,0,0:0:0:0:
97,289,126017,1,8,0:0:0:0:
130,26,126194,1,0,0:0:0:0:
130,26,126282,1,8,0:0:0:0:
422,113,126459,1,0,0:0:0:0:
422,113,126547,1,8,0:0:0:0:
294,352,126723,5,2,0:0:0:0:
57,165,126900,1,8,0:0:0:0:
382,102,127076,6,0,B|360:59|312:29,1,90,2|0,0:0|0:0,0:0:0:0:
130,102,127341,2,0,B|152:59|200:29,1,90,2|0,0:0|0:0,0:0:0:0:
265,227,127606,2,0,L|220:223,1,45,2|0,0:0|0:0,0:0:0:0:
57,165,127782,1,2,0:0:0:0:
109,313,127959,1,0,0:0:0:0:
464,140,128135,6,0,L|461:163,6,22.5
495,250,128488,6,0,P|439:254|393:224,1,112.5,6|0,0:0|0:0,0:0:0:0:
278,93,128753,1,2,0:0:0:0:
278,93,128841,2,0,P|235:85|207:93,1,56.25,8|0,0:0|0:0,0:0:0:0:
163,266,129017,2,0,P|199:241|213:215,1,56.25,2|0,0:0|0:0,0:0:0:0:
61,114,129194,1,2,0:0:0:0:
247,165,129370,1,0,0:0:0:0:
247,165,129459,1,2,0:0:0:0:
247,165,129547,2,0,P|255:200|249:233,1,56.25,8|0,0:0|0:0,0:0:0:0:
35,303,129723,2,0,P|33:330|40:357,1,56.25,2|0,0:0|0:0,0:0:0:0:
163,266,129900,5,2,0:0:0:0:
297,365,130076,1,0,0:0:0:0:
297,365,130165,2,0,P|312:321|307:285,1,56.25,2|8,0:0|0:0,0:0:0:0:
326,117,130341,1,0,0:0:0:0:
326,117,130429,1,2,0:0:0:0:
94,216,130606,2,0,P|137:182|191:186,2,112.5,2|0|8,0:0|0:0|0:0,0:0:0:0:
352,291,131135,5,2,0:0:0:0:
343,252,131223,1,2,0:0:0:0:
334,213,131312,2,0,P|300:228|246:214,1,56.25,2|0,0:0|0:0,0:0:0:0:
400,74,131488,2,0,P|427:76|452:89,1,56.25,0|2,0:0|0:0,0:0:0:0:
408,282,131665,1,8,0:0:0:0:
240,68,131841,1,2,0:0:0:0:
249,107,131929,1,0,0:0:0:0:
258,146,132018,2,0,P|292:131|346:145,1,56.25,2|0,0:0|0:0,0:0:0:0:
460,266,132194,2,0,P|426:281|372:267,1,56.25,0|2,0:0|0:0,0:0:0:0:
449,94,132370,1,8,0:0:0:0:
231,29,132547,1,2,0:0:0:0:
334,213,132723,5,2,0:0:0:0:
290,199,132812,1,0,0:0:0:0:
245,196,132900,1,0,0:0:0:0:
202,211,132988,1,2,0:0:0:0:
169,242,133076,1,8,0:0:0:0:
154,284,133165,1,0,0:0:0:0:
153,328,133253,1,2,0:0:0:0:
110,341,133341,1,0,0:0:0:0:
67,325,133429,6,0,P|52:299|52:262,1,56.25,2|0,0:0|0:0,0:0:0:0:
279,278,133606,2,0,P|276:305|261:329,1,56.25
266,142,133782,2,0,L|357:133,1,56.25,8|0,0:0|0:0,0:0:0:0:
63,145,133959,5,0,0:0:0:0:
35,142,134047,1,0,0:0:0:0:
7,140,134135,2,0,P|30:203|34:269,1,112.5,2|0,0:0|0:0,0:0:0:0:
169,62,134400,1,2,0:0:0:0:
169,62,134488,2,0,P|146:125|142:191,1,112.5,8|2,0:0|0:0,0:0:0:0:
236,334,134841,1,2,0:0:0:0:
236,334,134929,2,0,P|276:321|321:320,1,56.25
420,211,135106,1,2,0:0:0:0:
420,211,135194,2,0,P|457:230|490:261,1,56.25,8|0,0:0|0:0,0:0:0:0:
361,372,135370,5,2,0:0:0:0:
361,372,135459,1,0,0:0:0:0:
361,372,135547,2,0,P|365:309|331:224,1,112.5,2|0,0:0|0:0,0:0:0:0:
394,68,135812,2,0,P|356:87|328:125,1,56.25,2|8,0:0|0:0,0:0:0:0:
219,219,135988,1,0,0:0:0:0:
219,219,136076,2,0,P|254:241|301:247,1,56.25,2|0,0:0|0:0,0:0:0:0:
455,310,136253,2,0,P|453:254|419:210,1,112.5,2|0,0:0|0:0,0:0:0:0:
311,260,136517,1,0,0:0:0:0:
267,245,136606,1,8,0:0:0:0:
247,204,136694,1,0,0:0:0:0:
260,161,136782,5,2,0:0:0:0:
263,116,136870,1,2,0:0:0:0:
244,74,136959,1,2,0:0:0:0:
388,166,137135,1,0,0:0:0:0:
388,166,137223,1,2,0:0:0:0:
388,166,137312,1,8,0:0:0:0:
130,121,137488,1,2,0:0:0:0:
338,34,137665,2,0,L|263:26,1,56.25,2|0,0:0|0:0,0:0:0:0:
220,211,137841,2,0,L|145:203,1,56.25,0|2,0:0|0:0,0:0:0:0:
481,151,138017,2,0,L|406:143,1,56.25,8|0,0:0|0:0,0:0:0:0:
184,82,138193,2,0,L|109:74,1,56.25,2|0,0:0|0:0,0:0:0:0:
35,277,138370,5,10,0:0:0:0:
254,358,138547,1,0,0:0:0:0:
254,358,138635,1,8,0:0:0:0:
433,202,138812,1,0,0:0:0:0:
433,202,138900,1,8,0:0:0:0:
103,137,139076,1,0,0:0:0:0:
103,137,139165,1,8,0:0:0:0:
359,308,139341,1,0,0:0:0:0:
359,308,139429,1,8,0:0:0:0:
314,6,139606,1,8,0:0:0:0:
90,235,139782,6,2,P|106:184|93:111,1,101.250003862381,2|0,0:0|0:0,0:0:0:0:
35,277,140135,6,0,L|206:244,1,135.000005149842,12|2,0:0|0:0,0:0:0:0:
355,305,140400,1,0,0:0:0:0:
355,305,140488,2,0,P|390:310|412:303,1,56.25,2|0,0:0|0:0,0:0:0:0:
477,137,140665,1,0,0:0:0:0:
485,181,140753,1,2,0:0:0:0:
474,224,140841,1,8,0:0:0:0:
266,244,141017,2,0,P|301:239|323:246,1,56.25,2|0,0:0|0:0,0:0:0:0:
154,366,141194,6,0,L|142:293,1,56.25,2|0,0:0|0:0,0:0:0:0:
115,148,141370,1,0,0:0:0:0:
115,148,141459,2,0,P|107:122|87:103,1,56.25,2|8,0:0|0:0,0:0:0:0:
35,277,141635,1,0,0:0:0:0:
35,277,141723,2,0,P|43:303|63:322,1,56.25,2|0,0:0|0:0,0:0:0:0:
355,305,141900,2,0,P|297:330|242:294,2,112.5,2|0|8,0:0|0:0|0:0,0:0:0:0:
142,248,142429,5,2,0:0:0:0:
135,197,142517,1,2,0:0:0:0:
161,153,142606,2,0,P|193:141|234:149,1,56.25,2|0,0:0|0:0,0:0:0:0:
334,220,142782,2,0,P|361:219|387:208,1,56.25,0|2,0:0|0:0,0:0:0:0:
317,29,142959,1,8,0:0:0:0:
211,217,143135,1,2,0:0:0:0:
218,268,143223,1,0,0:0:0:0:
192,312,143312,2,0,P|160:324|119:316,1,56.25,2|0,0:0|0:0,0:0:0:0:
161,153,143488,2,0,P|186:142|214:141,1,56.25,0|2,0:0|0:0,0:0:0:0:
30,253,143665,1,8,0:0:0:0:
221,361,143841,1,2,0:0:0:0:
400,289,144017,5,2,0:0:0:0:
358,259,144106,1,0,0:0:0:0:
342,210,144194,1,0,0:0:0:0:
345,159,144282,1,2,0:0:0:0:
372,116,144370,1,8,0:0:0:0:
426,133,144459,1,0,0:0:0:0:
440,187,144547,1,2,0:0:0:0:
438,243,144635,1,0,0:0:0:0:
400,289,144723,5,2,0:0:0:0:
341,266,144812,1,0,0:0:0:0:
279,260,144900,1,0,0:0:0:0:
220,278,144988,1,0,0:0:0:0:
176,321,145076,1,8,0:0:0:0:
392,377,145253,5,2,0:0:0:0:
405,334,145341,1,2,0:0:0:0:
400,289,145429,2,0,P|383:221|399:169,1,112.5,2|0,0:0|0:0,0:0:0:0:
280,145,145694,1,2,0:0:0:0:
280,145,145782,2,0,P|316:84|364:59,1,112.5,8|2,0:0|0:0,0:0:0:0:
511,292,146135,2,0,P|464:283|387:292,1,112.5,2|0,0:0|0:0,0:0:0:0:
215,346,146400,1,2,0:0:0:0:
215,346,146488,2,0,P|238:322|249:292,1,56.25,8|0,0:0|0:0,0:0:0:0:
105,145,146665,6,0,P|114:176|134:201,1,56.25,2|0,0:0|0:0,0:0:0:0:
334,150,146841,2,0,P|284:143|222:182,1,112.5,2|0,0:0|0:0,0:0:0:0:
85,257,147106,1,2,0:0:0:0:
85,257,147194,2,0,P|69:233|62:206,1,56.25,8|0,0:0|0:0,0:0:0:0:
137,43,147370,1,2,0:0:0:0:
311,223,147547,5,2,0:0:0:0:
396,195,147665,1,2,0:0:0:0:
396,105,147782,1,2,0:0:0:0:
258,150,147900,5,10,0:0:0:0:
311,223,148017,1,2,0:0:0:0:
396,195,148135,1,2,0:0:0:0:
311,77,148253,5,2,0:0:0:0:
379,282,148429,1,2,0:0:0:0:
203,138,148606,2,0,P|238:143|280:162,2,56.25,8|0|2,0:0|0:0|0:0,0:0:0:0:
311,223,148870,2,0,P|344:173|343:122,1,112.5,2|0,0:0|0:0,0:0:0:0:
149,70,149135,1,0,0:0:0:0:
149,70,149223,1,0,0:0:0:0:
149,70,149312,2,0,P|116:120|119:149,1,56.25,8|0,0:0|0:0,0:0:0:0:
344,58,149488,2,0,P|320:42|293:38,1,56.25,2|0,0:0|0:0,0:0:0:0:
212,222,149665,5,2,0:0:0:0:
446,131,149841,1,2,0:0:0:0:
319,333,150017,2,0,P|347:336|374:346,1,56.25,8|0,0:0|0:0,0:0:0:0:
441,233,150194,1,2,0:0:0:0:
441,233,150282,2,0,P|393:203|338:199,1,112.5,2|0,0:0|0:0,0:0:0:0:
198,310,150547,1,0,0:0:0:0:
197,264,150635,1,0,0:0:0:0:
212,222,150723,2,0,P|224:192|253:169,1,56.25,8|0,0:0|0:0,0:0:0:0:
373,345,150900,2,0,P|400:351|428:347,1,56.25,2|0,0:0|0:0,0:0:0:0:
446,131,151076,6,0,P|438:104|421:83,1,56.25,2|0,0:0|0:0,0:0:0:0:
197,69,151253,1,2,0:0:0:0:
341,255,151429,2,0,L|338:194,2,56.25,8|0|2,0:0|0:0|0:0,0:0:0:0:
374,106,151694,2,0,P|319:99|272:128,1,112.5,2|0,0:0|0:0,0:0:0:0:
249,283,151959,2,0,L|188:260,1,56.25
17,154,152135,1,8,0:0:0:0:
103,356,152312,1,2,0:0:0:0:
197,69,152488,5,4,0:0:0:0:
123,262,152665,1,0,0:0:0:0:
123,262,152753,1,0,0:0:0:0:
123,262,152841,1,8,0:0:0:0:
334,169,153017,2,0,P|390:155|473:155,1,112.5,2|0,0:0|0:0,0:0:0:0:
270,47,153370,1,0,0:0:0:0:
249,283,153547,2,0,P|232:218|236:151,1,112.5,8|0,0:0|0:0,0:0:0:0:
141,74,153812,1,0,0:0:0:0:
141,74,153900,6,0,L|227:65,1,56.25,2|0,0:0|0:0,0:0:0:0:
367,125,154076,1,0,0:0:0:0:
367,125,154165,2,0,L|452:84,1,56.25,0|8,0:0|0:0,0:0:0:0:
183,220,154429,1,2,0:0:0:0:
63,153,154606,1,0,0:0:0:0:
129,348,154782,1,2,0:0:0:0:
312,214,154959,2,0,L|249:212,1,56.25,8|0,0:0|0:0,0:0:0:0:
41,263,155135,1,0,0:0:0:0:
197,69,155312,6,0,P|187:136|200:205,1,112.5,2|0,0:0|0:0,0:0:0:0:
257,342,155576,1,0,0:0:0:0:
257,342,155665,2,0,P|315:342|392:324,1,112.5,8|2,0:0|0:0,0:0:0:0:
448,186,156017,1,0,0:0:0:0:
310,264,156194,1,0,0:0:0:0:
268,126,156370,1,8,0:0:0:0:
440,293,156547,1,0,0:0:0:0:
197,289,156723,6,0,P|176:275|162:240,1,56.25,2|0,0:0|0:0,0:0:0:0:
395,182,156900,2,0,P|419:177|454:191,1,56.25
249,176,157076,2,0,P|250:150|273:121,1,56.25,8|0,0:0|0:0,0:0:0:0:
440,293,157253,2,0,P|456:311|461:349,1,56.25,2|0,0:0|0:0,0:0:0:0:
310,264,157429,1,0,0:0:0:0:
302,219,157517,1,0,0:0:0:0:
316,176,157606,1,2,0:0:0:0:
214,366,157782,2,0,P|186:354|159:350,1,56.25,8|0,0:0|0:0,0:0:0:0:
58,205,157959,2,0,P|29:216|7:232,1,56.25
99,60,158135,6,0,P|149:40|223:44,1,90,2|2,0:0|0:0,0:0:0:0:
324,35,158488,1,8,0:0:0:0:
292,143,158665,1,2,0:0:0:0:
500,120,158841,2,0,P|450:140|376:136,1,90,0|2,0:0|0:0,0:0:0:0:
425,54,159194,1,8,0:0:0:0:
446,223,159370,1,2,0:0:0:0:
407,212,159459,1,0,0:0:0:0:
370,227,159547,5,2,0:0:0:0:
500,120,159723,2,0,P|507:173|496:224,1,90,2|8,0:0|0:0,0:0:0:0:
229,94,160076,2,0,P|271:61|321:45,1,90,2|0,0:0|0:0,0:0:0:0:
447,270,160429,2,0,P|397:249|358:214,1,90,2|8,0:0|0:0,0:0:0:0:
346,194,160694,1,0,0:0:0:0:
309,178,160782,5,0,0:0:0:0:
269,181,160870,1,0,0:0:0:0:
235,202,160959,1,2,0:0:0:0:
77,187,161135,1,0,0:0:0:0:
261,300,161312,1,8,0:0:0:0:
209,104,161488,2,0,B|232:13|232:13|171:36,1,112.5,2|0,0:0|0:0,0:0:0:0:
77,187,161841,2,0,L|67:92,1,56.25
46,84,162017,1,8,0:0:0:0:
64,320,162194,1,0,0:0:0:0:
235,202,162370,6,0,P|294:220|367:204,1,112.5,2|0,0:0|0:0,0:0:0:0:
209,104,162635,1,0,0:0:0:0:
209,104,162723,2,0,L|153:161,1,56.25,8|0,0:0|0:0,0:0:0:0:
175,368,162900,2,0,P|229:339|269:276,1,112.5,2|0,0:0|0:0,0:0:0:0:
300,133,163253,1,2,0:0:0:0:
173,268,163429,1,8,0:0:0:0:
127,38,163606,1,2,0:0:0:0:
205,159,163782,6,0,P|232:156|275:144,1,56.25,2|0,0:0|0:0,0:0:0:0:
434,118,163959,2,0,P|407:115|364:103,1,56.25,2|0,0:0|0:0,0:0:0:0:
277,26,164135,2,0,L|285:91,1,56.25,10|0,0:0|0:0,0:0:0:0:
368,186,164312,2,0,L|360:251,1,56.25,2|0,0:0|0:0,0:0:0:0:
274,334,164488,6,0,P|305:340|343:335,1,56.25,2|0,0:0|0:0,0:0:0:0:
252,228,164665,2,0,P|221:222|183:227,1,56.25,2|0,0:0|0:0,0:0:0:0:
374,359,164841,2,0,P|389:342|398:306,1,56.25,10|0,0:0|0:0,0:0:0:0:
152,203,165017,2,0,P|137:220|128:256,1,56.25,2|0,0:0|0:0,0:0:0:0:
182,357,165194,5,2,0:0:0:0:
226,334,165282,1,2,0:0:0:0:
273,323,165370,1,2,0:0:0:0:
322,323,165459,1,0,0:0:0:0:
370,335,165547,5,10,0:0:0:0:
383,281,165635,1,2,0:0:0:0:
381,225,165723,1,2,0:0:0:0:
359,173,165812,1,0,0:0:0:0:
309,147,165900,5,10,0:0:0:0:
260,185,165988,1,2,0:0:0:0:
202,160,166076,1,2,0:0:0:0:
209,98,166165,1,0,0:0:0:0:
281,76,166253,5,8,0:0:0:0:
370,335,166429,1,8,0:0:0:0:
424,41,166606,2,0,P|376:52|318:38,1,90,6|0,0:0|0:0,0:0:0:0:
208,39,166870,1,0,0:0:0:0:
208,39,166959,2,0,P|139:37|94:57,1,90,8|0,0:0|0:0,0:0:0:0:
69,210,167312,1,2,0:0:0:0:
25,57,167488,1,2,0:0:0:0:
169,111,167665,1,8,0:0:0:0:
125,278,167841,1,2,0:0:0:0:
155,259,167929,1,2,0:0:0:0:
190,256,168017,5,0,0:0:0:0:
225,262,168106,2,0,L|225:366,1,90
100,306,168370,2,0,L|100:216,1,90,8|0,0:0|0:0,0:0:0:0:
169,111,168635,1,0,0:0:0:0:
169,111,168723,2,0,P|195:118|225:121,1,45,2|0,0:0|0:0,0:0:0:0:
368,68,168900,2,0,P|342:61|312:58,1,45,2|0,0:0|0:0,0:0:0:0:
362,200,169076,1,8,0:0:0:0:
460,75,169253,1,0,0:0:0:0:
458,279,169429,5,2,0:0:0:0:
461,243,169517,1,0,0:0:0:0:
465,206,169606,1,0,0:0:0:0:
282,166,169782,1,8,0:0:0:0:
286,203,169871,1,0,0:0:0:0:
289,239,169959,1,0,0:0:0:0:
420,128,170135,2,0,L|418:21,1,90,2|2,0:0|0:0,0:0:0:0:
278,129,170488,1,8,0:0:0:0:
374,292,170665,1,2,0:0:0:0:
338,285,170753,1,2,0:0:0:0:
304,298,170841,2,0,P|279:309|258:329,1,45
143,345,171017,5,0,0:0:0:0:
95,158,171194,1,8,0:0:0:0:
146,325,171370,2,0,P|143:302|151:273,1,45
276,236,171547,1,2,0:0:0:0:
314,223,171635,1,0,0:0:0:0:
332,186,171723,1,0,0:0:0:0:
324,145,171812,1,2,0:0:0:0:
294,116,171900,1,8,0:0:0:0:
250,125,171988,1,0,0:0:0:0:
205,125,172076,1,10,0:0:0:0:
170,95,172165,1,0,0:0:0:0:
153,52,172253,6,0,P|196:47|235:68,1,90,2|0,0:0|0:0,0:0:0:0:
260,201,172517,1,0,0:0:0:0:
260,201,172606,2,0,P|216:206|177:185,1,90,8|0,0:0|0:0,0:0:0:0:
56,146,172959,1,2,0:0:0:0:
84,338,173135,1,2,0:0:0:0:
191,210,173312,1,8,0:0:0:0:
299,358,173488,1,2,0:0:0:0:
282,321,173576,1,2,0:0:0:0:
282,280,173665,5,0,0:0:0:0:
300,244,173753,2,0,P|342:264|414:249,1,90
418,124,174017,1,8,0:0:0:0:
418,124,174106,2,0,P|376:104|304:119,1,90
359,184,174370,2,0,P|382:182|408:173,1,45,2|0,0:0|0:0,0:0:0:0:
219,41,174547,2,0,P|196:43|170:52,1,45,2|0,0:0|0:0,0:0:0:0:
207,203,174723,1,8,0:0:0:0:
207,203,174812,2,0,P|217:152|212:81,1,90,2|0,0:0|0:0,0:0:0:0:
76,86,175076,6,0,P|115:120|179:151,1,90,2|0,0:0|0:0,0:0:0:0:
60,192,175341,1,0,0:0:0:0:
60,192,175429,1,8,0:0:0:0:
175,49,175606,1,0,0:0:0:0:
175,49,175694,1,0,0:0:0:0:
175,49,175782,2,0,P|196:42|219:41,1,45,2|0,0:0|0:0,0:0:0:0:
250,211,175959,2,0,P|228:204|206:202,1,45,2|0,0:0|0:0,0:0:0:0:
60,192,176135,1,8,0:0:0:0:
87,227,176223,1,0,0:0:0:0:
132,229,176312,1,10,0:0:0:0:
171,208,176400,1,2,0:0:0:0:
177,163,176488,6,0,P|177:143|170:115,1,45,2|0,0:0|0:0,0:0:0:0:
15,243,176665,2,0,P|15:263|22:291,1,45,8|0,0:0|0:0,0:0:0:0:
173,361,176841,6,0,P|195:360|217:355,1,45,2|0,0:0|0:0,0:0:0:0:
221,157,177017,2,0,P|198:157|176:162,1,45,8|0,0:0|0:0,0:0:0:0:
264,267,177194,5,2,0:0:0:0:
310,251,177282,1,0,0:0:0:0:
357,262,177370,1,10,0:0:0:0:
395,293,177459,1,0,0:0:0:0:
409,340,177547,5,10,0:0:0:0:
186,283,177723,1,8,0:0:0:0:
465,115,177900,6,0,P|404:96|355:103,1,90,6|0,0:0|0:0,0:0:0:0:
246,176,178165,1,0,0:0:0:0:
246,176,178253,2,0,L|246:67,1,90,8|0,0:0|0:0,0:0:0:0:
364,4,178606,1,2,0:0:0:0:
401,172,178782,1,2,0:0:0:0:
246,58,178959,1,8,0:0:0:0:
464,113,179135,1,2,0:0:0:0:
488,144,179223,1,2,0:0:0:0:
491,184,179312,5,0,0:0:0:0:
470,218,179400,2,0,P|443:183|401:172,1,90
315,291,179665,2,0,P|358:285|389:253,1,90,8|0,0:0|0:0,0:0:0:0:
329,119,179929,1,0,0:0:0:0:
329,119,180017,2,0,P|309:107|287:104,1,45,2|0,0:0|0:0,0:0:0:0:
159,34,180194,2,0,P|136:36|117:48,1,45,2|0,0:0|0:0,0:0:0:0:
87,227,180370,1,8,0:0:0:0:
322,214,180547,1,0,0:0:0:0:
152,150,180723,5,2,0:0:0:0:
193,147,180811,1,0,0:0:0:0:
234,144,180900,1,0,0:0:0:0:
43,289,181076,1,8,0:0:0:0:
84,292,181165,1,0,0:0:0:0:
125,295,181253,1,0,0:0:0:0:
322,214,181429,2,0,L|209:208,1,90,2|2,0:0|0:0,0:0:0:0:
104,101,181782,1,8,0:0:0:0:
84,292,181959,1,2,0:0:0:0:
125,295,182047,1,2,0:0:0:0:
160,275,182135,2,0,P|182:269|231:283,1,45
329,333,182312,5,0,0:0:0:0:
109,216,182488,1,8,0:0:0:0:
243,364,182665,2,0,P|264:370|286:369,1,45
410,281,182841,1,2,0:0:0:0:
372,256,182929,1,0,0:0:0:0:
328,245,183017,1,0,0:0:0:0:
282,249,183106,1,2,0:0:0:0:
240,266,183194,1,8,0:0:0:0:
247,221,183282,1,0,0:0:0:0:
254,176,183370,1,10,0:0:0:0:
262,131,183459,1,0,0:0:0:0:
270,86,183547,6,0,B|306:59|306:59|350:62,1,90,2|0,0:0|0:0,0:0:0:0:
464,112,183812,1,0,0:0:0:0:
464,112,183900,2,0,B|491:148|491:148|487:192,1,90,8|0,0:0|0:0,0:0:0:0:
419,338,184253,1,2,0:0:0:0:
406,174,184429,1,2,0:0:0:0:
242,187,184606,1,8,0:0:0:0:
255,351,184782,1,2,0:0:0:0:
290,323,184870,1,2,0:0:0:0:
334,313,184959,5,0,0:0:0:0:
378,321,185047,2,0,P|428:320|486:282,1,90
406,174,185312,1,8,0:0:0:0:
406,174,185400,2,0,P|396:218|410:261,1,90
305,222,185665,2,0,P|301:190|304:154,1,45,2|0,0:0|0:0,0:0:0:0:
495,219,185841,2,0,P|499:251|496:287,1,45,2|0,0:0|0:0,0:0:0:0:
343,363,186017,1,8,0:0:0:0:
343,363,186106,2,0,P|298:352|224:354,1,90,2|0,0:0|0:0,0:0:0:0:
90,344,186370,6,0,P|135:355|209:353,1,90,2|0,0:0|0:0,0:0:0:0:
304,222,186723,1,8,0:0:0:0:
61,213,186900,1,0,0:0:0:0:
61,213,186988,1,0,0:0:0:0:
61,213,187076,2,0,L|68:279,1,45,2|0,0:0|0:0,0:0:0:0:
232,210,187253,2,0,L|225:276,1,45,2|0,0:0|0:0,0:0:0:0:
21,161,187429,2,0,L|77:198,1,45,8|0,0:0|0:0,0:0:0:0:
275,163,187606,2,0,L|214:192,1,45,10|2,0:0|0:0,0:0:0:0:
146,381,187782,6,0,L|150:314,1,45,2|8,0:0|0:0,0:0:0:0:
416,274,188047,2,0,L|419:319,1,45,0|8,0:0|0:0,0:0:0:0:
165,90,188312,2,0,P|194:70|241:73,1,45,0|8,0:0|0:0,0:0:0:0:
319,365,188576,2,0,P|290:345|243:348,1,45,0|8,0:0|0:0,0:0:0:0:
113,130,188841,5,2,0:0:0:0:
83,323,189017,1,8,0:0:0:0:
397,166,189194,5,2,0:0:0:0:
397,166,189282,1,8,0:0:0:0:
147,69,189459,1,0,0:0:0:0:
147,69,189547,1,8,0:0:0:0:
471,93,189723,1,0,0:0:0:0:
471,93,189812,1,8,0:0:0:0:
100,160,189988,1,0,0:0:0:0:
100,160,190076,1,8,0:0:0:0:
335,350,190253,5,2,0:0:0:0:
314,30,190429,1,8,0:0:0:0:
448,231,190606,5,2,0:0:0:0:
403,216,190694,1,0,0:0:0:0:
358,220,190782,1,8,0:0:0:0:
315,238,190870,1,2,0:0:0:0:
286,274,190959,1,0,0:0:0:0:
57,213,191135,5,10,0:0:0:0:
57,213,191223,1,0,0:0:0:0:
57,213,191312,1,2,0:0:0:0:
98,242,191400,1,0,0:0:0:0:
147,231,191488,1,8,0:0:0:0:
177,190,191576,1,2,0:0:0:0:
166,140,191665,2,0,P|151:110|154:73,1,56.25
298,79,191841,2,0,P|328:64|365:67,1,56.25,10|0,0:0|0:0,0:0:0:0:
358,220,192017,5,2,0:0:0:0:
212,67,192194,1,8,0:0:0:0:
212,67,192282,1,2,0:0:0:0:
444,121,192459,1,0,0:0:0:0:
444,121,192547,1,10,0:0:0:0:
302,335,192723,2,0,B|354:304|237:205|326:144,1,168.75,10|0,0:0|0:0,0:0:0:0:
319,87,193076,1,2,0:0:0:0:
305,76,193165,1,2,0:0:0:0:
291,65,193253,1,8,0:0:0:0:
277,54,193341,1,2,0:0:0:0:
263,43,193429,5,2,0:0:0:0:
258,98,193517,1,0,0:0:0:0:
292,143,193606,1,8,0:0:0:0:
341,169,193694,1,2,0:0:0:0:
396,157,193782,1,0,0:0:0:0:
436,195,193870,1,0,0:0:0:0:
436,251,193959,1,10,0:0:0:0:
397,291,194047,1,0,0:0:0:0:
340,288,194135,5,2,0:0:0:0:
307,242,194223,1,0,0:0:0:0:
255,219,194312,1,8,0:0:0:0:
198,219,194400,1,2,0:0:0:0:
155,255,194488,2,0,P|123:240|83:244,1,56.25
197,334,194665,2,0,P|225:313|242:277,1,56.25,10|0,0:0|0:0,0:0:0:0:
107,330,194841,6,0,P|108:357|120:383,1,56.25,2|0,0:0|0:0,0:0:0:0:
287,338,195017,1,8,0:0:0:0:
287,338,195106,1,2,0:0:0:0:
287,338,195194,2,0,P|321:331|364:337,1,56.25,2|0,0:0|0:0,0:0:0:0:
431,233,195370,1,8,0:0:0:0:
431,233,195459,1,2,0:0:0:0:
431,233,195547,2,0,P|459:252|486:286,1,56.25,2|0,0:0|0:0,0:0:0:0:
307,242,195723,2,0,P|306:213|312:186,1,56.25,8|2,0:0|0:0,0:0:0:0:
380,46,195900,5,2,0:0:0:0:
407,304,196076,1,8,0:0:0:0:
428,96,196253,5,2,0:0:0:0:
386,113,196341,1,0,0:0:0:0:
341,114,196429,1,8,0:0:0:0:
299,98,196517,1,2,0:0:0:0:
266,66,196606,1,0,0:0:0:0:
222,41,196694,1,0,0:0:0:0:
171,34,196782,1,10,0:0:0:0:
125,56,196870,1,0,0:0:0:0:
101,101,196959,5,2,0:0:0:0:
120,153,197047,1,0,0:0:0:0:
136,206,197135,1,8,0:0:0:0:
130,261,197223,1,2,0:0:0:0:
98,308,197312,1,0,0:0:0:0:
158,295,197400,1,0,0:0:0:0:
218,282,197488,1,10,0:0:0:0:
278,269,197576,1,0,0:0:0:0:
339,256,197665,5,2,0:0:0:0:
201,89,197841,1,8,0:0:0:0:
258,356,198017,5,2,0:0:0:0:
327,136,198194,1,10,0:0:0:0:
136,206,198370,5,2,0:0:0:0:
339,256,198547,1,8,0:0:0:0:
71,323,198723,5,2,0:0:0:0:
327,136,198900,1,8,0:0:0:0:
91,106,199076,6,0,P|145:88|222:93,1,112.5,2|0,0:0|0:0,0:0:0:0:
327,136,199341,2,0,P|309:82|314:5,1,112.5,10|0,0:0|0:0,0:0:0:0:
424,88,199606,1,10,0:0:0:0:
408,301,199782,1,0,0:0:0:0:
246,135,199959,1,10,0:0:0:0:
290,340,200135,2,0,B|313:327|338:331|338:331|371:292|353:249|349:204,1,168.75,10|0,0:0|0:0,0:0:0:0:
245,135,200488,6,0,P|259:192|252:266,1,112.5,2|0,0:0|0:0,0:0:0:0:
62,161,200753,2,0,P|104:121|172:90,1,112.5,10|0,0:0|0:0,0:0:0:0:
177,307,201017,1,10,0:0:0:0:
350,217,201194,1,0,0:0:0:0:
157,185,201370,1,2,0:0:0:0:
359,362,201547,1,10,0:0:0:0:
71,332,201723,2,0,P|79:303|75:265,1,56.25
47,128,201900,5,2,0:0:0:0:
90,171,201988,1,2,0:0:0:0:
151,175,202076,1,2,0:0:0:0:
209,154,202165,1,2,0:0:0:0:
234,98,202253,1,10,0:0:0:0:
263,50,202341,1,0,0:0:0:0:
317,37,202429,1,2,0:0:0:0:
372,46,202517,1,2,0:0:0:0:
414,83,202606,5,2,0:0:0:0:
422,132,202694,1,2,0:0:0:0:
410,181,202782,1,2,0:0:0:0:
367,208,202870,1,2,0:0:0:0:
315,209,202959,1,10,0:0:0:0:
288,172,203047,1,0,0:0:0:0:
299,128,203135,1,2,0:0:0:0:
340,111,203223,1,0,0:0:0:0:
377,136,203312,5,2,0:0:0:0:
256,328,203488,1,2,0:0:0:0:
256,328,203576,1,2,0:0:0:0:
112,71,203753,1,0,0:0:0:0:
112,71,203841,1,2,0:0:0:0:
256,223,204017,1,2,0:0:0:0:
66,209,204194,1,0,0:0:0:0:
412,41,204370,6,0,L|421:78,6,28.125
442,160,204723,5,4,0:0:0:0:
298,117,206135,1,2,0:0:0:0:
214,234,207547,1,2,0:0:0:0:
316,353,208959,1,2,0:0:0:0:
376,292,210370,6,0,L|286:288,1,90,8|0,0:0|0:0,0:0:0:0:
93,336,210723,2,0,L|182:339,1,90
333,227,211076,1,2,0:0:0:0:
120,162,211253,2,0,P|110:205|115:250,2,90,2|0|2,0:0|0:0|0:0,0:0:0:0:
200,296,211694,5,0,0:0:0:0:
199,296,211782,2,0,P|241:282|285:288,1,90,8|0,0:0|0:0,0:0:0:0:
412,212,212047,2,0,P|402:255|375:291,1,90,2|0,0:0|0:0,0:0:0:0:
251,359,212312,1,2,0:0:0:0:
187,211,212488,2,0,P|212:205|247:185,2,45,2|2|0,0:0|0:0|0:0,0:0:0:0:
333,227,212841,1,2,0:0:0:0:
255,72,213017,5,0,0:0:0:0:
255,72,213106,1,0,0:0:0:0:
255,72,213194,1,8,0:0:0:0:
138,131,213370,1,0,0:0:0:0:
387,67,213547,2,0,L|483:91,1,90,2|2,0:0|0:0,0:0:0:0:
408,183,213812,1,0,0:0:0:0:
408,183,213900,2,0,L|320:161,1,90,8|0,0:0|0:0,0:0:0:0:
138,131,214253,1,2,0:0:0:0:
298,82,214429,2,0,L|254:71,1,45,2|0,0:0|0:0,0:0:0:0:
85,22,214606,5,10,0:0:0:0:
180,276,214782,1,0,0:0:0:0:
180,276,214870,1,8,0:0:0:0:
418,117,215047,1,0,0:0:0:0:
418,117,215135,1,8,0:0:0:0:
94,117,215312,1,0,0:0:0:0:
94,117,215400,1,8,0:0:0:0:
332,276,215576,1,0,0:0:0:0:
332,276,215664,1,8,0:0:0:0:
256,26,215841,1,8,0:0:0:0:
302,341,216017,6,0,P|254:324|205:333,1,101.250003862381,2|0,0:0|0:0,0:0:0:0:
127,384,216370,6,0,P|133:328|123:229,1,135.000005149842,4|0,0:0|0:0,0:0:0:0:
3,65,216723,6,0,L|131:39,1,101.250003862381,2|0,0:0|0:0,0:0:0:0:
109,163,217076,6,0,L|261:132,1,135.000005149842,4|0,0:0|0:0,0:0:0:0:
448,189,217429,6,0,P|473:151|455:88,1,101.250003862381,2|0,0:0|0:0,0:0:0:0:
351,58,217782,6,0,P|311:110|322:175,1,135.000005149842,4|0,0:0|0:0,0:0:0:0:
414,334,218047,1,0,0:0:0:0:
414,334,218135,2,0,L|311:340,1,67.5000025749208,4|0,0:0|0:0,0:0:0:0:
166,220,218312,1,0,0:0:0:0:
166,220,218400,2,0,P|207:289|164:340,1,135.000005149842,4|0,0:0|0:0,0:0:0:0:
282,323,218665,5,4,0:0:0:0:
284,279,218753,1,0,0:0:0:0:
287,236,218841,2,0,L|291:132,1,101.250003862381,2|0,0:0|0:0,0:0:0:0:
400,224,219194,6,0,P|339:195|272:189,1,135.000005149842,12|0,0:0|0:0,0:0:0:0:
95,260,219459,1,0,0:0:0:0:
95,260,219547,2,0,P|85:215|85:159,1,56.25
140,44,219723,1,0,0:0:0:0:
190,37,219812,1,2,0:0:0:0:
226,71,219900,1,8,0:0:0:0:
49,168,220076,1,2,0:0:0:0:
212,280,220253,5,2,0:0:0:0:
267,273,220341,1,0,0:0:0:0:
299,227,220429,1,0,0:0:0:0:
289,171,220517,1,2,0:0:0:0:
243,137,220606,1,8,0:0:0:0:
189,153,220694,1,0,0:0:0:0:
141,123,220782,1,2,0:0:0:0:
142,66,220870,1,0,0:0:0:0:
190,37,220959,5,2,0:0:0:0:
240,72,221047,1,0,0:0:0:0:
298,92,221135,1,0,0:0:0:0:
359,90,221223,1,0,0:0:0:0:
418,70,221312,1,8,0:0:0:0:
344,223,221488,5,2,0:0:0:0:
298,200,221576,1,2,0:0:0:0:
247,203,221665,2,0,P|202:204|117:249,1,112.5,2|0,0:0|0:0,0:0:0:0:
19,144,221929,1,2,0:0:0:0:
19,144,222017,2,0,P|23:199|38:253,1,112.5,8|2,0:0|0:0,0:0:0:0:
357,268,222370,2,0,P|314:304|265:331,1,112.5,2|0,0:0|0:0,0:0:0:0:
123,296,222635,1,2,0:0:0:0:
123,296,222724,2,0,P|89:276|67:271,1,56.25,8|0,0:0|0:0,0:0:0:0:
332,377,222900,6,0,P|366:357|381:341,1,56.25,2|0,0:0|0:0,0:0:0:0:
265,135,223076,2,0,P|260:193|275:255,1,112.5,2|0,0:0|0:0,0:0:0:0:
442,323,223341,1,2,0:0:0:0:
442,323,223429,2,0,P|457:299|466:272,1,56.25,8|0,0:0|0:0,0:0:0:0:
385,95,223606,1,2,0:0:0:0:
154,67,223782,5,2,0:0:0:0:
133,154,223900,1,2,0:0:0:0:
113,241,224017,1,2,0:0:0:0:
67,93,224135,5,10,0:0:0:0:
133,154,224253,1,2,0:0:0:0:
199,215,224370,1,2,0:0:0:0:
48,181,224488,5,2,0:0:0:0:
218,127,224665,1,2,0:0:0:0:
180,359,224841,2,0,L|180:302,2,56.25,8|0|2,0:0|0:0|0:0,0:0:0:0:
98,261,225106,2,0,P|144:230|198:214,1,112.5,2|0,0:0|0:0,0:0:0:0:
338,267,225370,1,0,0:0:0:0:
338,267,225459,1,0,0:0:0:0:
338,267,225547,2,0,L|264:263,1,56.25,8|0,0:0|0:0,0:0:0:0:
63,331,225723,2,0,L|119:334,1,56.25,2|0,0:0|0:0,0:0:0:0:
316,200,225900,5,2,0:0:0:0:
98,261,226076,1,2,0:0:0:0:
338,353,226253,2,0,B|371:348|371:348|419:318,1,56.25,8|0,0:0|0:0,0:0:0:0:
492,192,226429,1,2,0:0:0:0:
492,192,226517,2,0,P|454:144|394:127,1,112.5,2|0,0:0|0:0,0:0:0:0:
225,227,226782,1,0,0:0:0:0:
266,198,226870,1,0,0:0:0:0:
316,200,226959,2,0,P|354:214|400:210,1,56.25,8|0,0:0|0:0,0:0:0:0:
252,54,227135,2,0,P|238:92|242:138,1,56.25,2|0,0:0|0:0,0:0:0:0:
462,136,227312,6,0,P|476:98|472:52,1,56.25,2|0,0:0|0:0,0:0:0:0:
273,17,227488,1,2,0:0:0:0:
423,203,227665,2,0,P|396:212|368:214,2,56.25,8|0|2,0:0|0:0|0:0,0:0:0:0:
301,145,227929,2,0,P|278:212|295:279,1,112.5,2|0,0:0|0:0,0:0:0:0:
447,312,228194,2,0,P|425:297|391:293,1,56.25
175,341,228370,1,8,0:0:0:0:
368,214,228547,1,2,0:0:0:0:
85,105,228723,1,4,0:0:0:0:
256,192,228812,12,0,231017,0:0:0:0:
401,101,231194,5,2,0:0:0:0:
217,84,231370,1,2,0:0:0:0:
325,254,231547,5,10,0:0:0:0:
312,46,231723,1,0,0:0:0:0:
172,189,231900,1,8,0:0:0:0:
412,150,232076,1,0,0:0:0:0:
166,67,232253,5,8,0:0:0:0:
55,238,232429,1,0,0:0:0:0:
223,349,232606,1,8,0:0:0:0:
304,165,232782,1,0,0:0:0:0:
60,141,232959,5,8,0:0:0:0:
312,46,233135,1,0,0:0:0:0:
435,281,233312,1,8,0:0:0:0:
172,189,233488,1,0,0:0:0:0:
381,132,233665,5,8,0:0:0:0:
341,329,233841,1,0,0:0:0:0:
107,250,234017,6,2,P|203:266|264:197,1,168.75,10|0,0:0|0:0,0:0:0:0:
288,137,234370,5,10,0:0:0:0:
77,92,234547,1,0,0:0:0:0:
312,46,234723,1,8,0:0:0:0:
54,184,234900,1,0,0:0:0:0:
183,34,235076,5,8,0:0:0:0:
216,327,235253,1,0,0:0:0:0:
388,159,235429,1,8,0:0:0:0:
103,283,235606,1,0,0:0:0:0:
344,339,235782,5,8,0:0:0:0:
288,137,235959,1,0,0:0:0:0:
344,339,236135,1,8,0:0:0:0:
448,59,236312,1,0,0:0:0:0:
457,282,236488,5,8,0:0:0:0:
169,215,236665,1,0,0:0:0:0:
500,162,236841,2,0,P|458:158|429:149,1,56.25,8|0,0:0|0:0,0:0:0:0:
293,44,237017,2,0,P|257:45|202:64,1,56.25
93,118,237194,5,2,0:0:0:0:
50,143,237282,1,0,0:0:0:0:
35,189,237370,1,8,0:0:0:0:
53,234,237459,1,0,0:0:0:0:
94,262,237547,1,0,0:0:0:0:
142,266,237635,1,0,0:0:0:0:
185,242,237723,1,8,0:0:0:0:
209,198,237812,1,0,0:0:0:0:
206,148,237900,5,2,0:0:0:0:
185,97,237988,1,0,0:0:0:0:
208,46,238076,1,8,0:0:0:0:
259,23,238165,1,0,0:0:0:0:
314,30,238253,1,0,0:0:0:0:
344,76,238341,1,0,0:0:0:0:
390,107,238429,1,10,0:0:0:0:
445,112,238517,1,2,0:0:0:0:
498,96,238606,5,2,0:0:0:0:
487,156,238694,1,0,0:0:0:0:
476,217,238782,1,8,0:0:0:0:
465,277,238870,1,0,0:0:0:0:
453,338,238959,1,0,0:0:0:0:
396,310,239047,1,0,0:0:0:0:
340,283,239135,1,8,0:0:0:0:
284,254,239223,1,0,0:0:0:0:
228,225,239312,5,2,0:0:0:0:
293,208,239400,1,0,0:0:0:0:
340,158,239488,1,8,0:0:0:0:
338,90,239576,1,2,0:0:0:0:
303,31,239665,5,2,0:0:0:0:
258,90,239753,1,2,0:0:0:0:
186,110,239841,1,8,0:0:0:0:
113,96,239929,1,0,0:0:0:0:
58,45,240370,5,14,0:0:0:0:
256,192,240459,12,0,244253,0:0:0:0:
