osu file format v14

[General]
AudioFilename: audio.mp3
AudioLeadIn: 0
PreviewTime: -1
Countdown: 1
SampleSet: Soft
StackLeniency: 0.7
Mode: 0
LetterboxInBreaks: 0
WidescreenStoryboard: 0

[Editor]
Bookmarks: 47530,47975,48419
DistanceSpacing: 1
BeatDivisor: 4
GridSize: 32
TimelineZoom: 3.599999

[Metadata]
Title:RHAPSODY OF BLUE SKY
TitleUnicode:青空のラプソディ
Artist:fhana
ArtistUnicode:fhána
Creator:wkdalstn29
Version:dragon
Source:小林さんちのメイドラゴン
Tags:animation
BeatmapID:1282241
BeatmapSetID:607007

[Difficulty]
HPDrainRate:5
CircleSize:4
OverallDifficulty:8.5
ApproachRate:9.5
SliderMultiplier:2.5
SliderTickRate:1

[Events]
//Background and Video events
0,0,"C4dax2CWcAAYWEz.jpg",0,0
//Break Periods
2,177062,188708
//Storyboard Layer 0 (Background)
//Storyboard Layer 1 (Fail)
//Storyboard Layer 2 (Pass)
//Storyboard Layer 3 (Foreground)
//Storyboard Sound Samples

[TimingPoints]
2640,444.444444444444,4,2,2,81,1,0
16862,-100,4,2,3,60,0,0
23130,-100,4,2,3,60,0,0
23230,-100,4,2,3,60,0,0
36379,-200,4,2,3,60,0,0
46973,-100,4,2,3,60,0,0
51975,-50,4,2,3,60,0,0
53862,-50,4,2,2,81,0,1
66752,-50,4,2,3,70,0,1
68196,-50,4,2,2,81,0,1
85084,-50,4,2,3,60,0,0
94973,-100,4,2,3,60,0,0
110975,-200,4,2,3,60,0,0
128528,-50,4,2,2,81,0,1
141419,-50,4,2,3,70,0,1
142863,-50,4,2,2,81,0,1
158973,-100,4,2,3,60,0,0
220419,-50,4,2,3,60,0,0
224419,-200,4,2,2,81,0,0
238973,-50,4,2,2,81,0,1
255084,-50,4,2,2,81,0,0
269639,-200,4,1,0,81,0,0

[Colours]
Combo1 : 1,243,214
Combo2 : 243,242,1
Combo3 : 243,1,216
Combo4 : 237,231,234

[HitObjects]
256,64,3973,5,0,0:0:0:0:
416,192,4195,1,0,0:0:0:0:
256,288,4417,6,0,P|160:288|144:262,1,125
128,128,4862,1,8,0:0:0:0:
256,256,5084,2,0,P|320:288|416:256,1,125
416,128,5529,2,0,P|352:128|256:160,1,125,0|8,0:0|0:0,0:0:0:0:
96,288,5973,1,0,0:0:0:0:
96,160,6195,2,0,P|160:96|224:96,1,125
384,64,6640,1,8,0:0:0:0:
192,256,6862,1,0,0:0:0:0:
480,128,7084,2,0,L|320:160,1,125
128,64,7528,5,8,0:0:0:0:
384,160,7751,1,0,0:0:0:0:
96,256,7973,5,0,0:0:0:0:
256,320,8195,2,0,L|256:192,1,125,0|8,0:0|0:0,0:0:0:0:
352,64,8640,1,0,0:0:0:0:
96,192,8862,1,0,0:0:0:0:
96,192,8973,1,0,0:0:0:0:
96,192,9084,1,0,0:0:0:0:
384,128,9306,2,0,P|320:64|256:96,1,125,8|0,0:0|0:0,0:0:0:0:
224,192,9751,2,0,P|289:204|320:256,1,125
128,320,10195,2,0,L|160:160,1,125,8|0,0:0|0:0,0:0:0:0:
160,95,10640,2,0,P|207:58|266:70,1,125
416,192,11084,5,8,0:0:0:0:
128,320,11306,1,0,0:0:0:0:
320,128,11528,6,0,L|320:256,1,125
224,320,11973,1,8,0:0:0:0:
320,64,12195,1,0,0:0:0:0:
160,128,12417,1,0,0:0:0:0:
160,128,12528,1,0,0:0:0:0:
160,128,12640,1,0,0:0:0:0:
160,224,12862,2,0,L|320:224,1,125,8|0,0:0|0:0,0:0:0:0:
416,96,13306,2,0,P|448:160|384:192,1,125
288,192,13751,2,0,P|239:158|192:193,1,125,8|0,0:0|0:0,0:0:0:0:
160,288,14195,1,0,0:0:0:0:
384,96,14417,1,0,0:0:0:0:
96,128,14639,6,0,P|160:224|192:224,1,125,8|0,0:0|0:0,0:0:0:0:
384,224,15084,1,0,0:0:0:0:
256,192,15306,12,4,16862,0:0:0:0:
96,64,17195,5,0,0:0:0:0:
256,64,17306,1,8,0:0:0:0:
96,192,17528,5,0,0:0:0:0:
256,192,17639,1,8,0:0:0:0:
96,320,17862,5,0,0:0:0:0:
256,320,17973,1,8,0:0:0:0:
384,160,18195,5,0,0:0:0:0:
384,160,18417,1,0,0:0:0:0:
224,32,18640,5,0,0:0:0:0:
96,160,18751,1,8,0:0:0:0:
224,32,18973,5,0,0:0:0:0:
192,192,19084,1,8,0:0:0:0:
224,32,19306,5,0,0:0:0:0:
288,192,19417,1,8,0:0:0:0:
224,32,19640,5,0,0:0:0:0:
384,96,19751,1,8,0:0:0:0:
96,192,19973,5,0,0:0:0:0:
96,192,20195,1,4,0:0:0:0:
416,224,20417,6,0,P|416:160|384:96,1,125
256,64,20862,1,8,0:0:0:0:
96,192,21084,2,0,P|128:256|224:256,1,125
288,288,21528,2,0,P|384:288|416:256,1,125,0|8,0:0|0:0,0:0:0:0:
416,96,21973,2,0,L|352:96,1,41.6666666666667
160,96,22195,5,0,0:0:0:0:
96,288,22417,1,0,0:0:0:0:
160,96,22640,2,0,L|224:160,1,62.5,8|0,0:0|0:0,0:0:0:0:
352,288,22862,2,0,L|288:224,1,62.5
416,32,23195,2,0,L|416:96,2,62.5
352,32,23528,1,8,0:0:0:0:
256,256,23751,1,0,0:0:0:0:
416,96,23973,5,0,0:0:0:0:
128,160,24195,1,0,0:0:0:0:
256,288,24417,1,8,0:0:0:0:
96,192,24640,2,0,L|160:192,1,62.5
416,192,24972,2,0,L|352:192,1,62.5
352,288,25305,1,8,0:0:0:0:
128,320,25528,1,0,0:0:0:0:
320,128,25750,1,0,0:0:0:0:
416,128,25973,6,0,L|512:128,2,62.5,0|0|8,0:0|0:0|0:0,0:0:0:0:
416,192,26306,2,0,L|320:192,1,62.5
288,192,26528,1,0,0:0:0:0:
288,192,26639,2,0,P|224:224|192:320,1,125
192,320,27084,1,8,0:0:0:0:
64,128,27306,1,0,0:0:0:0:
64,288,27528,6,0,L|224:288,1,125
384,288,27973,1,8,0:0:0:0:
384,288,28084,1,0,0:0:0:0:
384,288,28195,1,0,0:0:0:0:
384,160,28417,2,0,P|352:96|288:64,1,125
127,128,28862,2,0,P|125:188|174:223,1,125,8|0,0:0|0:0,0:0:0:0:
337,223,29306,2,0,P|386:188|384:128,1,125
128,288,29751,1,8,0:0:0:0:
128,288,29862,1,0,0:0:0:0:
128,288,29973,1,0,0:0:0:0:
288,128,30195,6,0,P|224:96|160:96,1,125
79,176,30640,2,0,P|64:235|96:288,1,125,8|0,0:0|0:0,0:0:0:0:
448,221,31084,2,0,P|446:157|416:96,1,125
256,64,31528,5,8,0:0:0:0:
288,64,31640,1,0,0:0:0:0:
320,64,31751,1,0,0:0:0:0:
352,64,31862,2,0,L|352:192,1,125
352,224,32195,1,0,0:0:0:0:
224,256,32417,2,0,P|224:192|160:160,1,125,8|0,0:0|0:0,0:0:0:0:
256,64,32862,1,0,0:0:0:0:
256,192,33083,2,0,L|320:192,2,62.5,0|0|8,0:0|0:0|0:0,0:0:0:0:
192,192,33417,1,0,0:0:0:0:
192,256,33528,2,0,L|384:256,1,187.5
416,256,33973,1,0,0:0:0:0:
96,192,34195,6,0,P|64:256|96:320,1,125,8|0,0:0|0:0,0:0:0:0:
224,320,34639,1,0,0:0:0:0:
256,320,34751,1,0,0:0:0:0:
288,320,34862,1,0,0:0:0:0:
320,320,34973,1,0,0:0:0:0:
352,320,35084,2,0,L|352:192,2,125,8|0|0,0:0|0:0|0:0,0:0:0:0:
256,96,35751,5,8,0:0:0:0:
128,256,35973,5,8,0:0:0:0:
384,320,36195,5,8,0:0:0:0:
416,128,36417,5,0,0:0:0:0:
312,96,36640,1,0,0:0:0:0:
200,96,36862,1,8,0:0:0:0:
96,128,37084,1,0,0:0:0:0:
96,224,37306,2,0,P|96:256|128:288,1,62.5
398,280,37751,2,0,P|416:254|416:224,1,62.5,8|0,0:0|0:0,0:0:0:0:
256,64,38195,6,0,L|256:128,1,62.5
256,160,38528,1,0,0:0:0:0:
416,288,38862,2,0,L|288:288,1,125,4|0,0:0|0:0,0:0:0:0:
256,224,39528,1,0,0:0:0:0:
128,320,39750,2,0,L|128:256,1,62.5
384,64,40195,5,0,0:0:0:0:
320,128,40417,1,8,0:0:0:0:
256,192,40640,1,0,0:0:0:0:
192,256,40862,1,0,0:0:0:0:
128,320,41084,2,0,L|128:256,1,62.5,0|8,0:0|0:0,0:0:0:0:
128,96,41528,1,0,0:0:0:0:
384,256,41751,2,0,P|384:224|352:192,1,62.5
96,160,42195,1,8,0:0:0:0:
96,160,42306,1,0,0:0:0:0:
96,160,42417,2,0,L|64:224,1,62.5
288,64,42862,5,0,0:0:0:0:
320,96,42973,1,0,0:0:0:0:
288,128,43084,1,8,0:0:0:0:
320,160,43195,1,0,0:0:0:0:
288,192,43306,2,0,L|352:192,1,62.5
384,96,43751,1,0,0:0:0:0:
320,96,43973,1,8,0:0:0:0:
256,96,44195,1,0,0:0:0:0:
192,96,44417,2,0,L|160:160,1,62.5
320,256,44862,2,0,L|256:224,1,62.5,8|0,0:0|0:0,0:0:0:0:
256,32,45306,5,0,0:0:0:0:
256,96,45528,1,0,0:0:0:0:
256,160,45751,1,8,0:0:0:0:
256,224,45973,1,0,0:0:0:0:
256,288,46195,2,0,L|320:288,2,62.5,0|0|8,0:0|0:0|0:0,0:0:0:0:
352,288,46862,1,0,0:0:0:0:
320,64,47084,6,0,L|160:64,1,125
32,128,47528,2,0,L|32:288,1,125,8|0,0:0|0:0,0:0:0:0:
192,320,47973,2,0,L|317:320,1,125
480,256,48417,2,0,L|480:128,1,125,8|0,0:0|0:0,0:0:0:0:
40,64,48862,5,0,0:0:0:0:
40,224,48973,1,8,0:0:0:0:
184,64,49195,5,0,0:0:0:0:
184,224,49306,1,8,0:0:0:0:
328,64,49528,5,0,0:0:0:0:
328,224,49639,1,8,0:0:0:0:
472,64,49861,5,0,0:0:0:0:
472,224,49972,1,8,0:0:0:0:
448,192,50195,5,0,0:0:0:0:
64,192,50417,1,4,0:0:0:0:
128,256,50640,5,0,0:0:0:0:
384,256,50751,1,8,0:0:0:0:
128,128,50973,5,0,0:0:0:0:
384,128,51084,1,8,0:0:0:0:
192,64,51306,5,0,0:0:0:0:
192,320,51417,1,8,0:0:0:0:
320,64,51639,5,0,0:0:0:0:
320,320,51750,1,8,0:0:0:0:
128,288,51972,2,4,L|256:160,1,125,0|4,0:0|0:0,0:0:0:0:
256,192,52417,12,4,53751,0:0:0:0:
64,96,53973,5,0,0:0:0:0:
64,96,54084,1,0,0:0:0:0:
64,96,54195,2,0,P|64:224|160:320,1,250
256,288,54528,1,0,0:0:0:0:
256,256,54640,2,0,P|224:128|320:96,1,250,8|0,0:0|0:0,0:0:0:0:
416,128,55084,1,0,0:0:0:0:
128,320,55306,1,0,0:0:0:0:
96,224,55528,6,0,P|192:96|256:160,1,250,8|0,0:0|0:0,0:0:0:0:
320,288,55862,1,0,0:0:0:0:
352,288,55973,2,0,P|416:160|384:64,1,250
352,64,56306,1,0,0:0:0:0:
352,64,56417,1,8,0:0:0:0:
256,352,56640,1,0,0:0:0:0:
32,64,56862,1,2,0:0:0:0:
416,288,57084,1,8,0:0:0:0:
256,192,57306,6,0,B|384:192|320:192|96:128,1,250,8|0,0:0|0:0,0:0:0:0:
192,64,57640,1,0,0:0:0:0:
224,64,57751,2,0,P|352:96|384:224,1,250
128,256,58084,1,0,0:0:0:0:
128,288,58195,2,0,P|288:256|224:128,1,250,8|0,0:0|0:0,0:0:0:0:
416,128,58640,2,0,L|416:64,3,62.5
96,64,58973,1,0,0:0:0:0:
96,64,59084,2,0,L|352:64,1,250,8|0,0:0|0:0,0:0:0:0:
121,215,59528,5,0,0:0:0:0:
185,215,59640,1,0,0:0:0:0:
249,215,59751,1,0,0:0:0:0:
313,215,59862,1,0,0:0:0:0:
377,215,59973,6,0,L|281:119,1,125,8|0,0:0|0:0,0:0:0:0:
242,77,60195,2,0,P|178:45|82:45,1,125
56,63,60417,2,0,P|41:116|56:191,1,125,2|0,0:0|0:0,0:0:0:0:
99,240,60639,2,0,P|163:272|259:272,1,125,8|0,0:0|0:0,0:0:0:0:
287,272,60862,2,0,P|343:224|362:172,1,125,8|0,0:0|0:0,0:0:0:0:
378,114,61084,1,0,0:0:0:0:
448,352,61306,6,0,P|448:224|288:192,1,250
96,128,61640,1,0,0:0:0:0:
96,160,61751,2,0,L|352:320,1,250,8|0,0:0|0:0,0:0:0:0:
480,320,62195,1,0,0:0:0:0:
256,32,62417,1,0,0:0:0:0:
288,32,62528,1,0,0:0:0:0:
320,32,62640,2,0,L|320:94,3,62.5,8|0|0|0,0:0|0:0|0:0|0:0,0:0:0:0:
64,32,63084,5,0,0:0:0:0:
448,256,63306,1,0,0:0:0:0:
64,320,63528,1,8,0:0:0:0:
448,128,63751,1,0,0:0:0:0:
248,40,63973,2,0,P|120:72|64:232,1,250,2|8,0:0|0:0,0:0:0:0:
448,320,64417,2,8,L|256:160,1,250,8|0,0:0|0:0,0:0:0:0:
352,64,64751,5,0,0:0:0:0:
352,96,64862,2,0,P|320:224|192:224,1,250,8|0,0:0|0:0,0:0:0:0:
416,224,65195,1,0,0:0:0:0:
416,224,65306,2,0,P|256:224|192:320,1,250,8|0,0:0|0:0,0:0:0:0:
288,288,65640,1,0,0:0:0:0:
288,288,65751,2,0,P|288:96|192:96,1,250,8|0,0:0|0:0,0:0:0:0:
224,160,66084,1,0,0:0:0:0:
224,160,66195,2,0,P|32:192|0:256,1,250,8|0,0:0|0:0,0:0:0:0:
256,256,66640,1,4,0:0:0:0:
416,64,66862,5,0,0:0:0:0:
416,256,66973,1,8,0:0:0:0:
288,64,67195,5,0,0:0:0:0:
288,256,67306,1,8,0:0:0:0:
128,128,67528,5,0,0:0:0:0:
384,128,67640,1,8,0:0:0:0:
352,224,67861,2,0,L|352:160,6,62.5,4|0|4|0|0|4|0,0:0|0:0|0:0|0:0|0:0|0:0|0:0,0:0:0:0:
128,96,68417,6,0,P|128:256|288:256,1,250
192,192,68751,1,0,0:0:0:0:
192,192,68861,2,0,L|448:192,1,250,8|0,0:0|0:0,0:0:0:0:
384,64,69306,2,0,P|288:160|352:288,1,250
416,192,69640,1,0,0:0:0:0:
416,192,69750,2,0,P|416:320|288:288,1,250,8|0,0:0|0:0,0:0:0:0:
291,287,70195,6,0,P|288:160|192:96,1,250
128,96,70528,1,0,0:0:0:0:
128,96,70640,2,0,P|33:166|67:279,1,250,8|0,0:0|0:0,0:0:0:0:
416,320,71084,1,2,0:0:0:0:
128,224,71306,1,8,0:0:0:0:
256,64,71528,2,0,P|96:96|64:256,1,250,8|0,0:0|0:0,0:0:0:0:
160,256,71862,5,0,0:0:0:0:
160,256,71973,2,0,P|320:128|448:192,1,250
288,320,72306,1,0,0:0:0:0:
288,288,72417,2,0,B|288:128|288:224|512:224,1,250,8|0,0:0|0:0,0:0:0:0:
448,160,72751,1,0,0:0:0:0:
448,128,72862,2,0,B|448:-32|448:64|224:64,1,250
288,128,73195,1,0,0:0:0:0:
288,128,73306,2,0,P|192:224|96:160,1,250,8|0,0:0|0:0,0:0:0:0:
64,128,73751,5,0,0:0:0:0:
448,288,73973,1,0,0:0:0:0:
352,32,74195,1,8,0:0:0:0:
32,352,74417,1,0,0:0:0:0:
144,240,74640,2,0,P|296:288|384:184,1,250,2|8,0:0|0:0,0:0:0:0:
368,144,75084,2,0,P|216:96|128:200,1,250,8|0,0:0|0:0,0:0:0:0:
32,352,75528,5,4,0:0:0:0:
384,256,75751,1,0,0:0:0:0:
416,224,75862,1,0,0:0:0:0:
448,192,75973,2,0,P|446:105|288:96,1,250,8|0,0:0|0:0,0:0:0:0:
32,352,76417,5,4,0:0:0:0:
160,128,76640,1,0,0:0:0:0:
192,96,76751,1,0,0:0:0:0:
224,64,76862,2,0,P|352:64|352:192,1,250,8|0,0:0|0:0,0:0:0:0:
32,352,77306,5,4,0:0:0:0:
416,64,77528,1,0,0:0:0:0:
416,96,77640,1,0,0:0:0:0:
416,128,77751,2,0,P|384:256|192:256,1,250,8|0,0:0|0:0,0:0:0:0:
352,128,78195,2,0,P|224:96|96:128,1,250,2|8,0:0|0:0,0:0:0:0:
96,256,78639,2,0,P|224:288|352:256,1,250,10|0,0:0|0:0,0:0:0:0:
128,96,79084,5,0,0:0:0:0:
416,192,79306,1,0,0:0:0:0:
96,96,79528,2,0,P|128:224|256:224,1,250,8|0,0:0|0:0,0:0:0:0:
288,224,79862,1,0,0:0:0:0:
320,224,79973,1,0,0:0:0:0:
352,224,80084,6,0,P|512:192|521:147,1,125
192,96,80417,1,8,0:0:0:0:
448,128,80640,1,0,0:0:0:0:
352,320,80862,1,0,0:0:0:0:
64,96,81084,1,0,0:0:0:0:
320,64,81306,2,0,P|320:192|160:224,1,250,8|0,0:0|0:0,0:0:0:0:
173,243,81639,1,0,0:0:0:0:
173,211,81751,5,0,0:0:0:0:
173,179,81862,2,0,P|173:51|237:-13,1,125
448,192,82195,1,8,0:0:0:0:
96,192,82417,1,0,0:0:0:0:
384,128,82640,2,0,L|256:256,1,125
202,102,82862,2,0,P|143:90|96:128,1,125
309,102,83084,2,0,P|368:90|416:128,1,125,8|0,0:0|0:0,0:0:0:0:
309,281,83306,2,0,P|368:293|416:256,1,125
202,281,83528,2,0,P|143:293|96:256,1,125,2|0,0:0|0:0,0:0:0:0:
256,256,83751,5,8,0:0:0:0:
256,256,83861,1,0,0:0:0:0:
256,256,83972,2,0,P|256:128|64:96,1,250,8|0,0:0|0:0,0:0:0:0:
256,32,84417,1,4,0:0:0:0:
32,192,84862,1,4,0:0:0:0:
480,192,85306,5,0,0:0:0:0:
256,320,85528,1,0,0:0:0:0:
160,96,85751,1,8,0:0:0:0:
416,288,85973,1,0,0:0:0:0:
384,96,86195,5,0,0:0:0:0:
128,288,86640,1,8,0:0:0:0:
352,256,87084,1,0,0:0:0:0:
192,96,87528,2,0,L|320:96,1,125,8|0,0:0|0:0,0:0:0:0:
320,192,87750,2,0,L|192:192,1,125
256,288,87973,2,0,L|256:32,1,250
128,64,88417,5,8,0:0:0:0:
416,128,88640,1,0,0:0:0:0:
160,256,88862,1,8,0:0:0:0:
320,64,89084,1,0,0:0:0:0:
416,256,89306,1,8,0:0:0:0:
128,160,89528,1,0,0:0:0:0:
300,132,89751,6,0,P|362:129|416:160,1,125,8|0,0:0|0:0,0:0:0:0:
448,192,89973,2,0,P|480:256|448:317,1,125
438,348,90195,2,0,L|246:284,1,125,8|0,0:0|0:0,0:0:0:0:
257,293,90417,2,0,P|197:262|154:180,1,125
143,158,90640,2,0,P|116:111|136:30,1,125,8|0,0:0|0:0,0:0:0:0:
182,35,90862,2,0,P|239:60|288:103,1,125
328,148,91084,2,0,L|328:210,3,62.5,4|0|0|0,0:0|0:0|0:0|0:0,0:0:0:0:
224,64,91528,5,0,0:0:0:0:
224,256,91640,1,8,0:0:0:0:
352,64,91862,5,0,0:0:0:0:
352,256,91973,1,8,0:0:0:0:
64,128,92195,5,0,0:0:0:0:
192,320,92306,1,8,0:0:0:0:
160,64,92528,5,0,0:0:0:0:
288,256,92640,1,8,0:0:0:0:
96,256,92862,2,0,L|288:64,1,250,0|4,0:0|0:0,0:0:0:0:
384,288,93306,5,0,0:0:0:0:
128,288,93417,1,8,0:0:0:0:
384,192,93640,5,0,0:0:0:0:
128,192,93751,1,8,0:0:0:0:
128,32,93973,5,0,0:0:0:0:
320,192,94084,1,8,0:0:0:0:
128,352,94306,5,0,0:0:0:0:
320,192,94417,1,8,0:0:0:0:
256,64,94640,2,0,P|128:128|128:224,1,250,0|4,0:0|0:0,0:0:0:0:
384,96,95084,6,0,L|384:224,1,125
96,192,95528,2,0,L|256:192,1,125,8|0,0:0|0:0,0:0:0:0:
160,64,95973,2,0,P|224:32|288:64,1,125
384,288,96417,2,0,L|384:160,1,125,8|0,0:0|0:0,0:0:0:0:
96,256,96862,2,0,L|224:288,1,125
192,64,97306,1,8,0:0:0:0:
192,64,97417,1,0,0:0:0:0:
192,64,97528,1,0,0:0:0:0:
192,64,97640,1,0,0:0:0:0:
192,64,97751,6,0,P|160:64|128:160,1,125
116,248,98195,2,0,P|134:305|192:320,1,125,8|0,0:0|0:0,0:0:0:0:
320,320,98640,2,0,P|378:305|395:248,1,125
395,135,99084,2,0,P|377:78|320:64,1,125,8|0,0:0|0:0,0:0:0:0:
128,224,99528,2,0,P|224:192|224:128,1,125
416,64,99973,5,8,0:0:0:0:
384,224,100195,1,0,0:0:0:0:
352,224,100306,2,0,L|288:224,1,62.5
256,224,100528,1,0,0:0:0:0:
256,192,100640,2,0,L|256:128,1,62.5
256,96,100862,2,0,P|192:32|160:32,1,125,8|0,0:0|0:0,0:0:0:0:
128,32,101195,1,0,0:0:0:0:
128,64,101306,1,0,0:0:0:0:
128,96,101417,1,0,0:0:0:0:
128,128,101528,6,0,P|145:184|203:186,1,125,0|8,0:0|0:0,0:0:0:0:
256,32,101973,1,0,0:0:0:0:
128,224,102195,2,0,P|128:288|224:320,1,125
340,324,102639,2,0,P|385:284|384:224,1,125,8|0,0:0|0:0,0:0:0:0:
320,160,103084,2,0,L|160:160,1,125
195,320,103528,2,0,L|320:320,1,125,8|0,0:0|0:0,0:0:0:0:
160,96,103973,1,0,0:0:0:0:
160,96,104084,1,0,0:0:0:0:
160,96,104195,1,0,0:0:0:0:
416,96,104417,2,0,L|416:224,1,125,8|0,0:0|0:0,0:0:0:0:
384,288,104862,5,0,0:0:0:0:
288,64,105084,1,0,0:0:0:0:
224,256,105306,1,8,0:0:0:0:
416,96,105528,1,0,0:0:0:0:
192,64,105751,2,0,P|128:64|160:96,1,125
320,64,106195,2,0,P|384:64|352:96,1,125,8|0,0:0|0:0,0:0:0:0:
224,192,106640,2,0,L|128:288,2,125,0|0|8,0:0|0:0|0:0,0:0:0:0:
416,160,107306,5,0,0:0:0:0:
416,160,107417,2,0,L|416:96,1,62.5
418,47,107640,1,0,0:0:0:0:
418,47,107751,2,0,L|322:47,1,62.5
292,56,107973,2,0,L|292:184,1,125,8|0,0:0|0:0,0:0:0:0:
291,250,108306,1,0,0:0:0:0:
291,250,108417,2,0,L|451:282,2,125,0|0|8,0:0|0:0|0:0,0:0:0:0:
64,192,109084,5,0,0:0:0:0:
96,192,109195,1,0,0:0:0:0:
128,192,109306,2,0,L|128:128,1,62.5
136,96,109528,1,0,0:0:0:0:
156,77,109640,2,0,L|252:45,1,62.5,0|8,0:0|0:0,0:0:0:0:
266,49,109862,1,0,0:0:0:0:
266,49,109973,1,0,0:0:0:0:
416,64,110195,5,0,0:0:0:0:
192,192,110417,1,0,0:0:0:0:
416,256,110639,1,8,0:0:0:0:
256,32,110862,1,0,0:0:0:0:
256,32,111084,6,0,L|256:96,1,62.5
256,352,111528,2,0,L|256:288,1,62.5,8|0,0:0|0:0,0:0:0:0:
128,96,111973,2,0,P|160:160|160:160,1,62.5
416,96,112417,2,0,L|384:160,1,62.5,8|0,0:0|0:0,0:0:0:0:
256,288,112862,2,0,L|192:224,1,62.5
352,32,113306,2,0,L|288:32,1,62.5,8|0,0:0|0:0,0:0:0:0:
96,224,113751,5,0,0:0:0:0:
384,96,113973,1,0,0:0:0:0:
288,288,114195,1,8,0:0:0:0:
160,64,114417,1,0,0:0:0:0:
384,224,114640,5,0,0:0:0:0:
384,224,114751,1,0,0:0:0:0:
384,224,114862,1,0,0:0:0:0:
128,288,115084,1,8,0:0:0:0:
288,32,115306,1,0,0:0:0:0:
160,160,115528,2,0,L|224:160,2,62.5,0|0|8,0:0|0:0|0:0,0:0:0:0:
256,288,116195,1,0,0:0:0:0:
128,96,116417,6,0,L|128:158,1,62.5
230,213,116862,1,8,0:0:0:0:
262,205,116973,1,0,0:0:0:0:
294,197,117084,2,0,B|342:213|382:165|382:165,1,93.75
384,128,117528,5,0,0:0:0:0:
370,109,117639,1,0,0:0:0:0:
351,95,117750,1,8,0:0:0:0:
328,89,117861,1,0,0:0:0:0:
308,84,117973,2,0,L|233:80,1,62.5
416,64,118417,6,0,L|352:128,1,62.5,0|8,0:0|0:0,0:0:0:0:
224,288,118862,2,0,L|224:224,1,62.5
64,96,119306,2,0,L|128:64,1,62.5,0|8,0:0|0:0,0:0:0:0:
384,256,119751,5,0,0:0:0:0:
256,64,119973,1,0,0:0:0:0:
256,64,120084,1,0,0:0:0:0:
256,64,120195,1,0,0:0:0:0:
256,192,120417,2,0,L|192:192,1,62.5,8|0,0:0|0:0,0:0:0:0:
128,160,120751,1,0,0:0:0:0:
128,160,120862,1,0,0:0:0:0:
160,288,121084,1,0,0:0:0:0:
480,64,121306,2,0,L|416:64,1,62.5,8|4,0:0|0:0,0:0:0:0:
128,64,121973,5,2,0:0:0:0:
128,64,122084,1,2,0:0:0:0:
128,64,122195,1,6,0:0:0:0:
128,320,122417,1,2,0:0:0:0:
128,320,122528,1,2,0:0:0:0:
128,320,122639,1,6,0:0:0:0:
384,320,122862,1,2,0:0:0:0:
384,320,122973,1,2,0:0:0:0:
384,320,123084,2,0,L|384:256,1,62.5,6|0,0:0|0:0,0:0:0:0:
384,192,123528,5,0,0:0:0:0:
128,192,123640,1,8,0:0:0:0:
376,235,123862,5,0,0:0:0:0:
135,148,123972,1,8,0:0:0:0:
354,274,124195,5,0,0:0:0:0:
157,109,124305,1,8,0:0:0:0:
320,302,124528,5,0,0:0:0:0:
192,81,124638,1,8,0:0:0:0:
480,192,124862,1,0,0:0:0:0:
32,192,125084,1,4,0:0:0:0:
160,288,125306,5,0,0:0:0:0:
64,64,125417,1,8,0:0:0:0:
288,256,125640,5,0,0:0:0:0:
64,64,125751,1,8,0:0:0:0:
352,96,125973,5,0,0:0:0:0:
64,64,126084,1,8,0:0:0:0:
320,224,126306,5,0,0:0:0:0:
64,64,126417,1,8,0:0:0:0:
128,192,126640,2,0,L|192:192,1,62.5,0|4,0:0|0:0,0:0:0:0:
256,192,126973,12,4,128417,0:0:0:0:
256,96,128751,5,0,0:0:0:0:
256,128,128862,2,0,P|224:256|320:288,1,250
320,192,129195,1,0,0:0:0:0:
320,192,129306,2,0,P|416:96|288:64,1,250,8|0,0:0|0:0,0:0:0:0:
32,160,129751,1,0,0:0:0:0:
416,128,129973,1,0,0:0:0:0:
192,96,130195,2,0,L|192:352,1,250,8|0,0:0|0:0,0:0:0:0:
96,192,130640,5,0,0:0:0:0:
128,192,130751,1,0,0:0:0:0:
160,192,130862,1,0,0:0:0:0:
192,192,130973,1,0,0:0:0:0:
224,192,131084,2,0,L|352:192,1,125,8|0,0:0|0:0,0:0:0:0:
384,64,131306,2,0,L|384:192,1,125
320,224,131528,2,0,L|192:128,1,125,2|0,0:0|0:0,0:0:0:0:
172,114,131750,1,8,0:0:0:0:
64,320,131972,1,8,0:0:0:0:
384,64,132195,5,0,0:0:0:0:
384,96,132306,1,0,0:0:0:0:
384,128,132417,2,0,P|352:256|192:256,1,250
192,280,132751,1,0,0:0:0:0:
192,280,132862,2,0,P|104:208|144:80,1,250,8|0,0:0|0:0,0:0:0:0:
416,320,133306,1,0,0:0:0:0:
96,64,133528,1,0,0:0:0:0:
352,128,133751,2,0,P|320:256|192:256,1,250,8|0,0:0|0:0,0:0:0:0:
320,32,134195,5,0,0:0:0:0:
96,320,134417,1,0,0:0:0:0:
384,288,134640,2,0,L|384:160,1,125,8|0,0:0|0:0,0:0:0:0:
384,160,134862,2,0,L|192:160,1,125
256,96,135084,2,0,L|416:96,1,125,2|0,0:0|0:0,0:0:0:0:
381,96,135306,2,0,L|381:256,1,125,8|0,0:0|0:0,0:0:0:0:
350,224,135528,2,0,L|288:224,3,62.5,8|0|0|0,0:0|0:0|0:0|0:0,0:0:0:0:
224,224,135862,5,0,0:0:0:0:
224,224,135973,2,0,B|224:96|224:160|32:160,1,250
288,224,136306,1,0,0:0:0:0:
288,224,136417,2,0,B|288:96|288:160|480:160,1,250,8|0,0:0|0:0,0:0:0:0:
352,96,136751,1,0,0:0:0:0:
352,96,136862,2,0,B|224:96|288:96|256:320,1,250
160,96,137195,1,0,0:0:0:0:
160,96,137306,2,0,B|288:96|224:96|224:288,1,250,8|0,0:0|0:0,0:0:0:0:
224,288,137640,1,0,0:0:0:0:
224,288,137751,1,0,0:0:0:0:
480,32,137973,6,0,L|480:192,1,125
480,192,138194,2,0,L|320:192,1,125,8|0,0:0|0:0,0:0:0:0:
355,192,138417,1,0,0:0:0:0:
32,320,138639,1,2,0:0:0:0:
259,336,138862,2,0,P|365:279|384:160,1,250,8|8,0:0|0:0,0:0:0:0:
352,32,139305,1,0,0:0:0:0:
352,32,139417,2,0,P|480:96|480:160,1,125,0|8,0:0|0:0,0:0:0:0:
224,256,139750,2,0,P|177:141|160:192,2,250,0|8|0,0:0|0:0|0:0,0:0:0:0:
416,256,140417,2,0,L|416:128,1,125,8|0,0:0|0:0,0:0:0:0:
416,131,140640,2,0,L|353:131,4,62.5,0|0|0|0|8,0:0|0:0|0:0|0:0|0:0,0:0:0:0:
320,128,141084,2,0,P|263:102|32:128,1,250,0|4,0:0|0:0,0:0:0:0:
448,96,141528,5,0,0:0:0:0:
448,288,141639,1,8,0:0:0:0:
318,288,141862,5,0,0:0:0:0:
318,96,141973,1,8,0:0:0:0:
192,96,142195,5,0,0:0:0:0:
192,288,142306,1,8,0:0:0:0:
192,96,142528,2,0,L|256:96,6,62.5,4|0|0|4|0|0|4,0:0|0:0|0:0|0:0|0:0|0:0|0:0,0:0:0:0:
352,96,143084,2,0,P|352:224|256:192,1,250
240,200,143417,1,0,0:0:0:0:
240,200,143528,2,0,B|144:296|208:232|144:232|144:168|48:296,1,250,8|0,0:0|0:0,0:0:0:0:
384,320,143973,1,0,0:0:0:0:
32,32,144195,1,0,0:0:0:0:
224,96,144417,2,0,P|384:96|480:160,1,250,8|0,0:0|0:0,0:0:0:0:
384,160,144862,6,0,L|384:288,2,125
64,64,145305,1,8,0:0:0:0:
221,288,145528,2,0,L|96:288,1,125
160,96,145751,2,0,L|224:96,4,62.5,2|0|0|0|8,0:0|0:0|0:0|0:0|0:0,0:0:0:0:
480,192,146195,1,8,0:0:0:0:
224,96,146417,5,0,0:0:0:0:
256,96,146528,1,0,0:0:0:0:
288,96,146639,2,0,B|192:192|256:128|288:192|192:128|96:96|160:224,1,250
224,224,146973,1,0,0:0:0:0:
256,224,147084,2,0,B|352:320|288:256|256:320|352:256|448:224|416:160,1,250,8|0,0:0|0:0,0:0:0:0:
320,160,147417,1,0,0:0:0:0:
288,160,147528,2,0,B|160:128|128:128|192:128|288:64,1,250
320,64,147862,1,0,0:0:0:0:
352,64,147973,2,0,L|224:288,1,250,8|0,0:0|0:0,0:0:0:0:
64,352,148417,5,0,0:0:0:0:
448,64,148640,1,0,0:0:0:0:
64,160,148862,1,8,0:0:0:0:
448,288,149084,1,0,0:0:0:0:
320,32,149306,1,2,0:0:0:0:
320,64,149417,1,0,0:0:0:0:
320,96,149528,2,0,P|320:224|256:160,2,250,8|8|0,0:0|0:0|0:0,0:0:0:0:
256,352,150195,5,4,0:0:0:0:
224,64,150417,5,0,0:0:0:0:
224,96,150528,1,0,0:0:0:0:
224,128,150640,2,0,B|224:256|256:256|320:64,1,250,8|0,0:0|0:0,0:0:0:0:
256,352,151084,5,4,0:0:0:0:
64,96,151306,1,0,0:0:0:0:
96,96,151417,1,0,0:0:0:0:
128,96,151528,2,0,L|384:96,1,250,8|0,0:0|0:0,0:0:0:0:
256,352,151973,5,4,0:0:0:0:
448,96,152195,1,0,0:0:0:0:
416,96,152306,1,0,0:0:0:0:
384,96,152417,2,0,P|384:224|256:256,1,250,8|0,0:0|0:0,0:0:0:0:
128,288,152862,1,2,0:0:0:0:
480,256,153084,1,8,0:0:0:0:
96,64,153306,1,8,0:0:0:0:
352,320,153528,1,0,0:0:0:0:
352,160,153751,5,0,0:0:0:0:
192,288,153973,1,0,0:0:0:0:
128,160,154195,1,8,0:0:0:0:
160,160,154306,1,0,0:0:0:0:
192,160,154417,2,0,P|288:256|320:192,1,250
320,192,154751,1,0,0:0:0:0:
320,160,154862,2,8,P|448:128|416:32,1,250,0|8,0:0|0:0,0:0:0:0:
256,64,155306,1,0,0:0:0:0:
96,64,155528,5,0,0:0:0:0:
96,96,155640,1,0,0:0:0:0:
96,128,155751,1,0,0:0:0:0:
128,128,155862,1,0,0:0:0:0:
160,128,155973,2,0,P|224:256|128:256,1,250,8|0,0:0|0:0,0:0:0:0:
192,288,156306,1,0,0:0:0:0:
192,288,156417,2,0,L|448:288,1,250
256,32,156862,5,8,0:0:0:0:
256,32,157084,1,0,0:0:0:0:
376,224,157305,2,0,P|320:256|224:160,1,125
256,208,157528,2,0,P|304:136|232:56,1,125
264,72,157750,2,0,P|200:104|192:224,1,125,8|0,0:0|0:0,0:0:0:0:
168,208,157973,2,0,P|192:264|248:304,2,125,0|0|2,0:0|0:0|0:0,0:0:0:0:
96,192,158417,1,8,0:0:0:0:
320,64,158640,1,8,0:0:0:0:
96,320,158862,1,0,0:0:0:0:
128,256,159084,6,4,P|256:288|384:256,1,250,4|0,0:0|0:0,0:0:0:0:
369,123,159751,2,4,P|241:91|113:123,1,250,4|0,0:0|0:0,0:0:0:0:
256,192,160417,1,8,0:0:0:0:
256,192,160640,1,8,0:0:0:0:
256,192,160751,12,4,162195,0:0:0:0:
128,64,162640,6,0,L|256:64,1,125,4|0,0:0|0:0,0:0:0:0:
288,64,163084,1,0,0:0:0:0:
320,288,163306,2,0,L|256:288,3,62.5
224,288,163750,1,0,0:0:0:0:
96,160,163973,2,0,P|160:160|160:96,1,125,4|0,0:0|0:0,0:0:0:0:
352,96,164417,5,0,0:0:0:0:
352,96,164640,2,0,L|352:256,1,125,0|4,0:0|0:0,0:0:0:0:
288,288,165084,1,0,0:0:0:0:
64,192,165305,1,0,0:0:0:0:
64,192,165417,1,0,0:0:0:0:
64,192,165528,1,0,0:0:0:0:
288,192,165750,1,4,0:0:0:0:
128,96,166195,6,0,P|192:128|224:64,2,125,0|0|4,0:0|0:0|0:0,0:0:0:0:
416,96,166862,2,0,P|415:194|256:224,1,250
256,224,167528,1,4,0:0:0:0:
256,224,167751,1,0,0:0:0:0:
352,64,167973,1,0,0:0:0:0:
352,96,168084,1,0,0:0:0:0:
352,128,168194,2,0,L|352:288,1,125,0|4,0:0|0:0,0:0:0:0:
96,288,168640,2,0,B|205:287|214:237|96:128,1,250
64,96,169306,1,4,0:0:0:0:
64,96,169528,1,0,0:0:0:0:
416,64,169751,5,0,0:0:0:0:
416,64,169973,1,0,0:0:0:0:
416,224,170195,5,8,0:0:0:0:
416,224,170417,1,0,0:0:0:0:
192,224,170640,5,0,0:0:0:0:
192,192,170862,1,0,0:0:0:0:
320,96,171084,5,8,0:0:0:0:
320,128,171306,1,0,0:0:0:0:
160,256,171528,5,0,0:0:0:0:
256,128,171751,1,0,0:0:0:0:
128,64,171973,5,8,0:0:0:0:
192,192,172195,1,0,0:0:0:0:
256,96,172417,5,0,0:0:0:0:
96,224,172640,1,0,0:0:0:0:
320,256,172862,5,8,0:0:0:0:
160,64,173084,1,0,0:0:0:0:
256,192,173306,12,4,175084,0:0:0:0:
256,32,176417,5,0,0:0:0:0:
256,192,176640,1,0,0:0:0:0:
256,352,176862,1,4,0:0:0:0:
256,192,189306,12,4,191084,0:0:0:0:
384,128,191528,5,0,0:0:0:0:
224,256,191751,1,0,0:0:0:0:
64,128,191973,1,0,0:0:0:0:
64,128,192084,1,0,0:0:0:0:
64,128,192195,2,0,L|192:128,1,125,0|8,0:0|0:0,0:0:0:0:
224,128,192640,1,0,0:0:0:0:
448,64,192862,6,0,L|448:128,1,62.5
438,191,193084,2,0,L|342:159,1,62.5
319,155,193306,2,0,L|266:206,1,62.5,8|0,0:0|0:0,0:0:0:0:
230,241,193528,2,0,L|162:210,1,62.5
113,191,193751,2,0,L|113:127,1,62.5
115,64,193973,2,0,L|177:64,1,62.5
241,60,194195,2,0,L|305:43,2,62.5,8|0|0,0:0|0:0|0:0,0:0:0:0:
256,192,194640,5,0,0:0:0:0:
416,288,194862,1,0,0:0:0:0:
384,96,195084,1,8,0:0:0:0:
256,288,195306,1,0,0:0:0:0:
96,160,195528,1,0,0:0:0:0:
96,160,195640,1,0,0:0:0:0:
96,160,195751,1,0,0:0:0:0:
256,192,195973,1,8,0:0:0:0:
256,192,196195,2,0,L|384:192,1,125
320,64,196640,5,0,0:0:0:0:
192,288,196862,1,8,0:0:0:0:
384,224,197084,1,0,0:0:0:0:
128,96,197306,1,0,0:0:0:0:
416,160,197528,1,0,0:0:0:0:
256,192,197751,1,8,0:0:0:0:
256,192,197973,1,0,0:0:0:0:
256,192,198195,2,0,L|96:192,1,125
320,128,198639,5,8,0:0:0:0:
160,256,198862,1,0,0:0:0:0:
384,256,199084,1,0,0:0:0:0:
384,256,199195,1,0,0:0:0:0:
384,256,199306,1,0,0:0:0:0:
256,192,199528,2,0,L|256:64,1,125,8|0,0:0|0:0,0:0:0:0:
96,128,199973,6,0,L|96:192,1,62.5
103,245,200195,2,0,L|167:213,1,62.5
205,207,200417,2,0,L|301:269,1,62.5,8|0,0:0|0:0,0:0:0:0:
303,250,200640,2,0,L|367:250,1,62.5
415,246,200862,2,0,L|447:150,1,62.5
444,140,201084,2,0,L|380:76,1,62.5
362,63,201306,2,0,L|306:90,2,62.5,8|0|0,0:0|0:0|0:0,0:0:0:0:
256,192,201751,5,0,0:0:0:0:
256,192,201973,2,0,P|256:256|192:256,2,125,0|8|0,0:0|0:0|0:0,0:0:0:0:
384,128,202640,1,0,0:0:0:0:
384,128,202751,1,0,0:0:0:0:
384,128,202862,1,0,0:0:0:0:
384,256,203084,1,8,0:0:0:0:
224,160,203306,1,0,0:0:0:0:
128,160,203528,5,0,0:0:0:0:
128,224,203640,1,8,0:0:0:0:
192,128,203862,5,0,0:0:0:0:
192,256,203973,1,8,0:0:0:0:
256,96,204195,5,0,0:0:0:0:
256,288,204306,1,8,0:0:0:0:
256,192,204528,5,0,0:0:0:0:
256,192,204640,1,8,0:0:0:0:
64,192,204862,1,0,0:0:0:0:
480,192,205084,1,4,0:0:0:0:
384,224,205306,5,0,0:0:0:0:
384,160,205418,1,8,0:0:0:0:
320,256,205640,5,0,0:0:0:0:
320,128,205751,1,8,0:0:0:0:
256,288,205973,5,0,0:0:0:0:
256,96,206084,1,8,0:0:0:0:
256,192,206306,5,0,0:0:0:0:
256,192,206417,1,8,0:0:0:0:
480,192,206639,5,0,0:0:0:0:
32,192,206862,1,4,0:0:0:0:
256,192,207306,6,0,L|160:192,2,62.5,0|0|8,0:0|0:0|0:0,0:0:0:0:
416,288,207751,2,0,L|320:288,2,62.5
448,288,208084,1,0,0:0:0:0:
448,288,208195,1,0,0:0:0:0:
448,288,208306,1,0,0:0:0:0:
448,288,208417,2,0,P|448:192|416:128,1,125,8|0,0:0|0:0,0:0:0:0:
448,160,208751,1,0,0:0:0:0:
448,160,208862,1,0,0:0:0:0:
96,192,209084,5,0,0:0:0:0:
128,192,209195,1,0,0:0:0:0:
160,192,209306,2,0,L|256:128,2,62.5,8|0|0,0:0|0:0|0:0,0:0:0:0:
224,224,209751,1,0,0:0:0:0:
224,224,209862,2,0,L|288:192,2,62.5
224,256,210195,2,0,P|320:288|416:160,1,250,8|0,0:0|0:0,0:0:0:0:
352,160,210862,5,0,0:0:0:0:
128,256,211084,1,8,0:0:0:0:
128,64,211306,1,0,0:0:0:0:
384,256,211528,1,0,0:0:0:0:
352,64,211751,1,0,0:0:0:0:
160,192,211973,1,8,0:0:0:0:
448,192,212195,1,0,0:0:0:0:
154,127,212417,2,0,L|314:127,1,125
235,291,212862,5,8,0:0:0:0:
235,291,212973,1,0,0:0:0:0:
235,291,213084,1,0,0:0:0:0:
391,317,213306,2,0,P|410:252|391:189,1,125
237,191,213751,2,0,P|172:179|115:204,1,125,8|0,0:0|0:0,0:0:0:0:
256,96,214194,6,0,L|288:96,8,31.25,4|0|0|0|0|0|0|0|4,0:0|0:0|0:0|0:0|0:0|0:0|0:0|0:0|0:0,0:0:0:0:
320,128,214862,1,0,0:0:0:0:
128,224,215084,1,8,0:0:0:0:
352,288,215306,1,0,0:0:0:0:
192,128,215528,1,8,0:0:0:0:
160,288,215751,1,0,0:0:0:0:
384,128,215973,1,8,0:0:0:0:
320,256,216195,1,0,0:0:0:0:
192,96,216417,1,8,0:0:0:0:
128,224,216640,1,0,0:0:0:0:
384,96,216862,6,0,L|384:256,1,125,8|0,0:0|0:0,0:0:0:0:
160,256,217306,2,0,L|320:256,1,125,8|0,0:0|0:0,0:0:0:0:
128,64,217751,2,0,L|192:160,1,62.5,4|0,0:0|0:0,0:0:0:0:
256,192,218084,2,0,L|352:160,1,62.5,4|0,0:0|0:0,0:0:0:0:
416,192,218417,2,0,L|416:64,2,125
416,192,219084,5,8,0:0:0:0:
416,192,219306,1,0,0:0:0:0:
352,320,219528,2,0,L|288:288,1,62.5,4|0,0:0|0:0,0:0:0:0:
160,256,219862,2,0,L|160:192,1,62.5,4|0,0:0|0:0,0:0:0:0:
384,96,220195,1,0,0:0:0:0:
160,192,220417,1,0,0:0:0:0:
416,320,220640,1,0,0:0:0:0:
288,96,220862,1,8,0:0:0:0:
192,288,221084,1,0,0:0:0:0:
256,64,221306,6,0,L|288:64,7,31.25,4|0|0|0|0|0|0|0,0:0|0:0|0:0|0:0|0:0|0:0|0:0|0:0,0:0:0:0:
256,192,221640,6,0,L|288:192,7,31.25
256,320,221973,6,0,L|288:320,7,31.25
128,224,222640,1,8,0:0:0:0:
416,192,222863,1,8,0:0:0:0:
256,192,222973,12,0,224417,0:0:0:0:
160,128,224862,6,0,P|159:204|256:256,1,187.5,4|0,0:0|0:0,0:0:0:0:
352,128,225751,6,0,P|352:204|256:256,1,187.5,4|0,0:0|0:0,0:0:0:0:
256,192,226640,2,0,L|352:192,2,93.75,8|0|0,0:0|0:0|0:0,0:0:0:0:
416,32,227528,5,4,0:0:0:0:
64,288,227862,5,4,0:0:0:0:
416,288,228195,5,4,0:0:0:0:
160,128,228417,2,0,L|224:128,1,62.5
352,96,228862,1,8,0:0:0:0:
160,256,229084,1,0,0:0:0:0:
352,288,229306,2,0,L|352:224,1,62.5
352,128,229751,1,8,0:0:0:0:
352,128,229973,1,0,0:0:0:0:
64,160,230195,6,0,L|128:160,1,62.5
352,128,230640,1,8,0:0:0:0:
352,128,230862,1,0,0:0:0:0:
256,288,231084,6,0,L|192:288,1,62.5
352,128,231528,1,8,0:0:0:0:
352,128,231751,1,0,0:0:0:0:
192,128,231973,5,0,0:0:0:0:
128,288,232195,1,0,0:0:0:0:
384,288,232417,1,8,0:0:0:0:
128,128,232640,1,0,0:0:0:0:
256,288,232862,1,0,0:0:0:0:
352,96,233084,1,0,0:0:0:0:
128,256,233306,1,8,0:0:0:0:
256,96,233528,1,0,0:0:0:0:
320,160,233751,2,0,P|320:192|352:192,1,62.5
192,160,234195,2,0,P|192:192|160:192,1,62.5,8|0,0:0|0:0,0:0:0:0:
256,224,234640,5,0,0:0:0:0:
128,128,234862,1,0,0:0:0:0:
352,96,235084,1,8,0:0:0:0:
128,256,235306,1,0,0:0:0:0:
345,196,235528,2,0,P|317:188|320:160,1,62.5,8|0,0:0|0:0,0:0:0:0:
166,196,235973,2,0,P|194:188|192:160,1,62.5,8|0,0:0|0:0,0:0:0:0:
256,192,236417,1,8,0:0:0:0:
256,192,236640,1,0,0:0:0:0:
256,192,236862,1,8,0:0:0:0:
256,192,237084,1,0,0:0:0:0:
256,192,237195,12,4,238640,0:0:0:0:
192,64,238973,5,0,0:0:0:0:
192,64,239084,2,0,P|128:224|256:288,1,250
288,288,239417,1,0,0:0:0:0:
288,288,239528,2,0,P|416:192|416:96,1,250,8|0,0:0|0:0,0:0:0:0:
256,32,239973,5,0,0:0:0:0:
64,288,240195,1,0,0:0:0:0:
448,224,240417,2,0,P|448:106|338:64,1,250,8|0,0:0|0:0,0:0:0:0:
160,64,240751,1,0,0:0:0:0:
160,64,240862,2,0,P|64:224|96:288,1,250
96,288,241195,1,0,0:0:0:0:
96,288,241306,1,8,0:0:0:0:
416,288,241528,5,0,0:0:0:0:
160,64,241751,1,2,0:0:0:0:
448,96,241973,1,8,0:0:0:0:
128,224,242195,1,8,0:0:0:0:
320,128,242417,5,0,0:0:0:0:
320,128,242528,1,0,0:0:0:0:
320,128,242640,2,0,P|160:160|192:224,1,250
192,192,242973,1,0,0:0:0:0:
192,192,243084,2,0,B|160:320|128:320|320:256,1,250,8|0,0:0|0:0,0:0:0:0:
64,320,243528,1,0,0:0:0:0:
384,64,243751,1,0,0:0:0:0:
384,96,243862,1,0,0:0:0:0:
384,128,243973,2,0,P|384:256|256:320,1,250,8|0,0:0|0:0,0:0:0:0:
256,64,244417,5,0,0:0:0:0:
64,320,244640,1,0,0:0:0:0:
448,256,244862,1,8,0:0:0:0:
192,32,245084,1,0,0:0:0:0:
256,160,245306,2,0,L|256:96,4,62.5,2|0|0|0|8,0:0|0:0|0:0|0:0|0:0,0:0:0:0:
256,192,245640,5,0,0:0:0:0:
256,224,245751,2,8,P|384:224|384:96,1,250,8|0,0:0|0:0,0:0:0:0:
32,352,246195,5,4,0:0:0:0:
160,128,246417,1,0,0:0:0:0:
192,128,246528,1,0,0:0:0:0:
224,128,246640,2,0,P|384:128|416:192,1,250,8|0,0:0|0:0,0:0:0:0:
480,352,247084,5,4,0:0:0:0:
128,64,247305,1,0,0:0:0:0:
128,96,247417,1,0,0:0:0:0:
128,128,247528,2,0,B|192:256|224:224|64:224|288:32,1,250,8|0,0:0|0:0,0:0:0:0:
480,32,247973,5,4,0:0:0:0:
224,192,248194,1,0,0:0:0:0:
224,224,248305,1,0,0:0:0:0:
224,256,248417,2,0,B|128:352|192:352|0:192,1,250,8|0,0:0|0:0,0:0:0:0:
416,320,248862,1,2,0:0:0:0:
256,160,249084,2,0,L|256:96,4,62.5,8|0|0|0|8,0:0|0:0|0:0|0:0|0:0,0:0:0:0:
256,192,249528,1,0,0:0:0:0:
480,128,249751,5,0,0:0:0:0:
96,288,249973,1,0,0:0:0:0:
384,128,250194,1,8,0:0:0:0:
384,128,250305,1,0,0:0:0:0:
384,128,250417,1,0,0:0:0:0:
384,128,250528,1,0,0:0:0:0:
384,128,250640,2,0,L|128:224,1,250
128,64,251084,2,0,L|352:256,1,250,8|0,0:0|0:0,0:0:0:0:
448,128,251528,6,0,P|416:256|288:256,1,250
288,256,251862,1,0,0:0:0:0:
288,224,251973,1,8,0:0:0:0:
280,190,252084,6,0,P|220:205|160:192,1,125
128,192,252306,1,0,0:0:0:0:
128,160,252417,2,0,P|256:96|384:128,1,250
64,224,252862,5,8,0:0:0:0:
448,224,253084,1,0,0:0:0:0:
96,64,253306,1,0,0:0:0:0:
256,320,253528,1,0,0:0:0:0:
384,96,253751,1,8,0:0:0:0:
384,96,253862,1,0,0:0:0:0:
384,96,253973,2,0,L|128:96,1,250
448,288,254417,1,0,0:0:0:0:
256,128,254640,1,8,0:0:0:0:
256,128,254751,1,0,0:0:0:0:
256,128,254862,1,0,0:0:0:0:
256,64,255084,5,4,0:0:0:0:
96,224,255528,5,4,0:0:0:0:
352,288,255973,5,4,0:0:0:0:
384,96,256417,5,4,0:0:0:0:
192,288,256862,5,4,0:0:0:0:
256,192,257306,5,4,0:0:0:0:
416,192,257751,5,4,0:0:0:0:
64,224,258195,2,4,P|181:184|266:94,1,250,4|0,0:0|0:0,0:0:0:0:
64,96,258640,1,8,0:0:0:0:
352,256,258862,1,0,0:0:0:0:
384,96,259084,1,8,0:0:0:0:
192,224,259306,1,0,0:0:0:0:
416,192,259528,1,8,0:0:0:0:
192,288,259751,1,0,0:0:0:0:
256,96,259973,1,8,0:0:0:0:
320,256,260195,5,0,0:0:0:0:
128,160,260417,1,8,0:0:0:0:
64,288,260640,1,0,0:0:0:0:
384,96,260862,1,8,0:0:0:0:
288,320,261084,1,0,0:0:0:0:
160,128,261306,1,8,0:0:0:0:
352,192,261528,1,0,0:0:0:0:
64,96,261751,2,8,P|96:224|224:256,1,250,8|0,0:0|0:0,0:0:0:0:
384,64,262195,5,8,0:0:0:0:
160,64,262417,1,0,0:0:0:0:
384,128,262640,1,8,0:0:0:0:
160,128,262862,1,0,0:0:0:0:
384,192,263083,1,8,0:0:0:0:
160,192,263306,1,0,0:0:0:0:
384,256,263528,1,8,0:0:0:0:
160,256,263751,1,0,0:0:0:0:
384,256,263973,5,8,0:0:0:0:
160,256,264195,1,0,0:0:0:0:
384,192,264418,1,8,0:0:0:0:
160,192,264640,1,0,0:0:0:0:
384,128,264862,1,8,0:0:0:0:
160,128,265084,1,0,0:0:0:0:
256,64,265306,6,0,L|256:320,1,250,8|0,0:0|0:0,0:0:0:0:
64,64,265751,2,0,P|128:256|160:288,1,250,8|0,0:0|0:0,0:0:0:0:
384,96,266195,2,0,L|128:256,1,250,8|0,0:0|0:0,0:0:0:0:
352,320,266640,2,0,L|224:64,1,250,8|0,0:0|0:0,0:0:0:0:
96,256,267084,2,0,L|384:192,1,250,8|0,0:0|0:0,0:0:0:0:
192,64,267528,2,0,L|192:320,1,250,8|0,0:0|0:0,0:0:0:0:
384,96,267973,2,0,P|288:256|224:224,1,250,8|0,0:0|0:0,0:0:0:0:
128,192,268417,2,0,L|384:192,1,250,8|0,0:0|0:0,0:0:0:0:
256,64,268862,1,4,0:0:0:0:
256,64,268973,1,4,0:0:0:0:
224,352,269751,6,0,P|384:224|256:352,1,875,0|4,0:0|0:0,0:0:0:0:
