osu file format v14

[General]
AudioFilename: audio.mp3
AudioLeadIn: 0
PreviewTime: 50655
Countdown: 0
SampleSet: Normal
StackLeniency: 0.7
Mode: 3
LetterboxInBreaks: 0
SpecialStyle: 0
WidescreenStoryboard: 0

[Editor]
DistanceSpacing: 0.8
BeatDivisor: 8
GridSize: 4
TimelineZoom: 2.2

[Metadata]
Title:RHAPSODY OF BLUE SKY (TV Size)
TitleUnicode:青空のラプソディ
Artist:fhana
ArtistUnicode:fhána
Creator:MapleSyrup-
Version:Easy
Source:小林さんちのメイドラゴン
Tags:miss kobayashi's dragon maid kobayashi san chi no maid dragon aozora no rhapsody jztcallmeron
BeatmapID:1268159
BeatmapSetID:600101

[Difficulty]
HPDrainRate:8
CircleSize:7
OverallDifficulty:7
ApproachRate:5
SliderMultiplier:1.4
SliderTickRate:1

[Events]
//Background and Video events
0,0,"BG3.jpg",0,0
//Break Periods
//Storyboard Layer 0 (Background)
//Storyboard Layer 1 (Fail)
//Storyboard Layer 2 (Pass)
//Storyboard Layer 3 (Foreground)
//Storyboard Layer 4 (Overlay)
//Storyboard Sound Samples
Sample,1544,0,"LR_Clap Normal.wav",40
Sample,1766,0,"normal-hitnormal.wav",40
Sample,2433,0,"LR_Clap Normal.wav",40
Sample,2877,0,"normal-hitwhistle.wav",40
Sample,3322,0,"LR_Clap Normal.wav",40
Sample,4211,0,"LR_Clap Normal.wav",40
Sample,4433,0,"normal-hitnormal.wav",40
Sample,5099,0,"LR_Clap Normal.wav",40
Sample,5322,0,"normal-hitnormal.wav",40
Sample,5988,0,"LR_Clap Normal.wav",40
Sample,6433,0,"normal-hitwhistle.wav",40
Sample,6877,0,"LR_Clap Normal.wav",40
Sample,7544,0,"normal-hitnormal.wav",40
Sample,7766,0,"LR_Clap Normal.wav",40
Sample,8655,0,"LR_Clap Normal.wav",40
Sample,8877,0,"normal-hitnormal.wav",40
Sample,9544,0,"LR_Clap Normal.wav",40
Sample,9988,0,"normal-hitwhistle.wav",40
Sample,10433,0,"LR_Clap Normal.wav",40
Sample,11099,0,"normal-hitnormal.wav",40
Sample,11322,0,"LR_Clap Normal.wav",40
Sample,11544,0,"normal-hitnormal.wav",40
Sample,12211,0,"LR_Clap Normal.wav",40
Sample,12433,0,"normal-hitnormal.wav",40
Sample,13099,0,"LR_Clap Normal.wav",40
Sample,13544,0,"normal-hitfinish.wav",40
Sample,13655,0,"cymbal light.wav",40
Sample,13877,0,"normal-hitfinish.wav",40
Sample,13988,0,"cymbal light.wav",40
Sample,14211,0,"normal-hitfinish.wav",40
Sample,14322,0,"cymbal light.wav",40
Sample,14544,0,"normal-hitfinish.wav",40
Sample,14655,0,"cymbal light.wav",40
Sample,14877,0,"normal-hitfinish.wav",40
Sample,15099,0,"normal-hitfinish.wav",40
Sample,15433,0,"normal-hitfinish.wav",40
Sample,15544,0,"normal-hitfinish.wav",40
Sample,15766,0,"normal-hitfinish.wav",40
Sample,15877,0,"normal-hitfinish.wav",40
Sample,16099,0,"normal-hitfinish.wav",40
Sample,16211,0,"normal-hitfinish.wav",40
Sample,16433,0,"normal-hitfinish.wav",40
Sample,16544,0,"normal-hitfinish.wav",40
Sample,16655,0,"cymbal clap.wav",40
Sample,16877,0,"cymbal clap.wav",40
Sample,17544,0,"normal-hitwhistle.wav",40
Sample,17877,0,"normal-hitwhistle.wav",40
Sample,18099,0,"normal-hitwhistle.wav",40
Sample,18433,0,"normal-hitwhistle.wav",40
Sample,18877,0,"normal-hitwhistle.wav",40
Sample,19322,0,"normal-hitwhistle.wav",40
Sample,19655,0,"normal-hitwhistle.wav",40
Sample,19877,0,"normal-hitwhistle.wav",40
Sample,20211,0,"normal-hitwhistle.wav",40
Sample,20877,0,"LR_Clap Normal.wav",40
Sample,21322,0,"LR_Clap Normal.wav",40
Sample,21433,0,"normal-hitwhistle.wav",40
Sample,21655,0,"normal-hitwhistle.wav",40
Sample,21766,0,"LR_Clap Normal.wav",40
Sample,22211,0,"normal-hitfinish.wav",40
Sample,22211,0,"LR_Clap Normal.wav",40
Sample,22322,0,"normal-hitwhistle.wav",40
Sample,22433,0,"cymbal clap.wav",40
Sample,22655,0,"normal-hitwhistle.wav",40
Sample,22655,0,"normal-hitfinish.wav",40
Sample,22655,0,"LR_Clap Normal.wav",40
Sample,22766,0,"normal-hitwhistle.wav",40
Sample,22988,0,"normal-hitwhistle.wav",40
Sample,23099,0,"normal-hitfinish.wav",40
Sample,23099,0,"LR_Clap Normal.wav",40
Sample,23099,0,"normal-hitwhistle.wav",40
Sample,23433,0,"normal-hitwhistle.wav",40
Sample,23544,0,"normal-hitfinish.wav",40
Sample,23544,0,"LR_Clap Normal.wav",40
Sample,23766,0,"normal-hitfinish.wav",40
Sample,23877,0,"normal-hitwhistle.wav",40
Sample,23988,0,"normal-hitfinish.wav",40
Sample,24099,0,"normal-hitwhistle.wav",40
Sample,24211,0,"cymbal clap.wav",40
Sample,24655,0,"normal-hitwhistle.wav",40
Sample,24988,0,"normal-hitwhistle.wav",40
Sample,25211,0,"normal-hitwhistle.wav",40
Sample,25544,0,"normal-hitwhistle.wav",40
Sample,25988,0,"normal-hitwhistle.wav",40
Sample,26433,0,"normal-hitwhistle.wav",40
Sample,26766,0,"normal-hitwhistle.wav",40
Sample,26988,0,"normal-hitwhistle.wav",40
Sample,27322,0,"normal-hitwhistle.wav",40
Sample,27766,0,"normal-hitwhistle.wav",40
Sample,28211,0,"normal-hitwhistle.wav",40
Sample,28544,0,"normal-hitwhistle.wav",40
Sample,28766,0,"normal-hitwhistle.wav",40
Sample,29099,0,"normal-hitwhistle.wav",40
Sample,29766,0,"normal-hitfinish.wav",40
Sample,29766,0,"LR_Clap Normal.wav",40
Sample,29988,0,"normal-hitwhistle.wav",40
Sample,30211,0,"normal-hitfinish.wav",40
Sample,30211,0,"LR_Clap Normal.wav",40
Sample,30544,0,"normal-hitwhistle.wav",40
Sample,30655,0,"normal-hitfinish.wav",40
Sample,30655,0,"LR_Clap Normal.wav",40
Sample,31099,0,"normal-hitfinish.wav",40
Sample,31099,0,"LR_Clap Normal.wav",40
Sample,31544,0,"normal-hitwhistle.wav",40
Sample,31544,0,"normal-hitfinish.wav",40
Sample,31544,0,"LR_Clap Normal.wav",40
Sample,31766,0,"normal-hitfinish.wav",40
Sample,31766,0,"LR_Clap Normal.wav",40
Sample,31766,0,"normal-hitwhistle.wav",40
Sample,31988,0,"normal-hitwhistle.wav",40
Sample,31988,0,"normal-hitfinish.wav",40
Sample,31988,0,"LR_Clap Normal.wav",40
Sample,32099,0,"cymbal clap.wav",40
Sample,32433,0,"normal-hitfinish.wav",40
Sample,32655,0,"normal-hitfinish.wav",40
Sample,32655,0,"LR_Clap Normal.wav",40
Sample,32766,0,"normal-hitwhistle.wav",40
Sample,32877,0,"normal-hitfinish.wav",40
Sample,32877,0,"LR_Clap Normal.wav",40
Sample,32988,0,"normal-hitwhistle.wav",40
Sample,33099,0,"cymbal clap.wav",40
Sample,33099,0,"normal-hitfinish.wav",40
Sample,33544,0,"normal-hitwhistle.wav",40
Sample,33544,0,"normal-hitfinish.wav",40
Sample,33988,0,"normal-hitwhistle.wav",40
Sample,34211,0,"normal-hitwhistle.wav",40
Sample,34433,0,"normal-hitwhistle.wav",40
Sample,34433,0,"normal-hitfinish.wav",40
Sample,34655,0,"normal-hitwhistle.wav",40
Sample,34766,0,"normal-hitwhistle.wav",40
Sample,35322,0,"normal-hitfinish.wav",40
Sample,35322,0,"LR_Clap Normal.wav",40
Sample,35655,0,"normal-hitfinish.wav",40
Sample,35766,0,"normal-hitwhistle.wav",40
Sample,35877,0,"normal-hitfinish.wav",40
Sample,35988,0,"normal-hitwhistle.wav",40
Sample,36211,0,"normal-hitfinish.wav",40
Sample,36211,0,"LR_Clap Normal.wav",40
Sample,36433,0,"normal-hitwhistle.wav",40
Sample,36655,0,"cymbal light.wav",40
Sample,37099,0,"normal-hitwhistle.wav",40
Sample,37099,0,"normal-hitfinish.wav",40
Sample,37544,0,"normal-hitwhistle.wav",40
Sample,37766,0,"normal-hitwhistle.wav",40
Sample,37988,0,"normal-hitwhistle.wav",40
Sample,37988,0,"normal-hitfinish.wav",40
Sample,38211,0,"normal-hitwhistle.wav",40
Sample,38877,0,"normal-hitwhistle.wav",40
Sample,38877,0,"normal-hitfinish.wav",40
Sample,38877,0,"LR_Clap Normal.wav",40
Sample,39211,0,"normal-hitfinish.wav",40
Sample,39322,0,"normal-hitwhistle.wav",40
Sample,39433,0,"normal-hitfinish.wav",40
Sample,39544,0,"normal-hitwhistle.wav",40
Sample,39766,0,"normal-hitwhistle.wav",40
Sample,39766,0,"LR_Clap Normal.wav",40
Sample,39766,0,"normal-hitfinish.wav",40
Sample,39877,0,"normal-hitwhistle.wav",40
Sample,39988,0,"normal-hitwhistle.wav",40
Sample,40099,0,"normal-hitwhistle.wav",40
Sample,40211,0,"normal-hitfinish.wav",40
Sample,40211,0,"cymbal light.wav",40
Sample,40655,0,"normal-hitwhistle.wav",40
Sample,40655,0,"normal-hitfinish.wav",40
Sample,41099,0,"normal-hitwhistle.wav",40
Sample,41322,0,"normal-hitwhistle.wav",40
Sample,41544,0,"normal-hitfinish.wav",40
Sample,41766,0,"normal-hitwhistle.wav",40
Sample,41988,0,"normal-hitfinish.wav",40
Sample,41988,0,"LR_Clap Normal.wav",40
Sample,42099,0,"normal-hitwhistle.wav",40
Sample,42433,0,"normal-hitwhistle.wav",40
Sample,42433,0,"normal-hitfinish.wav",40
Sample,42433,0,"LR_Clap Normal.wav",40
Sample,42655,0,"normal-hitwhistle.wav",40
Sample,42655,0,"cymbal clap.wav",40
Sample,42988,0,"normal-hitwhistle.wav",40
Sample,42988,0,"normal-hitfinish.wav",40
Sample,43099,0,"normal-hitwhistle.wav",40
Sample,43099,0,"normal-hitfinish.wav",40
Sample,43433,0,"normal-hitclap.wav",40
Sample,43655,0,"normal-hitwhistle.wav",40
Sample,43766,0,"normal-hitwhistle.wav",40
Sample,43766,0,"cymbal clap.wav",40
Sample,43988,0,"normal-hitwhistle.wav",40
Sample,44211,0,"normal-hitwhistle.wav",40
Sample,44433,0,"normal-hitwhistle.wav",40
Sample,44655,0,"normal-hitwhistle.wav",40
Sample,44877,0,"normal-hitwhistle.wav",40
Sample,45099,0,"normal-hitclap.wav",40
Sample,45211,0,"normal-hitclap.wav",40
Sample,45433,0,"normal-hitwhistle.wav",40
Sample,45544,0,"normal-hitfinish.wav",40
Sample,45655,0,"normal-hitwhistle.wav",40
Sample,45655,0,"normal-hitfinish.wav",40
Sample,45655,0,"cymbal clap.wav",40
Sample,45877,0,"normal-hitfinish.wav",40
Sample,45988,0,"normal-hitwhistle.wav",40
Sample,45988,0,"normal-hitfinish.wav",40
Sample,45988,0,"cymbal clap.wav",40
Sample,46211,0,"normal-hitwhistle.wav",40
Sample,46322,0,"normal-hitfinish.wav",40
Sample,46322,0,"normal-hitwhistle.wav",40
Sample,46322,0,"cymbal clap.wav",40
Sample,46544,0,"normal-hitfinish.wav",40
Sample,46655,0,"normal-hitwhistle.wav",40
Sample,46655,0,"normal-hitfinish.wav",40
Sample,46655,0,"cymbal clap.wav",40
Sample,46988,0,"normal-hitclap.wav",40
Sample,47099,0,"LR_Tom Hit X.wav",40
Sample,47211,0,"normal-hitwhistle.wav",40
Sample,47211,0,"LR_Tom Hit Y.wav",40
Sample,47322,0,"normal-hitfinish.wav",40
Sample,47322,0,"LR_Tom Hit Z.wav",40
Sample,47433,0,"normal-hitfinish.wav",40
Sample,47433,0,"cymbal clap.wav",40
Sample,47433,0,"normal-hitwhistle.wav",40
Sample,47655,0,"normal-hitwhistle.wav",40
Sample,47766,0,"normal-hitwhistle.wav",40
Sample,47766,0,"cymbal clap.wav",40
Sample,47766,0,"normal-hitfinish.wav",40
Sample,47988,0,"normal-hitfinish.wav",40
Sample,48099,0,"normal-hitfinish.wav",40
Sample,48099,0,"cymbal clap.wav",40
Sample,48099,0,"normal-hitwhistle.wav",40
Sample,48322,0,"normal-hitwhistle.wav",40
Sample,48433,0,"normal-hitwhistle.wav",40
Sample,48433,0,"cymbal clap.wav",40
Sample,48433,0,"normal-hitfinish.wav",40
Sample,48766,0,"normal-hitclap.wav",40
Sample,48877,0,"LR_Tom Hit X.wav",40
Sample,48988,0,"normal-hitwhistle.wav",40
Sample,48988,0,"LR_Tom Hit Y.wav",40
Sample,49099,0,"normal-hitfinish.wav",40
Sample,49099,0,"LR_Tom Hit Z.wav",40
Sample,49099,0,"cymbal light.wav",40
Sample,49433,0,"normal-hitwhistle.wav",40
Sample,49433,0,"cymbal light.wav",40
Sample,49766,0,"cymbal light.wav",40
Sample,49988,0,"normal-hitwhistle.wav",40
Sample,49988,0,"LR_Tom Hit X.wav",40
Sample,50099,0,"normal-hitwhistle.wav",40
Sample,50099,0,"LR_Tom Hit Y.wav",40
Sample,50211,0,"normal-hitwhistle.wav",40
Sample,50211,0,"LR_Tom Hit Z.wav",40
Sample,50322,0,"normal-hitwhistle.wav",40
Sample,50322,0,"LR_Tom Hit X.wav",40
Sample,50433,0,"LR_Tom Hit X.wav",40
Sample,50544,0,"normal-hitwhistle.wav",40
Sample,50544,0,"LR_Tom Hit Y.wav",40
Sample,50655,0,"LR_Tom Hit Z.wav",40
Sample,50766,0,"normal-hitwhistle.wav",40
Sample,50766,0,"LR_Tom Hit X.wav",40
Sample,50877,0,"cymbal clap.wav",40
Sample,51099,0,"normal-hitwhistle.wav",40
Sample,51211,0,"normal-hitwhistle.wav",40
Sample,51322,0,"normal-hitfinish.wav",40
Sample,51544,0,"normal-hitwhistle.wav",40
Sample,51655,0,"normal-hitwhistle.wav",40
Sample,51877,0,"normal-hitwhistle.wav",40
Sample,51988,0,"normal-hitwhistle.wav",40
Sample,52099,0,"normal-hitwhistle.wav",40
Sample,52211,0,"normal-hitfinish.wav",40
Sample,52433,0,"normal-hitwhistle.wav",40
Sample,52544,0,"normal-hitwhistle.wav",40
Sample,52877,0,"normal-hitwhistle.wav",40
Sample,52988,0,"normal-hitwhistle.wav",40
Sample,53099,0,"normal-hitfinish.wav",40
Sample,53322,0,"normal-hitwhistle.wav",40
Sample,53433,0,"normal-hitwhistle.wav",40
Sample,53655,0,"normal-hitwhistle.wav",40
Sample,53766,0,"normal-hitwhistle.wav",40
Sample,53877,0,"normal-hitwhistle.wav",40
Sample,54211,0,"normal-hitwhistle.wav",40
Sample,54322,0,"normal-hitwhistle.wav",40
Sample,54655,0,"normal-hitwhistle.wav",40
Sample,54766,0,"normal-hitwhistle.wav",40
Sample,54877,0,"normal-hitfinish.wav",40
Sample,55099,0,"normal-hitwhistle.wav",40
Sample,55211,0,"normal-hitwhistle.wav",40
Sample,55433,0,"normal-hitwhistle.wav",40
Sample,55544,0,"normal-hitwhistle.wav",40
Sample,55655,0,"normal-hitwhistle.wav",40
Sample,55766,0,"normal-hitfinish.wav",40
Sample,55988,0,"normal-hitwhistle.wav",40
Sample,56099,0,"normal-hitwhistle.wav",40
Sample,56433,0,"normal-hitwhistle.wav",40
Sample,56544,0,"normal-hitwhistle.wav",40
Sample,56877,0,"normal-hitwhistle.wav",40
Sample,56988,0,"normal-hitwhistle.wav",40
Sample,57211,0,"normal-hitwhistle.wav",40
Sample,57322,0,"normal-hitwhistle.wav",40
Sample,57433,0,"normal-hitwhistle.wav",40
Sample,57655,0,"normal-hitwhistle.wav",40
Sample,57766,0,"normal-hitwhistle.wav",40
Sample,57766,0,"normal-hitfinish.wav",40
Sample,57877,0,"normal-hitwhistle.wav",40
Sample,57988,0,"cymbal clap.wav",40
Sample,58211,0,"normal-hitwhistle.wav",40
Sample,58433,0,"normal-hitfinish.wav",40
Sample,58544,0,"normal-hitwhistle.wav",40
Sample,58655,0,"normal-hitwhistle.wav",40
Sample,58766,0,"normal-hitwhistle.wav",40
Sample,59099,0,"normal-hitwhistle.wav",40
Sample,59322,0,"normal-hitfinish.wav",40
Sample,59544,0,"normal-hitwhistle.wav",40
Sample,59655,0,"normal-hitwhistle.wav",40
Sample,59988,0,"normal-hitwhistle.wav",40
Sample,60433,0,"normal-hitwhistle.wav",40
Sample,60544,0,"normal-hitwhistle.wav",40
Sample,60766,0,"normal-hitwhistle.wav",40
Sample,60877,0,"normal-hitwhistle.wav",40
Sample,60988,0,"normal-hitwhistle.wav",40
Sample,61322,0,"normal-hitwhistle.wav",40
Sample,61433,0,"normal-hitwhistle.wav",40
Sample,61655,0,"normal-hitwhistle.wav",40
Sample,61766,0,"normal-hitwhistle.wav",40
Sample,61877,0,"normal-hitwhistle.wav",40
Sample,61988,0,"normal-hitfinish.wav",40
Sample,62211,0,"normal-hitwhistle.wav",40
Sample,62322,0,"normal-hitwhistle.wav",40
Sample,62544,0,"normal-hitwhistle.wav",40
Sample,62655,0,"normal-hitwhistle.wav",40
Sample,62766,0,"normal-hitwhistle.wav",40
Sample,62877,0,"normal-hitfinish.wav",40
Sample,62988,0,"normal-hitwhistle.wav",40
Sample,63099,0,"normal-hitwhistle.wav",40
Sample,63099,0,"normal-hitfinish.wav",40
Sample,63211,0,"normal-hitwhistle.wav",40
Sample,63322,0,"cymbal light.wav",40
Sample,63544,0,"normal-hitwhistle.wav",40
Sample,63544,0,"normal-hitfinish.wav",40
Sample,63655,0,"cymbal light.wav",40
Sample,63877,0,"normal-hitwhistle.wav",40
Sample,63877,0,"normal-hitfinish.wav",40
Sample,63988,0,"cymbal light.wav",40
Sample,64211,0,"normal-hitwhistle.wav",40
Sample,64211,0,"normal-hitfinish.wav",40
Sample,64322,0,"normal-hitfinish.wav",40
Sample,64433,0,"normal-hitclap.wav",40
Sample,64544,0,"normal-hitclap.wav",40
Sample,64655,0,"cymbal light.wav",40
Sample,64655,0,"normal-hitfinish.wav",40
Sample,64766,0,"normal-hitwhistle.wav",40
Sample,64877,0,"cymbal light.wav",40
Sample,64877,0,"normal-hitfinish.wav",40
Sample,65099,0,"cymbal clap.wav",40
Sample,65322,0,"normal-hitwhistle.wav",40
Sample,65433,0,"normal-hitwhistle.wav",40
Sample,65544,0,"normal-hitfinish.wav",40
Sample,65766,0,"normal-hitwhistle.wav",40
Sample,65877,0,"normal-hitwhistle.wav",40
Sample,66099,0,"normal-hitwhistle.wav",40
Sample,66211,0,"normal-hitwhistle.wav",40
Sample,66322,0,"normal-hitwhistle.wav",40
Sample,66433,0,"normal-hitfinish.wav",40
Sample,66655,0,"normal-hitwhistle.wav",40
Sample,66766,0,"normal-hitwhistle.wav",40
Sample,67099,0,"normal-hitwhistle.wav",40
Sample,67211,0,"normal-hitwhistle.wav",40
Sample,67322,0,"normal-hitfinish.wav",40
Sample,67544,0,"normal-hitwhistle.wav",40
Sample,67655,0,"normal-hitwhistle.wav",40
Sample,67877,0,"normal-hitwhistle.wav",40
Sample,67988,0,"normal-hitwhistle.wav",40
Sample,68099,0,"normal-hitwhistle.wav",40
Sample,68433,0,"normal-hitwhistle.wav",40
Sample,68544,0,"normal-hitwhistle.wav",40
Sample,68877,0,"normal-hitwhistle.wav",40
Sample,68988,0,"normal-hitwhistle.wav",40
Sample,69099,0,"normal-hitfinish.wav",40
Sample,69322,0,"normal-hitwhistle.wav",40
Sample,69433,0,"normal-hitwhistle.wav",40
Sample,69655,0,"normal-hitwhistle.wav",40
Sample,69766,0,"normal-hitwhistle.wav",40
Sample,69877,0,"normal-hitwhistle.wav",40
Sample,69988,0,"normal-hitfinish.wav",40
Sample,70211,0,"normal-hitwhistle.wav",40
Sample,70322,0,"normal-hitwhistle.wav",40
Sample,70655,0,"normal-hitwhistle.wav",40
Sample,70766,0,"normal-hitwhistle.wav",40
Sample,71099,0,"normal-hitwhistle.wav",40
Sample,71211,0,"normal-hitwhistle.wav",40
Sample,71433,0,"normal-hitwhistle.wav",40
Sample,71544,0,"normal-hitwhistle.wav",40
Sample,71655,0,"normal-hitwhistle.wav",40
Sample,71877,0,"normal-hitwhistle.wav",40
Sample,71988,0,"normal-hitwhistle.wav",40
Sample,71988,0,"normal-hitfinish.wav",40
Sample,72099,0,"normal-hitwhistle.wav",40
Sample,72211,0,"cymbal light.wav",40
Sample,72433,0,"normal-hitwhistle.wav",40
Sample,72655,0,"normal-hitfinish.wav",40
Sample,72766,0,"normal-hitwhistle.wav",40
Sample,72877,0,"normal-hitwhistle.wav",40
Sample,72988,0,"normal-hitwhistle.wav",40
Sample,73099,0,"cymbal light.wav",40
Sample,73322,0,"normal-hitwhistle.wav",40
Sample,73544,0,"normal-hitfinish.wav",40
Sample,73766,0,"normal-hitwhistle.wav",40
Sample,73877,0,"normal-hitwhistle.wav",40
Sample,73988,0,"cymbal light.wav",40
Sample,74211,0,"normal-hitwhistle.wav",40
Sample,74433,0,"normal-hitfinish.wav",40
Sample,74655,0,"normal-hitwhistle.wav",40
Sample,74766,0,"normal-hitwhistle.wav",40
Sample,74988,0,"normal-hitwhistle.wav",40
Sample,75099,0,"normal-hitclap.wav",40
Sample,75211,0,"normal-hitclap.wav",40
Sample,75322,0,"normal-hitfinish.wav",40
Sample,75433,0,"normal-hitwhistle.wav",40
Sample,75544,0,"normal-hitwhistle.wav",40
Sample,75655,0,"normal-hitwhistle.wav",40
Sample,75766,0,"normal-hitfinish.wav",40
Sample,75766,0,"cymbal light.wav",40
Sample,75988,0,"normal-hitfinish.wav",40
Sample,76211,0,"normal-hitfinish.wav",40
Sample,76211,0,"LR_Tom Hit X.wav",40
Sample,76322,0,"normal-hitfinish.wav",40
Sample,76322,0,"LR_Tom Hit Y.wav",40
Sample,76322,0,"normal-hitwhistle.wav",40
Sample,76433,0,"normal-hitwhistle.wav",40
Sample,76433,0,"normal-hitfinish.wav",40
Sample,76433,0,"LR_Tom Hit Z.wav",40
Sample,76544,0,"cymbal light.wav",40
Sample,76766,0,"normal-hitclap.wav",40
Sample,76877,0,"normal-hitfinish.wav",40
Sample,76988,0,"normal-hitwhistle.wav",40
Sample,77099,0,"normal-hitfinish.wav",40
Sample,77211,0,"normal-hitwhistle.wav",40
Sample,77322,0,"normal-hitfinish.wav",40
Sample,77433,0,"normal-hitwhistle.wav",40
Sample,77544,0,"normal-hitfinish.wav",40
Sample,77544,0,"cymbal light.wav",40
Sample,77766,0,"normal-hitfinish.wav",40
Sample,77988,0,"normal-hitfinish.wav",40
Sample,77988,0,"LR_Tom Hit X.wav",40
Sample,78099,0,"normal-hitwhistle.wav",40
Sample,78099,0,"normal-hitfinish.wav",40
Sample,78099,0,"LR_Tom Hit Y.wav",40
Sample,78211,0,"normal-hitfinish.wav",40
Sample,78211,0,"LR_Tom Hit Z.wav",40
Sample,78211,0,"normal-hitwhistle.wav",40
Sample,78322,0,"cymbal light.wav",40
Sample,78544,0,"normal-hitclap.wav",40
Sample,78655,0,"normal-hitfinish.wav",40
Sample,78766,0,"normal-hitwhistle.wav",40
Sample,78877,0,"normal-hitfinish.wav",40
Sample,78988,0,"normal-hitwhistle.wav",40
Sample,79099,0,"normal-hitfinish.wav",40
Sample,79211,0,"normal-hitwhistle.wav",40
Sample,79322,0,"cymbal light.wav",40
Sample,79322,0,"normal-hitfinish.wav",40
Sample,79544,0,"normal-hitfinish.wav",40
Sample,79766,0,"LR_Tom Hit X.wav",40
Sample,79766,0,"normal-hitfinish.wav",40
Sample,79877,0,"LR_Tom Hit Y.wav",40
Sample,79877,0,"normal-hitfinish.wav",40
Sample,79877,0,"normal-hitwhistle.wav",40
Sample,79988,0,"normal-hitwhistle.wav",40
Sample,79988,0,"LR_Tom Hit Z.wav",40
Sample,79988,0,"normal-hitfinish.wav",40
Sample,80099,0,"normal-hitfinish.wav",40
Sample,80322,0,"normal-hitclap.wav",40
Sample,80433,0,"normal-hitclap.wav",40
Sample,80544,0,"normal-hitwhistle.wav",40
Sample,80655,0,"normal-hitfinish.wav",40
Sample,80655,0,"cymbal light.wav",40
Sample,80766,0,"normal-hitwhistle.wav",40
Sample,80877,0,"normal-hitfinish.wav",40
Sample,80877,0,"cymbal light.wav",40
Sample,80988,0,"normal-hitwhistle.wav",40
Sample,81099,0,"cymbal light.wav",40
Sample,81544,0,"normal-hitclap.wav",40
Sample,81988,0,"cymbal light.wav",40
Sample,82433,0,"normal-hitclap.wav",40
Sample,82877,0,"cymbal light.wav",40
Sample,83322,0,"normal-hitclap.wav",40
Sample,83766,0,"normal-hitfinish.wav",40
Sample,84211,0,"normal-hitclap.wav",40
Sample,84211,0,"cymbal light.wav",40
Sample,84211,0,"normal-hitfinish.wav",40
Sample,84322,0,"normal-hitwhistle.wav",40
Sample,84433,0,"normal-hitfinish.wav",40
Sample,84544,0,"normal-hitwhistle.wav",40
Sample,84655,0,"cymbal light.wav",40
Sample,84877,0,"normal-hitfinish.wav",40
Sample,84877,0,"LR_Clap Normal.wav",40
Sample,84877,0,"normal-hitwhistle.wav",40
Sample,85322,0,"normal-hitwhistle.wav",40
Sample,85322,0,"LR_Clap Normal.wav",40
Sample,85322,0,"normal-hitfinish.wav",40
Sample,85433,0,"normal-hitwhistle.wav",40
Sample,85766,0,"normal-hitwhistle.wav",40
Sample,85766,0,"normal-hitfinish.wav",40
Sample,85766,0,"LR_Clap Normal.wav",40
Sample,86211,0,"normal-hitfinish.wav",40
Sample,86211,0,"LR_Clap Normal.wav",40
Sample,86211,0,"normal-hitwhistle.wav",40
Sample,86655,0,"normal-hitwhistle.wav",40
Sample,86655,0,"normal-hitfinish.wav",40
Sample,86655,0,"LR_Clap Normal.wav",40
Sample,87099,0,"normal-hitfinish.wav",40
Sample,87099,0,"LR_Clap Normal.wav",40
Sample,87099,0,"normal-hitwhistle.wav",40
Sample,87211,0,"normal-hitwhistle.wav",40
Sample,87322,0,"normal-hitfinish.wav",40
Sample,87433,0,"normal-hitwhistle.wav",40
Sample,87433,0,"normal-hitfinish.wav",40
Sample,87544,0,"normal-hitfinish.wav",40
Sample,87655,0,"normal-hitwhistle.wav",40
Sample,87655,0,"normal-hitfinish.wav",40
Sample,87766,0,"normal-hitfinish.wav",40
Sample,87877,0,"normal-hitwhistle.wav",40
Sample,87877,0,"normal-hitfinish.wav",40
Sample,87988,0,"normal-hitfinish.wav",40
Sample,88099,0,"normal-hitwhistle.wav",40
Sample,88099,0,"normal-hitfinish.wav",40
Sample,88655,0,"cymbal light.wav",40

[TimingPoints]
1100,444.44446,4,1,1,30,1,0
50877,-100,4,1,1,30,0,1
64877,-100,4,1,1,30,0,0
65099,-100,4,1,1,30,0,1
81099,-100,4,1,1,30,0,0

[HitObjects]
36,192,655,128,0,1100:0:0:0:0:
329,192,1100,5,0,0:0:0:40:normal-hitwhistle.wav
475,192,1100,128,0,1322:0:0:0:0:
182,192,1322,1,0,0:0:0:40:normal-hitnormal.wav
109,192,1544,128,0,1988:0:0:0:40:normal-hitwhistle.wav
329,192,1988,1,0,0:0:0:40:normal-hitwhistle.wav
402,192,2211,1,0,0:0:0:40:normal-hitnormal.wav
475,192,2433,1,0,0:0:0:40:normal-hitwhistle.wav
182,192,2655,1,0,0:0:0:40:normal-hitnormal.wav
36,192,2766,1,0,0:0:0:0:
329,192,3100,128,0,3322:0:0:0:40:normal-hitnormal.wav
182,192,3322,1,0,0:0:0:40:normal-hitwhistle.wav
402,192,3544,1,0,0:0:0:40:normal-hitnormal.wav
109,192,3766,1,0,0:0:0:40:normal-hitwhistle.wav
256,192,3988,1,0,0:0:0:40:normal-hitnormal.wav
475,192,4211,128,0,4655:0:0:0:40:normal-hitwhistle.wav
329,192,4655,128,0,4877:0:0:0:40:normal-hitwhistle.wav
36,192,4877,1,0,0:0:0:40:normal-hitnormal.wav
182,192,5100,128,0,5544:0:0:0:40:normal-hitwhistle.wav
329,192,5544,1,0,0:0:0:40:normal-hitwhistle.wav
182,192,5766,1,0,0:0:0:40:normal-hitnormal.wav
109,192,5988,1,0,0:0:0:40:normal-hitwhistle.wav
329,192,6211,1,0,0:0:0:40:normal-hitnormal.wav
475,192,6322,1,0,0:0:0:0:
256,192,6655,128,0,6877:0:0:0:40:normal-hitnormal.wav
36,192,6877,1,0,0:0:0:40:normal-hitwhistle.wav
402,192,7100,1,0,0:0:0:40:normal-hitnormal.wav
109,192,7322,128,0,7766:0:0:0:40:normal-hitwhistle.wav
329,192,7766,1,0,0:0:0:40:normal-hitwhistle.wav
402,192,7988,1,0,0:0:0:40:normal-hitnormal.wav
475,192,8211,128,0,8433:0:0:0:40:normal-hitwhistle.wav
182,192,8433,1,0,0:0:0:40:normal-hitnormal.wav
329,192,8655,128,0,9100:0:0:0:40:normal-hitwhistle.wav
109,192,9100,1,0,0:0:0:40:normal-hitwhistle.wav
329,192,9322,1,0,0:0:0:40:normal-hitnormal.wav
475,192,9544,1,0,0:0:0:40:normal-hitwhistle.wav
182,192,9766,1,0,0:0:0:40:normal-hitnormal.wav
36,192,9877,1,0,0:0:0:0:
402,192,10211,128,0,10433:0:0:0:40:normal-hitnormal.wav
256,192,10433,1,0,0:0:0:40:normal-hitwhistle.wav
109,192,10655,1,0,0:0:0:40:normal-hitnormal.wav
329,192,10877,128,0,11322:0:0:0:40:normal-hitwhistle.wav
36,192,11322,128,0,11766:0:0:0:40:normal-hitwhistle.wav
182,192,11766,128,0,11988:0:0:0:40:normal-hitwhistle.wav
329,192,11988,1,0,0:0:0:40:normal-hitnormal.wav
475,192,12211,128,0,12655:0:0:0:40:normal-hitwhistle.wav
329,192,12655,1,0,0:0:0:40:normal-hitwhistle.wav
182,192,12877,1,0,0:0:0:40:normal-hitnormal.wav
109,192,13100,128,0,13544:0:0:0:40:normal-hitwhistle.wav
402,192,13322,128,0,13544:0:0:0:40:normal-hitnormal.wav
329,192,13544,1,0,0:0:0:40:normal-hitwhistle.wav
329,192,13877,1,0,0:0:0:40:normal-hitwhistle.wav
329,192,14211,1,0,0:0:0:40:normal-hitwhistle.wav
329,192,14544,1,0,0:0:0:40:normal-hitwhistle.wav
402,192,14877,1,0,0:0:0:40:normal-hitwhistle.wav
109,192,15100,1,0,0:0:0:40:normal-hitwhistle.wav
182,192,15322,1,0,0:0:0:40:normal-hitwhistle.wav
182,192,15655,1,0,0:0:0:40:normal-hitwhistle.wav
182,192,15988,1,0,0:0:0:40:normal-hitwhistle.wav
182,192,16322,1,0,0:0:0:40:normal-hitwhistle.wav
36,192,16655,1,0,0:0:0:40:normal-hitwhistle.wav
182,192,16877,1,0,0:0:0:40:normal-hitwhistle.wav
329,192,17100,1,0,0:0:0:40:normal-hitwhistle.wav
475,192,17100,1,0,0:0:0:40:cymbal clap.wav
182,192,17322,1,0,0:0:0:40:normal-hitfinish.wav
36,192,17322,1,0,0:0:0:40:LR_Clap Normal.wav
182,192,17766,1,0,0:0:0:40:normal-hitfinish.wav
36,192,17766,1,0,0:0:0:40:LR_Clap Normal.wav
182,192,18211,1,0,0:0:0:40:normal-hitfinish.wav
36,192,18211,1,0,0:0:0:40:LR_Clap Normal.wav
36,192,18655,1,0,0:0:0:40:normal-hitfinish.wav
182,192,18655,1,0,0:0:0:40:LR_Clap Normal.wav
329,192,19100,1,0,0:0:0:40:normal-hitfinish.wav
475,192,19100,1,0,0:0:0:40:LR_Clap Normal.wav
329,192,19544,1,0,0:0:0:40:normal-hitfinish.wav
475,192,19544,1,0,0:0:0:40:LR_Clap Normal.wav
329,192,19988,1,0,0:0:0:40:normal-hitfinish.wav
475,192,19988,1,0,0:0:0:40:LR_Clap Normal.wav
329,192,20433,1,0,0:0:0:40:LR_Clap Normal.wav
475,192,20433,1,0,0:0:0:40:normal-hitfinish.wav
36,192,20655,1,0,0:0:0:40:normal-hitwhistle.wav
182,192,20877,1,0,0:0:0:40:normal-hitfinish.wav
402,192,21100,1,0,0:0:0:40:normal-hitwhistle.wav
256,192,21322,1,0,0:0:0:40:normal-hitfinish.wav
109,192,21544,1,0,0:0:0:0:
329,192,21766,1,0,0:0:0:40:normal-hitfinish.wav
402,192,21988,1,0,0:0:0:40:normal-hitwhistle.wav
182,192,22211,1,0,0:0:0:40:normal-hitwhistle.wav
36,192,22433,128,0,22877:0:0:0:40:normal-hitwhistle.wav
329,192,22877,1,0,0:0:0:40:normal-hitwhistle.wav
475,192,23211,128,0,23544:0:0:0:40:cymbal clap.wav
109,192,23544,1,0,0:0:0:40:normal-hitwhistle.wav
329,192,23766,128,0,23988:0:0:0:40:normal-hitwhistle.wav
182,192,23988,128,0,24211:0:0:0:40:normal-hitwhistle.wav
475,192,24211,1,0,0:0:0:40:normal-hitwhistle.wav
402,192,24211,1,0,0:0:0:40:normal-hitfinish.wav
109,192,24433,1,0,0:0:0:40:normal-hitfinish.wav
36,192,24433,1,0,0:0:0:40:LR_Clap Normal.wav
109,192,24877,1,0,0:0:0:40:normal-hitfinish.wav
36,192,24877,1,0,0:0:0:40:LR_Clap Normal.wav
109,192,25322,1,0,0:0:0:40:normal-hitfinish.wav
36,192,25322,1,0,0:0:0:40:LR_Clap Normal.wav
109,192,25766,1,0,0:0:0:40:normal-hitfinish.wav
36,192,25766,1,0,0:0:0:40:LR_Clap Normal.wav
402,192,26211,1,0,0:0:0:40:normal-hitfinish.wav
475,192,26211,1,0,0:0:0:40:LR_Clap Normal.wav
475,192,26655,1,0,0:0:0:40:normal-hitfinish.wav
402,192,26655,1,0,0:0:0:40:LR_Clap Normal.wav
475,192,27100,1,0,0:0:0:40:normal-hitfinish.wav
402,192,27100,1,0,0:0:0:40:LR_Clap Normal.wav
475,192,27544,1,0,0:0:0:40:normal-hitfinish.wav
402,192,27544,1,0,0:0:0:40:LR_Clap Normal.wav
182,192,27988,1,0,0:0:0:40:normal-hitfinish.wav
329,192,27988,1,0,0:0:0:40:LR_Clap Normal.wav
182,192,28433,1,0,0:0:0:40:normal-hitfinish.wav
329,192,28433,1,0,0:0:0:40:LR_Clap Normal.wav
182,192,28877,1,0,0:0:0:40:normal-hitfinish.wav
329,192,28877,1,0,0:0:0:40:LR_Clap Normal.wav
182,192,29322,1,0,0:0:0:40:normal-hitfinish.wav
329,192,29322,1,0,0:0:0:40:LR_Clap Normal.wav
109,192,29544,1,0,0:0:0:40:normal-hitwhistle.wav
402,192,29544,128,0,30322:0:0:0:40:cymbal clap.wav
182,192,30322,1,0,0:0:0:40:normal-hitwhistle.wav
36,192,30322,128,0,30877:0:0:0:40:cymbal clap.wav
402,192,30877,128,0,31322:0:0:0:40:normal-hitwhistle.wav
36,192,31322,1,0,0:0:0:40:normal-hitwhistle.wav
182,192,31322,128,0,31655:0:0:0:40:cymbal clap.wav
329,192,31655,1,0,0:0:0:40:normal-hitwhistle.wav
475,192,31877,1,0,0:0:0:40:normal-hitwhistle.wav
256,192,32100,1,0,0:0:0:40:normal-hitwhistle.wav
402,192,32433,1,0,0:0:0:40:normal-hitwhistle.wav
182,192,32655,1,0,0:0:0:40:normal-hitwhistle.wav
36,192,32877,1,0,0:0:0:40:normal-hitwhistle.wav
329,192,33100,1,0,0:0:0:40:normal-hitwhistle.wav
402,192,33433,1,0,0:0:0:0:
475,192,33766,1,0,0:0:0:40:normal-hitwhistle.wav
256,192,34877,1,0,0:0:0:40:normal-hitwhistle.wav
329,192,35211,1,0,0:0:0:40:normal-hitwhistle.wav
402,192,35544,1,0,0:0:0:40:normal-hitwhistle.wav
182,192,36655,1,0,0:0:0:40:normal-hitwhistle.wav
256,192,36988,1,0,0:0:0:40:normal-hitwhistle.wav
329,192,37322,1,0,0:0:0:40:normal-hitwhistle.wav
109,192,38433,1,0,0:0:0:40:normal-hitwhistle.wav
182,192,38766,1,0,0:0:0:40:normal-hitwhistle.wav
256,192,39100,1,0,0:0:0:40:normal-hitwhistle.wav
36,192,40211,1,0,0:0:0:40:normal-hitwhistle.wav
109,192,40544,1,0,0:0:0:40:normal-hitwhistle.wav
182,192,40877,128,0,41544:0:0:0:40:normal-hitwhistle.wav
329,192,41544,1,0,0:0:0:40:normal-hitwhistle.wav
475,192,41988,1,0,0:0:0:40:normal-hitwhistle.wav
402,192,42322,1,0,0:0:0:40:normal-hitwhistle.wav
329,192,42655,128,0,43322:0:0:0:40:normal-hitfinish.wav
182,192,43322,1,0,0:0:0:40:normal-hitclap.wav
256,192,43544,1,0,0:0:0:40:normal-hitwhistle.wav
402,192,43766,1,0,0:0:0:40:normal-hitfinish.wav
402,192,44211,1,0,0:0:0:40:normal-hitfinish.wav
109,192,44655,1,0,0:0:0:40:normal-hitfinish.wav
109,192,45100,1,0,0:0:0:40:normal-hitfinish.wav
256,192,45322,1,0,0:0:0:40:normal-hitwhistle.wav
402,192,45544,1,0,0:0:0:40:normal-hitwhistle.wav
329,192,45877,1,0,0:0:0:40:normal-hitwhistle.wav
402,192,46211,1,0,0:0:0:40:normal-hitfinish.wav
329,192,46544,1,0,0:0:0:40:normal-hitwhistle.wav
402,192,46877,1,0,0:0:0:40:normal-hitclap.wav
182,192,47100,1,0,0:0:0:40:normal-hitwhistle.wav
109,192,47322,1,0,0:0:0:40:normal-hitwhistle.wav
182,192,47655,1,0,0:0:0:40:normal-hitfinish.wav
109,192,47988,1,0,0:0:0:40:normal-hitwhistle.wav
182,192,48322,1,0,0:0:0:40:normal-hitfinish.wav
109,192,48655,1,0,0:0:0:40:normal-hitclap.wav
402,192,48877,1,0,0:0:0:40:normal-hitwhistle.wav
36,192,49100,128,0,49766:0:0:0:40:normal-hitwhistle.wav
182,192,49433,128,0,49766:0:0:0:40:normal-hitfinish.wav
475,192,49766,128,0,50877:0:0:0:40:normal-hitfinish.wav
329,192,49766,1,0,0:0:0:40:normal-hitwhistle.wav
182,192,50433,1,0,0:0:0:40:normal-hitwhistle.wav
109,192,50655,1,0,0:0:0:40:normal-hitwhistle.wav
256,192,50877,1,0,0:0:0:40:normal-hitwhistle.wav
36,192,50877,128,0,52655:0:0:0:40:normal-hitfinish.wav
329,192,51322,1,0,0:0:0:40:normal-hitwhistle.wav
402,192,51766,1,0,0:0:0:40:normal-hitwhistle.wav
329,192,52211,1,0,0:0:0:40:normal-hitwhistle.wav
475,192,52655,128,0,53544:0:0:0:40:normal-hitwhistle.wav
182,192,52655,1,0,0:0:0:0:
109,192,53100,1,0,0:0:0:40:normal-hitwhistle.wav
402,192,53544,128,0,53988:0:0:0:40:normal-hitwhistle.wav
256,192,53544,1,0,0:0:0:0:
329,192,53988,128,0,54433:0:0:0:40:normal-hitwhistle.wav
36,192,53988,1,0,0:0:0:40:normal-hitfinish.wav
182,192,54433,128,0,56211:0:0:0:40:normal-hitwhistle.wav
475,192,54433,1,0,0:0:0:0:
402,192,54877,1,0,0:0:0:40:normal-hitwhistle.wav
329,192,55322,1,0,0:0:0:40:normal-hitwhistle.wav
402,192,55766,1,0,0:0:0:40:normal-hitwhistle.wav
36,192,56211,128,0,56655:0:0:0:40:normal-hitwhistle.wav
256,192,56211,1,0,0:0:0:0:
109,192,56655,128,0,57100:0:0:0:40:normal-hitwhistle.wav
329,192,56655,1,0,0:0:0:40:normal-hitfinish.wav
182,192,57100,128,0,57544:0:0:0:40:normal-hitwhistle.wav
402,192,57100,1,0,0:0:0:0:
256,192,57544,128,0,57988:0:0:0:40:normal-hitwhistle.wav
475,192,57544,1,0,0:0:0:40:normal-hitfinish.wav
475,192,57988,128,0,58877:0:0:0:40:normal-hitwhistle.wav
36,192,57988,1,0,0:0:0:40:normal-hitfinish.wav
182,192,58433,1,0,0:0:0:40:normal-hitwhistle.wav
109,192,58877,128,0,59766:0:0:0:40:normal-hitwhistle.wav
402,192,58877,1,0,0:0:0:0:
256,192,59322,1,0,0:0:0:40:normal-hitwhistle.wav
329,192,59766,128,0,60211:0:0:0:40:normal-hitwhistle.wav
475,192,59766,1,0,0:0:0:0:
256,192,60211,128,0,60655:0:0:0:40:normal-hitwhistle.wav
36,192,60211,1,0,0:0:0:40:normal-hitfinish.wav
182,192,60655,128,0,61100:0:0:0:40:normal-hitwhistle.wav
475,192,60655,1,0,0:0:0:0:
109,192,61100,128,0,61544:0:0:0:40:normal-hitwhistle.wav
402,192,61100,1,0,0:0:0:40:normal-hitfinish.wav
329,192,61544,128,0,62433:0:0:0:40:normal-hitwhistle.wav
36,192,61544,1,0,0:0:0:0:
182,192,61988,1,0,0:0:0:40:normal-hitwhistle.wav
402,192,62433,128,0,63322:0:0:0:40:normal-hitwhistle.wav
109,192,62433,1,0,0:0:0:40:normal-hitfinish.wav
256,192,62877,1,0,0:0:0:40:normal-hitwhistle.wav
475,192,63322,1,0,0:0:0:40:normal-hitwhistle.wav
36,192,63322,1,0,0:0:0:40:normal-hitfinish.wav
109,192,63655,1,0,0:0:0:40:normal-hitwhistle.wav
402,192,63655,1,0,0:0:0:40:normal-hitfinish.wav
329,192,63988,1,0,0:0:0:40:normal-hitwhistle.wav
182,192,63988,1,0,0:0:0:40:normal-hitfinish.wav
402,192,64322,1,0,0:0:0:40:normal-hitwhistle.wav
109,192,64322,1,0,0:0:0:40:cymbal light.wav
182,192,64655,1,0,0:0:0:40:normal-hitwhistle.wav
256,192,64877,1,0,0:0:0:40:normal-hitwhistle.wav
329,192,65100,1,0,0:0:0:40:normal-hitwhistle.wav
475,192,65100,128,0,66877:0:0:0:40:normal-hitfinish.wav
256,192,65544,1,0,0:0:0:40:normal-hitwhistle.wav
182,192,65988,1,0,0:0:0:40:normal-hitwhistle.wav
109,192,66433,1,0,0:0:0:40:normal-hitwhistle.wav
36,192,66877,128,0,67766:0:0:0:40:normal-hitwhistle.wav
329,192,66877,1,0,0:0:0:0:
402,192,67322,1,0,0:0:0:40:normal-hitwhistle.wav
475,192,67766,128,0,68211:0:0:0:40:normal-hitwhistle.wav
256,192,67766,1,0,0:0:0:0:
402,192,68211,128,0,68655:0:0:0:40:normal-hitwhistle.wav
182,192,68211,1,0,0:0:0:40:normal-hitfinish.wav
329,192,68655,128,0,70433:0:0:0:40:normal-hitwhistle.wav
109,192,68655,1,0,0:0:0:0:
36,192,69100,1,0,0:0:0:40:normal-hitwhistle.wav
182,192,69544,1,0,0:0:0:40:normal-hitwhistle.wav
109,192,69988,1,0,0:0:0:40:normal-hitwhistle.wav
182,192,70433,128,0,70877:0:0:0:40:normal-hitwhistle.wav
475,192,70433,1,0,0:0:0:0:
256,192,70877,128,0,71322:0:0:0:40:normal-hitwhistle.wav
36,192,70877,1,0,0:0:0:40:normal-hitfinish.wav
329,192,71322,128,0,71766:0:0:0:40:normal-hitwhistle.wav
109,192,71322,1,0,0:0:0:0:
402,192,71766,128,0,72211:0:0:0:40:normal-hitwhistle.wav
182,192,71766,1,0,0:0:0:40:normal-hitfinish.wav
475,192,72211,128,0,73100:0:0:0:40:normal-hitwhistle.wav
36,192,72211,1,0,0:0:0:40:normal-hitfinish.wav
256,192,72655,1,0,0:0:0:40:normal-hitwhistle.wav
109,192,73100,128,0,73988:0:0:0:40:normal-hitwhistle.wav
402,192,73100,1,0,0:0:0:40:normal-hitfinish.wav
256,192,73544,1,0,0:0:0:40:normal-hitwhistle.wav
329,192,73988,128,0,74877:0:0:0:40:normal-hitwhistle.wav
182,192,73988,1,0,0:0:0:40:normal-hitfinish.wav
256,192,74433,1,0,0:0:0:40:normal-hitwhistle.wav
36,192,74877,128,0,75766:0:0:0:40:normal-hitwhistle.wav
475,192,74877,1,0,0:0:0:40:cymbal light.wav
256,192,75322,1,0,0:0:0:40:normal-hitwhistle.wav
329,192,75766,1,0,0:0:0:40:normal-hitwhistle.wav
182,192,75988,1,0,0:0:0:40:normal-hitwhistle.wav
329,192,76211,128,0,76544:0:0:0:40:normal-hitwhistle.wav
475,192,76544,1,0,0:0:0:40:normal-hitwhistle.wav
36,192,76544,1,0,0:0:0:40:normal-hitfinish.wav
329,192,76877,1,0,0:0:0:40:normal-hitclap.wav
256,192,77100,1,0,0:0:0:40:normal-hitwhistle.wav
182,192,77322,1,0,0:0:0:40:normal-hitwhistle.wav
36,192,77544,1,0,0:0:0:40:normal-hitwhistle.wav
256,192,77766,1,0,0:0:0:40:normal-hitwhistle.wav
36,192,77988,128,0,78322:0:0:0:40:normal-hitwhistle.wav
182,192,78322,1,0,0:0:0:40:normal-hitwhistle.wav
329,192,78322,1,0,0:0:0:40:normal-hitfinish.wav
256,192,78655,1,0,0:0:0:40:normal-hitclap.wav
329,192,78877,1,0,0:0:0:40:normal-hitwhistle.wav
402,192,79100,1,0,0:0:0:40:normal-hitwhistle.wav
475,192,79322,1,0,0:0:0:40:normal-hitwhistle.wav
256,192,79544,1,0,0:0:0:40:normal-hitwhistle.wav
475,192,79766,128,0,80100:0:0:0:40:normal-hitwhistle.wav
329,192,80100,1,0,0:0:0:40:normal-hitwhistle.wav
182,192,80100,1,0,0:0:0:40:cymbal light.wav
36,192,80433,1,0,0:0:0:40:normal-hitfinish.wav
475,192,80655,128,0,80877:0:0:0:40:normal-hitwhistle.wav
329,192,80877,128,0,81100:0:0:0:40:normal-hitwhistle.wav
182,192,81100,1,0,0:0:0:40:normal-hitwhistle.wav
109,192,81100,1,0,0:0:0:40:normal-hitfinish.wav
182,192,81544,1,0,0:0:0:40:normal-hitfinish.wav
109,192,81544,1,0,0:0:0:40:cymbal light.wav
329,192,81988,1,0,0:0:0:40:normal-hitwhistle.wav
402,192,81988,1,0,0:0:0:40:normal-hitfinish.wav
329,192,82433,1,0,0:0:0:40:cymbal light.wav
402,192,82433,1,0,0:0:0:40:normal-hitfinish.wav
36,192,82877,1,0,0:0:0:40:normal-hitwhistle.wav
182,192,82877,1,0,0:0:0:40:normal-hitfinish.wav
36,192,83322,1,0,0:0:0:40:normal-hitfinish.wav
182,192,83322,1,0,0:0:0:40:cymbal light.wav
329,192,83766,1,0,0:0:0:40:normal-hitwhistle.wav
475,192,83766,1,0,0:0:0:40:cymbal light.wav
36,192,84211,1,0,0:0:0:40:normal-hitwhistle.wav
182,192,84433,1,0,0:0:0:40:normal-hitwhistle.wav
329,192,84655,1,0,0:0:0:40:normal-hitwhistle.wav
475,192,84655,1,0,0:0:0:40:normal-hitfinish.wav
329,192,85100,1,0,0:0:0:40:normal-hitwhistle.wav
475,192,85100,1,0,0:0:0:0:
182,192,85544,1,0,0:0:0:0:
36,192,85544,1,0,0:0:0:0:
36,192,85988,1,0,0:0:0:40:normal-hitwhistle.wav
182,192,85988,1,0,0:0:0:0:
329,192,86433,1,0,0:0:0:40:normal-hitwhistle.wav
402,192,86433,1,0,0:0:0:0:
329,192,86877,1,0,0:0:0:40:normal-hitwhistle.wav
402,192,86877,1,0,0:0:0:0:
36,192,87322,128,0,87544:0:0:0:40:normal-hitwhistle.wav
182,192,87544,128,0,87766:0:0:0:40:normal-hitwhistle.wav
329,192,87766,128,0,87988:0:0:0:40:normal-hitwhistle.wav
475,192,87988,128,0,88211:0:0:0:40:normal-hitwhistle.wav
109,192,88655,128,0,89211:0:0:0:40:normal-hitwhistle.wav
402,192,88655,128,0,89211:0:0:0:40:normal-hitfinish.wav
