osu file format v14

[General]
AudioFilename: audio.mp3
AudioLeadIn: 0
PreviewTime: 224793
Countdown: 0
SampleSet: Soft
StackLeniency: 0.7
Mode: 0
LetterboxInBreaks: 0
WidescreenStoryboard: 0

[Editor]
DistanceSpacing: 1.4
BeatDivisor: 4
GridSize: 32
TimelineZoom: 2.3

[Metadata]
Title:RHAPSODY OF BLUE SKY
TitleUnicode:青空のラプソディ
Artist:fhana
ArtistUnicode:fhána
Creator:Sotarks
Version:pkk's Extra
Source:小林さんちのメイドラゴン
Tags:Kobayashi-san Chi no Maid Dragon Op Opening full ver version lantis anime aozora no junichi sato yuxuki waga kevin mitsunaga towana nozhomi xinely kalibe haruto haruto_aizawa pkk akitoshi corinn pentori
BeatmapID:1218637
BeatmapSetID:556757

[Difficulty]
HPDrainRate:5
CircleSize:4
OverallDifficulty:8.5
ApproachRate:9.3
SliderMultiplier:1.9
SliderTickRate:1

[Events]
//Background and Video events
0,0,"BG.jpg",0,0
//Break Periods
//Storyboard Layer 0 (Background)
//Storyboard Layer 1 (Fail)
//Storyboard Layer 2 (Pass)
//Storyboard Layer 3 (Foreground)
//Storyboard Sound Samples

[TimingPoints]
4405,444.444444444444,4,2,4,52,1,0
4405,-76.9230769230769,4,2,4,52,0,0
20404,-58.8235294117647,4,2,4,55,0,0
36403,-66.6666666666667,4,2,4,55,0,0
50626,-58.8235294117647,4,2,4,55,0,0
54182,-66.6666666666667,4,2,4,55,0,1
66626,-58.8235294117647,4,2,4,55,0,1
68182,-58.8235294117647,4,2,4,55,0,0
68405,-66.6666666666667,4,2,4,55,0,1
84405,-58.8235294117647,4,2,4,55,0,0
95070,-58.8235294117647,4,2,4,55,0,0
111070,-66.6666666666667,4,2,4,55,0,0
125292,-58.8235294117647,4,2,4,55,0,0
128849,-66.6666666666667,4,2,4,55,0,1
141292,-58.8235294117647,4,2,4,55,0,1
142849,-58.8235294117647,4,2,4,55,0,0
143071,-66.6666666666667,4,2,4,55,0,1
159071,-66.6666666666667,4,2,4,55,0,0
191071,-66.6666666666667,4,2,4,55,0,0
203515,-66.6666666666667,4,2,4,55,0,0
205292,-58.8235294117647,4,2,4,55,0,0
207070,-50,4,2,4,65,0,0
220849,-50,4,2,4,75,0,0
226626,-333.333333333333,4,2,4,55,0,0
227514,-66.6666666666667,4,2,4,55,0,0
228405,-66.6666666666667,4,2,4,55,0,1
237292,-58.8235294117647,4,2,4,55,0,1
238849,-58.8235294117647,4,2,4,55,0,0
239071,-66.6666666666667,4,2,4,55,0,1
255071,-58.8235294117647,4,2,4,55,0,0
272516,-58.8235294117647,4,2,4,45,0,0
272960,-58.8235294117647,4,2,4,35,0,0
273404,-58.8235294117647,4,2,4,25,0,0
274182,-58.8235294117647,4,2,4,5,0,0

[Colours]
Combo1 : 172,210,205
Combo2 : 255,62,226
Combo3 : 242,255,85
Combo4 : 20,0,204
SliderTrackOverride : 0,0,10
SliderBorder : 255,255,250

[HitObjects]
217,150,4405,6,0,P|211:211|209:273,1,123.499994346619,4|0,0:0|0:0,0:0:0:0:
312,80,4849,1,2,3:2:0:0:
312,80,4960,2,0,P|316:143|323:223,1,123.499994346619
401,272,5293,2,0,P|406:241|413:211,1,61.7499971733095,2|0,3:2|0:0,0:0:0:0:
322,354,5516,2,0,P|316:323|308:293,1,61.7499971733095,0|0,0:0|0:0,0:0:0:0:
216,290,5738,2,0,P|217:259|218:228,1,61.7499971733095,2|0,3:2|0:0,0:0:0:0:
123,342,5960,1,0,0:0:0:0:
123,342,6071,6,0,P|108:254|106:192,1,123.499994346619,0|0,0:0|0:0,0:0:0:0:
214,94,6404,2,0,P|208:155|197:216,1,123.499994346619,2|0,0:0|3:0,0:0:0:0:
297,19,6738,2,0,P|302:80|313:141,1,123.499994346619,0|0,0:0|0:0,0:0:0:0:
389,260,7071,2,0,P|393:220|393:181,1,61.7499971733095,2|0,3:2|0:0,0:0:0:0:
312,318,7293,2,0,P|305:287|301:257,1,61.7499971733095,0|0,0:0|0:0,0:0:0:0:
194,357,7516,2,0,P|205:283|206:217,1,123.499994346619,2|0,3:2|0:0,0:0:0:0:
264,45,7960,6,0,P|266:106|276:167,1,123.499994346619,2|0,3:2|0:0,0:0:0:0:
487,227,8404,1,2,3:2:0:0:
487,227,8516,2,0,P|423:218|350:211,1,123.499994346619,0|0,0:0|0:0,0:0:0:0:
221,270,8849,2,0,P|249:263|297:256,1,61.7499971733095,2|0,3:2|0:0,0:0:0:0:
151,345,9071,2,0,P|175:350|223:363,1,61.7499971733095,0|0,0:0|0:0,0:0:0:0:
84,251,9293,2,0,P|118:239|155:226,1,61.7499971733095,2|0,3:2|0:0,0:0:0:0:
36,134,9516,1,0,0:0:0:0:
36,134,9627,6,0,P|119:144|183:143,1,123.499994346619,0|0,0:0|0:0,0:0:0:0:
326,61,9960,2,0,P|264:62|203:71,1,123.499994346619,2|0,0:0|3:0,0:0:0:0:
435,169,10293,2,0,P|374:156|313:151,1,123.499994346619,0|0,0:0|0:0,0:0:0:0:
192,244,10627,2,0,P|225:230|252:220,1,61.7499971733095,0|0,3:0|0:0,0:0:0:0:
331,263,10849,1,0,0:0:0:0:
308,352,10960,1,0,0:0:0:0:
215,356,11071,2,0,P|180:347|149:343,1,61.7499971733095,2|0,3:2|0:0,0:0:0:0:
86,259,11293,2,0,P|75:287|69:318,1,61.7499971733095,2|0,0:0|0:0,0:0:0:0:
179,218,11516,6,0,P|186:150|185:64,1,123.499994346619,4|0,3:2|0:0,0:0:0:0:
259,280,11960,1,2,3:2:0:0:
259,280,12071,2,0,P|327:273|413:274,1,123.499994346619,0|0,0:0|0:0,0:0:0:0:
495,194,12404,2,0,P|442:199|405:200,1,61.7499971733095,2|0,3:2|0:0,0:0:0:0:
425,116,12627,2,0,P|372:111|335:110,1,61.7499971733095,0|0,0:0|0:0,0:0:0:0:
360,25,12849,2,0,P|307:20|270:19,1,61.7499971733095,2|0,3:2|0:0,0:0:0:0:
175,64,13071,1,0,0:0:0:0:
175,64,13182,6,0,P|184:136|189:206,1,123.499994346619,0|0,0:0|0:0,0:0:0:0:
224,291,13516,2,0,P|263:237|349:216,1,123.499994346619,2|0,0:0|3:0,0:0:0:0:
285,344,13849,2,0,L|161:335,1,123.499994346619,0|0,0:0|0:0,0:0:0:0:
25,278,14182,2,0,L|112:274,1,61.7499971733095,2|0,3:2|0:0,0:0:0:0:
219,210,14404,2,0,L|157:207,1,61.7499971733095,0|0,0:0|0:0,0:0:0:0:
345,181,14627,1,2,3:2:0:0:
345,181,14738,2,0,P|282:139|222:76,1,123.499994346619,0|0,0:0|0:0,0:0:0:0:
203,19,15071,6,0,P|156:55|85:45,1,123.499994346619,2|0,3:2|0:0,0:0:0:0:
33,199,15516,1,2,3:2:0:0:
33,199,15627,2,0,L|174:184,1,123.499994346619,0|0,0:0|0:0,0:0:0:0:
243,282,15960,2,0,P|250:238|252:194,1,61.7499971733095,2|0,3:2|0:0,0:0:0:0:
348,343,16182,2,0,P|342:312|339:281,1,61.7499971733095,0|0,0:0|0:0,0:0:0:0:
435,120,16404,1,2,3:2:0:0:
359,184,16516,1,0,0:0:0:0:
269,142,16627,2,0,P|250:120|234:85,1,61.7499971733095,0|0,0:0|0:0,0:0:0:0:
154,259,16849,5,0,3:0:0:0:
177,269,16960,2,0,P|207:274|238:273,1,61.7499971733095,12|0,0:0|0:0,0:0:0:0:
244,68,17182,1,0,3:0:0:0:
235,90,17293,2,0,P|229:120|230:151,1,61.7499971733095,12|0,0:0|0:0,0:0:0:0:
427,123,17516,1,0,3:0:0:0:
405,112,17627,2,0,P|374:106|343:107,1,61.7499971733095,12|0,0:0|0:0,0:0:0:0:
350,322,17849,1,0,3:0:0:0:
358,300,17960,2,0,P|363:269|362:238,1,61.7499971733095,12|0,0:0|0:0,0:0:0:0:
216,72,18182,6,0,P|211:103|212:134,1,61.7499971733095,8|0,3:2|0:0,0:0:0:0:
371,334,18404,2,0,P|376:303|375:272,1,61.7499971733095,8|0,3:2|0:0,0:0:0:0:
159,314,18627,5,0,3:0:0:0:
183,311,18738,2,0,L|264:300,1,61.7499971733095,12|0,0:0|0:0,0:0:0:0:
460,284,18960,1,0,3:0:0:0:
436,281,19071,2,0,L|355:270,1,61.7499971733095,12|0,0:0|0:0,0:0:0:0:
105,213,19293,1,0,3:0:0:0:
129,210,19404,2,0,L|210:199,1,61.7499971733095,12|0,0:0|0:0,0:0:0:0:
495,186,19627,1,0,3:0:0:0:
471,183,19738,2,0,L|390:172,1,61.7499971733095,12|0,0:0|0:0,0:0:0:0:
239,54,19960,6,0,P|238:84|241:114,1,61.7499971733095,8|0,3:2|0:0,0:0:0:0:
325,309,20182,2,0,P|329:278|329:248,1,61.7499971733095,8|0,3:2|0:0,0:0:0:0:
71,208,20404,6,0,B|134:240|134:240|236:210,1,161.500003080368,4|8,3:2|0:0,0:0:0:0:
237,209,20848,2,0,L|222:309,1,80.750001540184,0|0,3:0|3:0,0:0:0:0:
160,107,21070,1,8,0:0:0:0:
289,62,21182,2,0,P|338:76|452:123,1,161.500003080368,2|0,3:2|3:0,0:0:0:0:
504,232,21516,2,0,P|451:248|418:258,1,80.750001540184,8|0,0:0|0:0,0:0:0:0:
305,284,21738,2,0,P|315:226|322:192,1,80.750001540184,0|0,3:0|0:0,0:0:0:0:
201,331,21960,1,8,0:0:0:0:
201,331,22071,1,0,0:0:0:0:
127,252,22182,6,0,P|77:266|40:278,1,80.750001540184,2|0,3:2|0:0,0:0:0:0:
217,171,22405,2,0,P|167:157|130:145,1,80.750001540184,8|0,0:0|0:0,0:0:0:0:
284,78,22627,2,0,P|321:125|345:159,2,80.750001540184,0|0|8,3:0|0:0|0:0,0:0:0:0:
427,133,22960,2,0,P|431:192|424:311,1,161.500003080368,2|0,3:2|3:0,0:0:0:0:
330,373,23293,2,0,P|326:314|328:263,1,80.750001540184,8|0,0:0|0:0,0:0:0:0:
245,233,23516,5,2,3:2:0:0:
150,252,23627,1,0,0:0:0:0:
106,165,23738,1,10,0:0:0:0:
177,99,23849,1,0,0:0:0:0:
266,134,23960,6,0,P|342:142|388:80,1,161.500003080368,4|10,3:2|0:0,0:0:0:0:
380,73,24404,2,0,L|389:153,1,80.750001540184,2|0,3:2|3:0,0:0:0:0:
368,271,24627,1,8,0:0:0:0:
238,316,24738,2,0,P|247:247|254:143,1,161.500003080368,2|0,3:2|3:0,0:0:0:0:
283,5,25071,2,0,P|294:43|307:81,1,80.750001540184,10|0,3:2|0:0,0:0:0:0:
183,84,25293,2,0,P|123:75|89:70,1,80.750001540184,0|0,3:0|0:0,0:0:0:0:
85,182,25516,1,8,0:0:0:0:
85,182,25627,1,0,1:0:0:0:
169,249,25738,6,0,P|208:241|248:236,1,80.750001540184,4|0,3:2|0:0,0:0:0:0:
298,122,25960,1,8,0:0:0:0:
298,122,26071,2,0,P|337:156|372:190,1,80.750001540184,2|0,0:0|3:0,0:0:0:0:
465,103,26293,2,0,P|474:142|481:181,1,80.750001540184,10|0,3:2|1:0,0:0:0:0:
352,348,26516,2,0,P|359:292|376:166,1,161.500003080368,4|0,3:2|3:0,0:0:0:0:
310,102,26849,2,0,L|220:112,1,80.750001540184,8|0,0:0|0:0,0:0:0:0:
132,216,27071,5,2,1:2:0:0:
212,206,27182,1,0,1:0:0:0:
292,197,27293,1,2,3:2:0:0:
372,187,27404,1,4,1:3:0:0:
452,177,27516,6,0,B|481:232|481:232|455:355,1,161.500003080368,4|8,3:2|0:0,0:0:0:0:
364,65,27960,2,0,L|356:158,1,80.750001540184,0|0,3:0|3:0,0:0:0:0:
349,245,28182,1,8,0:0:0:0:
266,323,28293,2,0,B|237:268|237:268|263:145,1,161.500003080368,0|0,3:0|3:0,0:0:0:0:
147,99,28627,2,0,B|139:192,1,80.750001540184,0|0,0:0|0:0,0:0:0:0:
0,280,28849,2,0,P|54:268|99:263,1,80.750001540184,0|0,3:0|0:0,0:0:0:0:
194,290,29071,1,8,0:0:0:0:
194,290,29182,1,0,0:0:0:0:
277,206,29293,6,0,P|287:155|287:124,1,80.750001540184,2|0,3:2|0:0,0:0:0:0:
204,369,29516,2,0,P|195:330|194:290,1,80.750001540184,8|0,0:0|0:0,0:0:0:0:
360,305,29738,1,2,3:2:0:0:
360,305,29849,2,0,P|370:254|370:223,1,80.750001540184,0|8,3:0|0:0,0:0:0:0:
347,66,30071,2,0,P|386:130|462:106,1,161.500003080368,2|0,3:2|3:0,0:0:0:0:
350,33,30404,2,0,P|311:22|271:26,1,80.750001540184,10|0,0:0|0:0,0:0:0:0:
173,159,30627,2,0,P|211:169|251:165,1,80.750001540184,2|0,3:2|0:0,0:0:0:0:
440,278,30849,2,0,P|401:267|361:271,1,80.750001540184,8|0,0:0|0:0,0:0:0:0:
191,259,31071,6,0,P|166:319|69:309,1,161.500003080368,4|8,3:2|0:0,0:0:0:0:
264,152,31516,1,0,3:0:0:0:
308,228,31627,1,0,3:0:0:0:
219,234,31738,1,8,0:0:0:0:
169,160,31849,2,0,P|179:103|274:58,1,161.500003080368,0|0,3:2|3:0,0:0:0:0:
462,107,32182,2,0,L|360:96,1,80.750001540184,8|0,0:0|0:0,0:0:0:0:
170,188,32404,2,0,L|272:177,1,80.750001540184,0|0,3:0|0:0,0:0:0:0:
453,186,32627,1,8,1:2:0:0:
444,265,32738,1,0,1:2:0:0:
435,344,32849,6,0,L|333:333,1,80.750001540184,4|0,3:2|0:0,0:0:0:0:
250,179,33071,1,8,0:0:0:0:
250,179,33182,2,0,P|267:237|277:275,1,80.750001540184,0|0,0:0|3:0,0:0:0:0:
142,356,33404,2,0,P|152:317|164:278,1,80.750001540184,0|8,3:0|0:0,0:0:0:0:
84,151,33627,2,0,B|145:176|145:176|252:140,1,161.500003080368,4|0,3:2|3:0,0:0:0:0:
365,70,33960,2,0,L|355:160,1,80.750001540184,8|0,0:0|0:0,0:0:0:0:
299,335,34182,2,0,L|290:254,1,80.750001540184,0|0,3:0|0:0,0:0:0:0:
459,213,34404,1,8,0:0:0:0:
458,213,34627,6,0,P|423:231|383:239,1,80.750001540184,4|0,3:2|0:0,0:0:0:0:
208,143,34849,1,10,0:0:0:0:
208,143,34960,2,0,P|243:161|283:169,1,80.750001540184,0|0,1:0|0:0,0:0:0:0:
486,73,35182,2,0,P|450:91|410:99,1,80.750001540184,8|2,0:3|3:2,0:0:0:0:
119,118,35404,2,0,P|164:62|263:79,1,161.500003080368,4|0,3:2|3:0,0:0:0:0:
339,168,35738,2,0,L|327:263,1,80.750001540184,10|0,0:0|3:0,0:0:0:0:
211,345,35960,2,0,L|200:264,1,80.750001540184,10|0,0:0|1:0,0:0:0:0:
476,242,36182,1,8,1:3:0:0:
454,328,36293,1,4,1:3:0:0:
367,348,36404,6,0,B|333:338|300:332|300:332|262:334|227:342,1,142.500005435944,4|0,3:2|0:0,0:0:0:0:
120,275,36738,1,0,3:0:0:0:
120,275,36849,2,0,P|175:270|205:173,1,142.500005435944,8|0,0:0|3:0,0:0:0:0:
110,20,37182,2,0,P|124:102|135:175,1,142.500005435944,2|0,0:0|1:0,0:0:0:0:
245,123,37516,2,0,P|283:111|316:104,1,71.2500027179719,0|0,3:0|0:0,0:0:0:0:
402,35,37738,2,0,P|364:23|331:16,1,71.2500027179719,8|0,0:0|0:0,0:0:0:0:
235,16,37960,1,0,3:0:0:0:
235,16,38182,6,0,P|169:40|135:101,1,142.500005435944,2|0,3:2|0:0,0:0:0:0:
208,181,38516,1,0,3:0:0:0:
208,181,38627,2,0,P|273:169|354:163,2,142.500005435944,8|0|0,0:0|3:0|3:0,0:0:0:0:
125,261,39182,2,0,P|197:279|291:306,1,142.500005435944,2|0,0:0|0:0,0:0:0:0:
397,350,39516,2,0,P|384:295|375:267,1,71.2500027179719,8|0,0:0|0:0,0:0:0:0:
306,189,39738,1,0,3:0:0:0:
306,189,39960,6,0,P|357:166|390:154,1,71.2500027179719,4|0,3:2|0:0,0:0:0:0:
268,92,40182,2,0,P|234:78|202:63,1,71.2500027179719,0|0,0:0|3:0,0:0:0:0:
93,34,40404,1,8,0:0:0:0:
93,34,40516,2,0,L|103:123,1,71.2500027179719,0|0,0:0|3:0,0:0:0:0:
77,220,40738,2,0,P|139:186|206:219,1,142.500005435944
251,335,41071,2,0,P|211:328|167:313,1,71.2500027179719,0|0,3:0|0:0,0:0:0:0:
320,249,41293,2,0,P|360:242|404:227,1,71.2500027179719,8|0,0:0|0:0,0:0:0:0:
201,213,41516,2,0,P|173:169|164:145,1,71.2500027179719,0|0,3:0|0:0,0:0:0:0:
278,24,41738,6,0,B|305:97|252:100|290:186,1,142.500005435944,2|0,3:2|0:0,0:0:0:0:
381,115,42071,2,0,P|390:66|387:32,2,71.2500027179719,0|8|0,3:0|0:0|0:0,0:0:0:0:
335,240,42404,2,0,B|279:279|210:232|210:232|193:273|151:293,1,213.750008153916,2|0,0:0|0:0,0:0:0:0:
64,235,42849,2,0,P|55:186|58:152,1,71.2500027179719,0|0,3:0|3:0,0:0:0:0:
127,65,43071,5,8,0:0:0:0:
185,127,43182,1,8,0:0:0:0:
270,127,43293,1,8,0:3:0:0:
331,67,43404,1,4,0:3:0:0:
414,89,43516,6,0,P|431:121|439:156,1,71.2500027179719,4|0,3:2|0:0,0:0:0:0:
490,235,43738,2,0,P|474:268|453:296,1,71.2500027179719,0|0,0:0|3:0,0:0:0:0:
345,333,43960,2,0,P|339:259|321:165,1,142.500005435944,10|0,0:0|3:0,0:0:0:0:
117,99,44293,2,0,P|166:145|253:131,1,142.500005435944,0|0,0:0|3:0,0:0:0:0:
221,241,44627,2,0,P|180:273|146:304,1,71.2500027179719,0|0,3:0|0:0,0:0:0:0:
56,350,44849,2,0,P|63:307|64:264,1,71.2500027179719,8|0,0:0|0:0,0:0:0:0:
110,113,45071,2,0,P|112:148|118:183,1,71.2500027179719,0|0,3:0|0:0,0:0:0:0:
284,319,45293,6,0,P|305:242|304:152,1,142.500005435944,2|0,3:2|0:0,0:0:0:0:
261,80,45627,1,0,3:0:0:0:
261,80,45738,2,0,L|166:77,1,71.2500027179719,8|0,0:0|0:0,0:0:0:0:
307,179,45960,2,0,B|377:159|377:159|465:162,1,142.500005435944,4|0,3:2|0:0,0:0:0:0:
401,256,46293,1,0,0:0:0:0:
401,256,46404,2,0,L|472:258,1,71.2500027179719,8|0,3:0|0:0,0:0:0:0:
317,314,46627,2,0,L|245:311,1,71.2500027179719,10|0,1:2|1:0,0:0:0:0:
168,249,46849,1,0,3:0:0:0:
80,296,46960,1,0,0:0:0:0:
14,221,47071,1,6,3:2:0:0:
14,221,47293,6,0,P|25:159|30:124,1,71.2500027179719,0|0,3:0|3:0,0:0:0:0:
50,53,47516,1,10,0:0:0:0:
148,284,47738,2,0,P|148:221|146:185,1,71.2500027179719,0|0,3:0|3:0,0:0:0:0:
148,112,47960,1,10,0:0:0:0:
273,264,48182,2,0,P|284:202|289:167,1,71.2500027179719,0|0,3:0|0:0,0:0:0:0:
411,111,48404,5,8,1:2:0:0:
411,111,48516,1,0,1:0:0:0:
411,111,48627,2,0,P|400:173|395:208,1,71.2500027179719,0|0,3:0|1:0,0:0:0:0:
307,280,48849,5,0,3:0:0:0:
322,277,48960,2,0,L|404:263,1,71.2500027179719,12|0,0:0|0:0,0:0:0:0:
232,182,49182,1,0,3:0:0:0:
247,185,49293,2,0,L|329:198,1,71.2500027179719,12|0,0:0|0:0,0:0:0:0:
138,316,49516,1,0,3:0:0:0:
153,313,49627,2,0,L|235:299,1,71.2500027179719,12|0,0:0|0:0,0:0:0:0:
45,151,49849,1,0,3:0:0:0:
60,154,49960,2,0,L|142:167,1,71.2500027179719,12|0,0:0|0:0,0:0:0:0:
298,15,50182,5,0,1:0:0:0:
295,30,50293,1,0,1:0:0:0:
292,43,50404,2,0,L|278:125,1,71.2500027179719,0|0,3:0|3:0,0:0:0:0:
336,366,50627,5,0,3:0:0:0:
339,351,50738,2,0,L|352:271,1,80.750001540184,12|0,0:0|0:0,0:0:0:0:
203,309,50960,1,0,3:0:0:0:
200,294,51071,2,0,L|186:213,1,80.750001540184,12|0,0:0|0:0,0:0:0:0:
367,170,51293,1,0,3:0:0:0:
370,155,51404,2,0,L|383:76,1,80.750001540184,12|0,0:0|0:0,0:0:0:0:
167,113,51627,1,0,3:0:0:0:
164,98,51738,2,0,L|149:18,1,80.750001540184,12|0,0:0|0:0,0:0:0:0:
277,174,51960,5,0,1:0:0:0:
210,232,52071,1,0,1:0:0:0:
131,190,52182,1,8,1:3:0:0:
56,237,52293,1,4,1:3:0:0:
74,323,52404,6,0,B|132:326|132:326|168:310|168:310|253:317,1,161.500003080368,4|0,0:1|0:0,0:0:0:0:
378,258,52738,2,0,P|304:258|294:185,1,161.500003080368,4|0,0:1|0:0,0:0:0:0:
273,20,53071,2,0,L|266:102,1,80.750001540184,0|0,3:0|0:0,0:0:0:0:
335,152,53293,5,0,3:0:0:0:
357,100,53404,1,0,1:0:0:0:
331,40,53516,1,8,1:3:0:0:
266,7,53627,1,4,1:3:0:0:
184,22,53738,5,0,1:0:0:0:
127,99,53849,1,0,1:0:0:0:
152,192,53960,1,0,1:0:0:0:
251,231,54071,1,0,1:0:0:0:
351,173,54182,6,0,P|382:206|370:304,1,142.500005435944,4|0,3:2|0:0,0:0:0:0:
290,351,54516,1,0,3:0:0:0:
213,287,54627,2,0,P|144:266|73:280,1,142.500005435944,8|0,3:2|3:2,0:0:0:0:
150,116,55071,2,0,P|200:167|267:141,1,142.500005435944,2|0,3:2|0:0,0:0:0:0:
353,100,55404,1,0,3:0:0:0:
353,100,55516,2,0,L|440:107,1,71.2500027179719,8|0,3:2|0:0,0:0:0:0:
289,21,55738,2,0,L|202:14,1,71.2500027179719,0|0,3:0|0:0,0:0:0:0:
209,294,55960,6,0,P|271:209|261:105,2,213.750008153916,6|0|0,0:0|0:0|3:0,0:0:0:0:
84,120,56849,2,0,P|137:111|174:108,1,71.2500027179719,2|0,3:2|1:0,0:0:0:0:
348,177,57071,2,0,P|295:168|258:165,1,71.2500027179719,0|0,0:0|3:0,0:0:0:0:
133,268,57293,2,0,P|186:259|223:256,1,71.2500027179719,8|0,3:2|0:0,0:0:0:0:
318,281,57516,1,2,3:2:0:0:
384,344,57627,1,0,0:0:0:0:
468,310,57738,6,0,P|490:242|488:169,1,142.500005435944,4|0,3:2|0:0,0:0:0:0:
488,71,58071,1,0,3:0:0:0:
395,111,58182,2,0,P|344:90|325:-4,1,142.500005435944,8|0,3:2|3:2,0:0:0:0:
218,206,58627,1,2,3:2:0:0:
218,206,58738,2,0,L|371:194,1,142.500005435944,0|0,0:0|0:0,0:0:0:0:
485,116,59071,2,0,L|405:107,1,71.2500027179719,8|0,3:2|0:0,0:0:0:0:
289,37,59293,2,0,P|303:69|317:102,1,71.2500027179719,0|0,3:0|0:0,0:0:0:0:
358,194,59516,6,0,P|344:239|334:278,1,71.2500027179719,2|0,3:2|0:0,0:0:0:0:
273,360,59738,2,0,P|263:325|252:291,1,71.2500027179719,0|0,0:0|0:0,0:0:0:0:
108,214,59960,2,0,P|173:233|227:190,1,142.500005435944,10|0,3:2|3:0,0:0:0:0:
309,117,60293,1,0,0:0:0:0:
309,117,60404,2,0,P|358:112|385:111,1,71.2500027179719,2|0,3:2|1:0,0:0:0:0:
223,72,60627,2,0,P|174:67|147:66,1,71.2500027179719,0|0,0:0|3:0,0:0:0:0:
56,115,60849,5,0,3:0:0:0:
20,196,60960,1,0,1:0:0:0:
57,278,61071,1,8,1:3:0:0:
143,298,61182,1,4,1:3:0:0:
211,241,61293,6,0,P|252:235|337:304,1,142.500005435944,4|0,3:2|3:0,0:0:0:0:
408,354,61627,1,0,3:0:0:0:
482,287,61738,2,0,P|480:216|458:148,1,142.500005435944,8|0,3:2|3:2,0:0:0:0:
351,12,62182,2,0,P|348:82|326:150,1,142.500005435944,0|0,3:2|0:0,0:0:0:0:
232,186,62516,1,0,3:0:0:0:
232,186,62627,2,0,P|184:156|162:137,1,71.2500027179719,8|0,3:2|0:0,0:0:0:0:
91,96,62849,2,0,L|80:179,1,71.2500027179719,0|0,3:2|0:0,0:0:0:0:
15,284,63071,6,0,B|71:259|71:259|174:295,1,142.500005435944,4|0,3:2|0:0,0:0:0:0:
246,362,63404,1,0,3:0:0:0:
246,362,63516,2,0,P|281:357|313:343,1,71.2500027179719,8|0,3:2|0:0,0:0:0:0:
400,281,63738,2,0,P|411:241|411:206,1,71.2500027179719,0|0,3:0|0:0,0:0:0:0:
318,102,63960,2,0,L|328:172,1,71.2500027179719,0|0,3:0|0:0,0:0:0:0:
251,260,64182,2,0,L|241:190,1,71.2500027179719,0|0,3:0|0:0,0:0:0:0:
185,342,64404,1,8,0:0:0:0:
185,342,64627,1,0,3:0:0:0:
92,333,64738,1,0,0:0:0:0:
45,252,64849,6,0,P|38:184|88:98,1,142.500005435944,4|0,3:2|0:0,0:0:0:0:
142,51,65182,1,0,3:0:0:0:
215,121,65293,2,0,L|299:132,1,71.2500027179719,8|0,0:0|0:0,0:0:0:0:
412,186,65516,2,0,L|342:196,1,71.2500027179719,0|0,3:0|0:0,0:0:0:0:
306,366,65738,2,0,P|348:326|417:271,1,142.500005435944,2|0,3:2|0:0,0:0:0:0:
271,176,66071,1,0,0:0:0:0:
352,50,66182,2,0,L|362:131,1,71.2500027179719,8|0,3:2|1:0,0:0:0:0:
463,173,66404,1,8,1:3:0:0:
491,83,66516,1,4,1:3:0:0:
417,27,66627,6,0,B|387:33|372:52|372:52|307:28|271:66,1,161.500003080368,4|8,3:2|0:0,0:0:0:0:
368,266,66960,2,0,B|362:236|343:221|343:221|367:156|329:120,1,161.500003080368,4|0,3:2|0:0,0:0:0:0:
129,216,67293,2,0,B|159:210|174:191|174:191|239:215|275:177,1,161.500003080368,4|0,3:2|3:0,0:0:0:0:
208,44,67627,1,8,0:0:0:0:
208,44,67738,2,0,L|221:130,1,80.750001540184,0|0,1:0|3:0,0:0:0:0:
249,240,67960,5,0,1:0:0:0:
327,187,68071,1,0,1:0:0:0:
418,210,68182,1,0,1:0:0:0:
468,289,68293,1,0,1:0:0:0:
416,365,68405,6,0,P|349:346|254:347,1,142.500005435944,4|0,3:2|0:0,0:0:0:0:
125,288,68738,1,0,3:0:0:0:
183,366,68849,2,0,P|202:297|205:226,1,142.500005435944,8|0,3:2|3:2,0:0:0:0:
43,58,69293,2,0,P|93:108|153:147,1,142.500005435944,2|0,3:2|0:0,0:0:0:0:
247,141,69627,1,0,3:0:0:0:
246,141,69738,2,0,P|279:127|314:119,1,71.2500027179719,10|0,3:2|0:0,0:0:0:0:
417,116,69960,2,0,P|401:148|392:182,1,71.2500027179719,0|0,3:0|0:0,0:0:0:0:
307,343,70182,6,0,P|288:237|246:139,2,213.750008153916,6|0|0,0:0|0:0|3:0,0:0:0:0:
171,214,71071,2,0,P|135:210|100:207,1,71.2500027179719,2|0,3:2|1:0,0:0:0:0:
246,139,71293,2,0,P|281:135|316:132,1,71.2500027179719,0|0,0:0|3:0,0:0:0:0:
462,214,71516,2,0,P|409:205|372:202,1,71.2500027179719,8|0,3:2|0:0,0:0:0:0:
318,281,71738,1,0,3:2:0:0:
397,341,71849,1,0,0:0:0:0:
483,294,71960,6,0,P|498:227|501:139,1,142.500005435944,4|0,3:2|0:0,0:0:0:0:
457,63,72293,1,0,3:0:0:0:
380,127,72404,2,0,P|304:134|238:145,1,142.500005435944,8|0,3:2|3:2,0:0:0:0:
81,225,72849,1,2,3:2:0:0:
81,225,72960,2,0,P|157:232|222:243,1,142.500005435944,0|0,0:0|0:0,0:0:0:0:
321,263,73293,2,0,P|335:230|344:196,1,71.2500027179719,8|0,3:2|0:0,0:0:0:0:
410,291,73516,2,0,P|424:323|433:357,1,71.2500027179719,0|0,3:0|0:0,0:0:0:0:
341,356,73738,6,0,L|192:341,1,142.500005435944,2|0,3:2|0:0,0:0:0:0:
412,182,74182,2,0,L|263:197,1,142.500005435944,10|0,3:2|3:0,0:0:0:0:
174,239,74516,1,0,0:0:0:0:
174,239,74627,2,0,L|181:154,1,71.2500027179719,2|0,3:2|1:0,0:0:0:0:
231,30,74849,2,0,L|236:101,1,71.2500027179719,0|0,0:0|3:0,0:0:0:0:
304,254,75071,5,0,3:0:0:0:
275,177,75182,1,0,1:0:0:0:
315,104,75293,1,8,1:3:0:0:
396,86,75404,1,4,1:3:0:0:
468,128,75516,6,0,P|490:201|464:272,1,142.500005435944,4|0,3:2|0:0,0:0:0:0:
397,329,75849,1,0,3:0:0:0:
313,274,75960,2,0,P|249:250|159:252,1,142.500005435944,8|0,3:2|3:0,0:0:0:0:
361,153,76404,2,0,L|384:230,2,71.2500027179719,6|0|0,3:2|0:0|0:0,0:0:0:0:
268,166,76738,1,0,3:0:0:0:
268,166,76849,2,0,P|250:117|310:34,1,142.500005435944,8|0,3:2|1:0,0:0:0:0:
449,266,77293,6,0,P|392:258|292:251,1,142.500005435944,6|0,3:2|0:0,0:0:0:0:
212,239,77627,1,0,3:0:0:0:
212,239,77738,2,0,P|188:297|181:329,1,71.2500027179719,8|0,3:2|0:0,0:0:0:0:
126,192,77960,2,0,P|102:134|95:102,1,71.2500027179719,0|0,3:0|0:0,0:0:0:0:
176,51,78182,2,0,L|266:39,1,71.2500027179719,6|0,3:2|0:0,0:0:0:0:
373,129,78404,2,0,L|302:119,1,71.2500027179719,8|0,0:0|3:0,0:0:0:0:
203,242,78627,5,0,3:0:0:0:
279,204,78738,1,0,1:0:0:0:
364,222,78849,1,0,1:0:0:0:
429,286,78960,1,0,1:0:0:0:
389,369,79071,6,0,L|306:362,1,71.2500027179719,4|0,3:2|0:0,0:0:0:0:
223,363,79293,2,0,L|230:279,1,71.2500027179719,10|0,0:0|0:0,0:0:0:0:
322,164,79516,1,2,0:0:0:0:
322,164,79627,2,0,L|315:234,1,71.2500027179719,0|0,3:0|3:0,0:0:0:0:
152,236,79849,2,0,P|137:157|133:81,1,142.500005435944,8|0,1:2|3:0,0:0:0:0:
228,292,80182,2,0,P|234:256|237:221,1,71.2500027179719,8|0,0:0|3:0,0:0:0:0:
117,347,80404,2,0,P|94:312|76:277,1,71.2500027179719,2|0,0:0|1:0,0:0:0:0:
264,378,80627,2,0,P|293:347|314:322,1,71.2500027179719,0|0,1:0|1:0,0:0:0:0:
457,253,80849,6,0,L|375:242,1,71.2500027179719,4|0,3:2|0:0,0:0:0:0:
224,196,81071,2,0,L|306:185,1,71.2500027179719,10|0,0:0|0:0,0:0:0:0:
381,58,81293,1,2,0:0:0:0:
381,58,81404,2,0,L|383:128,1,71.2500027179719,0|0,3:0|3:0,0:0:0:0:
284,315,81627,2,0,P|217:290|148:273,1,142.500005435944,12|0,1:2|3:0,0:0:0:0:
292,175,81960,2,0,P|258:186|223:195,1,71.2500027179719,8|0,0:0|3:0,0:0:0:0:
404,268,82182,2,0,P|370:256|335:247,1,71.2500027179719,2|0,0:0|1:0,0:0:0:0:
492,237,82404,2,0,P|471:207|446:183,1,71.2500027179719,0|0,1:0|1:0,0:0:0:0:
366,36,82627,6,0,L|368:106,1,71.2500027179719,6|0,3:2|0:0,0:0:0:0:
289,246,82849,2,0,L|291:175,1,71.2500027179719,10|0,0:0|0:0,0:0:0:0:
165,102,83071,1,2,0:0:0:0:
165,102,83182,2,0,L|239:94,1,71.2500027179719,0|0,3:0|3:0,0:0:0:0:
162,212,83404,2,0,P|101:194|19:179,1,142.500005435944,12|0,1:2|3:0,0:0:0:0:
243,287,83738,2,0,P|210:298|177:312,1,71.2500027179719,8|0,0:0|3:0,0:0:0:0:
320,192,83960,2,0,L|224:174,1,71.2500027179719,2|0,1:2|1:0,0:0:0:0:
416,256,84182,2,0,L|355:294,1,71.2500027179719,2|0,1:2|1:0,0:0:0:0:
435,150,84405,5,4,3:2:0:0:
441,159,84849,1,0,1:0:0:0:
321,215,85293,5,0,1:0:0:0:
319,223,85738,1,0,1:0:0:0:
252,117,86182,5,0,1:0:0:0:
256,125,86627,1,0,1:0:0:0:
130,147,87071,5,0,1:0:0:0:
128,154,87516,2,0,B|121:127|121:127|128:99|128:99|119:76,1,80.750001540184,0|0,3:0|1:0,0:0:0:0:
183,231,87738,2,0,B|190:258|190:258|183:286|183:286|191:308,1,80.750001540184,0|0,1:0|1:0,0:0:0:0:
236,147,87960,6,0,P|274:136|314:130,1,80.750001540184,4|0,3:2|0:0,0:0:0:0:
445,65,88182,2,0,P|406:54|367:49,1,80.750001540184,8|0,0:0|0:0,0:0:0:0:
407,165,88404,1,0,3:0:0:0:
407,165,88516,1,0,0:0:0:0:
326,221,88627,2,0,P|317:260|319:300,1,80.750001540184,8|0,0:0|3:0,0:0:0:0:
239,348,88849,2,0,L|154:339,1,80.750001540184,2|0,0:0|0:0,0:0:0:0:
28,271,89071,2,0,L|108:262,1,80.750001540184,8|0,0:0|0:0,0:0:0:0:
228,226,89293,2,0,P|184:207|153:182,1,80.750001540184,0|0,3:0|0:0,0:0:0:0:
72,73,89516,1,0,0:0:0:0:
138,18,89627,1,0,0:0:0:0:
217,35,89738,6,0,L|210:117,1,80.750001540184,0|0,3:0|0:0,0:0:0:0:
314,225,89960,2,0,L|307:144,1,80.750001540184,8|0,0:0|0:0,0:0:0:0:
427,244,90182,1,0,3:0:0:0:
427,244,90293,1,0,0:0:0:0:
350,330,90404,2,0,P|307:319|252:314,1,80.750001540184,8|0,0:0|3:0,0:0:0:0:
140,249,90627,6,0,P|180:243|219:233,1,80.750001540184,2|0,0:0|3:0,0:0:0:0:
269,160,90849,1,0,1:0:0:0:
232,79,90960,1,0,1:0:0:0:
142,80,91071,2,0,P|131:118|131:158,1,80.750001540184,0|0,1:0|1:0,0:0:0:0:
230,312,91293,2,0,P|229:271|218:233,1,80.750001540184,0|4,3:0|3:0,0:0:0:0:
46,335,91516,5,0,3:0:0:0:
59,337,91627,2,0,L|158:354,1,80.750001540184,12|0,0:0|0:0,0:0:0:0:
345,292,91849,1,0,3:0:0:0:
332,295,91960,2,0,L|233:312,1,80.750001540184,12|0,0:0|0:0,0:0:0:0:
9,231,92182,1,0,3:0:0:0:
22,235,92293,2,0,L|121:252,1,80.750001540184,12|0,0:0|0:0,0:0:0:0:
388,194,92516,1,0,3:0:0:0:
375,197,92627,2,0,L|276:214,1,80.750001540184,12|0,0:0|0:0,0:0:0:0:
138,162,92849,6,0,P|158:127|170:89,1,80.750001540184,0|0,3:0|0:0,0:0:0:0:
245,9,93071,2,0,P|261:45|286:77,1,80.750001540184,0|0,3:0|0:0,0:0:0:0:
478,171,93293,5,0,3:0:0:0:
464,170,93404,2,0,L|383:163,1,80.750001540184,12|0,0:0|0:0,0:0:0:0:
199,255,93627,1,0,3:0:0:0:
212,254,93738,2,0,L|292:247,1,80.750001540184,12|0,0:0|0:0,0:0:0:0:
427,78,93960,1,0,3:0:0:0:
414,77,94071,2,0,L|333:70,1,80.750001540184,12|0,0:0|0:0,0:0:0:0:
87,161,94293,1,0,3:0:0:0:
100,161,94404,2,0,L|180:154,1,80.750001540184,12|0,0:0|0:0,0:0:0:0:
317,186,94627,6,0,P|322:139|323:103,1,80.750001540184,4|0,3:2|0:0,0:0:0:0:
234,274,94849,2,0,P|235:314|239:354,1,80.750001540184,0|0,3:2|0:0,0:0:0:0:
55,241,95071,6,0,P|72:169|155:103,1,161.500003080368,4|8,3:2|0:0,0:0:0:0:
141,126,95516,2,0,L|155:238,1,80.750001540184,0|0,3:0|3:0,0:0:0:0:
174,311,95738,1,8,0:0:0:0:
286,230,95849,2,0,B|256:168|256:168|259:64,1,161.500003080368,2|0,3:2|3:0,0:0:0:0:
358,9,96182,2,0,L|352:112,1,80.750001540184,8|0,0:0|0:0,0:0:0:0:
512,180,96404,1,2,3:2:0:0:
512,180,96516,2,0,B|453:168|453:168|406:180|406:180|350:169,1,161.500003080368,0|0,0:0|0:0,0:0:0:0:
225,181,96849,6,0,P|252:223|270:256,1,80.750001540184,2|0,3:2|0:0,0:0:0:0:
358,261,97071,2,0,P|331:303|313:336,1,80.750001540184,8|0,0:0|0:0,0:0:0:0:
151,295,97293,1,0,3:0:0:0:
151,295,97404,2,0,P|187:312|222:331,1,80.750001540184,0|8,0:0|0:0,0:0:0:0:
358,261,97627,6,0,P|371:217|377:81,1,161.500003080368,0|0,3:0|3:0,0:0:0:0:
258,35,97960,2,0,P|266:90|276:128,1,80.750001540184,8|0,0:0|0:0,0:0:0:0:
174,141,98182,2,0,P|126:131|85:127,1,80.750001540184,2|0,3:2|0:0,0:0:0:0:
246,215,98404,1,8,0:0:0:0:
338,187,98516,1,0,0:0:0:0:
384,274,98627,6,0,P|330:328|258:303,1,161.500003080368,4|10,3:2|0:0,0:0:0:0:
386,259,99071,2,0,L|392:339,1,80.750001540184,2|0,3:2|3:0,0:0:0:0:
257,302,99293,1,8,0:0:0:0:
294,176,99404,2,0,P|300:73|312:-5,1,161.500003080368,2|0,3:2|3:0,0:0:0:0:
189,82,99738,2,0,P|149:92|99:102,1,80.750001540184,10|0,3:2|0:0,0:0:0:0:
175,201,99960,2,0,P|186:239|193:279,1,80.750001540184,0|0,3:0|0:0,0:0:0:0:
48,172,100182,1,8,0:0:0:0:
48,172,100293,1,0,1:0:0:0:
202,104,100404,6,0,P|213:65|220:25,1,80.750001540184,4|0,3:2|0:0,0:0:0:0:
315,212,100627,1,8,0:0:0:0:
315,212,100738,2,0,P|303:173|296:133,1,80.750001540184,2|0,0:0|3:0,0:0:0:0:
401,310,100960,2,0,P|412:271|419:231,1,80.750001540184,10|0,3:2|1:0,0:0:0:0:
482,365,101182,6,0,P|404:343|324:348,1,161.500003080368,4|0,3:2|3:0,0:0:0:0:
237,284,101516,2,0,P|198:303|149:314,1,80.750001540184,8|0,0:0|3:0,0:0:0:0:
78,280,101738,1,2,1:2:0:0:
35,204,101849,1,0,1:0:0:0:
63,123,101960,1,2,3:2:0:0:
143,90,102071,1,4,1:3:0:0:
220,130,102182,6,0,P|278:155|371:93,1,161.500003080368,4|8,3:2|0:0,0:0:0:0:
378,101,102627,2,0,L|385:196,1,80.750001540184,0|0,3:0|3:0,0:0:0:0:
401,290,102849,1,8,0:0:0:0:
274,349,102960,2,0,B|266:254|266:254|299:174,1,161.500003080368,0|0,3:0|3:0,0:0:0:0:
168,255,103293,2,0,P|154:207|140:176,1,80.750001540184,0|0,0:0|0:0,0:0:0:0:
251,45,103516,2,0,P|235:82|227:121,1,80.750001540184,2|0,3:2|0:0,0:0:0:0:
70,111,103738,1,8,0:0:0:0:
70,111,103849,1,0,0:0:0:0:
0,257,103960,6,0,L|95:242,1,80.750001540184,2|0,3:2|0:0,0:0:0:0:
190,193,104182,2,0,L|269:205,1,80.750001540184,8|0,0:0|0:0,0:0:0:0:
372,284,104404,1,2,3:2:0:0:
427,191,104516,2,0,L|440:111,1,80.750001540184,0|8,3:0|0:0,0:0:0:0:
313,38,104738,2,0,L|330:121,2,80.750001540184,2|0|0,3:2|0:0|0:0,0:0:0:0:
448,146,105071,2,0,P|438:178|411:224,1,80.750001540184,8|0,0:0|0:0,0:0:0:0:
280,237,105293,2,0,P|238:197|224:151,1,80.750001540184,2|0,3:2|0:0,0:0:0:0:
153,89,105516,1,8,0:0:0:0:
56,117,105627,1,0,0:0:0:0:
27,243,105738,6,0,P|104:248|138:180,1,161.500003080368,4|8,3:2|0:0,0:0:0:0:
120,84,106182,2,0,L|128:173,1,80.750001540184,0|0,3:0|3:0,0:0:0:0:
148,276,106404,1,8,0:0:0:0:
254,152,106516,2,0,P|318:138|429:133,1,161.500003080368,0|0,3:2|3:0,0:0:0:0:
470,258,106849,2,0,P|431:246|391:237,1,80.750001540184,8|0,0:0|0:0,0:0:0:0:
264,341,107071,2,0,P|283:291|292:254,1,80.750001540184,2|0,3:2|0:0,0:0:0:0:
224,142,107293,1,8,1:2:0:0:
163,228,107404,1,0,1:2:0:0:
58,261,107516,6,0,P|39:211|30:174,1,80.750001540184,4|0,3:2|0:0,0:0:0:0:
137,46,107738,1,8,0:0:0:0:
137,46,107849,2,0,L|128:148,1,80.750001540184,0|0,0:0|3:0,0:0:0:0:
313,175,108071,2,0,L|208:172,1,80.750001540184,0|8,3:0|0:0,0:0:0:0:
130,306,108293,2,0,B|181:287|216:279|216:279|268:283|310:295,1,161.500003080368,4|0,3:2|3:0,0:0:0:0:
410,244,108627,2,0,P|424:295|432:338,1,80.750001540184,8|0,0:0|0:0,0:0:0:0:
313,175,108849,2,0,P|321:135|332:96,1,80.750001540184,0|0,3:0|0:0,0:0:0:0:
450,8,109071,2,0,P|460:46|468:86,1,80.750001540184,8|0,0:0|0:0,0:0:0:0:
351,78,109293,6,0,L|247:66,1,80.750001540184,4|0,3:2|0:0,0:0:0:0:
105,173,109516,1,10,0:0:0:0:
105,173,109627,2,0,P|167:148|186:134,1,80.750001540184,0|0,1:0|0:0,0:0:0:0:
333,265,109849,2,0,P|288:216|276:195,1,80.750001540184,8|2,0:3|3:2,0:0:0:0:
41,268,110071,2,0,B|111:302|132:239|207:278,1,161.500003080368,4|0,3:2|3:0,0:0:0:0:
323,281,110404,2,0,P|302:325|287:370,1,80.750001540184,10|0,0:0|3:0,0:0:0:0:
408,191,110627,2,0,P|420:229|436:266,1,80.750001540184,10|0,0:0|1:0,0:0:0:0:
305,178,110849,1,8,1:3:0:0:
270,87,110960,1,4,1:3:0:0:
338,19,111071,6,0,P|402:17|436:101,1,142.500005435944,4|0,3:2|0:0,0:0:0:0:
342,142,111404,1,0,3:0:0:0:
342,142,111516,2,0,P|279:122|182:111,1,142.500005435944,8|0,0:0|3:0,0:0:0:0:
110,244,111849,2,0,P|173:224|270:213,1,142.500005435944,2|0,0:0|1:0,0:0:0:0:
344,245,112182,2,0,P|318:293|308:319,1,71.2500027179719,0|0,3:0|0:0,0:0:0:0:
443,237,112404,2,0,P|428:204|410:173,1,71.2500027179719,8|0,0:0|0:0,0:0:0:0:
328,85,112627,2,0,L|318:159,1,71.2500027179719,0|0,3:0|0:0,0:0:0:0:
232,285,112849,6,0,P|223:224|202:123,1,142.500005435944,2|0,3:2|0:0,0:0:0:0:
107,220,113182,1,0,3:0:0:0:
107,220,113293,2,0,L|129:65,2,142.500005435944,8|0|0,0:0|3:0|3:0,0:0:0:0:
161,303,113849,2,0,P|196:295|232:290,1,71.2500027179719,2|0,0:0|0:0,0:0:0:0:
294,215,114071,1,0,0:0:0:0:
294,215,114182,2,0,P|333:211|370:211,1,71.2500027179719,10|0,0:0|0:0,0:0:0:0:
484,298,114404,2,0,P|449:290|413:285,1,71.2500027179719,0|0,3:0|0:0,0:0:0:0:
326,355,114627,6,0,P|290:359|256:367,1,71.2500027179719,4|0,3:2|0:0,0:0:0:0:
157,332,114849,2,0,P|173:293|181:259,1,71.2500027179719,0|0,0:0|3:0,0:0:0:0:
124,173,115071,1,8,0:0:0:0:
124,173,115182,2,0,P|110:117|102:93,1,71.2500027179719,0|0,0:0|3:0,0:0:0:0:
232,167,115404,2,0,P|290:187|381:194,1,142.500005435944,0|0,0:0|0:0,0:0:0:0:
453,246,115738,2,0,P|480:196|488:172,1,71.2500027179719,0|0,3:0|0:0,0:0:0:0:
476,88,115960,2,0,P|442:42|423:25,1,71.2500027179719,8|0,0:0|0:0,0:0:0:0:
345,10,116182,2,0,P|289:21|265:30,1,71.2500027179719,0|0,3:0|0:0,0:0:0:0:
369,194,116404,6,0,P|392:135|331:119,1,142.500005435944,2|0,3:2|0:0,0:0:0:0:
277,232,116738,2,0,L|289:333,2,71.2500027179719,0|8|0,3:0|0:0|0:0,0:0:0:0:
207,147,117071,2,0,L|215:76,1,71.2500027179719,0|0,0:0|0:0,0:0:0:0:
91,142,117293,5,2,0:0:0:0:
97,191,117404,1,0,0:0:0:0:
103,240,117516,1,0,3:0:0:0:
109,290,117627,1,0,3:0:0:0:
121,372,117738,5,8,0:0:0:0:
180,320,117849,1,8,0:0:0:0:
257,306,117960,1,8,0:3:0:0:
329,335,118071,1,4,0:3:0:0:
404,315,118182,6,0,P|420:272|412:169,1,142.500005435944,4|0,3:2|0:0,0:0:0:0:
351,121,118516,1,0,3:0:0:0:
351,121,118627,2,0,P|286:112|200:103,1,142.500005435944,10|0,0:0|3:0,0:0:0:0:
301,28,118960,2,0,P|359:23|455:16,1,142.500005435944,0|0,0:0|3:0,0:0:0:0:
488,98,119293,2,0,P|478:135|474:185,1,71.2500027179719,0|0,3:0|0:0,0:0:0:0:
404,274,119516,2,0,P|399:238|390:204,1,71.2500027179719,8|0,0:0|0:0,0:0:0:0:
242,140,119738,2,0,P|272:160|306:169,1,71.2500027179719,0|0,3:0|0:0,0:0:0:0:
330,37,119960,6,0,P|265:47|185:64,1,142.500005435944,2|0,3:2|0:0,0:0:0:0:
112,116,120293,1,0,3:0:0:0:
112,116,120404,2,0,P|77:106|42:98,1,71.2500027179719,8|0,0:0|0:0,0:0:0:0:
77,237,120627,2,0,B|156:212|156:212|236:236,1,142.500005435944,4|0,3:2|0:0,0:0:0:0:
306,293,120960,1,0,0:0:0:0:
306,293,121071,2,0,P|324:237|326:212,1,71.2500027179719,8|0,3:0|0:0,0:0:0:0:
267,152,121293,5,10,1:2:0:0:
242,70,121404,1,0,1:0:0:0:
292,5,121516,1,0,3:0:0:0:
376,4,121627,1,0,0:0:0:0:
426,69,121738,1,6,3:2:0:0:
426,69,121960,6,0,P|434:117|436:155,1,71.2500027179719,0|0,3:0|3:0,0:0:0:0:
446,238,122182,1,10,0:0:0:0:
304,15,122404,2,0,P|296:63|294:101,1,71.2500027179719,0|0,3:0|3:0,0:0:0:0:
263,192,122627,2,0,P|324:182|349:180,1,71.2500027179719,10|0,0:0|0:0,0:0:0:0:
416,254,122849,2,0,P|380:258|346:265,1,71.2500027179719,0|0,3:0|0:0,0:0:0:0:
195,263,123071,5,8,1:2:0:0:
195,263,123182,1,0,1:0:0:0:
195,263,123293,2,0,L|218:331,1,71.2500027179719,0|0,3:0|1:0,0:0:0:0:
266,201,123516,5,0,3:0:0:0:
260,173,123627,2,0,P|222:161|191:159,1,71.2500027179719,12|0,0:0|0:0,0:0:0:0:
71,113,123849,1,0,3:0:0:0:
77,85,123960,2,0,P|115:73|146:71,1,71.2500027179719,12|0,0:0|0:0,0:0:0:0:
308,82,124182,1,0,3:0:0:0:
302,54,124293,2,0,P|264:42|233:40,1,71.2500027179719,12|0,0:0|0:0,0:0:0:0:
52,153,124516,1,0,3:0:0:0:
58,125,124627,2,0,P|96:113|127:111,1,71.2500027179719,12|0,0:0|0:0,0:0:0:0:
375,179,124849,6,0,P|337:167|306:165,1,71.2500027179719,0|0,1:0|1:0,0:0:0:0:
115,222,125071,2,0,P|148:210|184:208,1,71.2500027179719,0|0,3:0|3:0,0:0:0:0:
314,334,125293,5,0,3:0:0:0:
299,325,125404,2,0,P|284:287|276:248,1,80.750001540184,12|0,0:0|0:0,0:0:0:0:
292,43,125627,1,0,3:0:0:0:
299,59,125738,2,0,P|289:97|272:134,1,80.750001540184,12|0,0:0|0:0,0:0:0:0:
138,291,125960,1,0,3:0:0:0:
142,273,126071,2,0,P|173:248|208:229,1,80.750001540184,12|0,0:0|0:0,0:0:0:0:
408,180,126293,1,0,3:0:0:0:
395,192,126404,2,0,P|355:194|316:189,1,80.750001540184,12|0,0:0|0:0,0:0:0:0:
143,109,126627,6,0,P|176:131|205:158,1,80.750001540184,0|0,1:0|1:0,0:0:0:0:
368,274,126849,2,0,P|335:252|306:225,1,80.750001540184,8|4,1:3|1:3,0:0:0:0:
76,272,127071,6,0,P|121:330|209:311,1,161.500003080368,4|0,0:1|0:0,0:0:0:0:
303,355,127404,2,0,P|359:301|436:315,1,161.500003080368,4|0,0:1|0:0,0:0:0:0:
501,222,127738,2,0,L|495:128,1,80.750001540184,0|0,3:0|0:0,0:0:0:0:
410,78,127960,5,0,3:0:0:0:
372,130,128071,1,0,1:0:0:0:
307,139,128182,1,8,1:3:0:0:
244,102,128293,1,4,1:3:0:0:
190,41,128404,5,0,1:0:0:0:
95,59,128516,1,0,1:0:0:0:
54,146,128627,1,0,1:0:0:0:
105,239,128738,1,0,1:0:0:0:
218,253,128849,6,0,P|283:219|357:222,1,142.500005435944,4|0,3:2|0:0,0:0:0:0:
413,143,129182,1,0,3:0:0:0:
495,201,129293,2,0,L|473:354,1,142.500005435944,8|0,3:2|3:2,0:0:0:0:
289,299,129738,2,0,P|224:265|150:268,1,142.500005435944,2|0,3:2|0:0,0:0:0:0:
72,200,130071,1,0,3:0:0:0:
72,200,130182,2,0,P|109:178|142:169,1,71.2500027179719,8|0,3:2|0:0,0:0:0:0:
211,116,130404,2,0,P|174:94|141:85,1,71.2500027179719,0|0,3:0|0:0,0:0:0:0:
275,190,130627,6,0,B|308:178|342:145|342:145|392:187|452:175|485:147,2,213.750008153916,6|0|0,0:0|0:0|3:0,0:0:0:0:
139,260,131516,2,0,P|112:234|86:189,1,71.2500027179719,2|0,3:2|1:0,0:0:0:0:
200,352,131738,2,0,P|227:326|253:281,1,71.2500027179719,0|0,0:0|3:0,0:0:0:0:
396,302,131960,2,0,P|369:276|343:231,1,71.2500027179719,8|0,3:2|0:0,0:0:0:0:
350,148,132182,1,2,3:2:0:0:
433,93,132293,1,0,0:0:0:0:
504,162,132404,6,0,B|479:205|479:205|496:308,1,142.500005435944,4|0,3:2|0:0,0:0:0:0:
408,349,132738,1,0,3:0:0:0:
323,294,132849,2,0,P|253:276|183:267,1,142.500005435944,8|0,3:2|3:2,0:0:0:0:
160,127,133293,1,2,3:2:0:0:
160,127,133404,2,0,L|185:272,1,142.500005435944,0|0,0:0|0:0,0:0:0:0:
283,227,133738,2,0,P|325:218|355:214,1,71.2500027179719,8|0,3:2|0:0,0:0:0:0:
428,135,133960,2,0,P|392:129|357:122,1,71.2500027179719,0|0,3:0|0:0,0:0:0:0:
244,63,134182,6,0,P|255:96|263:131,1,71.2500027179719,2|0,3:2|0:0,0:0:0:0:
198,228,134404,2,0,P|186:261|178:296,1,71.2500027179719,0|0,0:0|0:0,0:0:0:0:
376,285,134627,2,0,P|349:240|292:299,1,142.500005435944,10|0,3:2|3:0,0:0:0:0:
368,378,134960,1,0,0:0:0:0:
457,358,135071,2,0,P|468:324|476:289,1,71.2500027179719,2|0,3:2|1:0,0:0:0:0:
434,183,135293,2,0,P|396:157|358:139,1,71.2500027179719,0|0,0:0|3:0,0:0:0:0:
285,78,135516,5,0,3:0:0:0:
215,135,135627,1,0,1:0:0:0:
139,83,135738,1,8,1:3:0:0:
49,94,135849,1,4,1:3:0:0:
19,181,135960,6,0,P|15:253|33:343,1,142.500005435944,4|0,3:2|3:0,0:0:0:0:
122,348,136293,1,0,3:0:0:0:
177,264,136404,2,0,P|188:193|184:122,1,142.500005435944,8|0,3:2|3:2,0:0:0:0:
290,7,136849,2,0,P|286:79|304:169,1,142.500005435944,0|0,3:2|0:0,0:0:0:0:
365,225,137182,1,0,3:0:0:0:
365,225,137293,2,0,P|425:209|439:203,1,71.2500027179719,8|0,3:2|0:0,0:0:0:0:
267,249,137516,2,0,P|250:308|249:324,1,71.2500027179719,0|0,3:2|0:0,0:0:0:0:
136,370,137738,6,0,P|126:303|106:216,1,142.500005435944,4|0,3:2|0:0,0:0:0:0:
161,144,138071,1,0,3:0:0:0:
161,144,138182,2,0,P|224:129|246:126,1,71.2500027179719,8|0,3:2|0:0,0:0:0:0:
324,151,138404,2,0,P|363:202|375:221,1,71.2500027179719,0|0,3:0|0:0,0:0:0:0:
277,298,138627,2,0,L|207:288,1,71.2500027179719,0|0,3:0|0:0,0:0:0:0:
356,345,138849,2,0,L|426:335,1,71.2500027179719,0|0,3:0|0:0,0:0:0:0:
451,192,139071,1,8,0:2:0:0:
451,192,139293,1,0,3:0:0:0:
374,244,139404,1,0,0:0:0:0:
302,183,139516,6,0,P|251:170|139:162,1,142.500005435944,4|0,3:2|0:0,0:0:0:0:
54,164,139849,1,0,3:0:0:0:
78,252,139960,2,0,L|162:245,1,71.2500027179719,8|0,0:0|0:0,0:0:0:0:
295,304,140182,2,0,L|223:309,1,71.2500027179719,0|0,3:0|0:0,0:0:0:0:
387,367,140404,2,0,B|407:297|407:297|384:205,1,142.500005435944,2|0,3:2|0:0,0:0:0:0:
304,146,140738,1,0,0:0:0:0:
417,60,140849,2,0,L|425:143,1,71.2500027179719,8|0,3:2|1:0,0:0:0:0:
317,56,141071,1,8,1:3:0:0:
232,88,141182,1,4,1:3:0:0:
207,177,141293,6,0,B|198:223|198:223|217:275|217:275|203:335,1,161.500003080368,4|8,3:2|0:0,0:0:0:0:
313,211,141627,2,0,B|322:165|322:165|303:113|303:113|317:53,1,161.500003080368,4|0,3:2|0:0,0:0:0:0:
468,214,141960,2,0,B|410:200|410:200|358:219|358:219|312:210,1,161.500003080368,4|0,3:2|3:0,0:0:0:0:
207,137,142293,1,8,0:0:0:0:
207,137,142404,2,0,L|293:128,1,80.750001540184,0|0,1:0|3:0,0:0:0:0:
169,40,142627,5,0,1:0:0:0:
103,112,142738,1,0,1:0:0:0:
126,206,142849,1,0,1:0:0:0:
212,249,142960,1,0,1:0:0:0:
299,206,143071,6,0,P|330:250|314:344,1,142.500005435944,4|0,3:2|0:0,0:0:0:0:
223,355,143404,1,0,3:0:0:0:
146,289,143516,2,0,P|94:278|-4:261,1,142.500005435944,8|0,3:2|3:2,0:0:0:0:
171,65,143960,2,0,P|190:154|200:217,1,142.500005435944,2|0,3:2|0:0,0:0:0:0:
277,270,144293,1,0,3:0:0:0:
277,270,144404,2,0,P|322:258|349:250,1,71.2500027179719,10|0,3:2|0:0,0:0:0:0:
416,175,144627,2,0,P|381:165|347:156,1,71.2500027179719,0|0,3:0|0:0,0:0:0:0:
159,90,144849,6,0,P|217:110|329:14,2,213.750008153916,6|0|0,0:0|0:0|3:0,0:0:0:0:
68,228,145738,2,0,P|102:217|137:209,1,71.2500027179719,2|0,3:2|1:0,0:0:0:0:
299,275,145960,2,0,P|249:260|206:253,1,71.2500027179719,0|0,0:0|3:0,0:0:0:0:
384,211,146182,2,0,P|434:196|477:189,1,71.2500027179719,8|0,3:2|0:0,0:0:0:0:
361,102,146404,1,0,3:2:0:0:
290,172,146516,1,0,0:0:0:0:
205,119,146627,6,0,P|152:105|60:93,1,142.500005435944,4|0,3:2|0:0,0:0:0:0:
13,178,146960,1,0,3:0:0:0:
102,221,147071,2,0,L|125:366,1,142.500005435944,8|0,3:2|3:2,0:0:0:0:
243,107,147515,1,2,3:2:0:0:
243,107,147626,2,0,L|220:252,1,142.500005435944,0|0,0:0|0:0,0:0:0:0:
286,323,147959,2,0,P|319:310|353:301,1,71.2500027179719,8|0,3:2|0:0,0:0:0:0:
416,222,148181,2,0,P|381:213|348:200,1,71.2500027179719,0|0,3:0|0:0,0:0:0:0:
246,83,148404,6,0,B|286:122|286:122|392:92,1,142.500005435944,2|0,3:2|0:0,0:0:0:0:
242,230,148849,2,0,B|202:191|202:191|96:221,1,142.500005435944,10|0,3:2|3:0,0:0:0:0:
199,322,149182,1,0,0:0:0:0:
198,322,149293,2,0,P|233:316|272:313,1,71.2500027179719,2|0,3:2|1:0,0:0:0:0:
397,260,149516,2,0,P|361:254|323:251,1,71.2500027179719,0|0,0:0|3:0,0:0:0:0:
259,161,149738,5,0,3:0:0:0:
201,219,149849,1,0,1:0:0:0:
118,214,149960,1,8,1:3:0:0:
67,148,150071,1,4,1:3:0:0:
75,65,150182,6,0,P|133:18|208:21,1,142.500005435944,4|0,3:2|0:0,0:0:0:0:
291,54,150516,1,0,3:0:0:0:
288,159,150627,2,0,P|230:112|155:115,1,142.500005435944,8|0,3:2|3:0,0:0:0:0:
293,263,151071,2,0,L|370:240,2,71.2500027179719,6|0|0,3:2|0:0|0:0,0:0:0:0:
181,246,151404,1,0,3:0:0:0:
180,245,151516,2,0,P|158:177|161:106,1,142.500005435944,8|0,3:2|1:0,0:0:0:0:
389,175,151960,6,0,P|392:245|370:313,1,142.500005435944,6|0,3:2|0:0,0:0:0:0:
275,286,152293,1,0,3:0:0:0:
275,286,152404,2,0,P|239:279|204:277,1,71.2500027179719,8|0,3:2|0:0,0:0:0:0:
155,187,152627,2,0,P|119:188|84:195,1,71.2500027179719,0|0,3:0|0:0,0:0:0:0:
255,193,152849,2,0,P|273:148|283:113,1,71.2500027179719,6|0,3:2|0:0,0:0:0:0:
377,108,153071,2,0,P|357:63|340:31,1,71.2500027179719,8|0,0:0|3:0,0:0:0:0:
242,9,153293,5,0,3:0:0:0:
186,74,153404,1,0,1:0:0:0:
101,34,153516,1,0,1:0:0:0:
33,99,153627,1,0,1:0:0:0:
74,184,153738,6,0,P|79:220|81:255,1,71.2500027179719,4|0,3:2|0:0,0:0:0:0:
163,333,153960,2,0,P|164:297|169:262,1,71.2500027179719,10|0,0:0|0:0,0:0:0:0:
256,177,154182,1,2,0:0:0:0:
256,177,154293,2,0,L|186:170,1,71.2500027179719,0|0,3:0|3:0,0:0:0:0:
282,260,154516,2,0,P|361:245|437:241,1,142.500005435944,8|0,1:2|3:0,0:0:0:0:
236,337,154849,2,0,P|272:343|307:346,1,71.2500027179719,8|0,0:0|3:0,0:0:0:0:
195,213,155071,2,0,P|230:190|265:172,1,71.2500027179719,2|0,0:0|1:0,0:0:0:0:
105,322,155293,2,0,P|136:351|161:372,1,71.2500027179719,0|0,1:0|1:0,0:0:0:0:
333,270,155516,6,0,P|339:233|345:183,1,71.2500027179719,4|0,3:2|0:0,0:0:0:0:
254,143,155738,2,0,P|248:106|242:56,1,71.2500027179719,10|0,0:0|0:0,0:0:0:0:
375,41,155960,1,2,0:0:0:0:
375,41,156071,2,0,P|370:76|364:111,1,71.2500027179719,0|0,3:0|3:0,0:0:0:0:
239,235,156293,2,0,P|172:210|103:193,1,142.500005435944,12|0,1:2|3:0,0:0:0:0:
287,310,156627,2,0,P|253:321|218:330,1,71.2500027179719,8|0,0:0|3:0,0:0:0:0:
346,201,156849,2,0,P|316:180|284:162,1,71.2500027179719,2|0,0:0|1:0,0:0:0:0:
404,318,157071,2,0,P|381:345|357:372,1,71.2500027179719,0|0,1:0|1:0,0:0:0:0:
465,238,157293,6,0,L|462:166,1,71.2500027179719,6|0,3:2|0:0,0:0:0:0:
386,45,157516,2,0,L|384:116,1,71.2500027179719,10|0,0:0|0:0,0:0:0:0:
275,208,157738,1,2,0:0:0:0:
275,208,157849,2,0,L|349:200,1,71.2500027179719,0|0,3:0|3:0,0:0:0:0:
247,302,158071,2,0,P|186:284|104:269,1,142.500005435944,12|0,1:2|3:0,0:0:0:0:
40,169,158404,2,0,L|124:156,1,71.2500027179719,8|0,0:0|3:0,0:0:0:0:
299,129,158627,2,0,L|215:116,1,71.2500027179719,2|0,1:2|1:0,0:0:0:0:
58,62,158849,2,0,L|142:49,1,71.2500027179719,2|0,1:2|1:0,0:0:0:0:
341,46,159071,6,0,P|386:100|381:169,1,142.500005435944,4|0,3:2|3:0,0:0:0:0:
318,227,159405,1,8,1:3:0:0:
318,227,159516,1,0,3:0:0:0:
171,46,159738,2,0,P|126:100|131:169,1,142.500005435944,4|0,3:2|0:0,0:0:0:0:
187,241,160071,1,0,0:0:0:0:
187,241,160182,2,0,P|215:196|223:171,1,71.2500027179719,0|0,3:0|0:0,0:0:0:0:
294,105,160404,2,0,L|309:190,1,71.2500027179719,8|0,0:0|0:0,0:0:0:0:
359,281,160627,2,0,P|313:263|281:259,1,71.2500027179719,0|0,3:0|0:0,0:0:0:0:
152,347,160849,6,0,B|224:379|225:323|316:366,1,142.500005435944,4|0,3:2|3:0,0:0:0:0:
411,354,161183,1,8,1:3:0:0:
411,354,161293,2,0,P|434:313|443:265,1,71.2500027179719,0|4,3:0|3:0,0:0:0:0:
446,121,161516,2,0,P|424:172|332:149,1,142.500005435944,4|0,3:2|0:0,0:0:0:0:
273,103,161849,1,0,1:0:0:0:
273,103,161960,2,0,P|221:94|183:93,1,71.2500027179719,0|0,3:0|0:0,0:0:0:0:
134,190,162182,2,0,P|186:181|224:180,1,71.2500027179719,8|0,0:0|0:0,0:0:0:0:
56,103,162404,1,0,3:0:0:0:
35,182,162516,1,0,0:0:0:0:
14,261,162627,6,0,P|78:273|179:298,1,142.500005435944,4|0,3:2|3:0,0:0:0:0:
246,317,162961,1,0,1:0:0:0:
246,317,163071,1,8,0:3:0:0:
472,215,163293,2,0,P|401:228|332:243,1,142.500005435944,4|0,3:2|0:0,0:0:0:0:
232,170,163627,1,0,0:0:0:0:
232,170,163738,2,0,L|246:241,1,71.2500027179719,0|0,3:0|0:0,0:0:0:0:
134,195,163960,2,0,L|147:124,1,71.2500027179719,8|0,0:0|0:0,0:0:0:0:
235,57,164182,2,0,P|202:42|170:26,1,71.2500027179719,0|0,3:0|0:0,0:0:0:0:
245,239,164404,6,0,P|312:217|388:215,1,142.500005435944,4|0,3:2|3:0,0:0:0:0:
469,225,164738,1,0,1:0:0:0:
469,225,164849,1,0,0:3:0:0:
251,145,165071,2,0,P|184:123|108:121,1,142.500005435944,4|0,3:2|0:0,0:0:0:0:
48,181,165405,1,0,1:0:0:0:
48,181,165516,1,4,0:3:0:0:
272,359,165738,2,0,P|286:326|294:291,1,71.2500027179719,10|0,0:0|1:0,0:0:0:0:
246,207,165960,2,0,P|232:174|224:139,1,71.2500027179719,0|0,3:0|3:0,0:0:0:0:
282,47,166182,6,0,P|334:65|435:71,1,142.500005435944,4|0,3:2|3:0,0:0:0:0:
450,162,166516,1,0,1:0:0:0:
450,162,166627,1,0,3:0:0:0:
399,339,166849,2,0,P|382:280|360:168,1,142.500005435944,4|0,3:2|0:0,0:0:0:0:
365,200,167293,2,0,P|362:165|363:129,1,71.2500027179719,0|0,3:0|0:0,0:0:0:0:
272,130,167516,2,0,P|272:94|270:58,1,71.2500027179719,8|0,0:0|0:0,0:0:0:0:
183,127,167738,2,0,P|180:162|181:198,1,71.2500027179719,0|0,3:0|0:0,0:0:0:0:
274,311,167960,6,0,P|223:292|116:283,1,142.500005435944,4|0,3:2|3:0,0:0:0:0:
70,339,168294,1,0,1:0:0:0:
70,339,168404,1,8,0:3:0:0:
268,126,168627,2,0,P|206:192|202:66,1,285.000010871888,4|0,3:2|3:0,0:0:0:0:
236,292,169293,2,0,P|193:283|148:279,1,71.2500027179719,8|0,0:0|1:0,0:0:0:0:
75,203,169516,2,0,P|118:194|165:189,1,71.2500027179719,0|0,3:0|1:0,0:0:0:0:
267,124,169738,6,0,P|316:164|342:243,1,142.500005435944,4|0,3:2|0:0,0:0:0:0:
320,336,170071,1,0,0:0:0:0:
320,336,170182,2,0,P|248:321|153:324,1,142.500005435944,0|0,3:0|0:0,0:0:0:0:
415,301,170627,2,0,P|435:253|448:150,1,142.500005435944,0|0,3:0|0:0,0:0:0:0:
329,246,171071,2,0,P|309:197|245:115,1,142.500005435944,0|0,3:0|0:0,0:0:0:0:
52,216,171516,6,0,P|122:205|213:195,1,142.500005435944,2|0,3:2|0:0,0:0:0:0:
256,125,171849,1,0,0:0:0:0:
256,125,171960,2,0,P|326:133|397:144,1,142.500005435944,0|0,3:0|0:0,0:0:0:0:
305,286,172404,2,0,P|234:294|163:305,1,142.500005435944,0|0,3:0|0:0,0:0:0:0:
387,228,172849,2,0,P|324:194|260:162,1,142.500005435944,0|0,3:2|0:0,0:0:0:0:
66,48,173293,6,0,P|86:117|108:217,1,142.500005435944,4|0,3:2|1:0,0:0:0:0:
176,260,173627,1,0,0:0:0:0:
176,260,173738,2,0,L|263:247,1,71.2500027179719,0|0,3:0|0:0,0:0:0:0:
376,171,173960,2,0,P|356:240|334:340,1,142.500005435944,4|0,0:0|3:0,0:0:0:0:
453,353,174293,1,0,1:0:0:0:
453,353,174404,2,0,L|445:266,1,71.2500027179719,0|0,0:0|1:0,0:0:0:0:
318,130,174627,2,0,P|361:165|395:174,1,71.2500027179719,0|0,3:0|0:0,0:0:0:0:
474,120,174849,2,0,P|431:85|397:76,1,71.2500027179719,8|0,0:0|0:0,0:0:0:0:
199,66,175071,6,0,P|209:100|224:224,1,142.500005435944,12|0,3:2|0:0,0:0:0:0:
165,304,175404,2,0,P|199:294|323:279,1,142.500005435944,12|0,3:2|0:0,0:0:0:0:
448,173,175738,2,0,P|379:190|308:197,1,142.500005435944,12|0,3:2|0:0,0:0:0:0:
199,66,176071,2,0,P|216:134|223:205,1,142.500005435944,12|0,3:2|0:0,0:0:0:0:
103,90,176404,2,0,P|113:38|121:4,1,71.2500027179719,2|0,3:2|0:0,0:0:0:0:
308,197,176627,2,0,P|298:249|290:283,1,71.2500027179719,2|0,3:2|0:0,0:0:0:0:
82,192,176849,5,4,3:2:0:0:
78,216,177292,1,0,3:0:0:0:
77,216,177737,2,0,P|112:208|147:202,1,71.2500027179719,0|0,3:2|0:0,0:0:0:0:
196,119,177959,2,0,P|231:124|265:132,1,71.2500027179719,0|0,0:0|0:0,0:0:0:0:
361,208,178181,2,0,P|325:213|291:221,1,71.2500027179719,0|0,3:0|0:0,0:0:0:0:
406,288,178404,2,0,P|442:293|476:301,1,71.2500027179719
454,199,178627,5,2,3:2:0:0:
454,199,178738,2,0,P|455:123|452:36,1,142.500005435944,0|0,0:0|0:0,0:0:0:0:
346,37,179071,2,0,P|342:79|341:117,2,71.2500027179719,0|0|0,3:0|0:0|0:0,0:0:0:0:
252,145,179404,1,0,0:0:0:0:
252,145,179516,2,0,L|244:66,1,71.2500027179719,0|0,3:2|0:0,0:0:0:0:
324,203,179738,2,0,P|345:163|363:136,1,71.2500027179719,0|0,0:0|0:0,0:0:0:0:
225,248,179960,2,0,P|194:203|178:186,1,71.2500027179719,0|0,3:0|0:0,0:0:0:0:
312,297,180182,2,0,P|348:285|381:279,1,71.2500027179719,0|0,0:0|0:0,0:0:0:0:
230,346,180404,6,0,B|177:373|148:321|91:347,1,142.500005435944,2|0,3:2|0:0,0:0:0:0:
30,269,180738,1,0,0:0:0:0:
30,269,180849,1,0,3:0:0:0:
30,269,181293,2,0,P|79:257|106:253,1,71.2500027179719,0|0,3:0|0:0,0:0:0:0:
215,231,181516,2,0,P|178:198|161:177,1,71.2500027179719,0|0,0:0|0:0,0:0:0:0:
260,65,181738,2,0,L|251:144,1,71.2500027179719,0|0,3:0|0:0,0:0:0:0:
342,232,181960,2,0,L|333:161,1,71.2500027179719
443,114,182182,1,0,3:0:0:0:
443,113,182404,6,0,P|440:149|436:184,1,71.2500027179719,2|0,0:0|0:0,0:0:0:0:
339,123,182627,2,0,P|335:88|333:53,1,71.2500027179719,0|0,3:0|0:0,0:0:0:0:
233,96,182849,2,0,P|230:131|226:166,1,71.2500027179719,0|0,0:0|0:0,0:0:0:0:
108,306,183071,5,2,3:2:0:0:
173,241,183182,1,0,0:0:0:0:
265,241,183293,1,0,0:0:0:0:
325,311,183404,1,0,0:0:0:0:
413,282,183516,2,0,P|425:242|429:203,1,71.2500027179719,0|0,3:0|0:0,0:0:0:0:
375,87,183738,2,0,P|335:75|296:71,1,71.2500027179719,0|0,0:0|0:0,0:0:0:0:
182,157,183960,5,4,3:2:0:0:
180,174,184404,1,0,3:0:0:0:
180,174,184849,2,0,P|154:145|126:122,1,71.2500027179719,0|0,3:0|0:0,0:0:0:0:
121,253,185071,2,0,P|154:263|190:269,1,71.2500027179719,0|0,0:0|0:0,0:0:0:0:
269,207,185293,2,0,P|277:162|279:131,1,71.2500027179719,0|0,3:0|0:0,0:0:0:0:
360,61,185516,2,0,P|363:96|369:131,1,71.2500027179719
500,241,185738,5,2,3:2:0:0:
500,241,185849,2,0,P|449:231|337:218,1,142.500005435944,0|0,0:0|0:0,0:0:0:0:
234,250,186182,1,0,3:0:0:0:
279,166,186293,2,0,L|284:69,2,71.2500027179719,0|0|0,0:0|0:0|0:0,0:0:0:0:
181,171,186627,2,0,P|146:154|106:147,1,71.2500027179719,0|0,3:2|0:0,0:0:0:0:
29,184,186849,2,0,P|12:219|5:259,1,71.2500027179719,0|0,0:0|0:0,0:0:0:0:
50,345,187071,2,0,P|85:362|125:369,1,71.2500027179719,0|0,3:0|0:0,0:0:0:0:
213,302,187293,2,0,P|248:285|288:278,1,71.2500027179719,0|0,0:0|0:0,0:0:0:0:
449,354,187516,6,0,P|406:340|410:247,1,142.500005435944,2|0,3:2|0:0,0:0:0:0:
402,161,187849,1,0,0:0:0:0:
465,228,187960,2,0,P|436:248|401:253,1,71.2500027179719,0|0,3:2|0:0,0:0:0:0:
285,127,188182,2,0,P|242:141|246:234,1,142.500005435944,2|0,0:0|3:0,0:0:0:0:
235,319,188516,1,0,0:0:0:0:
301,253,188627,2,0,P|272:232|237:227,1,71.2500027179719,0|0,0:0|0:0,0:0:0:0:
90,251,188849,5,0,3:2:0:0:
90,251,189071,2,0,L|83:326,1,71.2500027179719
137,156,189293,2,0,P|174:144|208:145,1,71.2500027179719,0|0,3:0|0:0,0:0:0:0:
277,223,189516,2,0,P|310:234|346:234,1,71.2500027179719,2|0,0:0|0:0,0:0:0:0:
431,174,189738,1,0,3:0:0:0:
431,174,189849,1,0,0:0:0:0:
337,130,189960,2,0,P|322:87|320:52,1,71.2500027179719
176,87,190182,6,0,L|136:120,1,35.625001358986,0|0,3:0|0:0,0:0:0:0:
187,129,190293,2,0,L|168:166,1,35.625001358986,0|0,0:0|0:0,0:0:0:0:
214,158,190404,2,0,L|220:202,1,35.625001358986,0|0,0:0|0:0,0:0:0:0:
246,176,190516,2,0,L|269:210,1,35.625001358986,0|0,0:0|0:0,0:0:0:0:
286,196,190627,2,0,P|305:236|303:279,1,71.2500027179719,0|0,3:0|0:0,0:0:0:0:
271,347,190849,1,0,0:0:0:0:
178,363,190960,1,0,0:0:0:0:
104,306,191071,6,0,P|89:239|106:146,1,142.500005435944,4|0,3:2|0:0,0:0:0:0:
260,65,191516,1,0,3:0:0:0:
260,65,191627,2,0,P|275:132|258:225,1,142.500005435944,0|0,0:0|0:0,0:0:0:0:
209,298,191960,2,0,P|262:293|309:291,1,71.2500027179719,0|0,3:0|0:0,0:0:0:0:
425,244,192183,2,0,P|389:241|354:237,1,71.2500027179719,0|0,0:0|0:0,0:0:0:0:
265,204,192405,2,0,P|276:170|281:134,1,71.2500027179719,0|0,3:0|0:0,0:0:0:0:
205,37,192627,2,0,P|194:70|189:106,1,71.2500027179719,0|0,0:0|0:0,0:0:0:0:
147,213,192849,5,2,3:2:0:0:
147,213,192960,2,0,L|77:205,2,71.2500027179719,0|0|0,0:0|0:0|0:0,0:0:0:0:
224,285,193294,2,0,B|285:267|297:311|366:290,1,142.500005435944,0|0,3:0|0:0,0:0:0:0:
437,224,193627,1,0,0:0:0:0:
363,126,193738,2,0,P|349:158|340:193,1,71.2500027179719,0|0,3:2|0:0,0:0:0:0:
252,151,193960,2,0,P|243:116|229:83,1,71.2500027179719,0|0,0:0|0:0,0:0:0:0:
143,183,194183,1,0,3:0:0:0:
197,248,194294,1,0,0:0:0:0:
281,256,194405,1,0,0:0:0:0:
353,210,194516,1,0,0:0:0:0:
437,224,194627,6,0,P|460:262|451:365,1,142.500005435944,2|0,3:2|0:0,0:0:0:0:
229,318,195072,1,0,3:0:0:0:
229,318,195183,2,0,P|302:308|376:304,1,142.500005435944,0|0,0:0|0:0,0:0:0:0:
347,206,195516,2,0,P|322:163|311:132,1,71.2500027179719,0|0,3:0|0:0,0:0:0:0:
245,61,195738,2,0,L|231:156,1,71.2500027179719,0|0,0:0|0:0,0:0:0:0:
178,223,195960,2,0,L|279:209,1,71.2500027179719,0|0,3:0|0:0,0:0:0:0:
371,297,196183,2,0,L|270:283,1,71.2500027179719,0|0,0:0|0:0,0:0:0:0:
121,304,196405,5,0,3:0:0:0:
121,304,196627,2,0,P|108:261|101:231,1,71.2500027179719,2|0,0:0|0:0,0:0:0:0:
138,142,196849,1,0,3:0:0:0:
138,142,196960,1,0,0:0:0:0:
233,174,197072,2,0,P|246:131|253:101,1,71.2500027179719,0|0,0:0|0:0,0:0:0:0:
367,71,197294,6,0,L|417:47,1,35.625001358986,2|0,3:2|0:0,0:0:0:0:
390,104,197405,2,0,L|458:101,1,35.625001358986,0|0,0:0|0:0,0:0:0:0:
393,151,197516,2,0,L|354:158,1,35.625001358986,0|0,0:0|0:0,0:0:0:0:
373,198,197627,2,0,L|339:191,1,35.625001358986,0|0,0:0|0:0,0:0:0:0:
356,237,197738,2,0,P|361:294|368:324,1,71.2500027179719,0|0,3:0|0:0,0:0:0:0:
486,231,197960,2,0,P|481:174|474:144,1,71.2500027179719,0|0,0:0|0:0,0:0:0:0:
281,59,198183,6,0,P|261:115|244:229,1,142.500005435944,4|0,3:2|0:0,0:0:0:0:
122,327,198627,2,0,P|110:267|107:236,2,71.2500027179719,2|0|0,3:2|0:0|0:0,0:0:0:0:
207,265,198960,2,0,P|217:211|220:179,1,71.2500027179719,0|0,0:0|3:0,0:0:0:0:
341,329,199183,2,0,P|305:331|270:337,2,71.2500027179719,0|0|0,0:0|0:0|0:0,0:0:0:0:
471,185,199516,5,2,3:2:0:0:
386,237,199627,1,0,0:0:0:0:
325,174,199738,1,0,0:0:0:0:
325,174,199960,5,0,3:0:0:0:
325,174,200072,2,0,P|248:167|167:165,1,142.500005435944,0|0,0:0|0:0,0:0:0:0:
279,274,200405,1,0,3:0:0:0:
279,274,200516,2,0,P|356:267|437:265,1,142.500005435944,0|0,0:0|0:0,0:0:0:0:
336,370,200849,2,0,P|300:364|265:362,1,71.2500027179719,0|0,3:0|0:0,0:0:0:0:
125,318,201072,2,0,P|160:312|195:310,1,71.2500027179719,0|0,0:0|0:0,0:0:0:0:
212,219,201294,2,0,P|197:153|197:127,1,71.2500027179719,0|0,3:0|0:0,0:0:0:0:
243,30,201516,1,0,0:0:0:0:
243,30,201738,6,0,P|297:69|383:47,1,142.500005435944,2|0,3:2|0:0,0:0:0:0:
461,66,202072,1,0,0:0:0:0:
464,168,202183,2,0,P|415:155|370:157,1,71.2500027179719,0|0,3:2|0:0,0:0:0:0:
285,104,202405,2,0,P|231:143|145:121,1,142.500005435944,2|0,0:0|3:0,0:0:0:0:
67,147,202738,1,0,0:0:0:0:
64,242,202849,2,0,P|113:229|158:231,1,71.2500027179719,0|0,0:0|0:0,0:0:0:0:
391,174,203072,5,0,3:0:0:0:
365,262,203183,1,0,0:0:0:0:
274,282,203294,2,0,P|239:262|222:231,1,71.2500027179719,0|0,0:0|0:0,0:0:0:0:
255,368,203516,5,0,3:0:0:0:
274,364,203627,2,0,L|352:350,1,71.2500027179719,12|0,0:0|0:0,0:0:0:0:
454,278,203849,1,0,3:0:0:0:
435,274,203960,2,0,L|357:260,1,71.2500027179719,12|0,0:0|0:0,0:0:0:0:
164,238,204182,1,0,3:0:0:0:
183,234,204293,2,0,L|261:220,1,71.2500027179719,12|0,0:0|0:0,0:0:0:0:
511,177,204516,1,0,3:0:0:0:
492,173,204627,2,0,L|414:159,1,71.2500027179719,12|0,0:0|0:0,0:0:0:0:
297,43,204849,6,0,L|311:136,1,71.2500027179719,4|0,0:0|0:0,0:0:0:0:
362,299,205071,2,0,L|351:228,1,71.2500027179719,2|0,0:0|0:0,0:0:0:0:
138,162,205293,5,0,3:0:0:0:
151,188,205404,2,0,P|190:202|243:208,1,80.750001540184,12|0,0:0|0:0,0:0:0:0:
353,22,205627,1,0,3:0:0:0:
327,35,205738,2,0,P|313:74|307:127,1,80.750001540184,12|0,0:0|0:0,0:0:0:0:
493,237,205960,1,0,3:0:0:0:
480,211,206071,2,0,P|441:197|388:191,1,80.750001540184,12|0,0:0|0:0,0:0:0:0:
278,377,206293,1,0,3:0:0:0:
304,364,206404,2,0,P|318:325|324:272,1,80.750001540184,12|0,0:0|0:0,0:0:0:0:
289,139,206627,6,0,P|225:126|191:117,1,80.750001540184,6|0,0:0|0:0,0:0:0:0:
402,191,206849,2,0,P|466:178|500:169,1,80.750001540184,2|0,0:0|0:0,0:0:0:0:
323,286,207071,5,4,3:1:0:0:
323,286,207293,1,10,0:0:0:0:
225,246,207404,1,0,0:0:0:0:
137,306,207516,2,0,P|97:328|-1:239,1,190,0|10,0:0|0:0,0:0:0:0:
49,148,207849,1,0,0:0:0:0:
148,204,207960,2,0,P|171:165|175:111,1,95,0|0,0:0|0:0,0:0:0:0:
116,18,208182,1,10,0:0:0:0:
252,19,208293,2,0,B|294:65|294:65|264:199,1,190,0|0,0:0|0:0,0:0:0:0:
325,276,208627,1,10,0:0:0:0:
420,234,208738,1,0,0:0:0:0:
492,308,208849,5,0,0:0:0:0:
492,308,209071,1,10,0:0:0:0:
405,365,209182,1,0,0:0:0:0:
326,296,209293,2,0,P|322:255|315:199,1,95,0|0,0:0|0:0,0:0:0:0:
416,100,209516,2,0,P|412:140|406:198,1,95,10|0,0:0|0:0,0:0:0:0:
248,126,209738,1,0,0:0:0:0:
151,103,209849,1,0,0:0:0:0:
69,146,209960,1,10,0:0:0:0:
41,227,210071,2,0,B|113:264|151:197|239:249,1,190,0|0,0:0|0:0,0:0:0:0:
326,188,210404,2,0,P|341:222|354:287,1,95,10|0,0:0|0:0,0:0:0:0:
255,352,210627,1,0,0:0:0:0:
255,352,210849,6,0,P|215:345|156:340,1,95,10|0,0:0|0:0,0:0:0:0:
68,251,211071,2,0,P|115:244|163:240,1,95,0|0,0:0|0:0,0:0:0:0:
238,165,211293,2,0,P|185:147|146:132,1,95,10|0,0:0|0:0,0:0:0:0:
326,105,211516,2,0,B|338:150|338:150|328:208,1,95,0|0,0:0|0:0,0:0:0:0:
419,215,211738,2,0,B|398:256|398:256|351:288,1,95,10|0,0:0|0:0,0:0:0:0:
241,349,211960,2,0,B|246:299|246:299|273:256,1,95,0|0,0:0|0:0,0:0:0:0:
443,371,212182,2,0,L|339:365,1,95,10|0,0:0|0:0,0:0:0:0:
152,190,212404,6,0,B|203:223|203:223|335:196,1,190,2|8,0:0|0:0,0:0:0:0:
363,84,212738,1,0,0:0:0:0:
458,155,212849,2,0,B|466:200|466:200|452:267,1,95,2|0,0:0|0:0,0:0:0:0:
362,378,213071,2,0,B|354:333|354:333|368:266,1,95,8|0,0:0|0:0,0:0:0:0:
226,308,213293,1,2,0:0:0:0:
226,308,213404,1,0,0:0:0:0:
285,209,213516,2,0,B|293:155|293:155|281:103,1,95,8|0,0:0|0:0,0:0:0:0:
152,50,213738,5,0,1:0:0:0:
110,134,213849,1,0,1:0:0:0:
105,229,213960,1,0,1:0:0:0:
136,317,214071,1,0,1:0:0:0:
212,373,214182,6,0,P|274:342|378:349,1,142.5,4|0,0:0|0:0,0:0:0:0:
386,365,214404,2,0,P|447:370|494:367,1,95,10|0,0:0|0:0,0:0:0:0:
479,233,214627,1,0,0:0:0:0:
386,248,214738,2,0,P|325:253|278:250,2,95,2|8|0,0:0|0:0|0:0,0:0:0:0:
333,153,215071,2,0,P|278:103|257:73,1,95,2|0,0:0|0:0,0:0:0:0:
136,83,215293,2,0,P|86:138|56:159,1,95,8|0,0:0|0:0,0:0:0:0:
66,280,215516,2,0,P|121:330|142:360,1,95,2|0,0:0|0:0,0:0:0:0:
263,350,215738,2,0,P|313:295|343:274,1,95,8|0,0:0|0:0,0:0:0:0:
420,120,215960,6,0,P|369:149|240:150,1,190,2|8,0:0|0:0,0:0:0:0:
152,93,216293,1,0,0:0:0:0:
47,276,216404,2,0,P|132:237|226:245,1,190,2|8,0:0|0:0,0:0:0:0:
328,316,216738,1,0,0:0:0:0:
455,290,216849,2,0,L|465:195,1,95,2|0,0:0|0:0,0:0:0:0:
385,51,217071,2,0,L|375:146,1,95,8|0,0:0|0:0,0:0:0:0:
262,170,217293,2,0,P|202:157|159:154,1,95,0|0,0:0|0:0,0:0:0:0:
46,272,217516,2,0,P|106:259|149:256,1,95,8|0,0:0|0:0,0:0:0:0:
318,238,217738,6,0,B|290:306|297:364|297:364|327:325|373:320,1,190,4|8,0:0|0:0,0:0:0:0:
404,227,218071,2,0,P|370:165|253:180,1,190,4|0,0:0|0:0,0:0:0:0:
77,321,218404,2,0,P|165:337|218:264,1,190,12|0,0:0|0:0,0:0:0:0:
166,181,218738,1,0,0:0:0:0:
101,111,218849,2,0,P|102:55|126:12,1,95,8|0,0:0|0:0,0:0:0:0:
290,71,219071,2,0,L|192:85,1,95,2|0,0:0|0:0,0:0:0:0:
354,150,219293,2,0,L|452:164,1,95,10|0,0:0|0:0,0:0:0:0:
267,343,219516,6,0,P|235:278|264:156,1,190,4|8,0:0|0:0,0:0:0:0:
385,65,219849,2,0,P|409:155|374:241,1,190,4|0,0:0|0:0,0:0:0:0:
76,189,220182,2,0,P|127:162|286:181,1,190,12|0,0:0|0:0,0:0:0:0:
280,257,220516,1,0,0:0:0:0:
348,324,220627,2,0,P|395:322|436:300,1,95,8|0,0:0|0:0,0:0:0:0:
468,146,220849,5,0,3:0:0:0:
422,65,220960,1,0,1:0:0:0:
334,33,221071,1,8,1:2:0:0:
248,66,221182,1,0,1:0:0:0:
204,148,221293,6,0,P|207:250|213:351,1,190,4|0,0:0|3:0,0:0:0:0:
305,190,221627,2,0,P|301:292|296:393,1,190,4|0,0:0|3:0,0:0:0:0:
387,131,221960,2,0,P|394:232|399:333,1,190,4|0,0:0|3:0,0:0:0:0:
288,105,222293,2,0,P|284:207|279:308,1,190,4|0,0:0|3:0,0:0:0:0:
188,189,222627,2,0,P|140:172|96:172,1,95,4|0,0:0|1:0,0:0:0:0:
36,245,222849,1,0,3:0:0:0:
54,338,222960,1,0,3:0:0:0:
147,351,223071,6,0,B|215:322|215:322|338:365,1,190,4|0,3:2|0:0,0:0:0:0:
446,257,223404,2,0,B|378:286|378:286|268:247,1,190,4|0,3:2|0:0,0:0:0:0:
189,120,223738,2,0,L|182:226,1,95,4|0,3:2|0:0,0:0:0:0:
285,85,223960,5,0,1:0:0:0:
248,34,224071,1,0,1:0:0:0:
185,8,224182,1,0,1:0:0:0:
108,26,224293,1,0,1:0:0:0:
49,83,224404,5,0,1:0:0:0:
38,176,224515,1,0,1:0:0:0:
93,252,224627,1,0,1:0:0:0:
193,279,224738,1,0,1:0:0:0:
290,224,224849,1,4,1:2:0:0:
329,206,226627,6,0,P|310:255|295:303,1,99.7499969558717,4|0,0:0|0:0,0:0:0:0:
207,339,227515,6,0,P|149:324|112:314,1,71.2500027179719,8|0,0:0|0:0,0:0:0:0:
202,244,227738,1,0,0:0:0:0:
130,184,227849,2,0,P|110:153|91:113,1,71.2500027179719,8|0,0:0|0:0,0:0:0:0:
224,160,228071,1,0,0:0:0:0:
286,91,228182,2,0,P|322:64|346:50,1,71.2500027179719,8|0,0:0|0:0,0:0:0:0:
466,201,228405,6,0,P|395:190|321:184,1,142.500005435944,4|0,3:2|0:0,0:0:0:0:
221,215,228738,1,0,3:0:0:0:
251,317,228849,2,0,P|203:355|114:338,1,142.500005435944,8|0,3:2|3:2,0:0:0:0:
192,107,229293,1,2,3:2:0:0:
192,107,229404,2,0,P|182:172|174:264,1,142.500005435944,0|0,0:0|0:0,0:0:0:0:
277,325,229738,2,0,P|271:289|263:254,1,71.2500027179719,8|0,3:2|0:0,0:0:0:0:
91,158,229960,2,0,P|83:192|77:227,1,71.2500027179719,0|0,3:0|0:0,0:0:0:0:
206,336,230182,6,0,P|255:327|285:323,1,71.2500027179719,2|0,3:2|0:0,0:0:0:0:
421,272,230404,2,0,P|372:263|342:259,1,71.2500027179719,0|0,0:0|0:0,0:0:0:0:
286,81,230627,2,0,P|256:145|257:215,1,142.500005435944,10|0,3:2|3:0,0:0:0:0:
173,269,230960,1,0,0:0:0:0:
106,194,231071,2,0,P|94:141|94:103,1,71.2500027179719,2|0,3:2|1:0,0:0:0:0:
192,31,231293,2,0,P|180:84|180:122,1,71.2500027179719,0|0,0:0|3:0,0:0:0:0:
257,216,231515,5,0,3:0:0:0:
335,181,231627,1,0,1:0:0:0:
407,225,231738,1,8,1:3:0:0:
410,310,231849,1,4,1:3:0:0:
335,353,231960,6,0,P|258:333|178:333,1,142.500005435944,4|0,3:2|3:0,0:0:0:0:
64,293,232293,1,0,3:0:0:0:
121,375,232404,2,0,P|153:318|170:227,1,142.500005435944,8|0,3:2|3:2,0:0:0:0:
216,77,232849,2,0,P|230:146|264:208,1,142.500005435944,0|0,3:2|0:0,0:0:0:0:
339,274,233182,1,0,3:0:0:0:
428,230,233293,2,0,P|478:217|504:213,1,71.2500027179719,8|0,3:2|0:0,0:0:0:0:
314,359,233515,2,0,P|264:346|238:342,1,71.2500027179719,0|0,3:2|0:0,0:0:0:0:
68,155,233738,6,0,P|117:199|205:164,1,142.500005435944,4|0,3:2|0:0,0:0:0:0:
254,111,234071,1,0,3:0:0:0:
352,123,234182,2,0,P|366:168|371:210,1,71.2500027179719,8|0,3:2|0:0,0:0:0:0:
302,271,234404,2,0,P|290:304|284:339,1,71.2500027179719,0|0,3:0|0:0,0:0:0:0:
457,350,234627,2,0,P|472:310|443:193,1,142.500005435944,0|0,3:0|3:0,0:0:0:0:
261,174,235071,1,8,0:0:0:0:
261,174,235293,1,0,3:0:0:0:
191,245,235404,1,0,0:0:0:0:
113,182,235515,6,0,P|95:113|104:42,1,142.500005435944,4|0,3:2|0:0,0:0:0:0:
199,12,235849,1,0,3:0:0:0:
285,61,235960,2,0,P|321:59|357:58,1,71.2500027179719,8|0,0:0|0:0,0:0:0:0:
432,144,236182,2,0,P|396:142|360:141,1,71.2500027179719,0|0,3:0|0:0,0:0:0:0:
512,201,236404,2,0,B|461:226|461:226|367:224,1,142.500005435944,2|0,3:2|0:0,0:0:0:0:
193,149,236738,1,0,0:0:0:0:
262,290,236849,2,0,L|263:218,1,71.2500027179719,8|0,3:2|1:0,0:0:0:0:
116,218,237071,1,8,1:3:0:0:
160,306,237182,1,4,1:3:0:0:
262,290,237293,6,0,B|299:291|330:278|330:278|352:291|352:291|386:284|422:296,1,161.500003080368,4|8,3:2|0:0,0:0:0:0:
506,179,237627,2,0,B|468:180|438:167|438:167|416:180|416:180|382:173|346:185,1,161.500003080368,4|0,3:2|0:0,0:0:0:0:
145,134,237960,2,0,P|185:201|260:187,1,161.500003080368,4|0,3:2|3:0,0:0:0:0:
347,87,238293,1,8,0:0:0:0:
266,25,238404,2,0,L|251:118,1,80.750001540184,0|0,1:0|3:0,0:0:0:0:
293,264,238627,5,0,1:0:0:0:
367,201,238738,1,0,1:0:0:0:
456,236,238849,1,0,1:0:0:0:
463,321,238960,1,0,1:0:0:0:
393,370,239071,6,0,P|347:358|228:368,1,142.500005435944,4|0,3:2|0:0,0:0:0:0:
182,200,239404,1,0,3:0:0:0:
110,252,239515,2,0,P|168:287|257:244,1,142.500005435944,8|0,3:2|3:2,0:0:0:0:
335,36,239960,2,0,L|317:201,1,142.500005435944,2|0,3:2|0:0,0:0:0:0:
396,270,240293,1,0,3:0:0:0:
396,270,240404,2,0,L|406:180,1,71.2500027179719,8|0,3:2|0:0,0:0:0:0:
230,88,240627,2,0,L|222:158,1,71.2500027179719,0|0,3:0|0:0,0:0:0:0:
307,355,240849,6,0,P|405:314|511:306,2,213.750008153916,6|0|0,0:0|0:0|3:0,0:0:0:0:
204,147,241738,1,2,3:2:0:0:
204,147,241849,2,0,P|227:254|232:306,1,142.500005435944,0|0,1:0|3:0,0:0:0:0:
327,257,242182,2,0,P|372:243|412:237,1,71.2500027179719,8|0,3:2|0:0,0:0:0:0:
439,80,242404,1,0,3:2:0:0:
367,149,242515,1,0,0:0:0:0:
285,88,242627,6,0,P|216:66|123:69,1,142.500005435944,4|0,3:2|0:0,0:0:0:0:
239,169,242960,1,0,3:0:0:0:
140,155,243071,2,0,P|68:164|-15:206,1,142.500005435944,8|0,3:2|3:2,0:0:0:0:
298,340,243515,1,2,3:2:0:0:
298,340,243627,2,0,P|288:268|246:185,1,142.500005435944,0|0,0:0|0:0,0:0:0:0:
163,162,243960,2,0,P|150:217|147:259,1,71.2500027179719,8|0,3:2|0:0,0:0:0:0:
256,104,244182,2,0,P|250:68|241:34,1,71.2500027179719,0|0,3:0|0:0,0:0:0:0:
18,198,244404,6,0,P|63:230|174:217,1,142.500005435944,2|0,3:2|0:0,0:0:0:0:
390,171,244849,2,0,P|319:167|260:203,1,142.500005435944,10|0,3:2|3:0,0:0:0:0:
293,303,245182,1,0,0:0:0:0:
293,303,245293,2,0,P|336:299|366:298,1,71.2500027179719,2|0,3:2|1:0,0:0:0:0:
219,358,245515,2,0,P|176:354|146:353,1,71.2500027179719,0|0,0:0|3:0,0:0:0:0:
34,184,245738,5,0,3:0:0:0:
72,259,245849,1,0,1:0:0:0:
155,271,245960,1,8,1:3:0:0:
219,218,246071,1,4,1:3:0:0:
223,135,246182,6,0,P|211:53|255:2,1,142.500005435944,4|0,3:2|0:0,0:0:0:0:
351,24,246515,1,0,3:0:0:0:
351,24,246627,2,0,L|339:106,1,71.2500027179719,8|0,3:2|0:0,0:0:0:0:
398,197,246849,2,0,L|408:267,1,71.2500027179719,0|0,3:0|0:0,0:0:0:0:
291,327,247071,2,0,P|249:321|218:317,2,71.2500027179719,6|0|0,3:2|0:0|0:0,0:0:0:0:
294,227,247404,1,0,3:0:0:0:
294,227,247515,2,0,P|254:181|202:103,1,142.500005435944,8|0,3:2|1:0,0:0:0:0:
6,245,247960,6,0,P|48:236|86:232,1,71.2500027179719,6|0,3:2|0:0,0:0:0:0:
174,246,248182,1,0,0:0:0:0:
252,305,248293,2,0,P|321:312|373:266,1,142.500005435944,0|0,3:0|0:0,0:0:0:0:
432,177,248627,2,0,P|390:168|352:164,1,71.2500027179719,0|0,3:0|0:0,0:0:0:0:
258,62,248849,2,0,L|271:140,1,71.2500027179719,6|0,3:2|0:0,0:0:0:0:
174,246,249071,2,0,L|185:175,1,71.2500027179719,8|0,0:0|3:0,0:0:0:0:
47,226,249293,5,0,3:0:0:0:
56,315,249404,1,0,1:0:0:0:
127,373,249515,1,0,1:0:0:0:
226,380,249627,1,0,1:0:0:0:
307,320,249738,6,0,P|365:301|390:296,1,71.2500027179719,4|0,3:2|0:0,0:0:0:0:
501,220,249960,2,0,P|465:213|418:196,1,71.2500027179719,10|0,0:0|0:0,0:0:0:0:
330,128,250182,1,2,0:0:0:0:
330,128,250293,2,0,L|321:209,1,71.2500027179719,0|0,3:0|3:0,0:0:0:0:
150,111,250515,2,0,P|162:178|183:270,1,142.500005435944,8|0,1:2|3:0,0:0:0:0:
324,352,250849,2,0,P|266:317|238:307,1,71.2500027179719,8|0,0:0|3:0,0:0:0:0:
96,336,251071,2,0,P|129:348|164:350,1,71.2500027179719,2|0,0:0|1:0,0:0:0:0:
333,245,251293,1,0,1:0:0:0:
333,245,251404,1,0,1:0:0:0:
248,156,251515,6,0,P|239:121|231:86,1,71.2500027179719,4|0,3:2|0:0,0:0:0:0:
333,239,251738,2,0,P|341:204|349:169,1,71.2500027179719,10|0,0:0|0:0,0:0:0:0:
170,297,251960,1,2,0:0:0:0:
170,297,252071,2,0,P|222:293|266:294,1,71.2500027179719,0|0,3:0|3:0,0:0:0:0:
478,347,252293,2,0,P|426:341|330:339,1,142.500005435944,12|0,1:2|3:0,0:0:0:0:
170,297,252627,2,0,P|182:245|191:210,1,71.2500027179719,8|0,0:0|3:0,0:0:0:0:
257,83,252849,2,0,P|264:117|273:152,1,71.2500027179719,2|0,0:0|1:0,0:0:0:0:
161,130,253071,1,0,1:0:0:0:
161,130,253182,1,0,1:0:0:0:
288,252,253293,6,0,P|326:235|360:208,1,71.2500027179719,6|0,3:2|0:0,0:0:0:0:
478,122,253515,2,0,P|470:146|456:196,1,71.2500027179719,10|0,0:0|0:0,0:0:0:0:
512,354,253738,2,0,P|452:317|359:338,1,142.500005435944,2|0,0:0|3:0,0:0:0:0:
220,247,254071,2,0,P|289:253|349:216,1,142.500005435944,12|0,1:2|3:0,0:0:0:0:
303,59,254404,2,0,L|308:145,1,71.2500027179719,8|0,0:0|3:0,0:0:0:0:
398,292,254627,5,2,1:2:0:0:
349,215,254738,1,0,1:0:0:0:
259,190,254849,1,0,1:2:0:0:
169,233,254960,1,0,1:0:0:0:
129,326,255071,5,4,1:2:0:0:
131,320,255515,1,0,1:0:0:0:
244,285,255960,5,0,1:0:0:0:
242,291,256404,1,0,1:0:0:0:
143,222,256849,5,0,1:0:0:0:
141,216,257293,1,0,1:0:0:0:
252,193,257738,5,0,1:0:0:0:
250,199,258182,5,0,3:0:0:0:
190,278,258293,1,0,1:0:0:0:
153,181,258404,1,0,1:0:0:0:
225,97,258515,1,0,1:0:0:0:
340,153,258627,6,0,P|350:186|343:239,1,80.750001540184,4|0,3:2|0:0,0:0:0:0:
270,366,258849,2,0,P|265:326|275:287,1,80.750001540184,8|0,0:0|0:0,0:0:0:0:
400,305,259071,1,0,3:0:0:0:
400,305,259182,1,0,0:0:0:0:
512,212,259293,2,0,L|426:223,1,80.750001540184,8|0,0:0|3:0,0:0:0:0:
340,153,259515,2,0,P|319:108|310:67,1,80.750001540184,2|0,0:0|0:0,0:0:0:0:
431,222,259738,2,0,P|452:177|461:136,1,80.750001540184,8|0,0:0|0:0,0:0:0:0:
327,257,259960,2,0,L|246:248,1,80.750001540184,0|0,3:0|0:0,0:0:0:0:
140,167,260182,2,0,L|220:158,1,80.750001540184,8|0,0:0|0:0,0:0:0:0:
307,94,260404,6,0,B|318:135|318:135|313:179,1,80.750001540184,0|0,3:0|0:0,0:0:0:0:
240,327,260627,2,0,B|235:288|235:288|246:247,1,80.750001540184,8|0,0:0|0:0,0:0:0:0:
384,241,260849,1,0,3:0:0:0:
384,241,260960,1,0,0:0:0:0:
425,342,261071,2,0,L|341:328,1,80.750001540184,8|0,0:0|3:0,0:0:0:0:
123,215,261293,5,2,0:0:0:0:
184,279,261404,1,0,3:0:0:0:
271,266,261515,1,0,1:0:0:0:
322,193,261627,1,0,1:0:0:0:
400,150,261738,1,0,1:0:0:0:
480,183,261849,1,0,1:0:0:0:
508,266,261960,2,0,L|493:357,1,80.750001540184,0|4,3:0|3:0,0:0:0:0:
338,316,262182,6,0,P|263:290|183:278,1,161.500003080368,4|8,3:2|0:0,0:0:0:0:
82,203,262515,1,0,0:0:0:0:
82,203,262627,2,0,P|121:194|159:181,1,80.750001540184,0|0,3:0|0:0,0:0:0:0:
295,128,262849,2,0,P|255:119|217:106,1,80.750001540184,8|0,0:0|3:0,0:0:0:0:
123,15,263071,2,0,L|129:105,1,80.750001540184,2|0,0:0|0:0,0:0:0:0:
199,251,263293,2,0,P|237:239|277:232,1,80.750001540184,8|0,0:0|0:0,0:0:0:0:
440,220,263515,2,0,P|401:207|361:200,1,80.750001540184,0|0,3:0|0:0,0:0:0:0:
184,283,263738,2,0,P|222:270|262:263,1,80.750001540184,8|0,0:0|0:0,0:0:0:0:
438,246,263960,6,0,P|423:299|419:331,1,80.750001540184,0|0,3:0|0:0,0:0:0:0:
344,176,264182,2,0,P|337:136|325:97,1,80.750001540184,8|0,0:0|0:0,0:0:0:0:
229,160,264404,1,0,3:0:0:0:
229,160,264515,1,0,0:0:0:0:
152,22,264627,2,0,P|140:60|133:100,1,80.750001540184,8|0,0:0|3:0,0:0:0:0:
73,284,264849,5,0,3:0:0:0:
157,240,264960,1,0,3:0:0:0:
250,260,265071,1,8,0:0:0:0:
326,319,265182,1,0,0:0:0:0:
422,308,265293,2,0,P|469:294|507:277,1,80.750001540184,2|0,3:2|0:0,0:0:0:0:
470,141,265515,1,2,1:2:0:0:
398,210,265627,1,0,1:0:0:0:
282,146,265738,6,0,P|217:129|93:117,1,161.500003080368,4|8,3:2|0:0,0:0:0:0:
72,220,266071,1,0,0:0:0:0:
156,295,266182,2,0,P|212:289|263:286,1,80.750001540184,0|0,3:0|0:0,0:0:0:0:
408,352,266404,2,0,P|367:347|327:344,1,80.750001540184,8|0,0:0|3:0,0:0:0:0:
320,88,266627,2,0,P|350:161|331:239,1,161.500003080368,0|8,0:0|0:0,0:0:0:0:
230,173,266960,1,0,0:0:0:0:
210,75,267071,2,0,P|231:12|244:-5,1,80.750001540184,0|0,3:0|0:0,0:0:0:0:
133,139,267293,1,10,0:0:0:0:
133,139,267404,1,0,0:0:0:0:
40,79,267515,6,0,B|26:138|26:138|41:183|41:183|30:235,1,161.500003080368,4|8,3:2|0:0,0:0:0:0:
93,330,267849,1,0,0:0:0:0:
178,256,267960,2,0,P|216:243|272:235,1,80.750001540184,0|0,3:0|0:0,0:0:0:0:
392,333,268182,2,0,P|354:320|298:312,1,80.750001540184,8|0,0:0|3:0,0:0:0:0:
111,194,268404,5,0,1:0:0:0:
83,274,268515,1,0,3:0:0:0:
133,343,268627,1,0,1:0:0:0:
219,341,268738,1,0,1:0:0:0:
265,270,268849,5,0,1:0:0:0:
342,212,268960,1,0,1:0:0:0:
436,232,269071,1,0,1:0:0:0:
473,321,269182,1,0,1:0:0:0:
473,321,269738,5,4,3:2:0:0:
256,192,269793,12,0,274182,0:0:0:0:
