osu file format v14

[General]
AudioFilename: audio.mp3
AudioLeadIn: 0
PreviewTime: 224793
Countdown: 0
SampleSet: Soft
StackLeniency: 0.7
Mode: 0
LetterboxInBreaks: 0
WidescreenStoryboard: 1

[Editor]
DistanceSpacing: 0.8
BeatDivisor: 8
GridSize: 32
TimelineZoom: 3.099999

[Metadata]
Title:RHAPSODY OF BLUE SKY
TitleUnicode:青空のラプソディ
Artist:fhana
ArtistUnicode:fhána
Creator:Sotarks
Version:Pentori's Hard
Source:小林さんちのメイドラゴン
Tags:Kobayashi-san Chi no Maid Dragon Op Opening full ver version lantis anime aozora no junichi sato yuxuki waga kevin mitsunaga towana nozhomi xinely kalibe haruto haruto_aizawa pkk akitoshi corinn pentori
BeatmapID:1241871
BeatmapSetID:556757

[Difficulty]
HPDrainRate:5
CircleSize:4
OverallDifficulty:6
ApproachRate:7.7
SliderMultiplier:1.37
SliderTickRate:1

[Events]
//Background and Video events
0,0,"BG.jpg",0,0
//Break Periods
2,84604,86721
2,177049,190276
2,255271,257387
//Storyboard Layer 0 (Background)
//Storyboard Layer 1 (Fail)
//Storyboard Layer 2 (Pass)
//Storyboard Layer 3 (Foreground)
//Storyboard Sound Samples

[TimingPoints]
4405,444.444444444444,4,2,2,50,1,0
4405,-83.3333333333334,4,2,2,50,0,0
20404,-55.5555555555555,4,2,3,50,0,0
36403,-71.4285714285715,4,2,3,50,0,0
54182,-55.5555555555555,4,2,2,60,0,1
66626,-55.5555555555555,4,2,3,60,0,1
68403,-55.5555555555555,4,2,2,60,0,1
79070,-55.5555555555555,4,2,3,60,0,1
84404,-55.5555555555555,4,2,2,50,0,0
87515,-55.5555555555555,4,2,3,50,0,0
111070,-71.4285714285715,4,2,3,50,0,0
128849,-55.5555555555555,4,2,2,60,0,1
141292,-55.5555555555555,4,2,3,60,0,1
143070,-55.5555555555555,4,2,2,60,0,1
153737,-55.5555555555555,4,2,3,60,0,1
159071,-55.5555555555555,4,2,2,50,0,0
191071,-83.3333333333334,4,2,2,50,0,0
203515,-71.4285714285715,4,2,3,50,0,0
207070,-55.5555555555555,4,2,2,50,0,0
228404,-55.5555555555555,4,2,2,60,0,1
237292,-55.5555555555555,4,2,3,60,0,1
239070,-55.5555555555555,4,2,2,60,0,1
249737,-55.5555555555555,4,2,3,60,0,1
255071,-55.5555555555555,4,2,3,50,0,0
274182,-55.5555555555555,4,2,3,5,0,0

[Colours]
Combo1 : 172,210,205
Combo2 : 255,62,226
Combo3 : 242,255,85
Combo4 : 20,0,204
SliderTrackOverride : 0,0,10
SliderBorder : 255,255,250

[HitObjects]
469,19,4405,6,0,P|424:60|310:27,1,164.39999498291,6|8,0:0|0:0,0:0:0:0:
229,192,5293,2,0,P|306:172|370:219,1,164.39999498291,2|10,3:2|0:0,0:0:0:0:
195,267,6182,2,0,L|212:83,2,164.39999498291,2|8|2,2:0|0:0|3:2,0:0:0:0:
21,213,7516,2,0,P|60:255|53:323,1,123.299996237183,10|0,0:0|0:0,0:0:0:0:
74,358,7960,6,0,B|141:351|141:351|178:370|178:370|257:363,1,164.39999498291,2|8,0:0|0:0,0:0:0:0:
412,380,8849,2,0,P|452:324|429:232,1,164.39999498291,2|10,3:2|0:0,0:0:0:0:
280,137,9738,2,0,L|443:121,2,164.39999498291,2|8|2,0:0|0:0|3:2,0:0:0:0:
136,247,11071,2,0,P|181:266|239:250,1,82.1999974914552,10|0,0:0|3:0,0:0:0:0:
189,175,11516,6,0,B|167:90|218:111|189:7,1,164.39999498291,2|8,0:0|0:0,0:0:0:0:
305,153,12405,2,0,P|369:105|446:125,1,164.39999498291,2|10,3:2|0:0,0:0:0:0:
507,296,13293,2,0,B|406:272|406:272|330:298,1,164.39999498291,0|8,0:0|0:0,0:0:0:0:
175,368,14182,1,2,3:2:0:0:
219,182,14627,2,0,P|258:224|251:292,1,123.299996237183,8|0,0:0|0:0,0:0:0:0:
208,287,15071,6,0,B|115:265|147:328|19:296,1,164.39999498291,2|8,0:0|0:0,0:0:0:0:
0,127,15960,2,0,P|52:125|88:165,1,82.1999974914552,2|0,0:0|0:0,0:0:0:0:
146,196,16404,2,0,L|203:185,3,41.0999987457276,8|0|0|0,0:0|0:0|0:0|0:0,0:0:0:0:
229,209,16849,5,2,0:0:0:0:
229,209,16960,2,0,L|241:122,1,82.1999974914552,12|2,0:0|0:0,0:0:0:0:
276,94,17293,2,0,P|321:117|367:109,1,82.1999974914552,12|2,0:0|0:0,0:0:0:0:
381,75,17627,2,0,P|426:52|472:60,1,82.1999974914552,12|2,0:0|0:0,0:0:0:0:
497,80,17960,1,12,0:0:0:0:
510,177,18182,2,0,L|423:165,1,82.1999974914552,2|2,0:0|0:0,0:0:0:0:
337,204,18627,5,2,0:0:0:0:
337,204,18738,2,0,P|317:242|326:291,1,82.1999974914552,12|2,0:0|0:0,0:0:0:0:
299,324,19071,2,0,P|261:304|212:313,1,82.1999974914552,12|2,0:0|0:0,0:0:0:0:
179,286,19404,2,0,P|199:248|190:199,1,82.1999974914552,12|2,0:0|0:0,0:0:0:0:
217,166,19738,1,12,0:0:0:0:
128,123,19960,2,0,L|46:134,1,82.1999974914552,2|2,0:0|0:0,0:0:0:0:
102,25,20405,6,0,P|165:33|238:42,1,123.299996237183,6|8,0:0|0:0,0:0:0:0:
316,6,20849,2,0,P|350:53|321:132,1,123.299996237183,2|8,0:0|0:0,0:0:0:0:
295,137,21182,2,0,P|300:202|303:271,1,123.299996237183,2|2,0:0|0:0,0:0:0:0:
335,297,21516,1,8,0:0:0:0:
251,349,21738,1,2,0:0:0:0:
183,277,21960,1,8,0:0:0:0:
183,277,22071,1,0,0:0:0:0:
183,277,22182,6,0,P|136:308|56:281,1,123.299996237183,2|8,0:0|0:0,0:0:0:0:
44,201,22627,2,0,L|-19:212,2,61.6499981185914,2|2|8,0:0|0:0|0:0,0:0:0:0:
82,170,22960,2,0,P|104:106|69:47,1,123.299996237183,2|2,0:0|0:0,0:0:0:0:
111,18,23293,1,8,0:0:0:0:
203,54,23516,2,0,B|275:41|254:85|342:66,1,123.299996237183,2|8,0:0|0:0,0:0:0:0:
416,39,23960,6,0,P|408:102|399:179,1,123.299996237183,6|8,0:0|0:0,0:0:0:0:
337,236,24404,2,0,P|390:205|467:237,1,123.299996237183,2|8,0:0|0:0,0:0:0:0:
466,264,24738,1,2,0:0:0:0:
400,337,24960,1,2,0:0:0:0:
400,337,25071,2,0,L|273:317,1,123.299996237183,8|2,0:0|0:0,0:0:0:0:
219,238,25516,2,0,P|183:251|145:237,1,61.6499981185914,8|8,0:0|0:0,0:0:0:0:
116,226,25738,6,0,P|150:273|121:352,1,123.299996237183,6|8,0:0|0:0,0:0:0:0:
104,369,26071,1,2,0:0:0:0:
8,346,26293,1,4,3:0:0:0:
23,239,26516,2,0,L|15:106,1,123.299996237183,6|2,0:0|0:0,0:0:0:0:
46,77,26849,1,8,0:0:0:0:
133,122,27071,2,0,P|179:119|208:101,1,61.6499981185914,8|8,0:0|0:0,0:0:0:0:
226,76,27293,1,8,3:0:0:0:
226,76,27404,1,8,3:0:0:0:
226,76,27516,6,0,P|287:71|334:137,1,123.299996237183,6|8,0:0|0:0,0:0:0:0:
287,201,27960,2,0,P|328:207|369:214,2,61.6499981185914,2|2|8,0:0|0:0|0:0,0:0:0:0:
244,226,28293,2,0,B|172:213|193:257|105:238,1,123.299996237183,2|2,0:0|0:0,0:0:0:0:
82,214,28627,2,0,L|94:353,1,123.299996237183,8|2,0:0|0:0,0:0:0:0:
180,380,29071,2,0,P|213:372|236:341,1,61.6499981185914,8|0,0:0|0:0,0:0:0:0:
256,309,29293,6,0,B|307:302|307:302|333:311|333:311|396:302,1,123.299996237183,2|8,0:0|0:0,0:0:0:0:
473,325,29738,2,0,P|462:362|469:394,2,61.6499981185914,2|2|8,0:0|0:0|0:0,0:0:0:0:
506,288,30071,2,0,L|495:165,1,123.299996237183,2|2,0:0|0:0,0:0:0:0:
461,129,30404,1,8,0:0:0:0:
371,172,30627,2,0,P|326:141|248:156,1,123.299996237183,0|8,0:0|0:0,0:0:0:0:
186,213,31071,6,0,P|126:221|75:188,1,123.299996237183,2|8,0:0|0:0,0:0:0:0:
102,93,31516,2,0,P|94:58|75:27,2,61.6499981185914,2|2|8,0:0|0:0|0:0,0:0:0:0:
145,116,31849,2,0,P|219:105|292:97,1,123.299996237183,2|2,0:0|0:0,0:0:0:0:
310,76,32182,2,0,P|277:135|300:203,1,123.299996237183,8|2,0:0|0:0,0:0:0:0:
375,233,32627,2,0,P|418:227|456:227,1,61.6499981185914,8|2,0:0|0:0,0:0:0:0:
482,243,32849,6,0,L|493:119,1,123.299996237183,6|8,0:0|0:0,0:0:0:0:
462,81,33182,1,2,0:0:0:0:
379,134,33404,1,2,0:0:0:0:
314,46,33627,2,0,P|260:31|193:77,1,123.299996237183,6|2,0:0|0:0,0:0:0:0:
193,109,33960,2,0,P|119:98|46:90,1,123.299996237183,8|2,0:0|0:0,0:0:0:0:
4,165,34404,1,8,0:0:0:0:
84,240,34627,6,0,P|138:225|205:271,1,123.299996237183,6|8,0:0|0:0,0:0:0:0:
214,300,34960,1,4,3:0:0:0:
294,227,35182,1,4,3:0:0:0:
294,227,35293,1,8,3:0:0:0:
294,227,35404,2,0,B|366:214|345:258|433:239,1,123.299996237183,2|2,0:0|0:0,0:0:0:0:
459,222,35738,1,8,0:0:0:0:
490,128,35960,2,0,P|455:122|416:138,1,61.6499981185914,8|4,0:0|3:0,0:0:0:0:
393,96,36182,1,8,3:0:0:0:
393,96,36293,1,8,3:0:0:0:
393,96,36404,6,0,P|354:120|296:116,1,95.8999970733643,6|0,0:0|0:0,0:0:0:0:
222,91,36849,2,0,P|230:159|239:240,2,143.849995610047,8|8|2,0:0|0:0|0:0,0:0:0:0:
141,123,37738,2,0,P|102:99|44:103,1,95.8999970733643,8|2,0:0|0:0,0:0:0:0:
80,181,38182,6,0,B|160:161|144:213|238:190,1,143.849995610047,2|2,0:0|0:0,0:0:0:0:
238,233,38627,2,0,P|207:286|218:336,1,95.8999970733643,8|2,0:0|0:0,0:0:0:0:
282,365,39071,1,2,0:0:0:0:
282,365,39182,2,0,B|336:358|336:358|369:370|369:370|431:363,1,143.849995610047,8|8,0:0|0:0,0:0:0:0:
474,294,39738,1,2,0:0:0:0:
408,238,39960,6,0,P|414:188|419:136,1,95.8999970733643,6|0,0:0|0:0,0:0:0:0:
348,92,40404,2,0,P|412:100|472:48,2,143.849995610047,8|8|2,0:0|0:0|0:0,0:0:0:0:
300,19,41293,2,0,L|189:32,1,95.8999970733643,8|2,0:0|0:0,0:0:0:0:
145,93,41738,6,0,P|84:54|-7:83,1,143.849995610047,2|2,0:0|0:0,0:0:0:0:
1,105,42182,2,0,P|12:178|15:222,1,95.8999970733643,8|0,0:0|0:0,0:0:0:0:
89,241,42627,2,0,P|85:275|86:310,2,47.9499985366822,2|8|2,0:0|0:0|0:0,0:0:0:0:
168,207,43071,2,0,P|202:200|242:215,1,47.9499985366822,8|8,0:0|0:0,0:0:0:0:
246,230,43293,2,0,P|280:237|320:222,1,47.9499985366822,4|8,3:0|3:0,0:0:0:0:
329,212,43516,6,0,P|333:164|341:117,1,95.8999970733643,6|0,0:0|0:0,0:0:0:0:
424,140,43960,2,0,P|467:87|454:6,2,143.849995610047,8|8|2,0:0|0:0|0:0,0:0:0:0:
483,202,44849,2,0,P|490:249|495:296,1,95.8999970733643,8|2,0:0|0:0,0:0:0:0:
426,348,45293,5,2,0:0:0:0:
426,348,45404,2,0,P|367:311|277:340,1,143.849995610047,0|8,0:0|0:0,0:0:0:0:
206,225,45960,2,0,P|275:237|334:200,1,143.849995610047,6|8,0:0|0:0,0:0:0:0:
348,159,46404,1,0,0:0:0:0:
291,93,46627,2,0,L|302:41,2,47.9499985366822,8|8|4,0:0|0:0|3:0,0:0:0:0:
198,119,47071,6,0,B|94:94|119:155|8:138,1,191.799994146729,2|8,0:0|0:0,0:0:0:0:
51,226,47738,1,2,0:0:0:0:
11,313,47960,2,0,P|73:305|125:300,1,95.8999970733643,2|0,0:0|0:0,0:0:0:0:
193,340,48404,2,0,L|251:350,3,47.9499985366822,8|8|4|8,0:0|0:0|3:0|3:0,0:0:0:0:
281,323,48849,5,2,0:0:0:0:
281,323,48960,2,0,P|299:279|286:229,1,95.8999970733643,12|2,0:0|0:0,0:0:0:0:
247,208,49293,2,0,P|254:145|258:91,1,95.8999970733643,12|2,0:0|0:0,0:0:0:0:
234,69,49627,2,0,P|294:75|335:50,1,95.8999970733643,12|2,0:0|0:0,0:0:0:0:
349,18,49960,1,12,0:0:0:0:
416,85,50182,2,0,P|476:79|517:104,1,95.8999970733643,8|4,0:0|3:0,0:0:0:0:
455,175,50627,5,2,0:0:0:0:
455,175,50738,2,0,P|459:222|464:270,1,95.8999970733643,12|2,0:0|0:0,0:0:0:0:
427,300,51071,2,0,P|378:277|318:291,1,95.8999970733643,12|2,0:0|0:0,0:0:0:0:
308,243,51404,2,0,P|259:266|199:252,1,95.8999970733643,12|2,0:0|0:0,0:0:0:0:
181,230,51738,1,12,0:0:0:0:
86,244,51960,2,0,P|88:214|93:176,1,47.9499985366822,8|8,0:0|0:0,0:0:0:0:
76,150,52182,1,4,3:0:0:0:
76,150,52293,1,8,3:0:0:0:
76,150,52404,6,0,P|147:161|209:98,2,143.849995610047,6|6|2,0:0|0:0|0:0,0:0:0:0:
30,65,53293,2,0,L|98:54,3,47.9499985366822,2|2|8|4,0:0|0:0|3:0|3:0,0:0:0:0:
123,73,53738,2,0,L|126:43|129:13,1,47.9499985366822,8|8,0:0|0:0,0:0:0:0:
206,10,53960,2,0,L|203:40|200:70,1,47.9499985366822,4|8,3:0|3:0,0:0:0:0:
284,48,54182,6,0,P|340:83|420:57,1,123.299996237183,6|0,0:0|0:0,0:0:0:0:
434,46,54516,1,2,0:0:0:0:
434,46,54627,2,0,P|425:110|415:186,1,123.299996237183,8|2,0:0|0:0,0:0:0:0:
475,247,55071,1,2,0:0:0:0:
475,247,55182,2,0,P|432:305|446:373,1,123.299996237183,8|2,0:0|0:0,0:0:0:0:
397,384,55516,2,0,P|334:371|253:355,1,123.299996237183,8|2,0:0|0:0,0:0:0:0:
178,370,55960,6,0,P|170:298|163:233,1,123.299996237183,2|0,0:0|0:0,0:0:0:0:
182,204,56293,1,2,0:0:0:0:
182,204,56404,2,0,P|231:216|256:205,1,61.6499981185914,8|0,0:0|0:0,0:0:0:0:
284,235,56627,2,0,P|318:198|321:171,1,61.6499981185914,2|0,0:0|0:0,0:0:0:0:
281,116,56849,2,0,B|332:109|332:109|358:118|358:118|421:109,1,123.299996237183,2|0,0:0|0:0,0:0:0:0:
427,69,57182,1,2,0:0:0:0:
427,69,57293,1,8,0:0:0:0:
345,12,57516,2,0,L|279:22,1,61.6499981185914,2|0,0:0|0:0,0:0:0:0:
216,64,57738,6,0,P|166:37|89:60,1,123.299996237183,2|0,0:0|0:0,0:0:0:0:
74,89,58071,1,2,0:0:0:0:
74,89,58182,2,0,P|80:150|87:211,1,123.299996237183,8|2,0:0|0:0,0:0:0:0:
45,301,58627,1,2,0:0:0:0:
45,301,58738,2,0,B|117:288|96:332|184:313,1,123.299996237183,8|2,0:0|0:0,0:0:0:0:
208,293,59071,1,8,0:0:0:0:
274,365,59293,1,2,0:0:0:0:
274,365,59404,1,0,0:0:0:0:
274,365,59516,6,0,P|306:313|291:243,1,123.299996237183,2|0,0:0|0:0,0:0:0:0:
334,221,59849,1,2,0:0:0:0:
334,221,59960,2,0,P|318:175|330:137,2,61.6499981185914,8|0|2,0:0|0:0|0:0,0:0:0:0:
432,230,60404,2,0,L|442:96,1,123.299996237183,2|0,0:0|0:0,0:0:0:0:
423,60,60738,1,2,0:0:0:0:
423,60,60849,2,0,P|384:64|346:70,1,61.6499981185914,8|8,0:0|0:0,0:0:0:0:
326,32,61071,2,0,P|295:27|264:24,1,61.6499981185914,4|8,3:0|3:0,0:0:0:0:
188,45,61293,6,0,P|154:86|166:167,1,123.299996237183,6|0,0:0|0:0,0:0:0:0:
195,185,61627,1,2,0:0:0:0:
195,185,61738,2,0,B|229:181|248:158|248:158|279:179|323:170,1,123.299996237183,8|2,0:0|0:0,0:0:0:0:
404,157,62182,2,0,L|394:279,1,123.299996237183,2|0,0:0|0:0,0:0:0:0:
354,310,62516,1,2,0:0:0:0:
354,310,62627,2,0,P|306:275|229:292,1,123.299996237183,8|2,0:0|0:0,0:0:0:0:
194,365,63071,6,0,P|140:357|43:346,1,123.299996237183,2|0,0:0|0:0,0:0:0:0:
38,312,63404,1,2,0:0:0:0:
38,312,63516,2,0,P|26:274|40:234,1,61.6499981185914,8|0,0:0|0:0,0:0:0:0:
76,236,63738,2,0,P|88:198|74:158,1,61.6499981185914,2|0,0:0|0:0,0:0:0:0:
49,142,63960,1,2,0:0:0:0:
49,142,64071,2,0,P|108:148|157:113,1,123.299996237183,2|2,0:0|0:0,0:0:0:0:
167,63,64404,1,8,0:0:0:0:
249,117,64627,2,0,P|286:99|321:107,1,61.6499981185914,2|0,0:0|0:0,0:0:0:0:
346,127,64849,5,2,0:0:0:0:
346,127,64960,2,0,P|340:185|334:272,1,123.299996237183,8|2,0:0|0:0,0:0:0:0:
364,289,65293,1,8,0:0:0:0:
473,245,65516,2,0,P|436:227|401:235,1,61.6499981185914,2|0,0:0|0:0,0:0:0:0:
364,289,65738,2,0,B|292:276|313:320|225:301,1,123.299996237183,2|0,0:0|0:0,0:0:0:0:
196,315,66071,1,2,0:0:0:0:
196,315,66182,2,0,P|149:306|116:301,2,61.6499981185914,8|8|4,0:0|0:0|3:0,0:0:0:0:
264,221,66627,6,0,P|259:159|253:98,1,123.299996237183,8|2,0:0|0:0,0:0:0:0:
295,31,66960,2,0,P|250:2|176:27,1,123.299996237183,8|2,0:0|0:0,0:0:0:0:
139,82,67293,2,0,B|88:75|88:75|62:84|62:84|-1:75,1,123.299996237183,8|2,0:0|0:0,0:0:0:0:
0,157,67627,1,8,0:0:0:0:
0,157,67738,2,0,P|17:189|17:225,1,61.6499981185914,8|4,3:0|3:0,0:0:0:0:
90,249,67960,2,0,P|111:227|140:216,2,61.6499981185914,8|8|4,0:0|0:0|3:0,0:0:0:0:
170,313,68404,6,0,P|240:308|322:305,1,123.299996237183,6|0,0:0|0:0,0:0:0:0:
338,325,68738,1,2,0:0:0:0:
338,325,68849,2,0,P|306:258|331:194,1,123.299996237183,8|2,0:0|0:0,0:0:0:0:
404,166,69293,1,2,0:0:0:0:
404,166,69404,2,0,P|397:95|391:23,1,123.299996237183,8|2,0:0|0:0,0:0:0:0:
348,20,69738,2,0,P|299:52|226:38,1,123.299996237183,8|2,0:0|0:0,0:0:0:0:
170,117,70182,6,0,P|121:85|48:99,1,123.299996237183,2|0,0:0|0:0,0:0:0:0:
34,135,70516,1,2,0:0:0:0:
34,135,70627,2,0,P|43:178|47:216,1,61.6499981185914,8|0,0:0|0:0,0:0:0:0:
89,216,70849,2,0,P|80:259|76:297,1,61.6499981185914,2|0,0:0|0:0,0:0:0:0:
129,337,71071,6,0,B|159:343|188:322|188:322|209:348|241:349,1,123.299996237183,2|0,0:0|0:0,0:0:0:0:
274,313,71404,2,0,P|308:299|345:304,1,61.6499981185914,2|8,0:0|0:0,0:0:0:0:
425,361,71738,1,2,0:0:0:0:
425,361,71849,1,0,0:0:0:0:
425,361,71960,2,0,B|448:316|448:316|433:228,1,123.299996237183,2|0,0:0|0:0,0:0:0:0:
400,210,72293,1,2,0:0:0:0:
400,210,72404,2,0,B|328:197|349:241|261:222,1,123.299996237183,8|2,0:0|0:0,0:0:0:0:
186,257,72849,5,2,0:0:0:0:
186,257,72960,2,0,P|194:199|203:106,1,123.299996237183,0|2,0:0|0:0,0:0:0:0:
170,95,73293,1,8,0:0:0:0:
77,131,73516,2,0,P|72:102|68:55,1,61.6499981185914,2|0,0:0|0:0,0:0:0:0:
128,15,73738,2,0,B|179:8|179:8|205:17|205:17|268:8,1,123.299996237183,2|0,0:0|0:0,0:0:0:0:
287,41,74071,1,0,0:0:0:0:
287,41,74182,2,0,P|346:15|411:42,1,123.299996237183,8|0,0:0|0:0,0:0:0:0:
462,108,74627,5,2,0:0:0:0:
462,108,74738,2,0,P|457:167|450:248,1,123.299996237183,8|0,0:0|0:0,0:0:0:0:
413,261,75071,2,0,P|377:247|333:255,1,61.6499981185914,8|8,0:0|0:0,0:0:0:0:
331,291,75293,2,0,P|295:305|251:297,1,61.6499981185914,4|8,3:0|3:0,0:0:0:0:
207,257,75516,6,0,P|175:230|82:244,1,123.299996237183,6|0,0:0|0:0,0:0:0:0:
56,261,75849,1,2,0:0:0:0:
56,261,75960,2,0,P|61:199|66:138,1,123.299996237183,8|2,0:0|0:0,0:0:0:0:
17,63,76404,1,6,0:0:0:0:
17,63,76516,2,0,P|4:31|7:-2,2,61.6499981185914,8|0|2,0:0|0:0|0:0,0:0:0:0:
65,57,76849,2,0,P|125:50|215:40,1,123.299996237183,8|2,0:0|0:0,0:0:0:0:
256,136,77293,6,0,B|328:123|307:167|395:148,1,123.299996237183,6|0,0:0|0:0,0:0:0:0:
417,124,77627,1,2,0:0:0:0:
417,124,77738,2,0,P|430:85|426:62,1,61.6499981185914,8|0,0:0|0:0,0:0:0:0:
396,26,77960,2,0,P|357:13|334:17,1,61.6499981185914,2|0,0:0|0:0,0:0:0:0:
265,49,78182,2,0,P|205:42|126:32,1,123.299996237183,2|8,0:0|0:0,0:0:0:0:
108,70,78516,1,2,0:0:0:0:
108,70,78627,2,0,P|129:113|126:142,2,61.6499981185914,2|8|8,0:0|0:0|0:0,0:0:0:0:
30,130,79071,6,0,P|38:215|43:281,1,123.299996237183,6|8,0:0|0:0,0:0:0:0:
133,289,79516,2,0,P|126:328|124:365,2,61.6499981185914,4|4|4,3:0|3:0|3:0,0:0:0:0:
197,242,79849,2,0,P|247:271|317:254,1,123.299996237183,12|2,0:0|0:0,0:0:0:0:
338,219,80182,1,8,0:0:0:0:
431,251,80404,2,0,P|433:220|439:190,1,61.6499981185914,8|0,0:0|0:0,0:0:0:0:
475,155,80627,2,0,P|472:124|466:94,1,61.6499981185914,8|8,0:0|0:0,0:0:0:0:
403,45,80849,6,0,B|352:38|352:38|326:47|326:47|263:38,1,123.299996237183,6|8,0:0|0:0,0:0:0:0:
192,82,81293,2,0,P|157:66|116:71,2,61.6499981185914,4|4|4,3:0|3:0|3:0,0:0:0:0:
228,154,81627,2,0,P|288:143|345:202,1,123.299996237183,12|2,0:0|0:0,0:0:0:0:
342,226,81960,2,0,P|334:264|329:299,1,61.6499981185914,8|0,0:0|0:0,0:0:0:0:
285,305,82182,2,0,P|236:297|208:296,1,61.6499981185914,8|0,0:0|0:0,0:0:0:0:
190,266,82404,1,8,0:0:0:0:
190,266,82516,1,8,0:0:0:0:
190,266,82627,6,0,P|141:301|82:289,1,123.299996237183,6|8,0:0|0:0,0:0:0:0:
40,200,83071,2,0,L|-32:208,2,61.6499981185914,4|4|4,3:0|3:0|3:0,0:0:0:0:
110,163,83404,2,0,B|131:103|85:103|111:22,1,123.299996237183,12|2,0:0|0:0,0:0:0:0:
148,17,83738,2,0,P|184:6|223:18,1,61.6499981185914,8|0,0:0|0:0,0:0:0:0:
247,38,83960,1,8,0:0:0:0:
217,139,84182,1,8,0:0:0:0:
217,139,84293,1,0,0:0:0:0:
217,139,84404,5,6,0:0:0:0:
414,83,87516,6,0,P|400:124|414:167,1,61.6499981185914,2|8,0:0|0:0,0:0:0:0:
367,176,87738,2,0,P|381:217|367:260,1,61.6499981185914,8|8,0:0|0:0,0:0:0:0:
338,262,87960,2,0,P|288:234|206:262,1,123.299996237183,6|8,0:0|0:0,0:0:0:0:
173,329,88404,2,0,P|111:318|38:308,1,123.299996237183,2|8,0:0|0:0,0:0:0:0:
16,273,88738,1,2,0:0:0:0:
16,273,88849,2,0,P|-10:218|19:144,1,123.299996237183,2|8,0:0|0:0,0:0:0:0:
90,209,89293,1,2,0:0:0:0:
179,167,89516,2,0,P|172:125|176:83,1,61.6499981185914,8|2,0:0|0:0,0:0:0:0:
196,62,89738,6,0,B|247:55|247:55|273:64|273:64|336:55,1,123.299996237183,2|8,0:0|0:0,0:0:0:0:
411,28,90182,2,0,L|396:169,1,123.299996237183,2|8,0:0|0:0,0:0:0:0:
427,190,90516,1,2,0:0:0:0:
427,190,90627,2,0,L|435:261,1,61.6499981185914,2|0,0:0|0:0,0:0:0:0:
412,295,90849,2,0,L|350:288,1,61.6499981185914,8|0,0:0|0:0,0:0:0:0:
311,258,91071,2,0,P|270:268|235:257,2,61.6499981185914,8|8|4,0:0|0:0|3:0,0:0:0:0:
204,184,91516,5,6,0:0:0:0:
204,184,91627,2,0,P|172:217|165:295,1,123.299996237183,8|2,0:0|0:0,0:0:0:0:
190,332,91960,2,0,P|126:319|55:309,1,123.299996237183,8|2,0:0|0:0,0:0:0:0:
24,332,92293,2,0,P|20:273|11:191,1,123.299996237183,8|2,0:0|0:0,0:0:0:0:
45,171,92627,1,8,0:0:0:0:
27,73,92849,2,0,B|99:60|78:104|166:85,1,123.299996237183,8|4,3:0|3:0,0:0:0:0:
232,39,93293,5,2,0:0:0:0:
232,39,93404,2,0,P|290:71|356:46,1,123.299996237183,12|2,0:0|0:0,0:0:0:0:
383,28,93738,2,0,P|376:82|369:158,1,123.299996237183,12|2,0:0|0:0,0:0:0:0:
397,191,94071,2,0,B|346:184|346:184|320:193|320:193|257:184,1,123.299996237183,12|2,0:0|0:0,0:0:0:0:
234,212,94404,2,0,P|238:249|242:296,1,61.6499981185914,12|0,0:0|0:0,0:0:0:0:
218,317,94627,1,8,3:0:0:0:
308,355,94849,1,8,3:0:0:0:
405,278,95071,6,0,P|399:216|391:155,1,123.299996237183,6|8,0:0|0:0,0:0:0:0:
434,66,95516,2,0,P|461:78|492:77,2,61.6499981185914,2|0|8,0:0|0:0|0:0,0:0:0:0:
399,30,95849,2,0,B|329:17|329:17|265:48,1,123.299996237183,2|2,0:0|0:0,0:0:0:0:
261,84,96182,1,8,0:0:0:0:
170,45,96404,1,2,0:0:0:0:
114,127,96627,2,0,P|100:171|112:206,1,61.6499981185914,8|0,0:0|0:0,0:0:0:0:
139,218,96849,6,0,P|205:209|269:203,1,123.299996237183,2|8,0:0|0:0,0:0:0:0:
324,279,97293,2,0,P|351:266|382:267,2,61.6499981185914,2|2|8,0:0|0:0|0:0,0:0:0:0:
304,324,97627,2,0,P|242:315|181:309,1,123.299996237183,2|2,0:0|0:0,0:0:0:0:
141,338,97960,1,8,0:0:0:0:
55,288,98182,2,0,P|81:249|63:166,1,123.299996237183,2|8,0:0|0:0,0:0:0:0:
21,90,98627,6,0,B|72:83|72:83|98:92|98:92|161:83,1,123.299996237183,6|8,0:0|0:0,0:0:0:0:
221,28,99071,2,0,P|261:72|249:150,1,123.299996237183,2|8,0:0|0:0,0:0:0:0:
296,165,99404,1,2,0:0:0:0:
217,225,99627,1,2,0:0:0:0:
217,225,99738,2,0,P|156:217|102:269,1,123.299996237183,8|2,0:0|0:0,0:0:0:0:
188,311,100182,1,8,0:0:0:0:
188,311,100293,1,8,0:0:0:0:
188,311,100404,6,0,B|260:298|239:342|327:323,1,123.299996237183,6|8,0:0|0:0,0:0:0:0:
347,297,100738,1,2,0:0:0:0:
347,297,100849,2,0,P|390:306|420:312,2,61.6499981185914,4|0|8,3:0|0:0|0:0,0:0:0:0:
327,251,101182,2,0,P|308:207|342:129,1,123.299996237183,6|2,0:0|0:0,0:0:0:0:
379,122,101516,1,8,0:0:0:0:
472,153,101738,2,0,P|479:123|473:93,1,61.6499981185914,8|0,0:0|0:0,0:0:0:0:
479,44,101960,2,0,P|453:26|423:22,1,61.6499981185914,8|0,3:0|0:0,0:0:0:0:
376,37,102182,6,0,P|309:28|237:20,1,123.299996237183,6|8,0:0|0:0,0:0:0:0:
161,56,102627,2,0,P|157:24|146:-16,2,61.6499981185914,2|0|8,0:0|0:0|0:0,0:0:0:0:
192,93,102960,2,0,P|179:168|176:238,1,123.299996237183,2|2,0:0|0:0,0:0:0:0:
191,261,103293,2,0,P|139:232|58:259,1,123.299996237183,8|2,0:0|0:0,0:0:0:0:
64,340,103738,1,8,0:0:0:0:
64,340,103849,1,0,0:0:0:0:
64,340,103960,6,0,B|92:346|123:325|123:325|142:348|176:352,1,123.299996237183,2|8,0:0|0:0,0:0:0:0:
268,318,104404,2,0,P|295:330|326:329,2,61.6499981185914,2|2|8,0:0|0:0|0:0,0:0:0:0:
244,274,104738,2,0,L|256:131,1,123.299996237183,2|2,0:0|0:0,0:0:0:0:
284,112,105071,1,8,0:0:0:0:
207,50,105293,2,0,P|256:14|325:23,1,123.299996237183,0|8,0:0|0:0,0:0:0:0:
384,89,105738,6,0,P|447:82|517:77,1,123.299996237183,2|8,0:0|0:0,0:0:0:0:
495,175,106182,2,0,P|512:208|504:247,2,61.6499981185914,2|2|8,0:0|0:0|0:0,0:0:0:0:
445,182,106516,2,0,B|373:169|394:213|306:194,1,123.299996237183,2|2,0:0|0:0,0:0:0:0:
279,179,106849,2,0,P|312:238|289:306,1,123.299996237183,8|2,0:0|0:0,0:0:0:0:
213,335,107293,2,0,P|171:327|130:323,1,61.6499981185914,8|2,0:0|0:0,0:0:0:0:
106,344,107516,6,0,L|94:201,1,123.299996237183,6|8,0:0|0:0,0:0:0:0:
128,184,107849,1,2,0:0:0:0:
55,117,108071,1,2,0:0:0:0:
105,32,108293,2,0,B|156:25|156:25|182:34|182:34|245:25,1,123.299996237183,6|2,0:0|0:0,0:0:0:0:
265,58,108627,2,0,P|325:28|387:45,1,123.299996237183,8|2,0:0|0:0,0:0:0:0:
449,107,109071,2,0,P|434:142|443:185,1,61.6499981185914,8|0,0:0|0:0,0:0:0:0:
460,207,109293,6,0,P|397:200|327:195,1,123.299996237183,6|8,0:0|0:0,0:0:0:0:
303,159,109627,1,4,3:0:0:0:
242,236,109849,1,4,3:0:0:0:
242,236,109960,1,8,3:0:0:0:
242,236,110071,2,0,P|276:287|257:363,1,123.299996237183,2|2,0:0|0:0,0:0:0:0:
225,369,110404,1,8,0:0:0:0:
131,336,110627,2,0,P|137:293|143:252,1,61.6499981185914,8|4,0:0|3:0,0:0:0:0:
128,226,110849,1,8,3:0:0:0:
128,226,110960,1,8,3:0:0:0:
128,226,111071,6,0,P|86:248|21:229,1,95.8999970733643,6|0,0:0|0:0,0:0:0:0:
2,163,111516,2,0,B|7:110|7:110|25:85|25:85|32:17,2,143.849995610047,8|8|2,0:0|0:0|0:0,0:0:0:0:
86,146,112404,2,0,P|132:139|174:161,1,95.8999970733643,8|2,0:0|0:0,0:0:0:0:
220,234,112849,6,0,L|366:224,1,143.849995610047,2|2,0:0|0:0,0:0:0:0:
398,249,113293,2,0,P|405:198|412:145,1,95.8999970733643,8|2,0:0|0:0,0:0:0:0:
355,87,113738,1,2,0:0:0:0:
355,87,113849,2,0,P|294:98|229:37,1,143.849995610047,8|8,0:0|0:0,0:0:0:0:
167,105,114404,1,2,0:0:0:0:
80,96,114627,6,0,P|88:159|94:209,1,95.8999970733643,6|0,0:0|0:0,0:0:0:0:
132,267,115071,2,0,P|79:220|10:229,2,143.849995610047,8|8|2,0:0|0:0|0:0,0:0:0:0:
110,356,115960,2,0,P|162:347|213:342,1,95.8999970733643,8|2,0:0|0:0,0:0:0:0:
289,360,116404,6,0,P|294:312|300:264,1,95.8999970733643,2|0,0:0|0:0,0:0:0:0:
331,233,116738,1,2,0:0:0:0:
331,233,116849,2,0,P|379:263|452:241,1,95.8999970733643,8|0,0:0|0:0,0:0:0:0:
482,205,117293,2,0,L|476:157|470:109,1,95.8999970733643,2|2,0:0|0:0,0:0:0:0:
433,85,117627,1,8,0:0:0:0:
433,85,117738,2,0,P|444:60|439:20,2,47.9499985366822,8|0|0,0:0|0:0|0:0,0:0:0:0:
355,123,118182,6,0,P|303:114|252:109,1,95.8999970733643,6|0,0:0|0:0,0:0:0:0:
192,164,118627,2,0,B|112:144|128:196|34:173,2,143.849995610047,8|0|2,0:0|0:0|0:0,0:0:0:0:
256,222,119516,2,0,P|280:273|256:338,1,95.8999970733643,8|0,0:0|0:0,0:0:0:0:
336,378,119960,5,2,0:0:0:0:
336,378,120071,2,0,B|377:374|397:343|397:343|432:371|485:359,1,143.849995610047,0|8,0:0|0:0,0:0:0:0:
512,240,120627,2,0,B|471:244|451:275|451:275|416:247|363:259,1,143.849995610047,6|8,0:0|0:0,0:0:0:0:
349,230,121071,1,0,0:0:0:0:
269,262,121293,2,0,L|277:317,2,47.9499985366822,8|8|4,0:0|0:0|3:0,0:0:0:0:
191,205,121738,6,0,B|226:102|156:127|198:10,1,191.799994146729,2|8,0:0|0:0,0:0:0:0:
274,72,122404,1,2,0:0:0:0:
355,21,122627,2,0,P|415:15|457:50,1,95.8999970733643,2|0,0:0|0:0,0:0:0:0:
490,115,123071,2,0,P|483:145|479:191,3,47.9499985366822,8|8|4|8,0:0|0:0|3:0|3:0,0:0:0:0:
444,193,123516,5,2,0:0:0:0:
444,193,123627,2,0,P|396:171|331:187,1,95.8999970733643,12|2,0:0|0:0,0:0:0:0:
326,213,123960,2,0,P|278:235|213:219,1,95.8999970733643,12|2,0:0|0:0,0:0:0:0:
197,202,124293,2,0,P|175:154|191:89,1,95.8999970733643,12|2,0:0|0:0,0:0:0:0:
206,72,124627,1,12,0:0:0:0:
113,47,124849,2,0,P|118:12|124:-19,2,47.9499985366822,8|8|8,0:0|0:0|3:0,0:0:0:0:
39,108,125293,5,2,0:0:0:0:
39,108,125404,2,0,P|60:150|56:197,1,95.8999970733643,12|2,0:0|0:0,0:0:0:0:
39,242,125738,2,0,P|81:220|128:224,1,95.8999970733643,12|2,0:0|0:0,0:0:0:0:
158,260,126071,2,0,P|200:281|247:277,1,95.8999970733643,12|2,0:0|0:0,0:0:0:0:
289,253,126404,1,12,0:0:0:0:
377,292,126627,2,0,L|371:347,1,47.9499985366822,8|8,0:0|0:0,0:0:0:0:
417,376,126849,1,4,3:0:0:0:
417,376,126960,1,8,3:0:0:0:
417,376,127071,6,0,P|470:309|458:248,2,143.849995610047,6|6|2,0:0|0:0|0:0,0:0:0:0:
377,292,127960,2,0,L|330:298,3,47.9499985366822,2|2|8|4,0:0|0:0|3:0|3:0,0:0:0:0:
297,262,128404,2,0,L|303:215,1,47.9499985366822,8|8,0:0|0:0,0:0:0:0:
378,184,128627,2,0,L|384:137,1,47.9499985366822,4|8,3:0|3:0,0:0:0:0:
309,106,128849,6,0,P|259:73|194:83,1,123.299996237183,6|0,0:0|0:0,0:0:0:0:
171,121,129182,1,2,0:0:0:0:
171,121,129293,2,0,B|122:114|122:114|97:122|97:122|37:114,1,123.299996237183,8|2,0:0|0:0,0:0:0:0:
5,208,129738,1,2,0:0:0:0:
5,208,129849,2,0,L|127:225,1,123.299996237183,8|2,0:0|0:0,0:0:0:0:
174,210,130182,2,0,P|207:260|197:325,1,123.299996237183,8|2,0:0|0:0,0:0:0:0:
283,372,130627,6,0,P|333:339|398:349,1,123.299996237183,2|0,0:0|0:0,0:0:0:0:
432,316,130960,1,2,0:0:0:0:
432,316,131071,2,0,P|436:280|443:236,1,61.6499981185914,8|0,0:0|0:0,0:0:0:0:
411,214,131293,2,0,P|407:178|400:134,1,61.6499981185914,2|0,0:0|0:0,0:0:0:0:
409,103,131516,1,2,0:0:0:0:
409,103,131627,2,0,B|337:90|358:134|270:115,1,123.299996237183,8|2,0:0|0:0,0:0:0:0:
262,76,131960,1,8,0:0:0:0:
184,136,132182,2,0,P|153:122|99:135,1,61.6499981185914,2|0,0:0|0:0,0:0:0:0:
60,168,132404,6,0,P|29:219|43:284,1,123.299996237183,2|0,0:0|0:0,0:0:0:0:
87,293,132738,1,2,0:0:0:0:
87,293,132849,2,0,P|166:281|228:273,1,123.299996237183,8|0,0:0|0:0,0:0:0:0:
311,287,133293,1,2,0:0:0:0:
311,287,133404,2,0,P|323:208|331:146,1,123.299996237183,8|2,0:0|0:0,0:0:0:0:
373,145,133738,1,8,0:0:0:0:
351,55,133960,1,2,0:0:0:0:
351,55,134071,1,0,0:0:0:0:
351,55,134182,6,0,B|423:42|402:86|490:67,1,123.299996237183,2|0,0:0|0:0,0:0:0:0:
494,114,134516,1,0,0:0:0:0:
494,114,134627,2,0,P|451:172|457:225,1,123.299996237183,8|0,0:0|0:0,0:0:0:0:
377,149,135071,1,2,0:0:0:0:
377,149,135182,2,0,P|309:141|216:127,1,123.299996237183,8|0,0:0|0:0,0:0:0:0:
215,102,135516,2,0,P|181:91|138:104,1,61.6499981185914,8|0,0:0|0:0,0:0:0:0:
113,119,135738,2,0,P|96:150|101:195,1,61.6499981185914,4|8,3:0|3:0,0:0:0:0:
151,233,135960,6,0,B|185:229|204:206|204:206|235:227|279:218,1,123.299996237183,6|0,0:0|0:0,0:0:0:0:
308,201,136293,1,2,0:0:0:0:
308,201,136404,2,0,P|301:261|295:331,1,123.299996237183,8|2,0:0|0:0,0:0:0:0:
205,365,136849,2,0,P|155:332|90:342,1,123.299996237183,2|0,0:0|0:0,0:0:0:0:
48,357,137182,1,2,0:0:0:0:
48,357,137293,2,0,P|53:295|60:234,1,123.299996237183,8|2,0:0|0:0,0:0:0:0:
18,144,137738,6,0,B|67:137|67:137|92:145|92:145|152:137,1,123.299996237183,2|0,0:0|0:0,0:0:0:0:
176,106,138071,1,2,0:0:0:0:
176,106,138182,2,0,P|211:126|256:118,1,61.6499981185914,8|0,0:0|0:0,0:0:0:0:
279,113,138404,2,0,P|300:91|310:62,1,61.6499981185914,2|0,0:0|0:0,0:0:0:0:
297,14,138627,1,2,0:0:0:0:
297,14,138738,2,0,P|373:6|446:-1,1,123.299996237183,2|2,0:0|0:0,0:0:0:0:
460,28,139071,1,8,0:0:0:0:
418,117,139293,2,0,P|422:157|426:200,1,61.6499981185914,2|0,0:0|0:0,0:0:0:0:
448,221,139516,5,2,0:0:0:0:
448,221,139627,2,0,P|383:193|309:232,1,123.299996237183,8|2,0:0|0:0,0:0:0:0:
309,249,139960,1,8,0:0:0:0:
215,217,140182,2,0,P|197:258|207:300,1,61.6499981185914,2|0,0:0|0:0,0:0:0:0:
212,321,140404,2,0,B|284:308|263:352|351:333,1,123.299996237183,2|0,0:0|0:0,0:0:0:0:
379,323,140738,1,2,0:0:0:0:
379,323,140849,2,0,P|372:360|369:393,2,61.6499981185914,8|8|4,0:0|0:0|3:0,0:0:0:0:
443,248,141293,6,0,P|421:195|449:132,1,123.299996237183,8|2,0:0|0:0,0:0:0:0:
459,57,141627,2,0,P|424:101|355:109,1,123.299996237183,8|2,0:0|0:0,0:0:0:0:
286,139,141960,2,0,P|341:146|383:202,1,123.299996237183,8|2,0:0|0:0,0:0:0:0:
336,263,142293,1,8,0:0:0:0:
336,263,142404,2,0,P|297:256|251:254,1,61.6499981185914,8|4,3:0|3:0,0:0:0:0:
204,216,142627,2,0,P|173:218|143:224,2,61.6499981185914,8|8|4,0:0|0:0|3:0,0:0:0:0:
286,139,143071,6,0,L|292:85|301:4,1,123.299996237183,6|0,0:0|0:0,0:0:0:0:
252,1,143404,1,2,0:0:0:0:
252,1,143516,2,0,P|183:32|120:10,1,123.299996237183,8|2,0:0|0:0,0:0:0:0:
42,2,143960,1,2,0:0:0:0:
42,2,144071,2,0,L|48:56|57:137,1,123.299996237183,8|2,0:0|0:0,0:0:0:0:
93,155,144404,2,0,P|162:124|225:146,1,123.299996237183,8|2,0:0|0:0,0:0:0:0:
235,228,144849,6,0,B|269:224|288:201|288:201|319:222|363:213,1,123.299996237183,2|0,0:0|0:0,0:0:0:0:
388,242,145182,1,2,0:0:0:0:
388,242,145293,2,0,P|371:272|376:318,1,61.6499981185914,8|0,0:0|0:0,0:0:0:0:
398,339,145516,2,0,P|428:356|474:351,1,61.6499981185914,2|0,0:0|0:0,0:0:0:0:
507,297,145738,2,0,P|499:229|491:167,1,123.299996237183,2|0,0:0|0:0,0:0:0:0:
510,129,146071,1,0,0:0:0:0:
510,129,146182,1,8,0:0:0:0:
419,89,146404,2,0,P|387:106|343:99,1,61.6499981185914,2|0,0:0|0:0,0:0:0:0:
303,51,146627,6,0,P|255:20|179:43,1,123.299996237183,2|0,0:0|0:0,0:0:0:0:
161,69,146960,1,2,0:0:0:0:
161,69,147071,2,0,L|168:130|175:191,1,123.299996237183,8|2,0:0|0:0,0:0:0:0:
214,282,147516,1,2,0:0:0:0:
214,282,147627,2,0,B|165:275|165:275|140:283|140:283|80:275,1,123.299996237183,8|2,0:0|0:0,0:0:0:0:
48,298,147960,1,8,0:0:0:0:
11,206,148182,1,2,0:0:0:0:
11,206,148293,1,0,0:0:0:0:
11,206,148404,6,0,P|48:146|29:76,1,123.299996237183,2|2,0:0|0:0,0:0:0:0:
7,62,148738,1,0,0:0:0:0:
7,62,148849,2,0,L|148:47,1,123.299996237183,8|2,0:0|0:0,0:0:0:0:
232,48,149293,1,2,0:0:0:0:
232,48,149404,2,0,L|217:189,1,123.299996237183,8|0,0:0|0:0,0:0:0:0:
252,206,149738,2,0,P|291:192|329:203,1,61.6499981185914,8|8,0:0|0:0,0:0:0:0:
351,221,149960,2,0,P|371:256|367:296,1,61.6499981185914,4|8,3:0|3:0,0:0:0:0:
313,331,150182,6,0,B|385:318|364:362|452:343,1,123.299996237183,6|0,0:0|0:0,0:0:0:0:
472,316,150516,1,2,0:0:0:0:
472,316,150627,2,0,B|486:278|486:278|468:183,1,123.299996237183,8|2,0:0|0:0,0:0:0:0:
484,87,151071,2,0,P|436:122|359:105,1,123.299996237183,6|0,0:0|0:0,0:0:0:0:
339,81,151404,1,2,0:0:0:0:
339,81,151516,2,0,L|216:94,1,123.299996237183,8|2,0:0|0:0,0:0:0:0:
116,56,151960,6,0,P|81:104|98:181,1,123.299996237183,6|0,0:0|0:0,0:0:0:0:
126,194,152293,1,2,0:0:0:0:
126,194,152404,2,0,P|168:188|208:185,1,61.6499981185914,8|0,0:0|0:0,0:0:0:0:
222,220,152627,2,0,P|252:223|283:227,1,61.6499981185914,2|0,0:0|0:0,0:0:0:0:
351,270,152849,2,0,P|399:235|476:252,1,123.299996237183,2|8,0:0|0:0,0:0:0:0:
504,262,153182,1,2,0:0:0:0:
504,262,153293,2,0,P|512:219|524:176,2,61.6499981185914,2|8|8,0:0|0:0|0:0,0:0:0:0:
423,327,153738,6,0,B|374:320|374:320|349:328|349:328|289:320,1,123.299996237183,6|8,0:0|0:0,0:0:0:0:
203,311,154182,2,0,P|210:340|215:371,2,61.6499981185914,4|4|4,3:0|3:0|3:0,0:0:0:0:
137,265,154516,2,0,P|111:212|139:137,1,123.299996237183,12|2,0:0|0:0,0:0:0:0:
170,130,154849,1,8,0:0:0:0:
251,185,155071,2,0,P|288:179|338:175,1,61.6499981185914,8|0,0:0|0:0,0:0:0:0:
363,206,155293,1,8,0:0:0:0:
363,206,155404,1,8,0:0:0:0:
363,206,155516,6,0,P|372:129|384:49,1,123.299996237183,6|8,0:0|0:0,0:0:0:0:
281,60,155960,2,0,P|274:16|264:-32,2,61.6499981185914,4|4|4,3:0|3:0|3:0,0:0:0:0:
273,140,156293,2,0,B|239:136|220:113|220:113|189:134|145:125,1,123.299996237183,12|2,0:0|0:0,0:0:0:0:
136,83,156627,2,0,P|102:87|67:123,1,61.6499981185914,8|0,0:0|0:0,0:0:0:0:
32,116,156849,2,0,P|19:147|32:195,1,61.6499981185914,8|0,0:0|0:0,0:0:0:0:
59,206,157071,2,0,P|53:248|50:285,1,61.6499981185914,8|8,0:0|0:0,0:0:0:0:
14,353,157293,6,0,L|155:338,1,123.299996237183,6|8,0:0|0:0,0:0:0:0:
234,328,157738,2,0,P|219:351|216:390,2,61.6499981185914,4|4|4,3:0|3:0|3:0,0:0:0:0:
303,287,158071,2,0,B|300:241|300:241|312:217|312:217|308:159,1,123.299996237183,12|0,0:0|0:0,0:0:0:0:
337,126,158404,2,0,P|378:112|418:124,1,61.6499981185914,12|0,0:0|0:0,0:0:0:0:
425,153,158627,1,12,0:0:0:0:
474,249,158849,1,12,0:0:0:0:
474,249,158960,1,0,0:0:0:0:
474,249,159071,6,0,B|371:224|396:286|286:262,1,184.949994355774,6|8,0:0|0:0,0:0:0:0:
254,233,159516,1,8,3:0:0:0:
252,134,159738,2,0,P|288:70|316:179,1,246.599992474365,6|2,0:0|0:0,0:0:0:0:
254,233,160404,2,0,L|121:214,1,123.299996237183,8|2,0:0|0:0,0:0:0:0:
56,153,160849,6,0,P|156:160|205:79,1,184.949994355774,6|8,0:0|0:0,0:0:0:0:
188,52,161293,1,8,3:0:0:0:
293,80,161516,2,0,B|364:72|364:72|404:92|404:92|489:85,1,184.949994355774,6|8,0:0|0:0,0:0:0:0:
507,120,161960,1,2,0:0:0:0:
457,205,162182,2,0,P|472:228|475:267,2,61.6499981185914,8|8|2,0:0|0:0|0:0,0:0:0:0:
378,265,162627,6,0,B|330:270|293:238|293:238|263:283|194:288,1,184.949994355774,6|8,0:0|0:0,0:0:0:0:
171,263,163071,1,8,3:0:0:0:
74,306,163293,2,0,L|99:61,1,246.599992474365,6|2,0:0|0:0,0:0:0:0:
189,21,163960,2,0,P|237:75|216:147,1,123.299996237183,8|2,0:0|0:0,0:0:0:0:
205,216,164404,6,0,B|316:190|316:190|382:227,1,184.949994355774,6|8,0:0|0:0,0:0:0:0:
427,222,164849,1,8,3:0:0:0:
490,146,165071,2,0,P|456:65|314:80,1,246.599992474365,6|2,0:0|0:0,0:0:0:0:
228,121,165738,2,0,L|237:200,2,61.6499981185914,8|8|2,0:0|0:0|0:0,0:0:0:0:
134,89,166182,6,0,P|63:158|87:255,1,184.949994355774,6|8,0:0|0:0,0:0:0:0:
114,264,166627,1,2,0:0:0:0:
197,316,166849,2,0,B|300:291|275:353|385:329,1,184.949994355774,6|0,0:0|0:0,0:0:0:0:
419,306,167293,2,0,P|430:236|450:163,2,123.299996237183,2|8|2,0:0|0:0|0:0,0:0:0:0:
337,250,167960,6,0,P|326:180|306:107,1,123.299996237183,6|2,0:0|0:0,0:0:0:0:
268,108,168293,2,0,P|277:74|283:17,2,61.6499981185914,8|4|8,0:0|3:0|3:0,0:0:0:0:
226,135,168627,2,0,B|157:127|157:127|118:146|118:146|35:136,1,184.949994355774,6|8,0:0|0:0,0:0:0:0:
26,92,169071,1,2,0:0:0:0:
88,15,169293,2,0,L|159:24,1,61.6499981185914,8|8,0:0|0:0,0:0:0:0:
198,55,169516,1,2,0:0:0:0:
198,55,169627,1,8,0:0:0:0:
198,55,169738,6,0,P|260:21|326:46,1,123.299996237183,6|0,0:0|0:0,0:0:0:0:
404,12,170182,2,0,P|448:67|435:136,1,123.299996237183,2|0,0:0|0:0,0:0:0:0:
467,213,170627,2,0,P|390:204|313:199,1,123.299996237183,2|0,0:0|0:0,0:0:0:0:
256,245,171071,2,0,P|194:211|128:236,1,123.299996237183,2|0,0:0|3:0,0:0:0:0:
51,192,171516,6,0,L|37:346,1,123.299996237183,2|0,0:0|0:0,0:0:0:0:
130,352,171960,2,0,B|202:339|181:383|269:364,1,123.299996237183,2|0,0:0|0:0,0:0:0:0:
341,330,172404,2,0,P|376:268|352:202,1,123.299996237183,2|0,0:0|0:0,0:0:0:0:
280,168,172849,2,0,L|268:45,1,123.299996237183,2|0,0:0|3:0,0:0:0:0:
178,87,173293,6,0,B|129:80|129:80|104:88|104:88|44:80,1,123.299996237183,6|8,0:0|0:0,0:0:0:0:
17,112,173627,1,0,3:0:0:0:
17,112,173738,1,2,0:0:0:0:
79,188,173960,2,0,B|128:181|128:181|153:189|153:189|213:181,1,123.299996237183,2|2,3:2|0:0,0:0:0:0:
240,213,174294,1,8,0:0:0:0:
240,213,174405,1,2,0:0:0:0:
290,128,174627,2,0,P|349:118|399:151,1,123.299996237183,2|8,0:0|0:0,0:0:0:0:
426,193,174960,1,0,0:0:0:0:
426,193,175071,6,0,L|414:316,1,123.299996237183,12|2,0:0|0:0,0:0:0:0:
434,360,175404,2,0,P|383:326|324:336,1,123.299996237183,12|2,0:0|0:0,0:0:0:0:
287,369,175738,2,0,P|212:359|136:349,1,123.299996237183,12|2,0:0|0:0,0:0:0:0:
117,367,176071,2,0,B|138:307|92:307|118:226,1,123.299996237183,12|8,0:0|0:0,0:0:0:0:
143,207,176404,1,6,0:0:0:0:
54,163,176627,2,0,P|50:131|38:83,2,61.6499981185914,8|4|6,3:0|3:0|0:0,0:0:0:0:
309,337,191071,6,0,L|330:160,1,164.39999498291,6|8,0:0|0:0,0:0:0:0:
467,59,191960,2,0,B|374:37|406:100|278:68,1,164.39999498291,2|8,3:2|0:0,0:0:0:0:
152,169,192849,2,0,P|85:118|-8:147,2,164.39999498291,2|8|2,0:0|0:0|0:0,0:0:0:0:
59,324,194183,2,0,P|125:315|204:309,1,123.299996237183,8|0,0:0|0:0,0:0:0:0:
215,340,194627,6,0,P|282:289|375:318,1,164.39999498291,2|8,0:0|0:0,0:0:0:0:
506,202,195516,2,0,P|427:214|364:164,1,164.39999498291,2|8,3:2|0:0,0:0:0:0:
503,48,196405,2,0,B|441:53|441:53|406:35|406:35|343:42,1,164.39999498291,2|8,0:0|0:0,0:0:0:0:
163,58,197294,1,2,0:0:0:0:
302,172,197738,2,0,P|293:221|287:277,1,82.1999974914552,10|0,0:0|3:0,0:0:0:0:
301,343,198183,6,0,B|258:347|226:319|226:319|200:358|139:363,1,164.39999498291,6|8,0:0|0:0,0:0:0:0:
12,251,199072,2,0,L|33:74,1,164.39999498291,2|8,0:0|0:0,0:0:0:0:
196,14,199960,2,0,P|274:1|337:51,2,164.39999498291,2|8|2,0:0|0:0|0:0,0:0:0:0:
279,175,201294,2,0,P|345:166|424:160,1,123.299996237183,8|0,0:0|0:0,0:0:0:0:
438,136,201738,6,0,B|414:237|414:237|451:314,1,164.39999498291,2|8,0:0|0:0,0:0:0:0:
275,366,202627,2,0,P|187:348|98:333,1,164.39999498291,2|8,0:0|0:0,0:0:0:0:
36,171,203516,5,2,0:0:0:0:
36,171,203627,2,0,P|89:145|140:159,1,95.8999970733643,12|0,0:0|0:0,0:0:0:0:
149,190,203960,2,0,P|202:216|253:202,1,95.8999970733643,12|0,0:0|0:0,0:0:0:0:
274,181,204293,2,0,P|269:122|266:70,1,95.8999970733643,12|2,0:0|0:0,0:0:0:0:
236,47,204627,1,12,0:0:0:0:
327,18,204849,2,0,P|374:21|422:25,1,95.8999970733643,2|0,0:0|0:0,0:0:0:0:
476,104,205293,5,2,0:0:0:0:
476,104,205404,2,0,P|471:151|468:199,1,95.8999970733643,12|2,0:0|0:0,0:0:0:0:
425,220,205738,2,0,P|372:194|321:208,1,95.8999970733643,12|0,0:0|0:0,0:0:0:0:
296,225,206071,2,0,P|270:278|284:329,1,95.8999970733643,12|0,0:0|0:0,0:0:0:0:
305,350,206404,1,12,0:0:0:0:
396,380,206627,2,0,P|443:375|491:372,1,95.8999970733643,2|0,0:0|0:0,0:0:0:0:
472,276,207071,6,0,P|474:214|479:152,1,123.299996237183,2|8,0:0|0:0,0:0:0:0:
465,105,207404,1,0,3:2:0:0:
465,105,207516,2,0,P|409:69|330:94,1,123.299996237183,2|8,3:2|0:0,0:0:0:0:
275,134,207960,2,0,B|203:121|224:165|136:146,1,123.299996237183,2|8,3:2|0:0,0:0:0:0:
108,132,208293,2,0,P|117:214|124:291,1,123.299996237183,0|0,3:2|0:0,0:0:0:0:
163,279,208627,2,0,P|158:309|155:340,2,61.6499981185914,8|0|0,3:2|0:0|0:0,0:0:0:0:
266,263,209071,5,8,3:2:0:0:
266,263,209182,1,0,3:2:0:0:
266,263,209293,2,0,P|330:253|390:303,1,123.299996237183,2|8,3:2|3:2,0:0:0:0:
308,353,209738,2,0,P|236:342|148:331,1,123.299996237183,2|8,3:2|0:0,0:0:0:0:
138,348,210071,2,0,P|168:284|142:216,1,123.299996237183,0|0,3:2|0:2,0:0:0:0:
115,209,210404,2,0,P|83:210|21:220,2,61.6499981185914,8|0|0,3:2|3:2|0:0,0:0:0:0:
180,134,210849,5,8,3:2:0:0:
272,169,211071,1,2,3:2:0:0:
342,99,211293,1,8,3:2:0:0:
434,134,211516,2,0,P|471:65|443:2,1,123.299996237183,2|8,3:2|0:0,0:0:0:0:
363,13,211960,2,0,B|291:0|312:44|224:25,1,123.299996237183,2|8,3:2|0:0,0:0:0:0:
154,71,212404,6,0,P|98:35|19:60,1,123.299996237183,2|8,3:2|0:2,0:0:0:0:
12,79,212738,1,0,0:2:0:0:
12,79,212849,2,0,P|18:118|24:166,1,61.6499981185914,2|0,3:2|0:0,0:0:0:0:
59,170,213071,2,0,P|53:209|47:257,1,61.6499981185914,8|0,3:2|0:0,0:0:0:0:
20,270,213293,1,2,3:2:0:0:
106,317,213516,2,0,P|92:364|105:404,2,61.6499981185914,8|4|2,0:2|3:0|0:0,0:0:0:0:
188,262,213960,1,8,0:2:0:0:
188,262,214071,1,2,0:2:0:0:
188,262,214182,6,0,P|248:252|310:244,1,123.299996237183,4|8,0:2|3:2,0:0:0:0:
387,305,214627,2,0,P|381:341|377:389,2,61.6499981185914,2|0|8,0:2|3:0|0:0,0:0:0:0:
479,271,215071,2,0,P|507:212|486:152,1,123.299996237183,2|8,3:2|0:0,0:0:0:0:
416,94,215516,2,0,P|356:84|294:76,1,123.299996237183,2|8,3:2|0:0,0:0:0:0:
196,60,215960,6,0,P|206:120|214:182,1,123.299996237183,2|8,3:2|0:2,0:0:0:0:
187,223,216293,1,0,0:2:0:0:
187,223,216404,2,0,P|246:190|316:212,2,123.299996237183,2|8|2,3:2|0:2|3:2,0:0:0:0:
115,291,217071,1,8,0:2:0:0:
30,240,217293,2,0,B|12:196|12:196|36:87,1,123.299996237183,2|8,0:2|0:2,0:0:0:0:
93,47,217738,6,0,P|152:80|222:58,1,123.299996237183,6|8,3:2|0:2,0:0:0:0:
244,98,218071,2,0,P|303:65|373:87,1,123.299996237183,0|0,3:2|0:2,0:0:0:0:
387,111,218404,1,8,3:2:0:0:
329,191,218627,2,0,B|280:184|280:184|255:192|255:192|195:184,1,123.299996237183,2|8,0:2|0:0,0:0:0:0:
164,162,218960,1,0,3:2:0:0:
164,162,219071,2,0,P|196:229|172:290,1,123.299996237183,2|8,0:2|0:0,0:0:0:0:
83,340,219515,6,0,B|155:327|134:371|222:352,1,123.299996237183,2|8,3:2|0:2,0:0:0:0:
246,379,219849,2,0,P|305:346|375:368,1,123.299996237183,0|0,3:2|0:2,0:0:0:0:
398,383,220182,1,8,3:2:0:0:
451,300,220404,2,0,L|440:177,1,123.299996237183,2|8,0:2|0:2,0:0:0:0:
396,153,220738,1,0,0:2:0:0:
396,153,220849,2,0,P|337:186|267:164,1,123.299996237183,2|4,0:2|3:0,0:0:0:0:
213,107,221293,6,0,P|216:73|225:31,2,61.6499981185914,6|4|8,3:2|3:0|3:0,0:0:0:0:
173,137,221627,2,0,P|182:197|187:281,1,123.299996237183,6|2,3:2|0:2,0:0:0:0:
212,301,221960,2,0,P|152:292|68:287,1,123.299996237183,6|2,3:2|0:2,0:0:0:0:
44,307,222293,2,0,P|74:243|48:175,1,123.299996237183,6|2,3:2|0:2,0:0:0:0:
20,167,222627,1,6,3:2:0:0:
88,96,222849,1,8,3:2:0:0:
88,96,222960,1,4,3:0:0:0:
88,96,223071,6,0,B|135:93|165:48|165:48|202:80|249:75,2,184.949994355774,6|6|2,0:0|0:0|0:0,0:0:0:0:
20,167,223960,2,0,P|38:200|31:245,3,61.6499981185914,2|8|4|8,0:0|0:0|3:0|3:0,0:0:0:0:
76,254,224404,2,0,P|109:236|154:243,1,61.6499981185914,8|8,0:0|0:0,0:0:0:0:
206,207,224627,2,0,P|234:231|243:276,1,61.6499981185914,4|8,3:0|3:0,0:0:0:0:
213,328,224849,5,6,0:0:0:0:
416,56,226627,5,6,0:0:0:0:
487,324,227515,6,0,P|441:287|370:300,1,123.299996237183,8|2,0:0|0:0,0:0:0:0:
344,327,227849,2,0,P|267:314|189:306,1,123.299996237183,8|0,0:0|0:0,0:0:0:0:
178,332,228182,1,8,0:0:0:0:
120,240,228405,6,0,B|125:194|125:194|142:173|142:173|149:115,1,123.299996237183,6|0,0:0|0:0,0:0:0:0:
189,96,228738,1,2,0:0:0:0:
189,96,228849,2,0,P|248:129|318:107,1,123.299996237183,8|2,0:0|0:0,0:0:0:0:
356,38,229293,1,2,0:0:0:0:
356,38,229404,2,0,P|415:5|485:27,1,123.299996237183,8|2,0:0|0:0,0:0:0:0:
510,38,229738,1,8,0:0:0:0:
434,101,229960,1,2,0:0:0:0:
434,101,230071,1,0,0:0:0:0:
434,101,230182,6,0,L|444:249,1,123.299996237183,2|0,0:0|0:0,0:0:0:0:
404,255,230515,1,2,0:0:0:0:
404,255,230627,2,0,P|420:290|413:333,2,61.6499981185914,8|0|2,0:0|0:0|0:0,0:0:0:0:
312,219,231071,1,2,0:0:0:0:
312,219,231182,2,0,B|240:206|261:250|173:231,1,123.299996237183,8|2,0:0|0:0,0:0:0:0:
152,205,231515,2,0,P|139:172|149:128,1,61.6499981185914,8|8,0:0|0:0,0:0:0:0:
161,101,231738,2,0,L|154:33,1,61.6499981185914,4|8,3:0|3:0,0:0:0:0:
76,25,231960,6,0,P|33:76|44:142,1,123.299996237183,6|0,0:0|0:0,0:0:0:0:
21,176,232293,1,2,0:0:0:0:
21,176,232404,2,0,P|102:166|195:161,1,123.299996237183,8|2,0:0|0:0,0:0:0:0:
230,210,232849,2,0,P|280:177|346:191,1,123.299996237183,2|0,0:0|0:0,0:0:0:0:
374,222,233182,1,2,0:0:0:0:
374,222,233293,2,0,P|364:296|359:355,1,123.299996237183,8|2,0:0|0:0,0:0:0:0:
451,380,233738,6,0,P|490:333|483:268,1,123.299996237183,2|0,0:0|0:0,0:0:0:0:
452,237,234071,1,2,0:0:0:0:
452,237,234182,2,0,P|458:194|467:149,1,61.6499981185914,8|0,0:0|0:0,0:0:0:0:
424,143,234404,2,0,P|418:100|409:55,1,61.6499981185914,2|0,0:0|0:0,0:0:0:0:
434,36,234627,1,2,0:0:0:0:
434,36,234738,2,0,P|375:69|305:47,1,123.299996237183,2|2,0:0|0:0,0:0:0:0:
290,21,235071,1,8,0:0:0:0:
213,83,235293,2,0,P|179:65|129:77,1,61.6499981185914,2|0,0:0|0:0,0:0:0:0:
127,105,235515,5,2,0:0:0:0:
127,105,235626,2,0,P|133:163|139:250,1,123.299996237183,8|2,0:0|0:0,0:0:0:0:
109,267,235959,1,8,0:0:0:0:
0,218,236182,2,0,P|37:200|72:208,1,61.6499981185914,2|0,0:0|0:0,0:0:0:0:
109,267,236404,2,0,B|158:260|158:260|183:268|183:268|243:260,1,123.299996237183,2|0,0:0|0:0,0:0:0:0:
273,285,236738,1,2,0:0:0:0:
273,285,236849,2,0,L|265:363,2,61.6499981185914,8|8|4,0:0|0:0|3:0,0:0:0:0:
357,234,237293,6,0,P|388:176|365:113,1,123.299996237183,8|2,0:0|0:0,0:0:0:0:
309,75,237627,2,0,B|237:62|258:106|170:87,1,123.299996237183,8|2,0:0|0:0,0:0:0:0:
136,30,237960,2,0,P|75:3|7:31,1,123.299996237183,8|2,0:0|0:0,0:0:0:0:
52,97,238293,1,8,0:0:0:0:
52,97,238404,2,0,L|44:163,1,61.6499981185914,4|8,3:0|3:0,0:0:0:0:
60,237,238627,2,0,P|26:239|-1:244,2,61.6499981185914,8|8|4,0:0|0:0|3:0,0:0:0:0:
151,299,239071,6,0,P|214:268|281:295,1,123.299996237183,6|0,0:0|0:0,0:0:0:0:
294,317,239404,1,2,0:0:0:0:
294,317,239515,2,0,P|372:307|452:302,1,123.299996237183,8|2,0:0|0:0,0:0:0:0:
488,235,239960,1,2,0:0:0:0:
488,235,240071,2,0,P|515:168|481:105,1,123.299996237183,8|2,0:0|0:0,0:0:0:0:
455,98,240404,2,0,P|393:103|332:111,1,123.299996237183,8|2,0:0|0:0,0:0:0:0:
240,73,240849,6,0,P|233:133|227:203,1,123.299996237183,2|0,0:0|0:0,0:0:0:0:
198,235,241182,1,2,0:0:0:0:
198,235,241293,2,0,P|161:218|120:228,1,61.6499981185914,8|0,0:0|0:0,0:0:0:0:
97,243,241515,2,0,P|73:276|76:318,1,61.6499981185914,2|0,0:0|0:0,0:0:0:0:
104,333,241738,2,0,B|176:320|155:364|243:345,1,123.299996237183,2|0,0:0|0:0,0:0:0:0:
269,329,242071,1,0,0:0:0:0:
269,329,242182,1,8,0:0:0:0:
361,363,242404,2,0,P|365:325|371:280,1,61.6499981185914,2|0,0:0|0:0,0:0:0:0:
432,253,242627,6,0,P|466:199|445:131,1,123.299996237183,2|0,0:0|0:0,0:0:0:0:
415,113,242960,1,2,0:0:0:0:
415,113,243071,2,0,B|366:106|366:106|341:114|341:114|281:106,1,123.299996237183,8|2,0:0|0:0,0:0:0:0:
210,54,243515,1,2,0:0:0:0:
210,54,243627,2,0,P|155:89|90:74,1,123.299996237183,8|2,0:0|0:0,0:0:0:0:
61,110,243960,1,8,0:0:0:0:
136,189,244182,1,2,0:0:0:0:
136,189,244293,1,0,0:0:0:0:
136,189,244404,6,0,P|195:181|245:215,1,123.299996237183,2|0,0:0|0:0,0:0:0:0:
258,263,244738,1,0,0:0:0:0:
258,263,244849,2,0,L|387:249,1,123.299996237183,8|2,0:0|0:0,0:0:0:0:
474,279,245293,1,2,0:0:0:0:
474,279,245404,2,0,L|488:150,1,123.299996237183,8|0,0:0|0:0,0:0:0:0:
469,109,245738,2,0,P|438:94|394:100,1,61.6499981185914,8|8,0:0|0:0,0:0:0:0:
374,126,245960,2,0,P|343:141|299:135,1,61.6499981185914,4|8,3:0|3:0,0:0:0:0:
239,165,246182,6,0,B|236:119|236:119|248:95|248:95|244:37,1,123.299996237183,6|0,0:0|0:0,0:0:0:0:
211,8,246515,1,2,0:0:0:0:
211,8,246627,2,0,P|156:43|91:28,1,123.299996237183,8|2,0:0|0:0,0:0:0:0:
40,119,247071,2,0,P|75:174|60:239,1,123.299996237183,6|0,0:0|0:0,0:0:0:0:
29,261,247404,1,2,0:0:0:0:
29,261,247515,2,0,P|106:254|193:252,1,123.299996237183,8|2,0:0|0:0,0:0:0:0:
239,315,247960,6,0,B|273:311|292:288|292:288|323:309|367:300,1,123.299996237183,6|0,0:0|0:0,0:0:0:0:
393,277,248293,1,2,0:0:0:0:
393,277,248404,2,0,P|425:260|469:269,1,61.6499981185914,8|0,0:0|0:0,0:0:0:0:
492,285,248627,2,0,P|509:317|500:361,1,61.6499981185914,2|0,0:0|0:0,0:0:0:0:
440,384,248849,2,0,B|391:377|391:377|366:385|366:385|306:377,1,123.299996237183,2|8,0:0|0:0,0:0:0:0:
286,341,249182,1,2,0:0:0:0:
286,341,249293,2,0,P|302:300|293:263,2,61.6499981185914,2|8|8,0:0|0:0|0:0,0:0:0:0:
202,287,249738,6,0,L|212:158,1,123.299996237183,6|8,0:0|0:0,0:0:0:0:
160,79,250182,2,0,P|144:38|153:1,2,61.6499981185914,4|4|4,3:0|3:0|3:0,0:0:0:0:
238,61,250515,2,0,B|310:48|289:92|377:73,1,123.299996237183,12|2,0:0|0:0,0:0:0:0:
401,51,250849,1,8,0:0:0:0:
484,103,251071,2,0,P|478:140|475:177,1,61.6499981185914,8|0,0:0|0:0,0:0:0:0:
434,191,251293,2,0,P|440:228|443:265,1,61.6499981185914,8|8,0:0|0:0,0:0:0:0:
387,310,251515,6,0,P|324:279|254:312,1,123.299996237183,6|8,0:0|0:0,0:0:0:0:
208,219,251960,2,0,P|211:185|215:158,2,61.6499981185914,4|4|4,3:0|3:0|3:0,0:0:0:0:
145,269,252293,2,0,P|82:300|12:267,1,123.299996237183,12|2,0:0|0:0,0:0:0:0:
7,244,252627,2,0,P|4:210|0:183,1,61.6499981185914,8|0,0:0|0:0,0:0:0:0:
32,145,252849,2,0,P|62:149|93:152,1,61.6499981185914,8|0,0:0|0:0,0:0:0:0:
146,179,253071,1,8,0:0:0:0:
146,179,253182,1,8,0:0:0:0:
146,179,253293,6,0,P|142:99|137:32,1,123.299996237183,6|8,0:0|0:0,0:0:0:0:
225,8,253738,2,0,B|297:-5|276:39|364:20,1,123.299996237183,8|4,0:0|3:0,0:0:0:0:
422,0,254071,2,0,P|459:59|438:122,1,123.299996237183,12|2,0:0|0:0,0:0:0:0:
405,133,254404,2,0,P|409:171|413:219,1,61.6499981185914,8|0,0:0|0:0,0:0:0:0:
445,230,254627,1,8,0:0:0:0:
364,286,254849,1,4,3:0:0:0:
364,286,254960,1,4,3:0:0:0:
364,286,255071,5,4,0:0:0:0:
37,201,258182,6,0,P|76:195|124:195,1,61.6499981185914,8|0,0:0|0:0,0:0:0:0:
134,160,258404,2,0,P|173:166|221:166,1,61.6499981185914,8|8,0:0|0:0,0:0:0:0:
239,188,258627,2,0,P|211:126|230:66,1,123.299996237183,6|8,0:0|0:0,0:0:0:0:
319,100,259071,2,0,B|368:93|368:93|393:101|393:101|453:93,1,123.299996237183,0|8,0:0|0:0,0:0:0:0:
479,124,259404,1,2,0:0:0:0:
479,124,259515,2,0,P|469:203|461:284,1,123.299996237183,2|8,0:0|2:0,0:0:0:0:
497,339,259960,1,2,0:0:0:0:
406,377,260182,2,0,P|372:359|319:368,1,61.6499981185914,8|0,0:0|0:0,0:0:0:0:
301,367,260404,6,0,P|294:305|286:244,1,123.299996237183,2|8,0:0|0:0,0:0:0:0:
205,186,260849,2,0,B|133:173|154:217|66:198,1,123.299996237183,2|8,0:0|0:0,0:0:0:0:
45,171,261182,1,2,0:0:0:0:
45,171,261293,2,0,P|30:133|38:93,1,61.6499981185914,2|0,0:0|0:0,0:0:0:0:
49,67,261515,2,0,P|91:60|138:54,1,61.6499981185914,8|0,0:0|0:0,0:0:0:0:
153,80,261738,2,0,P|212:46|283:69,1,123.299996237183,2|8,0:0|0:0,0:0:0:0:
325,132,262182,6,0,B|374:125|374:125|399:133|399:133|459:125,1,123.299996237183,6|8,0:0|0:0,0:0:0:0:
474,31,262627,2,0,P|415:-3|344:20,1,123.299996237183,2|8,0:0|0:0,0:0:0:0:
328,40,262960,1,2,0:0:0:0:
328,40,263071,2,0,L|190:21,1,123.299996237183,2|8,0:0|0:0,0:0:0:0:
145,100,263515,1,2,0:0:0:0:
27,52,263738,2,0,P|61:37|108:47,1,61.6499981185914,8|0,0:0|0:0,0:0:0:0:
145,100,263960,6,0,B|148:149|148:149|135:173|135:173|139:219,1,123.299996237183,2|8,0:0|0:0,0:0:0:0:
218,278,264404,2,0,B|252:274|271:251|271:251|302:272|346:263,1,123.299996237183,2|8,0:0|0:0,0:0:0:0:
376,245,264738,1,2,0:0:0:0:
376,245,264849,2,0,P|366:204|375:174,1,61.6499981185914,0|2,0:0|0:0,0:0:0:0:
402,148,265071,2,0,P|443:138|473:147,1,61.6499981185914,8|0,0:0|0:0,0:0:0:0:
498,174,265293,1,2,0:0:0:0:
466,267,265515,1,8,0:0:0:0:
466,267,265627,1,8,0:0:0:0:
466,267,265738,6,0,B|394:254|415:298|327:279,1,123.299996237183,6|8,0:0|0:0,0:0:0:0:
280,208,266182,2,0,P|216:176|145:217,1,123.299996237183,2|8,0:0|0:0,0:0:0:0:
134,224,266515,1,2,0:0:0:0:
134,224,266627,2,0,L|151:371,1,123.299996237183,2|8,0:0|0:0,0:0:0:0:
56,382,267071,1,2,0:0:0:0:
11,294,267293,1,8,0:0:0:0:
11,294,267404,1,0,0:0:0:0:
11,294,267515,6,0,L|25:171,1,123.299996237183,2|8,0:0|0:0,0:0:0:0:
86,93,267960,2,0,B|135:86|135:86|160:94|160:94|220:86,1,123.299996237183,2|8,0:0|0:0,0:0:0:0:
251,108,268293,1,2,0:0:0:0:
251,108,268404,2,0,P|237:148|249:187,1,61.6499981185914,8|8,0:0|0:0,0:0:0:0:
273,202,268627,2,0,P|310:197|337:195,1,61.6499981185914,8|8,0:0|0:0,0:0:0:0:
370,161,268849,1,8,0:0:0:0:
409,165,268960,1,8,0:0:0:0:
447,169,269071,1,8,0:0:0:0:
485,173,269182,1,8,0:0:0:0:
142,305,269738,5,6,0:0:0:0:
256,192,269849,12,0,274182,0:0:0:0:
