osu file format v14

[General]
AudioFilename: audio.mp3
AudioLeadIn: 0
PreviewTime: 224793
Countdown: 0
SampleSet: Soft
StackLeniency: 0.7
Mode: 0
LetterboxInBreaks: 0
WidescreenStoryboard: 0

[Editor]
Bookmarks: 20394,36394,54172,68394,84394,95061,111061,128839,143061,159061,176839,191061,207060,224838,239060,255060
DistanceSpacing: 0.7
BeatDivisor: 2
GridSize: 4
TimelineZoom: 1.7

[Metadata]
Title:RHAPSODY OF BLUE SKY
TitleUnicode:青空のラプソディ
Artist:fhana
ArtistUnicode:fhána
Creator:Sotarks
Version:Nozely's Easy
Source:小林さんちのメイドラゴン
Tags:Kobayashi-san Chi no Maid Dragon Op Opening full ver version lantis anime aozora no junichi sato yuxuki waga kevin mitsunaga towana nozhomi xinely kalibe haruto haruto_aizawa pkk akitoshi corinn pentori
BeatmapID:1200812
BeatmapSetID:556757

[Difficulty]
HPDrainRate:3
CircleSize:2.6
OverallDifficulty:2.5
ApproachRate:3
SliderMultiplier:0.9
SliderTickRate:1

[Events]
//Background and Video events
0,0,"BG.jpg",0,0
//Break Periods
2,84604,93631
2,177049,189631
//Storyboard Layer 0 (Background)
//Storyboard Layer 1 (Fail)
//Storyboard Layer 2 (Pass)
//Storyboard Layer 3 (Foreground)
//Storyboard Sound Samples

[TimingPoints]
4405,444.444444444444,4,2,2,42,1,0
7960,-100,4,2,2,52,0,0
8849,-100,4,2,2,42,0,0
11071,-100,4,2,2,52,0,0
11516,-100,4,2,2,62,0,0
12404,-100,4,2,2,42,0,0
13182,-100,4,2,2,52,0,0
13960,-100,4,2,2,42,0,0
14627,-100,4,2,2,52,0,0
15071,-100,4,2,2,62,0,0
15960,-100,4,2,2,42,0,0
16849,-100,4,2,3,52,0,0
18627,-100,4,2,3,62,0,0
20405,-66.6666666666667,4,2,3,52,0,0
36404,-66.6666666666667,4,2,3,42,0,0
47071,-66.6666666666667,4,2,3,52,0,0
48849,-66.6666666666667,4,2,3,52,0,0
50182,-66.6666666666667,4,2,3,52,0,0
50627,-66.6666666666667,4,2,3,62,0,0
51960,-66.6666666666667,4,2,3,62,0,0
52404,-66.6666666666667,4,2,3,62,0,0
54182,-66.6666666666667,4,2,2,52,0,1
65738,-66.6666666666667,4,2,2,62,0,1
66182,-66.6666666666667,4,2,2,72,0,1
66627,-66.6666666666667,4,2,3,62,0,1
66960,-66.6666666666667,4,2,3,52,0,1
67293,-66.6666666666667,4,2,3,52,0,1
67960,-66.6666666666667,4,2,3,72,0,0
68404,-66.6666666666667,4,2,2,52,0,1
79071,-66.6666666666667,4,2,3,62,0,0
84404,-66.6666666666667,4,2,3,62,0,0
95016,-66.6666666666667,4,2,3,5,0,0
95071,-66.6666666666667,4,2,3,52,0,0
111071,-66.6666666666667,4,2,3,42,0,0
121738,-66.6666666666667,4,2,3,52,0,0
123516,-66.6666666666667,4,2,3,52,0,0
124849,-66.6666666666667,4,2,3,52,0,0
125293,-66.6666666666667,4,2,3,62,0,0
126627,-66.6666666666667,4,2,3,62,0,0
127071,-66.6666666666667,4,2,3,62,0,0
128849,-66.6666666666667,4,2,2,52,0,1
140405,-66.6666666666667,4,2,2,62,0,1
140849,-66.6666666666667,4,2,2,72,0,1
141293,-66.6666666666667,4,2,3,62,0,1
141627,-66.6666666666667,4,2,3,52,0,1
141960,-66.6666666666667,4,2,3,52,0,1
142627,-66.6666666666667,4,2,3,72,0,0
143071,-66.6666666666667,4,2,2,52,0,1
153738,-66.6666666666667,4,2,2,62,0,0
159071,-66.6666666666667,4,2,2,72,0,0
159738,-66.6666666666667,4,2,2,72,0,0
160182,-66.6666666666667,4,2,2,72,0,0
161516,-66.6666666666667,4,2,2,72,0,0
161960,-66.6666666666667,4,2,2,72,0,0
162627,-66.6666666666667,4,2,2,72,0,0
163293,-66.6666666666667,4,2,2,72,0,0
163738,-66.6666666666667,4,2,2,72,0,0
164404,-66.6666666666667,4,2,2,72,0,0
165071,-66.6666666666667,4,2,2,72,0,0
165738,-66.6666666666667,4,2,2,72,0,0
166182,-66.6666666666667,4,2,2,72,0,0
166849,-66.6666666666667,4,2,2,72,0,0
167293,-66.6666666666667,4,2,2,72,0,0
167960,-66.6666666666667,4,2,2,72,0,0
168627,-66.6666666666667,4,2,2,72,0,0
169293,-66.6666666666667,4,2,2,72,0,0
169738,-66.6666666666667,4,2,2,72,0,0
171516,-66.6666666666667,4,2,2,72,0,0
173293,-66.6666666666667,4,2,2,72,0,0
175071,-66.6666666666667,4,2,2,82,0,0
176849,-66.6666666666667,4,2,2,72,0,0
191071,-100,4,2,2,72,0,0
203515,-66.6666666666667,4,2,2,52,0,0
205292,-66.6666666666667,4,2,2,62,0,0
207070,-66.6666666666667,4,2,2,62,0,0
207181,-66.6666666666667,4,2,2,52,0,0
207515,-66.6666666666667,4,2,2,62,0,0
207570,-66.6666666666667,4,2,2,52,0,0
207848,-66.6666666666667,4,2,2,42,0,0
207959,-66.6666666666667,4,2,2,52,0,0
208348,-66.6666666666667,4,2,2,52,0,0
208737,-66.6666666666667,4,2,2,62,0,0
209515,-66.6666666666667,4,2,2,42,0,0
209737,-66.6666666666667,4,2,2,52,0,0
210126,-66.6666666666667,4,2,2,52,0,0
210515,-66.6666666666667,4,2,2,62,0,0
211070,-66.6666666666667,4,2,2,52,0,0
211515,-66.6666666666667,4,2,2,62,0,0
212403,-66.6666666666667,4,2,2,72,0,0
212737,-66.6666666666667,4,2,2,52,0,0
212848,-66.6666666666667,4,2,2,62,0,0
213070,-66.6666666666667,4,2,2,82,0,0
213348,-66.6666666666667,4,2,2,52,0,0
213626,-66.6666666666667,4,2,2,62,0,0
219514,-66.6666666666667,4,2,2,72,0,0
220181,-66.6666666666667,4,2,2,82,0,0
221292,-66.6666666666667,4,2,2,92,0,0
222626,-66.6666666666667,4,2,2,82,0,0
223070,-66.6666666666667,4,2,2,72,0,0
224403,-66.6666666666667,4,2,2,72,0,0
224848,-66.6666666666667,4,2,2,72,0,0
227514,-66.6666666666667,4,2,2,62,0,0
228404,-66.6666666666667,4,2,2,52,0,1
236403,-66.6666666666667,4,2,2,62,0,1
236848,-66.6666666666667,4,2,2,72,0,1
237292,-66.6666666666667,4,2,3,62,0,1
237959,-66.6666666666667,4,2,3,52,0,1
238627,-66.6666666666667,4,2,3,72,0,0
239071,-66.6666666666667,4,2,2,52,0,1
249738,-66.6666666666667,4,2,2,72,0,0
255070,-66.6666666666667,4,2,4,62,0,0
258627,-66.6666666666667,4,2,2,62,0,0
272737,-100,4,2,2,50,0,0
273682,-100,4,2,2,40,0,0
274182,-100,4,2,2,5,0,0

[Colours]
Combo1 : 172,210,205
Combo2 : 255,62,226
Combo3 : 242,255,85
Combo4 : 20,0,204
SliderTrackOverride : 0,0,10
SliderBorder : 255,255,250

[HitObjects]
100,112,4405,6,0,L|292:96,1,180,6|2,0:0|3:2,0:0:0:0:
148,220,6182,2,0,L|340:204,1,180,2|2,2:0|3:2,0:0:0:0:
392,140,7516,1,10,0:0:0:0:
453,204,7960,6,0,P|427:282|318:332,1,180,2|2,0:0|3:2,0:0:0:0:
165,330,9738,2,0,P|88:286|59:204,1,180,2|2,0:0|3:2,0:0:0:0:
80,116,11071,1,10,0:0:0:0:
157,164,11516,6,0,B|192:172|192:172|216:164|216:164|280:192|332:168,1,180,2|2,0:0|3:2,0:0:0:0:
472,56,13293,2,0,L|464:260,1,180,0|2,0:0|3:2,0:0:0:0:
400,296,14627,1,8,0:0:0:0:
343,227,15071,6,0,P|256:207|169:227,1,180,2|2,0:0|0:0,0:0:0:0:
100,284,16404,1,8,0:0:0:0:
76,196,16849,2,0,L|64:52,2,135,2|2|2,0:0|0:0|0:0,0:0:0:0:
160,160,18627,2,0,L|148:16,2,135,2|2|2,0:0|0:0|0:0,0:0:0:0:
220,232,20405,6,0,P|272:256|368:224,1,135.000005149842,6|2,0:0|0:0,0:0:0:0:
412,172,21293,2,0,P|396:252|428:316,2,135.000005149842,0|2|2,0:0|0:0|0:0,0:0:0:0:
408,76,22627,1,2,0:0:0:0:
332,132,23071,2,0,B|308:164|308:192|308:192|268:172|216:172,1,135.000005149842,0|2,0:0|0:0,0:0:0:0:
152,200,23960,6,0,B|176:276|176:276|164:332,1,135.000005149842,6|2,0:0|0:0,0:0:0:0:
72,352,24849,1,0,0:0:0:0:
20,272,25293,1,2,0:0:0:0:
40,180,25738,2,0,P|108:92|224:116,1,236.250009012223,6|6,0:0|0:0,0:0:0:0:
408,208,27516,6,0,B|428:292|428:292|396:352,1,135.000005149842,6|2,0:0|0:0,0:0:0:0:
316,372,28404,1,0,0:0:0:0:
224,360,28849,1,2,0:0:0:0:
144,312,29293,2,0,P|136:248|168:172,1,135.000005149842,2|2,0:0|0:0,0:0:0:0:
220,108,30182,2,0,P|271:69|353:58,1,135.000005149842
420,108,31071,6,0,P|424:172|420:248,1,135.000005149842,2|2,0:0|0:0,0:0:0:0:
352,308,31960,2,0,P|304:340|272:344,2,67.5000025749208,0|8|2,0:0|0:0|0:0,0:0:0:0:
328,216,32849,2,0,B|304:180|256:160|256:160|174:211|92:204,1,236.250009012223,6|6,0:0|0:0,0:0:0:0:
24,144,34182,1,2,0:0:0:0:
112,116,34627,6,0,B|176:112|232:72|232:72|284:64|336:104,1,236.250009012223,6|6,0:0|0:0,0:0:0:0:
368,320,36404,6,0,P|276:344|164:292,2,202.500007724762,4|8|8,0:0|0:0|0:0,0:0:0:0:
424,243,38182,2,0,L|420:152,1,67.5000025749208,2|0,0:0|0:0,0:0:0:0:
376,92,38849,2,0,P|296:160|192:144,1,202.500007724762,2|8,0:0|0:0,0:0:0:0:
120,108,39960,5,6,0:0:0:0:
124,204,40404,2,0,B|136:270|136:270|121:336,2,135.000005149842,8|0|8,0:0|0:0|0:0,0:0:0:0:
204,152,41738,2,0,B|231:268|231:268|211:360,2,202.500007724762,2|0|8,0:0|0:0|0:0,0:0:0:0:
140,84,43516,5,6,0:0:0:0:
232,68,43960,2,0,L|368:56,1,135.000005149842,8|0,0:0|0:0,0:0:0:0:
460,40,44849,1,8,0:0:0:0:
428,128,45293,2,0,P|404:184|448:324,1,202.500007724762,2|6,0:0|0:0,0:0:0:0:
344,324,46404,2,0,P|324:283|321:248,1,67.5000025749208,0|8,0:0|0:0,0:0:0:0:
304,168,47071,6,0,P|243:193|182:167,1,135.000005149842,2|8,0:0|0:0,0:0:0:0:
186,73,47960,2,0,P|246:47|307:72,1,135.000005149842,2|8,0:0|0:0,0:0:0:0:
304,168,48849,6,0,B|303:226|414:255|414:330,2,202.500007724762,6|2|8,0:0|0:0|0:0,0:0:0:0:
208,168,50627,2,0,B|208:226|97:255|97:330,2,202.500007724762,6|2|8,0:0|0:0|0:0,0:0:0:0:
156,88,52404,6,0,L|52:96,2,101.250003862381,6|6|2,0:0|0:0|0:0,0:0:0:0:
296,76,53738,1,8,0:0:0:0:
340,160,54182,6,0,P|364:228|336:292,1,135.000005149842,6|8,0:0|0:0,0:0:0:0:
268,224,55071,2,0,P|204:216|132:244,1,135.000005149842,2|8,0:0|0:0,0:0:0:0:
64,300,55960,1,2,0:0:0:0:
20,216,56404,1,0,0:0:0:0:
24,120,56849,2,0,P|80:72|160:56,1,135.000005149842,2|8,0:0|0:0,0:0:0:0:
224,100,57738,5,2,0:0:0:0:
288,32,58182,1,8,0:0:0:0:
352,100,58627,2,0,B|376:168|376:168|360:240,1,135.000005149842,2|8,0:0|0:0,0:0:0:0:
292,292,59516,2,0,B|232:280|232:280|144:316,1,135.000005149842,2|8,0:0|0:0,0:0:0:0:
76,344,60404,1,2,0:0:0:0:
40,256,60849,1,8,0:0:0:0:
68,164,61293,6,0,B|112:164|144:192|144:192|212:156,1,135.000005149842,2|8,0:0|0:0,0:0:0:0:
268,116,62182,1,2,0:0:0:0:
340,176,62627,1,8,0:0:0:0:
428,140,63071,2,0,P|440:80|416:8,1,135.000005149842,2|0,0:0|0:0,0:0:0:0:
324,20,63960,2,0,L|176:36,1,135.000005149842,2|8,0:0|0:0,0:0:0:0:
152,120,64849,6,0,P|136:184|168:260,1,135.000005149842,2|8,0:0|0:0,0:0:0:0:
252,248,65738,2,0,P|273:185|257:120,1,135.000005149842,2|8,0:0|0:0,0:0:0:0:
324,52,66627,2,0,P|379:27|442:25,2,101.250003862381,8|8|8,0:0|0:0|0:0,0:0:0:0:
228,44,67738,2,0,L|152:36,1,67.5000025749208,8|8,3:0|0:0,0:0:0:0:
116,120,68404,6,0,L|250:133,1,135.000005149842,6|8,0:0|0:0,0:0:0:0:
344,144,69293,2,0,P|313:204|238:227,1,135.000005149842,2|8,0:0|0:0,0:0:0:0:
160,212,70182,1,2,0:0:0:0:
188,300,70626,1,8,0:0:0:0:
96,284,71071,2,0,P|64:213|96:139,1,135.000005149842,2|8,0:0|0:0,0:0:0:0:
136,88,71960,5,2,0:0:0:0:
196,160,72404,1,8,0:0:0:0:
264,92,72849,2,0,B|416:80,1,135.000005149842,2|8,0:0|0:0,0:0:0:0:
442,165,73738,2,0,P|318:209|196:160,1,270.000010299683,2|2,0:0|0:0,0:0:0:0:
128,92,75071,1,8,0:0:0:0:
72,167,75515,6,0,P|51:231|68:295,1,135.000005149842,2|8,0:0|0:0,0:0:0:0:
136,360,76404,1,6,0:0:0:0:
196,288,76849,1,8,0:0:0:0:
268,348,77293,2,0,B|312:360|312:360|404:344,1,135.000005149842,6|8,0:0|0:0,0:0:0:0:
472,284,78182,2,0,P|487:219|469:154,1,135.000005149842,2|2,0:0|0:0,0:0:0:0:
404,88,79071,6,0,B|328:76|284:100|284:100|244:68|156:76,1,236.250009012223,6|12,0:0|0:0,0:0:0:0:
64,112,80404,1,8,0:0:0:0:
116,192,80849,2,0,B|140:248|128:304|128:304|180:280|248:288,1,236.250009012223,6|12,0:0|0:0,0:0:0:0:
360,324,82182,1,8,0:0:0:0:
340,228,82627,6,0,B|294:184|251:186|251:186|276:124|276:124|264:56,1,236.250009012223,6|12,0:0|0:0,0:0:0:0:
160,112,83960,1,12,0:0:0:0:
140,204,84404,1,6,0:0:0:0:
188,240,95071,6,0,P|188:172|208:104,1,135.000005149842,6|2,0:0|0:0,0:0:0:0:
300,104,95960,2,0,P|318:168|318:236,1,135.000005149842,0|2,0:0|0:0,0:0:0:0:
336,328,96849,2,0,P|404:312|488:308,2,135.000005149842,2|2|0,0:0|0:0|0:0,0:0:0:0:
244,344,98182,1,2,0:0:0:0:
148,336,98627,6,0,P|100:336|20:296,1,135.000005149842,6|2,0:0|0:0,0:0:0:0:
48,208,99516,2,0,P|96:208|176:248,1,135.000005149842,0|2,0:0|0:0,0:0:0:0:
264,276,100404,2,0,B|300:236|360:228|360:228|332:160|264:144,1,236.250009012223,6|6,0:0|0:0,0:0:0:0:
72,72,102182,6,0,B|72:116|52:140|52:140|56:216,1,135.000005149842,6|2,0:0|0:0,0:0:0:0:
148,180,103071,2,0,B|147:224|167:248|167:248|164:310,1,135.000005149842,0|2,0:0|0:0,0:0:0:0:
252,344,103960,2,0,L|396:344,1,135.000005149842,2|2,0:0|0:0,0:0:0:0:
480,320,104849,1,0,0:0:0:0:
508,228,105293,1,0,0:0:0:0:
432,172,105738,6,0,P|424:100|448:36,2,135.000005149842,2|2|0,0:0|0:0|0:0,0:0:0:0:
348,220,107071,1,2,0:0:0:0:
264,180,107516,2,0,B|216:176|176:216|176:216|136:220|104:196|92:144|116:112,1,236.250009012223,6|6,0:0|0:0,0:0:0:0:
316,108,109293,6,0,P|356:176|240:264,1,236.250009012223,6|6,0:0|0:0,0:0:0:0:
56,320,111071,6,0,L|68:108,2,202.500007724762,4|8|8,0:0|0:0|0:0,0:0:0:0:
144,287,112849,2,0,L|148:220,1,67.5000025749208,2|0,0:0|0:0,0:0:0:0:
153,125,113515,2,0,P|249:163|353:121,1,202.500007724762,2|8,0:0|0:0,0:0:0:0:
404,64,114626,5,6,0:0:0:0:
432,156,115071,2,0,B|444:308,2,135.000005149842,8|0|8,0:0|0:0|0:0,0:0:0:0:
339,132,116404,2,0,L|355:342,2,202.500007724762,2|0|8,0:0|0:0|0:0,0:0:0:0:
280,60,118182,5,6,0:0:0:0:
232,140,118626,2,0,P|184:160|97:151,1,135.000005149842,8|0,0:0|0:0,0:0:0:0:
8,160,119515,1,8,0:0:0:0:
68,236,119960,2,0,B|104:248|184:268|272:224,1,202.500007724762,2|6,0:0|0:0,0:0:0:0:
340,168,121070,2,0,L|340:144|340:96,1,67.5000025749208,0|8,0:0|0:0,0:0:0:0:
428,132,121737,6,0,P|432:192|385:252,1,135.000005149842,6|8,0:0|0:0,0:0:0:0:
291,249,122627,2,0,P|249:198|252:132,1,135.000005149842,2|8,0:0|0:0,0:0:0:0:
292,48,123515,6,0,L|512:32,2,202.500007724762,2|2|8,0:0|0:0|0:0,0:0:0:0:
272,140,125293,2,0,L|492:124,2,202.500007724762,2|2|8,0:0|0:0|0:0,0:0:0:0:
200,200,127071,6,0,L|94:208,2,101.250003862381,6|6|2,0:0|0:0|0:0,0:0:0:0:
292,312,128404,1,8,0:0:0:0:
364,252,128849,6,0,P|384:188|364:125,1,135.000005149842,6|8,0:0|0:0,0:0:0:0:
288,68,129738,2,0,P|224:60|152:88,1,135.000005149842,2|8,0:0|0:0,0:0:0:0:
104,160,130627,2,0,P|83:223|104:286,1,135.000005149842,2|0,0:0|0:0,0:0:0:0:
184,340,131516,2,0,P|250:347|313:324,1,135.000005149842,2|8,0:0|0:0,0:0:0:0:
380,256,132405,5,2,0:0:0:0:
452,316,132849,1,8,0:0:0:0:
500,232,133293,2,0,B|513:170|513:170|489:102,1,135.000005149842,2|8,0:0|0:0,0:0:0:0:
408,56,134183,2,0,B|348:44|348:44|260:80,1,135.000005149842,2|0,0:0|0:0,0:0:0:0:
208,132,135071,1,2,0:0:0:0:
124,88,135516,1,8,0:0:0:0:
44,140,135960,6,0,B|28:184|28:184|40:224|48:288,1,135.000005149842,2|8,0:0|0:0,0:0:0:0:
108,340,136849,1,2,0:0:0:0:
192,296,137294,1,8,0:0:0:0:
276,252,137738,2,0,P|340:228|412:212,1,135.000005149842,2|0,0:0|0:0,0:0:0:0:
408,120,138627,2,0,P|344:96|272:80,1,135.000005149842,2|8,0:0|0:0,0:0:0:0:
188,52,139516,6,0,P|156:120|148:200,1,135.000005149842,2|8,0:0|0:0,0:0:0:0:
140,272,140404,2,0,P|182:333|248:380,1,135.000005149842,2|8,0:0|0:0,0:0:0:0:
324,348,141294,2,0,P|379:323|442:321,2,101.250003862381,8|8|8,0:0|0:0|0:0,0:0:0:0:
272,268,142405,2,0,L|280:188,1,67.5000025749208,8|8,3:0|0:0,0:0:0:0:
196,156,143071,6,0,L|183:290,1,135.000005149842,6|8,0:0|0:0,0:0:0:0:
247,355,143960,2,0,P|313:349|356:299,1,135.000005149842,2|8,0:0|0:0,0:0:0:0:
372,208,144849,1,2,0:0:0:0:
448,264,145293,1,0,0:0:0:0:
468,172,145738,2,0,L|460:28,1,135.000005149842,2|8,0:0|0:0,0:0:0:0:
376,79,146627,6,0,P|311:96|245:81,1,135.000005149842,2|0,0:0|0:0,0:0:0:0:
160,40,147516,2,0,P|95:23|29:38,1,135.000005149842,2|0,0:0|0:0,0:0:0:0:
4,128,148405,2,0,B|8:256|8:256|84:220|152:244,1,270.000010299683,2|2,0:0|0:0,0:0:0:0:
232,284,149738,1,8,0:0:0:0:
304,344,150182,6,0,P|325:279|296:214,1,135.000005149842,2|8,0:0|0:0,0:0:0:0:
224,164,151071,1,6,0:0:0:0:
312,128,151516,1,8,0:0:0:0:
232,76,151960,2,0,P|168:93|136:151,1,135.000005149842,6|8,0:0|0:0,0:0:0:0:
140,244,152849,2,0,P|157:307|215:339,1,135.000005149842,2|2,0:0|0:0,0:0:0:0:
304,308,153738,6,0,B|360:292|408:324|408:324|444:276|408:180,1,236.250009012223,6|12,0:0|0:0,0:0:0:0:
372,92,155071,1,8,0:0:0:0:
308,163,155516,2,0,P|200:205|90:167,1,236.250009012223,6|12,0:0|0:0,0:0:0:0:
24,72,156849,1,8,0:0:0:0:
116,56,157294,6,0,B|164:48|164:48|200:68|200:68|268:24|352:76,1,236.250009012223,6|12,0:0|0:0,0:0:0:0:
416,156,158627,1,12,0:0:0:0:
360,232,159071,6,0,P|344:268|288:304,2,101.250003862381,6|8|6,0:0|0:0|0:0,0:0:0:0:
260,132,160404,1,8,0:0:0:0:
176,180,160849,2,0,P|128:176|64:188,2,101.250003862381,6|8|6,0:0|0:0|0:0,0:0:0:0:
256,232,161960,2,0,L|332:228,1,67.5000025749208,2|8,0:0|0:0,0:0:0:0:
404,176,162627,6,0,P|416:256|316:324,1,202.500007724762,6|6,0:0|0:0,0:0:0:0:
192,304,163960,1,8,0:0:0:0:
120,244,164404,2,0,P|120:204|136:132,2,101.250003862381,6|8|6,0:0|0:0|0:0,0:0:0:0:
260,240,165738,1,8,0:0:0:0:
356,244,166182,6,0,P|355:204|340:132,2,101.250003862381,6|8|6,0:0|0:0|0:0,0:0:0:0:
240,328,167516,1,8,0:0:0:0:
148,308,167960,2,0,B|100:344|48:320|48:320|48:272|92:216,1,202.500007724762,6|6,0:0|0:0,0:0:0:0:
174,123,169293,1,8,0:0:0:0:
232,200,169738,6,0,L|240:348,1,135.000005149842,6|2,0:0|0:0,0:0:0:0:
332,356,170627,2,0,L|324:221,1,135.000005149842,2|2,0:0|0:0,0:0:0:0:
297,129,171516,2,0,P|236:103|173:123,1,135.000005149842,2|2,0:0|0:0,0:0:0:0:
108,188,172404,1,2,0:0:0:0:
172,256,172849,1,2,0:0:0:0:
264,224,173293,6,0,B|272:296|320:336|412:324|412:324|464:248|444:160|380:144,1,405.000015449525,6|2,0:0|0:0,0:0:0:0:
308,100,175071,6,0,L|196:96,2,101.250003862381,12|12|12,0:0|0:0|0:0,0:0:0:0:
436,44,176404,1,6,0:0:0:0:
444,140,176849,1,6,0:0:0:0:
352,232,191071,6,0,P|372:152|340:48,1,180,6|2,0:0|3:2,0:0:0:0:
164,59,192849,2,0,P|140:145|160:232,1,180,0|2,0:0|0:0,0:0:0:0:
224,296,194182,1,8,0:0:0:0:
295,244,194627,6,0,P|378:214|460:248,1,180,2|2,0:0|3:0,0:0:0:0:
295,328,196404,2,0,P|212:356|131:323,1,180,0|2,0:0|0:0,0:0:0:0:
63,261,197739,1,0,0:0:0:0:
132,204,198182,6,0,P|159:120|131:36,1,180,6|2,0:0|0:0,0:0:0:0:
40,36,199517,1,0,0:0:0:0:
64,124,199961,2,0,L|256:112,1,180,0|0,0:0|0:0,0:0:0:0:
320,164,201293,1,8,0:0:0:0:
400,120,201739,6,0,P|443:111|487:120,1,90,0|0,0:0|0:0,0:0:0:0:
487,211,202628,2,0,P|443:220|399:211,1,90,0|0,0:0|0:0,0:0:0:0:
320,164,203517,6,0,L|312:316,2,135.000005149842,0|0|0,0:0|0:0|0:0,0:0:0:0:
256,92,204850,1,0,0:0:0:0:
192,164,205294,2,0,L|200:316,2,135.000005149842,0|0|0,0:0|0:0|0:0,0:0:0:0:
124,96,206628,1,0,0:0:0:0:
208,52,207071,6,0,P|264:44|352:80,2,135.000005149842,2|2|2,0:0|3:2|3:2,0:0:0:0:
124,96,208405,1,0,0:0:0:0:
88,180,208850,2,0,P|76:256|108:332,1,135.000005149842,0|0,0:0|0:0,0:0:0:0:
180,352,209739,1,0,0:0:0:0:
240,280,210183,1,0,0:0:0:0:
312,340,210628,5,0,0:0:0:0:
388,284,211072,2,0,P|405:219|393:153,2,135.000005149842,0|2|0,0:0|3:2|0:0,0:0:0:0:
312,340,212404,2,0,P|220:328|168:348,1,135.000005149842,2|2,3:2|3:2,0:0:0:0:
88,332,213294,2,0,P|72:268|104:192,1,135.000005149842,2|0,3:2|0:0,0:0:0:0:
164,144,214183,5,4,0:2:0:0:
224,216,214628,1,2,0:2:0:0:
280,140,215072,1,0,0:0:0:0:
332,216,215517,2,0,L|332:292,2,67.5000025749208,0|0|0,0:0|0:0|0:0,0:0:0:0:
392,144,216405,1,2,3:2:0:0:
456,212,216850,2,0,L|456:364,1,135.000005149842,0|0,0:0|0:0,0:0:0:0:
360,356,217739,6,0,P|257:365|208:284,2,202.500007724762,0|0|0,0:0|0:0|0:0,0:0:0:0:
304,280,219516,2,0,B|256:216|328:152|288:72,2,202.500007724762,2|0|0,3:2|0:0|0:0,0:0:0:0:
400,288,221294,6,0,L|501:291,2,101.250003862381,6|0|0,3:2|0:0|0:0,0:0:0:0:
392,148,222628,1,0,0:0:0:0:
300,132,223071,2,0,L|292:12,2,101.250003862381,4|4|4,0:0|0:0|0:0,0:0:0:0:
228,252,224405,1,0,0:0:0:0:
144,288,224850,6,0,B|68:244|54:192|54:192|68:140|144:96,1,270.000010299683,2|0,0:0|0:0,0:0:0:0:
256,248,226628,1,2,0:0:0:0:
320,72,227516,2,0,P|256:53|192:72,1,135.000005149842,8|0,0:0|0:0,0:0:0:0:
132,144,228405,5,6,0:0:0:0:
188,220,228849,1,8,0:0:0:0:
268,172,229294,2,0,P|279:236|239:299,1,135.000005149842,2|8,0:0|0:0,0:0:0:0:
152,300,230182,2,0,P|103:249|108:183,1,135.000005149842,6|8,0:0|0:0,0:0:0:0:
156,108,231071,1,2,0:0:0:0:
244,148,231516,1,8,0:0:0:0:
328,104,231960,6,0,B|393:85|393:85|458:103,1,135.000005149842,6|8,0:0|0:0,0:0:0:0:
492,192,232849,2,0,L|481:326,1,135.000005149842,2|8,0:0|0:0,0:0:0:0:
396,284,233739,1,2,0:0:0:0:
312,332,234182,1,0,0:0:0:0:
240,272,234627,2,0,P|175:256|112:277,1,135.000005149842,2|8,0:0|0:0,0:0:0:0:
44,344,235516,6,0,P|19:282|37:219,1,135.000005149842,2|8,0:0|0:0,0:0:0:0:
96,144,236405,2,0,L|244:136,1,135.000005149842,2|8,0:0|0:0,0:0:0:0:
319,171,237294,2,0,P|340:217|337:267,2,101.250003862381,8|8|8,0:0|0:0|0:0,0:0:0:0:
248,234,238405,2,0,P|240:267|249:303,1,67.5000025749208,4|8,3:0|0:0,0:0:0:0:
324,352,239072,6,0,P|384:352|444:292,1,135.000005149842,6|8,0:0|0:0,0:0:0:0:
476,216,239961,2,0,P|476:156|416:96,1,135.000005149842,2|0,0:0|0:0,0:0:0:0:
340,64,240850,1,2,0:0:0:0:
264,120,241294,1,0,0:0:0:0:
184,68,241739,2,0,P|170:132|201:191,1,135.000005149842,2|8,0:0|0:0,0:0:0:0:
276,248,242628,5,2,0:0:0:0:
200,304,243072,1,8,0:0:0:0:
284,348,243516,2,0,B|436:336,1,135.000005149842,2|8,0:0|0:0,0:0:0:0:
476,260,244405,2,0,P|472:204|312:224,1,270.000010299683,2|2,0:0|0:0,0:0:0:0:
240,284,245739,1,8,0:0:0:0:
160,232,246183,6,0,P|143:167|164:104,1,135.000005149842,2|8,0:0|0:0,0:0:0:0:
232,36,247072,1,6,0:0:0:0:
280,116,247517,1,8,0:0:0:0:
344,48,247961,2,0,B|388:60|388:60|480:44,1,135.000005149842,6|8,0:0|0:0,0:0:0:0:
484,140,248850,2,0,P|501:204|486:269,1,135.000005149842,2|2,0:0|0:0,0:0:0:0:
416,332,249739,6,0,B|376:344|376:344|340:320|296:348|296:348|256:312|224:328|224:328|212:328|176:320,1,236.250009012223,6|12,0:0|0:0,0:0:0:0:
108,232,251072,1,8,0:0:0:0:
120,140,251517,2,0,B|178:145|201:214|201:214|225:130|282:122,1,236.250009012223,6|12,0:0|0:0,0:0:0:0:
324,232,252850,1,8,0:0:0:0:
392,168,253294,6,0,P|386:302|280:317,1,236.250009012223,6|12,0:0|0:0,0:0:0:0:
192,288,254628,1,8,0:0:0:0:
100,300,255072,6,0,L|112:140,1,135.000005149842,4|2,0:0|0:0,0:0:0:0:
203,154,255961,2,0,L|192:288,1,135.000005149842
284,272,256850,2,0,L|294:137,1,135.000005149842,2|0,0:0|0:0,0:0:0:0:
336,52,257738,1,2,0:0:0:0:
388,128,258183,1,0,0:0:0:0:
456,64,258627,6,0,P|481:126|436:208,1,135.000005149842,6|2,0:0|0:0,0:0:0:0:
376,228,259516,2,0,L|228:220,1,135.000005149842,2|2,0:0|0:0,0:0:0:0:
184,296,260405,2,0,L|36:288,1,135.000005149842,2|2,0:0|0:0,0:0:0:0:
12,200,261294,1,2,0:0:0:0:
56,116,261739,1,2,0:0:0:0:
124,184,262182,6,0,P|164:168|208:88,1,135.000005149842,6|2,0:0|0:0,0:0:0:0:
304,91,263072,2,0,P|329:152|388:184,1,135.000005149842,2|0,0:0|0:0,0:0:0:0:
480,164,263961,2,0,L|485:29,2,135.000005149842,2|0|0,0:0|0:0|0:0,0:0:0:0:
428,244,265294,1,2,0:0:0:0:
340,204,265739,6,0,B|284:184|284:184|248:208|248:208|162:160|80:220,1,270.000010299683,6|2,0:0|0:0,0:0:0:0:
40,292,267072,1,2,0:0:0:0:
128,328,267516,2,0,B|256:372|256:372|384:328,1,270.000010299683,2|8,0:0|0:0,0:0:0:0:
416,240,268850,2,0,L|408:164,1,67.5000025749208,8|0,0:0|0:0,0:0:0:0:
256,192,269738,12,0,274182,0:0:0:0:
