osu file format v14

[General]
AudioFilename: audio.mp3
AudioLeadIn: 0
PreviewTime: 224793
Countdown: 0
SampleSet: Soft
StackLeniency: 0.7
Mode: 0
LetterboxInBreaks: 0
WidescreenStoryboard: 0

[Editor]
Bookmarks: 273727
DistanceSpacing: 2
BeatDivisor: 4
GridSize: 32
TimelineZoom: 2.1

[Metadata]
Title:RHAPSODY OF BLUE SKY
TitleUnicode:青空のラプソディ
Artist:fhana
ArtistUnicode:fhána
Creator:Sotarks
Version:Melancholy
Source:小林さんちのメイドラゴン
Tags:Kobayashi-san Chi no Maid Dragon Op Opening full ver version lantis anime aozora no junichi sato yuxuki waga kevin mitsunaga towana nozhomi xinely kalibe haruto haruto_aizawa pkk akitoshi corinn pentori
BeatmapID:1178184
BeatmapSetID:556757

[Difficulty]
HPDrainRate:6.2
CircleSize:4.2
OverallDifficulty:8.5
ApproachRate:9.4
SliderMultiplier:1.91999990463257
SliderTickRate:1

[Events]
//Background and Video events
0,0,"BG.jpg",0,0
//Break Periods
2,84604,86962
2,177049,190517
2,255271,257627
//Storyboard Layer 0 (Background)
//Storyboard Layer 1 (Fail)
//Storyboard Layer 2 (Pass)
//Storyboard Layer 3 (Foreground)
//Storyboard Sound Samples

[TimingPoints]
4405,444.444444444444,4,2,2,52,1,0
4405,-100,4,2,2,52,0,0
4516,-100,4,2,2,42,0,0
5182,-100,4,2,2,22,0,0
5293,-100,4,2,2,42,0,0
7849,-100,4,2,2,22,0,0
7960,-100,4,2,2,52,0,0
8071,-100,4,2,2,42,0,0
8738,-100,4,2,2,22,0,0
8849,-100,4,2,2,42,0,0
11071,-100,4,2,2,52,0,0
11516,-100,4,2,2,62,0,0
11627,-100,4,2,2,42,0,0
12293,-100,4,2,2,22,0,0
12404,-100,4,2,2,42,0,0
12516,-100,4,2,2,22,0,0
12627,-100,4,2,2,42,0,0
12738,-100,4,2,2,22,0,0
12849,-100,4,2,2,42,0,0
12960,-100,4,2,2,22,0,0
13071,-100,4,2,2,42,0,0
13182,-100,4,2,2,52,0,0
13516,-100,4,2,2,42,0,0
13849,-100,4,2,2,22,0,0
13960,-100,4,2,2,42,0,0
14627,-100,4,2,2,52,0,0
15071,-100,4,2,2,62,0,0
15182,-100,4,2,2,42,0,0
15627,-100,4,2,2,22,0,0
15738,-100,4,2,2,42,0,0
15849,-100,4,2,2,22,0,0
15960,-100,4,2,2,42,0,0
16849,-100,4,2,3,52,0,0
18627,-100,4,2,3,62,0,0
20404,-54.9450549450549,4,2,3,52,0,0
36404,-69.4444444444444,4,2,3,42,0,0
47071,-60.9756097560976,4,2,3,52,0,0
48849,-60.9756097560976,4,2,3,52,0,1
50182,-60.9756097560976,4,2,3,52,0,0
50627,-54.3478260869565,4,2,3,62,0,1
51960,-54.3478260869565,4,2,3,62,0,0
52404,-54.3478260869565,4,2,3,62,0,1
54182,-96.1538461538461,4,2,2,52,0,0
65738,-96.1538461538461,4,2,2,62,0,0
66182,-96.1538461538461,4,2,2,72,0,0
66627,-54.3478260869565,4,2,3,62,0,1
66960,-69.4444444444444,4,2,3,52,0,1
67293,-96.1538461538461,4,2,3,52,0,1
67960,-96.1538461538461,4,2,3,72,0,1
68404,-96.1538461538461,4,2,2,52,0,0
79071,-54.3478260869565,4,2,3,62,0,1
84404,-54.3478260869565,4,2,3,62,0,0
91516,-60.9756097560976,4,2,3,62,0,0
93293,-54.3478260869565,4,2,3,72,0,0
94627,-50,4,2,3,82,0,0
94793,-50,4,2,3,5,0,0
94849,-50,4,2,3,82,0,0
95016,-50,4,2,3,5,0,0
95071,-54.3478260869565,4,2,3,52,0,0
111071,-69.4444444444444,4,2,3,42,0,0
121738,-60.9756097560976,4,2,3,52,0,0
123516,-60.9756097560976,4,2,3,52,0,1
124849,-60.9756097560976,4,2,3,52,0,0
125293,-54.9450549450549,4,2,3,62,0,1
126627,-54.9450549450549,4,2,3,62,0,0
127071,-54.9450549450549,4,2,3,62,0,1
128849,-96.1538461538461,4,2,2,52,0,0
140405,-96.1538461538461,4,2,2,62,0,0
140849,-96.1538461538461,4,2,2,72,0,0
141293,-54.3478260869565,4,2,3,62,0,1
141627,-69.4444444444444,4,2,3,52,0,1
141960,-96.1538461538461,4,2,3,52,0,1
142627,-96.1538461538461,4,2,3,72,0,1
143071,-96.1538461538461,4,2,2,52,0,0
153738,-54.3478260869565,4,2,2,62,0,1
159071,-60.9756097560976,4,2,2,72,0,0
159738,-96.1538461538461,4,2,2,72,0,0
160182,-60.9756097560976,4,2,2,72,0,0
161516,-96.1538461538461,4,2,2,72,0,0
161960,-60.9756097560976,4,2,2,72,0,0
162627,-54.3478260869565,4,2,2,72,0,0
163293,-96.1538461538461,4,2,2,72,0,0
163738,-69.4444444444444,4,2,2,72,0,0
164404,-54.3478260869565,4,2,2,72,0,0
165071,-96.1538461538461,4,2,2,72,0,0
165516,-69.4444444444444,4,2,2,72,0,0
165738,-60.9756097560976,4,2,2,72,0,0
166182,-54.3478260869565,4,2,2,72,0,0
166849,-80.6451612903226,4,2,2,72,0,0
167293,-69.4444444444444,4,2,2,72,0,0
167960,-60.9756097560976,4,2,2,72,0,0
168627,-96.1538461538461,4,2,2,72,0,0
169293,-60.9756097560976,4,2,2,72,0,0
169738,-96.1538461538461,4,2,2,72,0,0
171516,-80.6451612903226,4,2,2,72,0,0
173293,-60.9756097560976,4,2,2,72,0,0
175071,-50,4,2,2,82,0,1
176849,-50,4,2,2,72,0,0
191071,-100,4,2,2,42,0,0
203516,-60.9756097560976,4,2,2,52,0,1
205293,-54.3478260869565,4,2,2,62,0,1
207071,-50,4,2,2,62,0,0
207181,-50,4,2,2,52,0,0
207515,-50,4,2,2,62,0,0
207570,-50,4,2,2,52,0,0
207848,-50,4,2,2,42,0,0
207959,-50,4,2,2,52,0,0
208070,-50,4,2,2,62,0,0
208181,-50,4,2,2,72,0,0
208292,-50,4,2,2,82,0,0
208348,-50,4,2,2,52,0,0
208737,-50,4,2,2,62,0,0
209515,-50,4,2,2,42,0,0
209737,-50,4,2,2,52,0,0
209959,-50,4,2,2,62,0,0
210070,-50,4,2,2,72,0,0
210126,-50,4,2,2,52,0,0
210515,-50,4,2,2,62,0,0
210848,-50,4,2,2,42,0,0
211070,-50,4,2,2,52,0,0
211515,-50,4,2,2,62,0,0
212403,-50,4,2,2,72,0,0
212737,-50,4,2,2,52,0,0
212848,-50,4,2,2,62,0,0
212959,-50,4,2,2,72,0,0
213070,-50,4,2,2,82,0,0
213348,-50,4,2,2,52,0,0
213626,-50,4,2,2,62,0,0
219514,-50,4,2,2,72,0,0
220181,-50,4,2,2,82,0,0
221293,-50,4,2,2,92,0,1
222627,-50,4,2,2,82,0,0
222737,-50,4,2,2,72,0,0
222848,-50,4,2,2,62,0,0
222959,-50,4,2,2,52,0,0
223071,-50,4,2,2,72,0,1
223959,-50,4,2,2,62,0,1
224404,-50,4,2,2,72,0,1
224849,-50,4,2,2,72,0,0
227514,-50,4,2,2,62,0,0
228403,-96.1538461538461,4,2,2,52,0,0
236404,-96.1538461538461,4,2,2,62,0,0
236849,-96.1538461538461,4,2,2,72,0,0
237293,-54.3478260869565,4,2,3,62,0,1
237627,-69.4444444444444,4,2,3,52,0,1
237960,-96.1538461538461,4,2,3,52,0,1
238627,-96.1538461538461,4,2,3,72,0,1
239071,-96.1538461538461,4,2,2,52,0,0
249738,-54.3478260869565,4,2,2,62,0,1
255071,-54.3478260869565,4,2,2,62,0,0
269738,-166.666666666667,4,2,2,62,0,0
274182,-166.666666666667,4,2,2,12,0,0

[Colours]
Combo1 : 172,210,205
Combo2 : 255,62,226
Combo3 : 242,255,85
Combo4 : 20,0,204
SliderTrackOverride : 0,0,10
SliderBorder : 255,255,250

[HitObjects]
140,68,4405,6,0,B|120:112|145:164|145:164|161:217|140:273,1,192,6|8,0:0|0:0,0:0:0:0:
75,200,5071,2,0,L|70:266,1,48
223,217,5293,2,0,P|219:167|217:149,2,48,2|0|2,3:2|0:0|0:3,0:0:0:0:
329,340,5738,2,0,P|336:277|350:217,1,96,10|0,0:0|0:0,0:0:0:0:
405,107,6182,5,2,2:0:0:0:
418,303,6404,1,0,0:0:0:0:
276,200,6627,1,8,0:0:0:0:
276,200,6738,2,0,B|344:195|344:195|397:203,1,96,2|0,3:0|0:0,0:0:0:0:
302,121,7071,2,0,L|297:72,2,48,2|0|0,3:2|0:0|3:2,0:0:0:0:
228,271,7516,2,0,B|177:269|177:269|133:280|133:280|79:280,1,144,10|0,0:0|0:0,0:0:0:0:
221,189,7960,6,0,B|275:193|275:193|308:233|339:334,1,192,2|8,0:0|0:0,0:0:0:0:
232,274,8627,2,0,L|230:335,1,48
388,243,8849,2,0,L|386:195,2,48,2|0|2,3:2|0:0|0:3,0:0:0:0:
221,189,9293,2,0,L|114:178,1,96,10|0,0:0|3:0,0:0:0:0:
265,93,9738,5,2,0:0:0:0:
294,283,9960,1,0,0:0:0:0:
360,121,10182,1,8,0:0:0:0:
360,121,10293,2,0,P|366:190|377:252,1,96,2|0,3:0|0:0,0:0:0:0:
285,175,10627,2,0,L|229:172,1,48,2|0,3:2|0:0,0:0:0:0:
168,229,10849,2,0,L|120:231,1,48
164,67,11071,6,0,L|169:131,1,48,10|0,0:0|0:0,0:0:0:0:
253,264,11293,2,0,L|248:328,1,48,0|0,3:0|0:0,0:0:0:0:
360,105,11516,6,0,B|380:164|380:164|369:218|369:218|387:300,1,192,2|8,0:0|0:0,0:0:0:0:
302,171,12182,2,0,L|289:231,1,48
449,212,12404,2,0,L|459:165,1,48,2|0,3:2|0:0,0:0:0:0:
287,181,12627,2,0,L|274:241,1,48,2|0,0:3|0:0,0:0:0:0:
468,202,12849,2,0,L|478:155,1,48,10|0,0:0|0:0,0:0:0:0:
372,294,13071,1,2,0:3:0:0:
388,152,13182,6,0,P|374:217|377:330,1,144,2|0,0:3|0:0,0:0:0:0:
302,167,13738,2,0,P|293:111|287:90,1,48,8|0,0:0|0:0,0:0:0:0:
224,217,13960,2,0,P|219:240|217:264,1,48
154,153,14182,2,0,L|150:100,2,48,2|0|0,3:2|0:0|0:0,0:0:0:0:
149,339,14627,6,0,L|213:336,1,48,8|0,0:0|0:0,0:0:0:0:
293,287,14849,2,0,L|340:289,1,48,0|0,3:0|0:0,0:0:0:0:
441,329,15071,5,2,0:0:0:0:
400,130,15293,1,0,0:0:0:0:
229,224,15516,2,0,L|182:227,1,48,8|0,0:0|0:0,0:0:0:0:
127,147,15738,2,0,L|174:150,1,48
223,57,15960,2,0,P|237:103|271:154,1,96,2|0,0:0|0:0,0:0:0:0:
347,314,16404,6,0,P|349:263|350:256,1,48,8|0,0:0|0:0,0:0:0:0:
388,181,16627,2,0,P|388:157|386:133,1,48
424,295,16849,5,2,0:0:0:0:
311,155,16960,2,0,L|246:148,1,48,8|0,0:0|0:0,0:0:0:0:
447,246,17182,5,2,0:0:0:0:
268,226,17293,2,0,L|213:266,1,48,8|0,0:0|0:0,0:0:0:0:
440,187,17516,5,2,0:0:0:0:
299,299,17627,2,0,L|291:369,1,48,8|0,0:0|0:0,0:0:0:0:
395,155,17849,5,2,0:0:0:0:
374,333,17960,2,0,L|410:391,1,48,8|0,0:0|0:0,0:0:0:0:
333,80,18182,5,2,0:0:0:0:
209,330,18404,1,2,0:0:0:0:
59,176,18627,5,2,0:0:0:0:
321,246,18738,2,0,L|254:251,1,48,8|0,0:0|0:0,0:0:0:0:
89,274,18960,5,2,0:0:0:0:
328,135,19071,2,0,L|284:184,1,48,8|0,0:0|0:0,0:0:0:0:
175,323,19293,5,2,0:0:0:0:
244,61,19404,2,0,L|249:126,1,48,8|0,0:0|0:0,0:0:0:0:
274,302,19627,5,2,0:0:0:0:
136,67,19738,2,0,L|184:113,1,48,8|0,0:0|0:0,0:0:0:0:
390,203,19960,5,2,0:0:0:0:
29,158,20182,1,2,0:0:0:0:
249,57,20404,6,0,P|257:115|234:181,1,88.3199970351563,6|0,0:0|0:0,0:0:0:0:
199,217,20627,2,0,P|191:260|197:304,1,88.3199970351563,8|0,0:0|0:0,0:0:0:0:
276,259,20849,2,0,L|373:252,1,88.3199970351563,2|0,0:0|0:0,0:0:0:0:
422,181,21071,1,8,0:0:0:0:
422,181,21182,6,0,P|308:164|224:128,1,174.719997186798,2|2,0:0|0:0,0:0:0:0:
400,103,21516,2,0,P|457:114|485:125,1,87.3599985933991,8|0,0:0|0:0,0:0:0:0:
479,240,21738,2,0,P|437:255|388:263,1,87.3599985933991,2|0,0:0|0:0,0:0:0:0:
345,174,21960,1,8,0:0:0:0:
250,142,22071,1,0,0:0:0:0:
167,185,22182,6,0,P|157:137|242:49,2,174.719997186798,2|8|2,0:0|0:0|0:0,0:0:0:0:
202,267,22738,2,0,P|200:321|171:365,1,88.3199970351563,2|8,0:0|0:0,0:0:0:0:
114,292,22960,6,0,L|80:199,1,88.3199970351563,2|0,0:0|0:0,0:0:0:0:
167,185,23182,2,0,L|201:92,1,88.3199970351563,2|8,0:0|0:0,0:0:0:0:
279,72,23404,1,0,0:0:0:0:
366,75,23516,1,2,0:0:0:0:
424,138,23627,1,2,0:0:0:0:
418,221,23738,1,8,0:0:0:0:
355,279,23849,1,8,0:0:0:0:
265,257,23960,6,0,B|174:232|180:294|81:268,1,174.719997186798,6|8,0:0|0:0,0:0:0:0:
132,194,24293,1,0,0:0:0:0:
78,123,24404,2,0,P|122:111|173:118,1,88.3199970351563,2|0,0:0|0:0,0:0:0:0:
235,167,24627,1,8,0:0:0:0:
294,109,24738,6,0,P|338:105|381:117,1,88.3199970351563,2|0,0:0|0:0,0:0:0:0:
436,187,24960,1,2,0:0:0:0:
391,263,25071,2,0,P|347:208|382:113,1,174.719997186798,8|2,0:0|0:0,0:0:0:0:
358,343,25516,1,8,0:0:0:0:
277,316,25627,1,8,0:0:0:0:
199,349,25738,6,0,P|146:354|75:246,1,174.719997186798,6|8,0:0|0:0,0:0:0:0:
162,189,26071,2,0,P|169:250|152:298,1,88.3199970351563,2|4,0:0|3:0,0:0:0:0:
78,190,26293,2,0,P|98:133|146:104,1,88.3199970351563,4|8,3:0|0:0,0:0:0:0:
330,207,26516,6,0,B|279:221|279:221|158:188,1,174.719997186798,6|2,0:0|0:0,0:0:0:0:
231,119,26849,2,0,B|283:134|283:134|343:115,1,88.3199970351563,8|0,0:0|0:0,0:0:0:0:
402,111,27071,5,8,0:0:0:0:
415,195,27182,1,8,0:0:0:0:
330,207,27293,1,8,3:0:0:0:
315,123,27404,1,8,3:0:0:0:
487,142,27516,6,0,P|503:201|411:286,2,174.719997186798,6|8|2,0:0|0:0|0:0,0:0:0:0:
415,195,28071,1,2,0:0:0:0:
330,207,28182,1,8,0:0:0:0:
254,163,28293,6,0,L|154:155,1,88.3199970351563,2|0,0:0|0:0,0:0:0:0:
85,193,28516,1,2,0:0:0:0:
108,99,28627,2,0,B|155:83|155:83|211:87,1,88.3199970351563,8|0,0:0|0:0,0:0:0:0:
254,163,28849,2,0,L|263:260,1,88.3199970351563,2|0,0:0|0:0,0:0:0:0:
169,310,29071,2,0,L|177:222,1,88.3199970351563,8|0,0:0|0:0,0:0:0:0:
262,250,29293,6,0,B|310:261|310:261|386:244|430:201,2,174.719997186798,2|8|2,0:0|0:0|0:0,0:0:0:0:
333,175,29849,2,0,P|339:123|337:80,1,88.3199970351563,2|8,0:0|0:0,0:0:0:0:
253,35,30071,6,0,P|252:79|257:122,1,88.3199970351563,2|0,0:0|0:0,0:0:0:0:
177,76,30293,2,0,L|87:67,1,88.3199970351563,2|8,0:0|0:0,0:0:0:0:
0,149,30516,2,0,B|47:135|86:155|86:155|127:178|179:161,1,174.719997186798,2|0,0:0|0:0,0:0:0:0:
257,122,30849,2,0,P|301:120|344:125,1,88.3199970351563,8|0,0:0|0:0,0:0:0:0:
416,202,31071,6,0,B|430:149|430:149|420:88|420:88|445:17,2,174.719997186798,2|8|2,0:0|0:0|0:0,0:0:0:0:
367,276,31627,1,2,0:0:0:0:
292,232,31738,1,8,0:0:0:0:
227,292,31849,6,0,L|126:277,1,88.3199970351563,2|0,0:0|0:0,0:0:0:0:
76,222,32071,1,2,0:0:0:0:
9,278,32182,2,0,P|-7:229|18:161,1,88.3199970351563,8|0,0:0|0:0,0:0:0:0:
86,137,32404,2,0,P|90:180|75:221,1,88.3199970351563,2|0,0:0|0:0,0:0:0:0:
5,176,32627,1,8,0:0:0:0:
13,94,32738,1,2,0:0:0:0:
97,57,32849,6,0,B|151:62|151:62|203:52|203:52|278:58,1,174.719997186798,6|8,0:0|0:0,0:0:0:0:
320,138,33182,2,0,L|218:132,1,88.3199970351563,2|2,0:0|0:0,0:0:0:0:
179,214,33404,2,0,L|281:208,1,88.3199970351563,2|8,0:0|0:0,0:0:0:0:
373,204,33627,6,0,P|402:159|345:51,1,174.719997186798,6|2,0:0|0:0,0:0:0:0:
320,138,33960,2,0,L|218:132,1,88.3199970351563,8|0,0:0|0:0,0:0:0:0:
139,141,34182,2,0,P|102:189|90:236,1,88.3199970351563,2|0,0:0|0:0,0:0:0:0:
179,214,34404,2,0,P|216:262|228:309,1,88.3199970351563,8|0,0:0|0:0,0:0:0:0:
141,289,34627,6,0,B|75:302|75:302|15:276|-1:197,1,174.719997186798,6|8,0:0|0:0,0:0:0:0:
93,214,34960,1,4,3:0:0:0:
139,141,35071,1,4,3:0:0:0:
84,71,35182,1,4,3:0:0:0:
5,103,35293,1,8,3:0:0:0:
93,214,35404,6,0,B|180:252|173:163|293:209,1,174.719997186798,2|2,0:0|0:0,0:0:0:0:
310,95,35738,2,0,P|353:102|396:114,1,88.3199970351563,8|0,0:0|0:0,0:0:0:0:
327,257,35960,2,0,P|271:272|226:278,1,88.3199970351563,8|4,0:0|3:0,0:0:0:0:
338,176,36182,1,8,3:0:0:0:
418,207,36293,1,8,3:0:0:0:
445,288,36404,6,0,P|396:307|291:316,1,138.240003375,6|0,0:0|0:0,0:0:0:0:
234,300,36738,1,2,0:0:0:0:
158,330,36849,1,8,0:0:0:0:
170,245,36960,2,0,L|176:167,1,69.1200016875,0|2,0:0|0:0,0:0:0:0:
93,119,37182,6,0,L|95:269,1,138.240003375,8|8,0:0|0:0,0:0:0:0:
176,164,37516,2,0,P|225:159|253:159,1,69.1200016875,2|0,0:0|0:0,0:0:0:0:
302,224,37738,2,0,P|351:229|379:229,1,69.1200016875,8|0,0:0|0:0,0:0:0:0:
451,184,37960,2,0,P|461:220|455:265,1,69.1200016875,2|0,0:0|0:0,0:0:0:0:
384,160,38182,6,0,P|383:104|398:3,1,138.240003375,2|0,0:0|0:0,0:0:0:0:
458,80,38516,1,2,0:0:0:0:
317,52,38627,2,0,L|240:41,1,69.1200016875,8|0,0:0|0:0,0:0:0:0:
197,101,38849,2,0,L|129:111,1,69.1200016875,2|0,0:0|0:0,0:0:0:0:
56,56,39071,5,2,0:0:0:0:
66,170,39182,2,0,B|109:186|109:186|160:186|160:186|217:215,1,138.240003375,8|0,0:0|0:0,0:0:0:0:
259,276,39516,2,0,P|283:234|289:208,1,69.1200016875,8|0,0:0|0:0,0:0:0:0:
273,128,39738,2,0,P|283:95|302:66,1,69.1200016875,2|0,0:0|0:0,0:0:0:0:
368,126,39960,6,0,P|425:123|504:96,2,138.240003375,6|0|8,0:0|0:0|0:0,0:0:0:0:
302,66,40516,2,0,P|255:57|208:56,1,69.1200016875,0|2,0:0|0:0,0:0:0:0:
143,106,40738,6,0,P|129:159|122:266,1,138.240003375,8|8,0:0|0:0,0:0:0:0:
76,328,41071,2,0,L|158:327,1,69.1200016875,2|0,0:0|0:0,0:0:0:0:
203,254,41293,2,0,L|272:254,1,69.1200016875,8|0,0:0|0:0,0:0:0:0:
352,302,41516,2,0,P|363:259|360:231,1,69.1200016875,2|0,0:0|0:0,0:0:0:0:
283,158,41738,6,0,L|447:147,1,138.240003375,2|0,0:0|0:0,0:0:0:0:
490,95,42071,1,2,0:0:0:0:
401,73,42182,2,0,P|340:65|311:60,1,69.1200016875,8|0,0:0|0:0,0:0:0:0:
242,78,42404,2,0,P|207:83|173:87,1,69.1200016875
88,50,42627,5,2,0:0:0:0:
93,76,42738,1,8,0:0:0:0:
126,150,42849,5,2,0:0:0:0:
121,176,42960,1,8,0:0:0:0:
188,233,43071,5,8,0:0:0:0:
269,218,43182,1,8,0:0:0:0:
351,204,43293,1,4,3:0:0:0:
437,187,43404,1,8,3:0:0:0:
491,254,43516,6,0,P|478:205|490:100,1,138.240003375,6|0,0:0|0:0,0:0:0:0:
503,35,43849,1,2,0:0:0:0:
387,78,43960,1,8,0:0:0:0:
387,78,44071,2,0,L|307:74,1,69.1200016875,0|2,0:0|0:0,0:0:0:0:
199,89,44293,6,0,L|50:75,1,138.240003375,8|8,0:0|0:0,0:0:0:0:
96,161,44627,2,0,L|97:246,1,69.1200016875,2|0,0:0|0:0,0:0:0:0:
191,193,44849,2,0,L|190:278,1,69.1200016875,8|0,0:0|0:0,0:0:0:0:
99,304,45071,2,0,L|100:389,1,69.1200016875,2|0,0:0|0:0,0:0:0:0:
178,338,45293,6,0,P|224:334|340:335,1,138.240003375,2|0,0:0|0:0,0:0:0:0:
396,360,45627,1,2,0:0:0:0:
373,241,45738,2,0,P|362:211|367:165,1,69.1200016875,8|0,0:0|0:0,0:0:0:0:
437,105,45960,6,0,B|370:88|370:88|313:109|313:109|217:85,1,207.3600050625,6|8,0:0|0:0,0:0:0:0:
163,48,46404,2,0,B|145:81|145:81|141:129,1,69.1200016875,0|2,0:0|0:0,0:0:0:0:
173,191,46627,1,8,0:0:0:0:
143,272,46738,1,8,0:0:0:0:
167,356,46849,1,4,3:0:0:0:
167,356,47071,6,0,B|244:331|242:386|349:354,1,157.440002402344,2|0,0:0|0:0,0:0:0:0:
382,294,47404,1,2,0:0:0:0:
382,294,47516,2,0,L|385:205,1,78.7200012011719,8|0,0:0|0:0,0:0:0:0:
317,145,47738,2,0,L|314:66,1,78.7200012011719,2|0,0:0|0:0,0:0:0:0:
395,105,47960,6,0,L|205:90,1,157.440002402344,2|0,0:0|0:0,0:0:0:0:
159,125,48293,1,2,0:0:0:0:
125,203,48404,1,8,0:0:0:0:
151,286,48516,1,8,0:0:0:0:
227,321,48627,1,4,3:0:0:0:
311,292,48738,1,8,3:0:0:0:
345,214,48849,5,2,0:0:0:0:
229,164,48960,2,0,P|229:213|233:251,1,78.7200012011719,12|0,0:0|0:0,0:0:0:0:
363,181,49182,5,2,0:0:0:0:
244,142,49293,2,0,P|248:190|255:228,1,78.7200012011719,12|0,0:0|0:0,0:0:0:0:
385,146,49516,5,2,0:0:0:0:
263,118,49627,2,0,P|271:166|282:202,1,78.7200012011719,12|0,0:0|0:0,0:0:0:0:
409,114,49849,5,2,0:0:0:0:
285,97,49960,2,0,P|297:144|311:180,1,78.7200012011719,12|0,0:0|0:0,0:0:0:0:
354,37,50182,5,8,0:0:0:0:
269,17,50293,1,8,0:0:0:0:
199,66,50404,1,4,3:0:0:0:
204,148,50516,1,8,3:0:0:0:
274,215,50627,5,2,0:0:0:0:
49,169,50738,2,0,L|137:155,1,88.3199970351563,12|0,0:0|0:0,0:0:0:0:
264,260,50960,5,2,0:0:0:0:
35,233,51071,2,0,L|133:210,1,88.3199970351563,12|0,0:0|0:0,0:0:0:0:
253,302,51293,5,2,0:0:0:0:
22,295,51404,2,0,L|121:262,1,88.3199970351563,12|0,0:0|0:0,0:0:0:0:
242,342,51627,5,2,0:0:0:0:
11,355,51738,2,0,L|105:313,1,88.3199970351563,12|0,0:0|0:0,0:0:0:0:
198,232,51960,5,8,0:0:0:0:
280,215,52071,1,8,0:0:0:0:
350,265,52182,1,4,3:0:0:0:
427,304,52293,1,8,3:0:0:0:
509,279,52404,6,0,P|511:227|492:95,1,176.639994070313,6|0,0:0|0:0,0:0:0:0:
266,138,52738,2,0,B|224:149|224:149|372:164,1,176.639994070313,6|0,0:0|0:0,0:0:0:0:
494,103,53071,2,0,L|394:91,1,88.3199970351563,2|0,0:0|0:0,0:0:0:0:
356,162,53293,5,2,0:0:0:0:
396,242,53404,1,2,0:0:0:0:
341,323,53516,1,8,3:0:0:0:
249,321,53627,1,4,3:0:0:0:
240,200,53738,5,8,0:0:0:0:
327,244,53849,1,8,0:0:0:0:
431,230,53960,1,4,3:0:0:0:
485,146,54071,1,8,3:0:0:0:
430,51,54182,6,0,B|379:41|382:73|313:55,1,99.839999390625,6|0,0:0|0:0,0:0:0:0:
248,32,54516,1,2,0:0:0:0:
248,32,54627,2,0,P|243:71|246:97,1,49.9199996953125,8|0,0:0|0:0,0:0:0:0:
300,148,54849,2,0,P|304:172|304:197,1,49.9199996953125,2|0,0:0|0:0,0:0:0:0:
241,274,55071,6,0,L|363:270,1,99.839999390625,2|0,0:0|0:0,0:0:0:0:
413,224,55404,1,2,0:0:0:0:
413,224,55516,2,0,L|423:282,1,49.9199996953125,8|0,0:0|0:0,0:0:0:0:
504,237,55738,2,0,L|508:298,1,49.9199996953125,2|0,0:0|0:0,0:0:0:0:
435,144,55960,6,0,P|395:142|293:215,2,149.759999085937,2|2|0,0:0|0:0|0:0,0:0:0:0:
468,66,56738,1,0,0:0:0:0:
468,66,56849,6,0,L|395:60,1,49.9199996953125,2|0,0:0|0:0,0:0:0:0:
325,75,57071,2,0,L|275:79,1,49.9199996953125,0|2,0:0|0:0,0:0:0:0:
192,45,57293,1,8,0:0:0:0:
153,38,57404,1,0,0:0:0:0:
116,45,57516,1,2,0:0:0:0:
92,70,57627,1,0,0:0:0:0:
104,160,57738,6,0,P|109:194|86:268,1,99.839999390625,2|0,0:0|0:0,0:0:0:0:
45,324,58071,1,2,0:0:0:0:
45,324,58182,2,0,P|77:337|105:336,1,49.9199996953125,8|0,0:0|0:0,0:0:0:0:
167,288,58404,2,0,P|199:275|227:276,1,49.9199996953125,2|0,0:0|0:0,0:0:0:0:
289,338,58627,6,0,L|296:230,1,99.839999390625,2|0,0:0|0:0,0:0:0:0:
239,171,58960,1,2,0:0:0:0:
302,110,59071,2,0,P|259:86|196:97,1,99.839999390625,8|2,0:0|0:0,0:0:0:0:
143,141,59404,1,0,0:0:0:0:
72,78,59516,6,0,L|63:135,1,49.9199996953125,2|0,0:0|0:0,0:0:0:0:
88,214,59738,2,0,L|97:271,1,49.9199996953125
179,225,59960,2,0,P|218:222|237:223,1,49.9199996953125,8|0,0:0|0:0,0:0:0:0:
294,298,60182,2,0,P|255:295|236:296,1,49.9199996953125
169,333,60404,5,2,0:0:0:0:
179,225,60516,2,0,P|178:176|163:114,1,99.839999390625,8|0,0:0|0:0,0:0:0:0:
87,100,60849,1,8,0:0:0:0:
150,40,60960,1,8,0:0:0:0:
230,61,61071,1,4,3:0:0:0:
245,144,61182,1,8,3:0:0:0:
178,224,61293,6,0,B|215:225|215:225|243:219|243:219|288:221,1,99.839999390625,2|0,0:0|0:0,0:0:0:0:
348,267,61627,1,2,0:0:0:0:
348,267,61738,2,0,P|354:230|354:212,1,49.9199996953125,8|0,0:0|0:0,0:0:0:0:
431,180,61960,2,0,P|432:204|437:229,1,49.9199996953125,2|0,0:0|0:0,0:0:0:0:
421,323,62182,6,0,P|391:339|315:348,1,99.839999390625,2|0,0:0|0:0,0:0:0:0:
247,319,62516,1,2,0:0:0:0:
247,319,62627,2,0,L|175:314,1,49.9199996953125,8|0,0:0|0:0,0:0:0:0:
117,357,62849,2,0,L|111:301,1,49.9199996953125,2|0,0:0|0:0,0:0:0:0:
151,230,63071,6,0,B|165:191|150:159|150:159|133:119|157:65,2,149.759999085937,2|0|0,0:0|0:0|0:0,0:0:0:0:
79,189,63849,1,0,0:0:0:0:
79,189,63960,6,0,P|70:149|69:122,1,49.9199996953125,2|0,0:0|0:0,0:0:0:0:
77,57,64182,2,0,P|104:24|123:10,1,49.9199996953125
192,21,64404,2,0,P|209:38|224:58,1,49.9199996953125,8|0,0:0|0:0,0:0:0:0:
223,143,64627,1,2,0:0:0:0:
214,190,64738,1,0,0:0:0:0:
107,285,64849,6,0,P|171:282|217:294,1,99.839999390625,2|0,0:0|0:0,0:0:0:0:
273,343,65182,1,2,0:0:0:0:
273,343,65293,2,0,P|311:343|331:340,1,49.9199996953125,8|0,0:0|0:0,0:0:0:0:
343,261,65516,2,0,P|305:261|285:264,1,49.9199996953125,2|0,0:0|0:0,0:0:0:0:
206,290,65738,5,2,0:0:0:0:
166,285,65849,1,0,3:0:0:0:
133,272,65960,1,0,3:0:0:0:
110,248,66071,1,0,3:0:0:0:
92,161,66182,5,8,0:0:0:0:
172,194,66293,1,4,3:0:0:0:
256,192,66404,1,4,3:0:0:0:
333,157,66516,1,8,3:0:0:0:
261,107,66627,6,0,P|247:156|262:202,1,88.3199970351563,8|0,0:0|0:0,0:0:0:0:
337,164,66849,1,2,0:0:0:0:
178,183,66960,6,0,P|190:232|221:263,1,69.1200016875,8|0,0:0|0:0,0:0:0:0:
265,202,67182,1,2,0:0:0:0:
134,281,67293,6,0,P|161:312|188:323,1,49.9199996953125,8|0,0:0|0:0,0:0:0:0:
247,311,67516,1,2,0:0:0:0:
326,283,67627,1,8,0:0:0:0:
363,209,67738,1,8,3:0:0:0:
352,124,67849,1,4,3:0:0:0:
265,55,67960,5,8,0:0:0:0:
154,63,68071,1,8,0:0:0:0:
84,146,68182,1,4,3:0:0:0:
116,252,68293,1,4,3:0:0:0:
265,202,68404,6,0,P|205:185|152:201,1,99.839999390625,6|0,0:0|0:0,0:0:0:0:
212,264,68738,1,2,0:0:0:0:
212,264,68849,2,0,L|216:325,1,49.9199996953125,8|0,0:0|0:0,0:0:0:0:
301,283,69071,2,0,L|297:344,1,49.9199996953125,2|0,0:0|0:0,0:0:0:0:
389,304,69293,6,0,P|385:259|389:189,1,99.839999390625,2|0,0:0|0:0,0:0:0:0:
440,134,69627,1,2,0:0:0:0:
440,134,69738,2,0,P|392:125|368:124,1,49.9199996953125,8|0,0:0|0:0,0:0:0:0:
307,160,69960,2,0,P|282:156|257:150,1,49.9199996953125,2|0,0:0|0:0,0:0:0:0:
185,104,70182,6,0,B|142:77|142:77|34:53,2,149.759999085937,2|2|0,0:0|0:0|0:0,0:0:0:0:
113,156,70960,1,0,0:0:0:0:
113,156,71071,2,0,L|95:227,1,49.9199996953125,2|0,0:0|0:0,0:0:0:0:
193,190,71293,2,0,L|199:252,1,49.9199996953125,0|2,0:0|0:0,0:0:0:0:
279,216,71515,5,8,0:0:0:0:
317,210,71626,1,0,0:0:0:0:
350,190,71738,1,2,0:0:0:0:
364,159,71849,1,0,0:0:0:0:
282,137,71960,6,0,P|248:127|186:97,1,99.839999390625,2|0,0:0|0:0,0:0:0:0:
116,60,72293,1,2,0:0:0:0:
116,60,72404,2,0,P|106:93|111:121,1,49.9199996953125,8|0,0:0|0:0,0:0:0:0:
166,177,72626,2,0,P|182:207|185:235,1,49.9199996953125,2|0,0:0|0:0,0:0:0:0:
116,293,72849,6,0,L|224:298,1,99.839999390625,2|0,0:0|0:0,0:0:0:0:
282,240,73182,1,2,0:0:0:0:
344,302,73293,2,0,B|367:258|367:258|365:194,1,99.839999390625,8|2,0:0|0:0,0:0:0:0:
310,143,73626,1,0,0:0:0:0:
282,240,73738,6,0,L|223:216,1,49.9199996953125,2|0,0:0|0:0,0:0:0:0:
226,134,73960,2,0,L|217:77,1,49.9199996953125
148,140,74182,2,0,P|109:143|90:142,1,49.9199996953125,8|0,0:0|0:0,0:0:0:0:
25,89,74404,2,0,P|25:128|20:153,1,49.9199996953125
58,213,74626,5,2,0:0:0:0:
152,232,74738,2,0,B|195:210|195:210|237:167,1,99.839999390625,8|0,0:0|0:0,0:0:0:0:
226,97,75071,1,8,0:0:0:0:
309,126,75182,1,8,0:0:0:0:
322,210,75293,1,4,3:0:0:0:
253,259,75404,1,8,3:0:0:0:
60,146,75516,6,0,B|103:157|112:127|170:143,1,99.839999390625,2|0,0:0|0:0,0:0:0:0:
230,173,75850,1,2,0:0:0:0:
230,173,75961,2,0,P|236:136|236:118,1,49.9199996953125,8|0,0:0|0:0,0:0:0:0:
300,76,76183,2,0,P|304:101|309:126,1,49.9199996953125,2|0,0:0|0:0,0:0:0:0:
418,305,76404,6,0,P|365:289|313:286,1,99.839999390625,6|0,0:0|0:0,0:0:0:0:
181,329,76738,1,2,0:0:0:0:
236,275,76849,2,0,P|253:307|261:331,1,49.9199996953125,8|0,0:0|0:0,0:0:0:0:
99,314,77071,2,0,P|108:290|120:269,1,49.9199996953125,2|0,0:0|0:0,0:0:0:0:
265,145,77293,6,0,P|282:177|290:201,1,49.9199996953125,6|0,0:0|0:0,0:0:0:0:
202,200,77516,1,0,0:0:0:0:
189,115,77627,1,2,0:0:0:0:
258,63,77738,2,0,L|316:67,1,49.9199996953125,8|0,0:0|0:0,0:0:0:0:
391,135,77960,2,0,L|333:139,1,49.9199996953125,2|0,0:0|0:0,0:0:0:0:
434,60,78182,6,0,P|464:101|470:164,1,99.839999390625,2|0,0:0|0:0,0:0:0:0:
450,230,78516,1,2,0:0:0:0:
384,285,78627,1,2,0:0:0:0:
300,279,78738,1,8,0:0:0:0:
247,217,78849,1,8,0:0:0:0:
245,133,78960,1,8,0:0:0:0:
318,90,79071,6,0,L|175:74,1,132.479995552735,6|0,0:0|0:0,0:0:0:0:
149,105,79293,2,0,L|47:110,1,88.3199970351563,8|0,0:0|0:0,0:0:0:0:
108,187,79516,1,4,3:0:0:0:
138,265,79627,1,4,3:0:0:0:
104,343,79738,1,4,3:0:0:0:
222,266,79849,6,0,P|277:264|391:340,1,176.639994070313,12|2,0:0|0:0,0:0:0:0:
304,195,80182,2,0,P|297:132|300:92,1,88.3199970351563,8|0,0:0|0:0,0:0:0:0:
450,271,80404,2,0,P|456:314|455:358,1,88.3199970351563,8|0,0:0|0:0,0:0:0:0:
379,323,80627,1,8,0:0:0:0:
301,358,80738,1,8,0:0:0:0:
224,329,80849,6,0,B|162:309|160:357|64:332,1,132.479995552735,6|0,0:0|0:0,0:0:0:0:
63,326,81071,2,0,L|56:232,1,88.3199970351563,8|0,0:0|0:0,0:0:0:0:
83,159,81293,1,4,3:0:0:0:
47,84,81404,1,4,3:0:0:0:
86,10,81516,1,4,3:0:0:0:
186,88,81627,6,0,B|245:96|245:96|300:75|300:75|368:84,1,176.639994070313,12|2,0:0|0:0,0:0:0:0:
313,244,81960,2,0,L|307:142,1,88.3199970351563,8|0,0:0|0:0,0:0:0:0:
179,317,82182,2,0,L|185:215,1,88.3199970351563,8|0,0:0|0:0,0:0:0:0:
131,159,82404,1,8,0:0:0:0:
75,225,82516,1,8,0:0:0:0:
184,228,82627,6,0,B|230:227|230:227|265:245|265:245|344:243,1,132.479995552735,6|0,0:0|0:0,0:0:0:0:
348,242,82849,2,0,L|453:233,1,88.3199970351563,8|0,0:0|0:0,0:0:0:0:
411,157,83071,1,4,3:0:0:0:
336,101,83182,1,4,3:0:0:0:
286,169,83293,1,4,3:0:0:0:
393,330,83404,6,0,B|353:324|353:324|325:341|325:341|269:321|202:333,1,176.639994070313,12|2,0:0|0:0,0:0:0:0:
14,302,83738,2,0,P|88:287|125:275,1,88.3199970351563,12|0,0:0|0:0,0:0:0:0:
304,258,83960,2,0,P|230:243|193:231,1,88.3199970351563,12|0,0:0|0:0,0:0:0:0:
34,223,84182,2,0,P|106:201|142:186,1,88.3199970351563,12|0,0:0|0:0,0:0:0:0:
275,174,84404,5,6,0:0:0:0:
215,347,87516,5,2,0:0:0:0:
292,307,87627,1,8,0:0:0:0:
374,324,87738,1,8,0:0:0:0:
448,281,87849,1,8,0:0:0:0:
362,240,87960,6,0,L|348:144,1,88.3199970351563,6|0,0:0|0:0,0:0:0:0:
444,107,88182,2,0,L|431:194,1,88.3199970351563,8|0,0:0|0:0,0:0:0:0:
349,152,88404,2,0,P|292:146|233:160,1,88.3199970351563,2|0,0:0|0:0,0:0:0:0:
202,208,88627,1,8,0:0:0:0:
120,190,88738,1,2,0:0:0:0:
173,118,88849,6,0,B|118:109|118:109|72:118,1,88.3199970351563,2|0,0:0|0:0,0:0:0:0:
59,267,89071,2,0,B|114:276|114:276|160:267,1,88.3199970351563,8|0,0:0|0:0,0:0:0:0:
183,107,89293,2,0,B|128:98|128:98|82:107,1,88.3199970351563,2|0,0:0|0:0,0:0:0:0:
34,181,89516,1,8,0:0:0:0:
59,267,89627,1,2,0:0:0:0:
120,190,89738,6,0,L|216:184,1,88.3199970351563,2|0,0:0|0:0,0:0:0:0:
284,243,89960,2,0,L|372:248,1,88.3199970351563,8|0,0:0|0:0,0:0:0:0:
429,189,90182,2,0,P|448:239|457:279,1,88.3199970351563,2|0,0:0|0:0,0:0:0:0:
497,142,90404,2,0,P|478:192|469:232,1,88.3199970351563,8|2,0:0|0:0,0:0:0:0:
424,108,90627,6,0,L|330:88,1,88.3199970351563,2|0,0:0|0:0,0:0:0:0:
268,138,90849,2,0,L|181:156,1,88.3199970351563,8|0,0:0|0:0,0:0:0:0:
112,105,91071,5,8,0:0:0:0:
97,192,91182,1,8,0:0:0:0:
81,282,91293,1,4,3:0:0:0:
64,370,91404,1,8,3:0:0:0:
150,333,91516,5,6,0:0:0:0:
81,282,91627,2,0,L|-14:289,1,78.7200012011719,8|0,0:0|0:0,0:0:0:0:
166,243,91849,5,2,0:0:0:0:
97,192,91960,2,0,L|2:199,1,78.7200012011719,8|0,0:0|0:0,0:0:0:0:
181,156,92182,5,2,0:0:0:0:
112,105,92293,2,0,L|17:112,1,78.7200012011719,8|0,0:0|0:0,0:0:0:0:
180,59,92516,5,2,0:0:0:0:
249,8,92627,2,0,L|344:15,1,78.7200012011719,8|0,0:0|0:0,0:0:0:0:
483,106,92849,6,0,L|388:113,1,78.7200012011719,8|0,3:0|0:0,0:0:0:0:
181,156,93071,2,0,L|276:163,1,78.7200012011719,4|0,3:0|0:0,0:0:0:0:
310,257,93293,5,2,0:0:0:0:
312,98,93404,2,0,P|332:146|338:191,1,88.3199970351563,12|0,0:0|0:0,0:0:0:0:
218,315,93627,5,2,0:0:0:0:
259,161,93738,2,0,P|265:212|260:257,1,88.3199970351563,12|0,0:0|0:0,0:0:0:0:
103,359,93960,5,2,0:0:0:0:
182,220,94071,2,0,P|175:271|158:313,1,88.3199970351563,12|0,0:0|0:0,0:0:0:0:
176,112,94293,5,2,0:0:0:0:
97,251,94404,2,0,P|103:199|120:157,1,88.3199970351563,12|0,0:0|0:0,0:0:0:0:
315,98,94627,6,0,B|266:96|266:96|223:115|223:115|132:109,1,143.999992847443,8|0,3:0|0:0,0:0:0:0:
61,169,94849,6,0,B|120:166|120:166|160:187|160:187|230:188,1,143.999992847443,8|0,3:0|0:0,0:0:0:0:
197,274,95071,6,0,P|205:216|182:150,1,88.3199970351563,6|0,0:0|0:0,0:0:0:0:
175,111,95293,2,0,P|167:68|173:24,1,88.3199970351563,8|0,0:0|0:0,0:0:0:0:
262,75,95515,2,0,B|303:79|303:79|359:75,1,88.3199970351563,2|0,0:0|0:0,0:0:0:0:
408,153,95737,1,8,0:0:0:0:
408,153,95848,6,0,B|321:157|321:157|224:197,1,176.639994070313,2|2,0:0|0:0,0:0:0:0:
386,231,96182,2,0,B|440:224|440:224|480:203,1,88.3199970351563,8|0,0:0|0:0,0:0:0:0:
465,94,96404,2,0,B|428:77|428:77|380:72,1,88.3199970351563,2|0,0:0|0:0,0:0:0:0:
331,160,96626,1,8,0:0:0:0:
238,191,96737,1,0,0:0:0:0:
124,180,96849,6,0,B|122:228|122:228|163:286|237:309,2,176.639994070313,2|8|2,0:0|0:0|0:0,0:0:0:0:
159,98,97405,2,0,B|163:58|163:58|152:23|128:0,1,88.3199970351563,2|8,0:0|0:0,0:0:0:0:
71,73,97627,6,0,P|51:114|37:166,1,88.3199970351563,2|0,0:0|0:0,0:0:0:0:
124,180,97849,2,0,P|133:229|158:273,1,88.3199970351563,2|8,0:0|0:0,0:0:0:0:
236,293,98071,1,0,0:0:0:0:
323,290,98183,1,2,0:0:0:0:
381,227,98294,1,2,0:0:0:0:
375,144,98405,1,8,0:0:0:0:
312,86,98516,1,8,0:0:0:0:
222,108,98627,6,0,B|158:117|158:117|117:92|117:92|34:98,1,176.639994070313,6|8,0:0|0:0,0:0:0:0:
89,171,98960,1,0,0:0:0:0:
37,258,99071,2,0,L|130:247,1,88.3199970351563,2|0,0:0|0:0,0:0:0:0:
188,196,99294,1,8,0:0:0:0:
248,255,99405,6,0,L|335:247,1,88.3199970351563,2|0,0:0|0:0,0:0:0:0:
388,164,99627,1,2,0:0:0:0:
343,85,99738,2,0,B|306:152|306:152|337:250,1,176.639994070313,8|2,0:0|0:0,0:0:0:0:
424,58,100182,1,8,0:0:0:0:
343,85,100293,1,8,0:0:0:0:
260,46,100404,6,0,B|196:38|140:88|140:88|138:152,1,176.639994070313,6|8,0:0|0:0,0:0:0:0:
227,212,100737,2,0,B|234:166|234:166|217:103,1,88.3199970351563,2|4,0:0|3:0,0:0:0:0:
144,211,100959,2,0,B|161:262|161:262|212:297,1,88.3199970351563,4|8,3:0|0:0,0:0:0:0:
392,185,101182,6,0,B|293:147|214:223,1,176.639994070313,6|2,0:0|0:0,0:0:0:0:
293,276,101515,2,0,B|323:247|401:278,1,88.3199970351563,8|0,0:0|0:0,0:0:0:0:
462,280,101737,5,8,0:0:0:0:
475,196,101848,1,8,0:0:0:0:
392,185,101959,1,8,3:0:0:0:
377,269,102070,1,8,3:0:0:0:
284,329,102182,6,0,B|231:343|197:326|197:326|152:307|108:330,2,176.639994070313,6|8|2,0:0|0:0|0:0,0:0:0:0:
240,257,102737,1,2,0:0:0:0:
284,184,102848,1,8,0:0:0:0:
326,261,102959,6,0,L|423:237,1,88.3199970351563,2|0,0:0|0:0,0:0:0:0:
478,180,103182,1,2,0:0:0:0:
484,276,103293,2,0,B|444:305|444:305|389:319,1,88.3199970351563,8|0,0:0|0:0,0:0:0:0:
326,261,103515,2,0,L|279:176,1,88.3199970351563,2|0,0:0|0:0,0:0:0:0:
362,94,103737,2,0,L|381:180,1,88.3199970351563,8|0,0:0|0:0,0:0:0:0:
283,183,103960,6,0,B|237:169|199:187|199:187|149:215|89:189,2,176.639994070313,2|8|2,0:0|0:0|0:0,0:0:0:0:
234,255,104516,2,0,L|256:347,1,88.3199970351563,2|8,0:0|0:0,0:0:0:0:
358,265,104738,6,0,L|385:162,1,88.3199970351563,2|0,0:0|0:0,0:0:0:0:
283,183,104960,2,0,L|261:66,1,88.3199970351563,2|8,0:0|0:0,0:0:0:0:
437,80,105183,2,0,B|378:95|378:95|326:80|326:80|261:97,1,176.639994070313,2|0,0:0|0:0,0:0:0:0:
283,183,105516,2,0,P|241:197|198:204,1,88.3199970351563,8|0,0:0|0:0,0:0:0:0:
119,150,105738,6,0,B|103:194|103:194|114:233|114:233|96:266|90:336,2,176.639994070313,2|8|2,0:0|0:0|0:0,0:0:0:0:
153,72,106294,1,2,0:0:0:0:
218,124,106405,1,8,0:0:0:0:
278,60,106516,6,0,P|322:63|379:75,1,88.3199970351563,2|0,0:0|0:0,0:0:0:0:
406,146,106738,1,2,0:0:0:0:
473,90,106849,2,0,B|486:141|486:141|464:207,1,88.3199970351563,8|0,0:0|0:0,0:0:0:0:
397,232,107071,2,0,B|393:189|393:189|406:143,1,88.3199970351563,2|0,0:0|0:0,0:0:0:0:
477,192,107294,1,8,0:0:0:0:
469,274,107405,1,2,0:0:0:0:
392,312,107516,6,0,B|302:287|307:344|209:310,1,176.639994070313,6|8,0:0|0:0,0:0:0:0:
169,231,107849,2,0,P|208:231|271:237,1,88.3199970351563,2|2,0:0|0:0,0:0:0:0:
309,153,108071,2,0,P|262:152|207:159,1,88.3199970351563,2|8,0:0|0:0,0:0:0:0:
116,165,108294,6,0,B|72:213|102:289|102:289|152:325,1,176.639994070313,6|2,0:0|0:0,0:0:0:0:
169,231,108627,2,0,L|271:237,1,88.3199970351563,8|0,0:0|0:0,0:0:0:0:
197,154,108849,2,0,P|185:124|183:37,1,88.3199970351563,2|0,0:0|0:0,0:0:0:0:
276,151,109071,2,0,P|272:194|257:236,1,88.3199970351563,8|0,0:0|0:0,0:0:0:0:
257,70,109293,6,0,B|323:78|323:78|372:121|362:202,1,176.639994070313,6|8,0:0|0:0,0:0:0:0:
276,151,109626,1,4,3:0:0:0:
258,237,109737,1,4,3:0:0:0:
326,291,109848,1,4,3:0:0:0:
407,269,109959,1,8,3:0:0:0:
258,237,110070,6,0,B|211:250|165:231|165:231|126:198|58:221,1,176.639994070313,2|2,0:0|0:0,0:0:0:0:
209,161,110404,2,0,P|250:145|293:135,1,88.3199970351563,8|0,0:0|0:0,0:0:0:0:
343,256,110626,2,0,P|299:248|257:236,1,88.3199970351563,8|4,0:0|3:0,0:0:0:0:
209,161,110848,1,8,3:0:0:0:
235,73,110959,1,8,3:0:0:0:
293,134,111071,6,0,P|342:115|447:106,1,138.240003375,6|0,0:0|0:0,0:0:0:0:
396,182,111405,1,2,0:0:0:0:
444,249,111516,1,8,0:0:0:0:
358,260,111627,2,0,L|287:242,1,69.1200016875,0|2,0:0|0:0,0:0:0:0:
213,293,111849,6,0,L|211:143,1,138.240003375,8|8,0:0|0:0,0:0:0:0:
257,81,112183,2,0,P|208:76|180:76,1,69.1200016875,2|0,0:0|0:0,0:0:0:0:
131,141,112405,2,0,P|82:146|54:146,1,69.1200016875,8|0,0:0|0:0,0:0:0:0:
0,223,112627,2,0,P|49:228|77:228,1,69.1200016875,2|0,0:0|0:0,0:0:0:0:
131,141,112849,6,0,P|146:199|144:303,1,138.240003375,2|0,0:0|0:0,0:0:0:0:
111,351,113183,1,2,0:0:0:0:
198,333,113294,2,0,L|275:344,1,69.1200016875,8|0,0:0|0:0,0:0:0:0:
321,280,113516,2,0,L|389:270,1,69.1200016875,2|0,0:0|0:0,0:0:0:0:
463,306,113738,5,2,0:0:0:0:
455,212,113849,2,0,B|399:165|381:230|312:157,1,138.240003375,8|0,0:0|0:0,0:0:0:0:
275,107,114183,2,0,P|251:149|245:175,1,69.1200016875,8|0,0:0|0:0,0:0:0:0:
261,255,114405,2,0,P|251:288|232:317,1,69.1200016875,2|0,0:0|0:0,0:0:0:0:
166,257,114627,6,0,B|109:255|63:265|63:265|30:287,2,138.240003375,6|0|8,0:0|0:0|0:0,0:0:0:0:
232,317,115183,2,0,P|279:326|326:327,1,69.1200016875,0|2,0:0|0:0,0:0:0:0:
383,283,115404,6,0,B|402:244|402:244|404:123,1,138.240003375,8|8,0:0|0:0,0:0:0:0:
446,66,115737,2,0,P|406:64|364:67,1,69.1200016875,2|0,0:0|0:0,0:0:0:0:
323,135,115959,2,0,P|286:137|254:135,1,69.1200016875,8|0,0:0|0:0,0:0:0:0:
174,87,116182,2,0,L|166:158,1,69.1200016875,2|0,0:0|0:0,0:0:0:0:
243,231,116404,6,0,L|79:242,1,138.240003375,2|0,0:0|0:0,0:0:0:0:
47,320,116738,2,0,P|101:323|137:333,1,69.1200016875,2|8,0:0|0:0,0:0:0:0:
204,362,116960,1,0,0:0:0:0:
284,311,117070,2,0,P|320:310|353:302,1,69.1200016875
432,337,117293,5,2,0:0:0:0:
436,311,117404,1,8,0:0:0:0:
402,240,117515,1,2,0:0:0:0:
400,215,117626,1,8,0:0:0:0:
346,138,117737,5,8,0:0:0:0:
280,185,117848,1,8,0:0:0:0:
193,185,117960,1,4,3:3:0:0:
127,138,118071,1,8,3:3:0:0:
222,72,118182,6,0,P|235:121|223:226,1,138.240003375,6|0,0:0|0:0,0:0:0:0:
168,277,118515,1,2,0:0:0:0:
81,265,118626,1,8,0:0:0:0:
127,353,118737,2,0,L|207:357,1,69.1200016875,0|2,0:0|0:0,0:0:0:0:
255,290,118959,6,0,L|404:304,1,138.240003375,8|8,0:0|0:0,0:0:0:0:
473,346,119293,2,0,P|476:314|472:261,1,69.1200016875,2|0,0:0|0:0,0:0:0:0:
400,228,119515,2,0,P|396:192|401:143,1,69.1200016875,8|0,0:0|0:0,0:0:0:0:
472,112,119737,2,0,P|474:75|471:27,1,69.1200016875,2|0,0:0|0:0,0:0:0:0:
395,81,119960,6,0,B|338:96|338:96|233:84,1,138.240003375,2|0,0:0|0:0,0:0:0:0:
177,59,120294,1,2,0:0:0:0:
204,143,120405,2,0,L|203:243,1,69.1200016875,8|0,0:0|0:0,0:0:0:0:
145,304,120627,6,0,B|194:314|194:314|243:294|243:294|295:314|367:293,1,207.3600050625,6|8,0:0|0:0,0:0:0:0:
426,356,121071,2,0,B|444:323|448:275,1,69.1200016875,0|2,0:0|0:0,0:0:0:0:
416,213,121294,1,8,0:0:0:0:
446,132,121405,1,8,0:0:0:0:
422,48,121516,1,4,3:0:0:0:
422,48,121738,6,0,B|366:55|366:55|321:41|321:41|240:50,1,157.440002402344,2|0,0:0|0:0,0:0:0:0:
207,110,122071,1,2,0:0:0:0:
207,110,122183,2,0,L|204:199,1,78.7200012011719,8|0,0:0|0:0,0:0:0:0:
272,259,122405,2,0,L|275:338,1,78.7200012011719,2|0,0:0|0:0,0:0:0:0:
194,299,122627,6,0,L|384:314,1,157.440002402344,2|0,0:0|0:0,0:0:0:0:
428,242,122960,1,2,0:0:0:0:
344,237,123071,1,8,0:0:0:0:
259,230,123183,1,8,0:0:0:0:
175,227,123294,1,4,3:0:0:0:
93,221,123405,1,8,3:0:0:0:
142,139,123516,5,2,0:0:0:0:
231,147,123627,2,0,L|318:154,1,78.7200012011719,12|0,0:0|0:0,0:0:0:0:
452,61,123849,5,2,0:0:0:0:
363,69,123960,2,0,L|276:76,1,78.7200012011719,12|0,0:0|0:0,0:0:0:0:
185,219,124182,5,2,0:0:0:0:
274,227,124293,2,0,L|361:234,1,78.7200012011719,12|0,0:0|0:0,0:0:0:0:
476,139,124516,5,2,0:0:0:0:
387,147,124627,2,0,L|300:154,1,78.7200012011719,12|0,0:0|0:0,0:0:0:0:
223,132,124849,5,8,0:0:0:0:
136,151,124960,1,8,0:0:0:0:
109,231,125071,1,8,3:0:0:0:
155,303,125182,1,4,3:0:0:0:
246,293,125293,5,2,0:0:0:0:
386,181,125404,2,0,B|338:172|338:172|287:191,1,88.3199970351563,12|0,0:0|0:0,0:0:0:0:
338,251,125627,5,2,0:0:0:0:
311,73,125738,2,0,B|279:110|279:110|270:164,1,88.3199970351563,12|0,0:0|0:0,0:0:0:0:
348,150,125960,5,2,0:0:0:0:
181,84,126071,2,0,B|197:130|197:130|239:165,1,88.3199970351563,12|0,0:0|0:0,0:0:0:0:
266,91,126293,5,2,0:0:0:0:
126,203,126404,2,0,B|174:211|174:211|225:193,1,88.3199970351563,12|0,0:0|0:0,0:0:0:0:
163,128,126627,5,8,0:0:0:0:
79,135,126738,1,8,0:0:0:0:
43,209,126849,1,4,3:0:0:0:
83,282,126960,1,8,3:0:0:0:
173,278,127071,6,0,B|348:255,1,174.719997186798,6|0,0:0|0:0,0:0:0:0:
126,152,127404,2,0,B|78:135|78:135|213:105,1,174.719997186798,6|0,0:0|0:0,0:0:0:0:
402,147,127738,2,0,L|291:164,1,87.3599985933991,2|0,0:0|0:0,0:0:0:0:
260,249,127960,5,2,0:0:0:0:
348,255,128071,1,2,0:0:0:0:
408,195,128183,1,8,3:0:0:0:
425,94,128294,1,4,3:0:0:0:
347,19,128405,5,8,0:0:0:0:
332,116,128516,1,8,0:0:0:0:
408,195,128627,1,4,3:0:0:0:
512,182,128738,1,8,3:0:0:0:
425,94,128849,6,0,B|399:91|399:91|365:103|365:103|308:97,1,99.839999390625,6|0,0:0|0:0,0:0:0:0:
243,75,129183,1,2,0:0:0:0:
243,75,129294,2,0,L|241:140,1,49.9199996953125,8|0,0:0|0:0,0:0:0:0:
295,191,129516,2,0,L|299:240,1,49.9199996953125,2|0,0:0|0:0,0:0:0:0:
361,320,129738,6,0,L|239:316,1,99.839999390625,2|0,0:0|0:0,0:0:0:0:
189,270,130071,1,2,0:0:0:0:
189,270,130183,2,0,L|180:319,1,49.9199996953125,8|0,0:0|0:0,0:0:0:0:
98,283,130405,2,0,L|94:332,1,49.9199996953125,2|0,0:0|0:0,0:0:0:0:
149,185,130627,6,0,B|192:180|254:201|254:201|291:256,2,149.759999085937,2|2|0,0:0|0:0|0:0,0:0:0:0:
113,104,131405,1,0,0:0:0:0:
113,104,131516,6,0,P|145:99|186:98,1,49.9199996953125,2|0,0:0|0:0,0:0:0:0:
259,116,131738,2,0,P|285:120|309:120,1,49.9199996953125,0|2,0:0|0:0,0:0:0:0:
396,82,131960,1,8,0:0:0:0:
406,118,132071,1,0,0:0:0:0:
402,153,132183,1,2,0:0:0:0:
386,183,132294,1,0,0:0:0:0:
297,216,132404,6,0,P|292:182|315:108,1,99.839999390625,2|0,0:0|0:0,0:0:0:0:
356,52,132737,1,2,0:0:0:0:
356,52,132848,2,0,P|326:44|296:40,1,49.9199996953125,8|0,0:0|0:0,0:0:0:0:
234,88,133070,2,0,P|201:97|174:100,1,49.9199996953125,2|0,0:0|0:0,0:0:0:0:
111,38,133293,6,0,B|100:109|100:109|104:146,1,99.839999390625,2|0,0:0|0:0,0:0:0:0:
162,205,133626,1,2,0:0:0:0:
99,266,133737,2,0,P|142:290|205:279,1,99.839999390625,8|2,0:0|0:0,0:0:0:0:
255,232,134070,1,0,0:0:0:0:
339,279,134182,6,0,L|348:222,1,49.9199996953125,2|0,0:0|0:0,0:0:0:0:
336,146,134404,2,0,L|327:89,1,49.9199996953125
245,135,134626,2,0,P|206:138|187:137,1,49.9199996953125,8|0,0:0|0:0,0:0:0:0:
130,62,134848,2,0,P|169:65|188:64,1,49.9199996953125
255,27,135070,5,2,0:0:0:0:
245,135,135182,2,0,B|244:206|244:206|261:246,1,99.839999390625,8|0,0:0|0:0,0:0:0:0:
337,260,135515,1,8,0:0:0:0:
274,320,135626,1,8,0:0:0:0:
194,299,135737,1,4,3:0:0:0:
179,216,135848,1,8,3:0:0:0:
234,150,135960,6,0,B|271:149|271:149|299:155|299:155|344:153,1,99.839999390625,2|0,0:0|0:0,0:0:0:0:
404,107,136294,1,2,0:0:0:0:
404,107,136405,2,0,P|410:144|410:162,1,49.9199996953125,8|0,0:0|0:0,0:0:0:0:
487,194,136627,2,0,P|488:170|493:145,1,49.9199996953125,2|0,0:0|0:0,0:0:0:0:
477,51,136849,6,0,B|449:31|449:31|371:26,1,99.839999390625,2|0,0:0|0:0,0:0:0:0:
303,55,137183,1,2,0:0:0:0:
303,55,137294,2,0,B|281:63|281:63|231:60,1,49.9199996953125,8|0,0:0|0:0,0:0:0:0:
173,17,137516,2,0,L|167:73,1,49.9199996953125,2|0,0:0|0:0,0:0:0:0:
220,146,137738,6,0,B|234:185|219:217|219:217|202:257|226:311,2,149.759999085937,2|0|0,0:0|0:0|0:0,0:0:0:0:
143,185,138516,1,0,0:0:0:0:
143,185,138627,6,0,P|134:225|133:252,1,49.9199996953125,2|0,0:0|0:0,0:0:0:0:
141,317,138849,2,0,P|168:350|187:364,1,49.9199996953125
15,355,139071,2,0,P|32:338|47:318,1,49.9199996953125,8|0,0:0|0:0,0:0:0:0:
55,233,139293,1,2,0:0:0:0:
44,184,139404,1,0,0:0:0:0:
84,46,139516,6,0,P|148:43|194:55,1,99.839999390625,2|0,0:0|0:0,0:0:0:0:
252,98,139849,1,2,0:0:0:0:
252,98,139960,2,0,P|290:98|310:95,1,49.9199996953125,8|0,0:0|0:0,0:0:0:0:
359,33,140183,2,0,P|383:30|408:31,1,49.9199996953125,2|0,0:0|0:0,0:0:0:0:
384,111,140404,5,2,0:0:0:0:
386,151,140515,1,0,3:0:0:0:
378,186,140626,1,0,3:0:0:0:
359,212,140737,1,0,3:0:0:0:
302,144,140848,5,8,0:0:0:0:
355,78,140959,1,4,3:0:0:0:
438,100,141070,1,4,3:0:0:0:
450,185,141182,1,8,3:0:0:0:
378,246,141293,6,0,P|332:223|308:181,1,88.3199970351563,8|0,0:0|0:0,0:0:0:0:
386,151,141516,1,2,0:0:0:0:
265,256,141627,6,0,P|236:214|234:170,1,69.1200016875,8|0,0:0|0:0,0:0:0:0:
310,179,141849,1,2,0:0:0:0:
163,223,141960,6,0,P|158:182|167:154,1,49.9199996953125,8|0,0:0|0:0,0:0:0:0:
217,119,142182,1,2,0:0:0:0:
290,79,142293,1,8,0:0:0:0:
372,103,142404,1,8,3:0:0:0:
430,175,142516,1,4,3:0:0:0:
447,79,142627,5,8,0:0:0:0:
338,47,142738,1,8,0:0:0:0:
242,118,142849,1,4,3:0:0:0:
237,274,142960,1,4,3:0:0:0:
359,183,143071,6,0,P|309:178|263:196,1,99.839999390625,6|0,0:0|0:0,0:0:0:0:
322,256,143405,1,2,0:0:0:0:
322,256,143516,2,0,L|337:303,1,49.9199996953125,8|0,0:0|0:0,0:0:0:0:
413,253,143738,2,0,L|421:302,1,49.9199996953125,2|0,0:0|0:0,0:0:0:0:
503,252,143960,6,0,B|482:207|482:207|477:155,1,99.839999390625,2|0,0:0|0:0,0:0:0:0:
512,76,144294,1,2,0:0:0:0:
512,76,144405,2,0,L|462:79,1,49.9199996953125,8|0,0:0|0:0,0:0:0:0:
389,132,144627,2,0,L|339:134,1,49.9199996953125,2|0,0:0|0:0,0:0:0:0:
270,78,144849,6,0,B|223:66|223:66|172:77|172:77|122:64,2,149.759999085937,2|2|0,0:0|0:0|0:0,0:0:0:0:
215,150,145627,1,0,0:0:0:0:
215,150,145738,2,0,L|214:199,1,49.9199996953125,2|0,0:0|0:0,0:0:0:0:
277,266,145960,2,0,L|277:315,1,49.9199996953125
198,289,146182,5,8,0:0:0:0:
162,275,146293,1,0,0:0:0:0:
135,247,146405,1,2,0:0:0:0:
129,213,146516,1,0,0:0:0:0:
213,199,146627,6,0,P|264:193|324:171,1,99.839999390625,2|0,0:0|0:0,0:0:0:0:
141,135,146960,2,0,L|29:124,1,99.839999390625,2|0,0:0|0:0,0:0:0:0:
221,33,147293,2,0,L|278:31,1,49.9199996953125,2|0,0:0|0:0,0:0:0:0:
404,158,147516,6,0,B|366:154|366:154|294:184,1,99.839999390625,2|0,0:0|0:0,0:0:0:0:
141,135,147849,2,0,P|188:143|239:178,1,99.839999390625,2|0,0:0|0:0,0:0:0:0:
326,259,148182,2,0,P|300:279|282:301,1,49.9199996953125,2|0,0:0|0:0,0:0:0:0:
228,352,148404,6,0,P|210:333|190:319,1,49.9199996953125,2|0,0:0|0:0,0:0:0:0:
98,303,148627,2,0,P|77:288|60:270,1,49.9199996953125,2|0,0:0|0:0,0:0:0:0:
116,171,148849,2,0,L|122:235,1,49.9199996953125,8|0,0:0|0:0,0:0:0:0:
198,129,149071,2,0,L|192:193,1,49.9199996953125,2|2,0:0|0:0,0:0:0:0:
275,97,149293,5,2,0:0:0:0:
291,196,149404,2,0,L|171:174,1,99.839999390625,8|0,0:0|0:0,0:0:0:0:
232,263,149738,1,8,0:0:0:0:
315,278,149849,1,8,0:0:0:0:
373,217,149960,1,4,3:0:0:0:
358,133,150071,1,8,3:0:0:0:
471,211,150182,6,0,B|428:200|419:230|361:214,1,99.839999390625,2|0,0:0|0:0,0:0:0:0:
301,184,150516,1,2,0:0:0:0:
301,184,150627,2,0,P|295:221|295:239,1,49.9199996953125,8|0,0:0|0:0,0:0:0:0:
231,281,150849,2,0,P|227:256|222:231,1,49.9199996953125,2|0,0:0|0:0,0:0:0:0:
113,52,151070,6,0,B|146:68|146:68|218:71,1,99.839999390625,6|0,0:0|0:0,0:0:0:0:
350,28,151404,1,2,0:0:0:0:
295,82,151515,2,0,P|278:50|270:26,1,49.9199996953125,8|0,0:0|0:0,0:0:0:0:
432,43,151737,2,0,P|423:67|411:88,1,49.9199996953125,2|0,0:0|0:0,0:0:0:0:
266,212,151959,6,0,P|249:180|241:156,1,49.9199996953125,6|0,0:0|0:0,0:0:0:0:
329,157,152182,1,0,0:0:0:0:
342,242,152293,1,2,0:0:0:0:
271,295,152404,2,0,L|213:291,1,49.9199996953125,8|0,0:0|0:0,0:0:0:0:
140,222,152626,2,0,L|198:218,1,49.9199996953125,2|0,0:0|0:0,0:0:0:0:
97,297,152848,6,0,B|69:268|69:268|54:192,1,99.839999390625,2|0,0:0|0:0,0:0:0:0:
98,128,153182,1,2,0:0:0:0:
164,68,153293,1,2,0:0:0:0:
247,78,153404,1,8,0:0:0:0:
297,149,153515,1,8,0:0:0:0:
293,234,153626,1,8,0:0:0:0:
208,305,153738,6,0,P|260:308|351:321,1,132.479995552735,6|0,0:0|0:0,0:0:0:0:
377,290,153960,2,0,P|420:290|479:285,1,88.3199970351563,8|0,0:0|0:0,0:0:0:0:
418,208,154183,1,4,3:0:0:0:
388,130,154294,1,4,3:0:0:0:
422,52,154405,1,4,3:0:0:0:
304,129,154516,6,0,B|249:131|183:113|183:113|135:55,1,176.639994070313,12|2,0:0|0:0,0:0:0:0:
214,200,154849,2,0,L|226:303,1,88.3199970351563,8|0,0:0|0:0,0:0:0:0:
75,205,155071,2,0,L|65:99,1,88.3199970351563,8|0,0:0|0:0,0:0:0:0:
148,71,155294,1,8,0:0:0:0:
224,34,155405,1,8,0:0:0:0:
305,65,155516,6,0,B|346:71|346:71|389:55|389:55|465:62,1,132.479995552735,6|0,0:0|0:0,0:0:0:0:
467,70,155738,2,0,L|474:164,1,88.3199970351563,8|0,0:0|0:0,0:0:0:0:
501,243,155960,1,4,3:0:0:0:
467,318,156071,1,4,3:0:0:0:
386,325,156183,1,4,3:0:0:0:
401,242,156294,6,0,B|342:234|342:234|287:255|287:255|219:246,1,176.639994070313,12|2,0:0|0:0,0:0:0:0:
274,86,156627,2,0,L|280:188,1,88.3199970351563,8|0,0:0|0:0,0:0:0:0:
184,40,156849,2,0,L|190:142,1,88.3199970351563,8|0,0:0|0:0,0:0:0:0:
136,198,157071,1,8,0:0:0:0:
84,133,157183,1,8,0:0:0:0:
189,128,157293,6,0,B|235:129|235:129|270:111|270:111|349:113,1,132.479995552735,6|0,0:0|0:0,0:0:0:0:
353,114,157515,2,0,L|458:123,1,88.3199970351563,8|0,0:0|0:0,0:0:0:0:
416,199,157737,1,4,3:0:0:0:
341,255,157848,1,4,3:0:0:0:
290,186,157959,1,4,3:0:0:0:
251,107,158071,6,0,P|202:160|253:267,1,176.639994070313,12|0,0:0|0:0,0:0:0:0:
376,170,158404,2,0,P|307:180|266:200,1,88.3199970351563,12|0,0:0|0:0,0:0:0:0:
192,335,158627,2,0,P|261:325|302:305,1,88.3199970351563,12|0,0:0|0:0,0:0:0:0:
296,106,158849,2,0,P|231:133|197:163,1,88.3199970351563,12|0,0:0|0:0,0:0:0:0:
383,244,159071,6,0,P|322:235|228:252,1,157.440002402344,6|2,0:0|0:0,0:0:0:0:
91,312,159404,1,8,0:0:0:0:
132,241,159516,2,0,P|161:281|171:343,1,104.960001601563,8|8,3:0|3:0,0:0:0:0:
73,177,159738,6,0,B|121:160|121:160|168:168|168:168|227:147,1,149.759999085937,6|0,0:0|0:0,0:0:0:0:
261,75,160182,2,0,P|213:70|180:79,1,78.7200012011719,2|0,0:0|0:0,0:0:0:0:
245,222,160404,2,0,P|283:230|322:224,1,78.7200012011719,8|0,0:0|0:0,0:0:0:0:
365,124,160627,2,0,L|277:156,1,78.7200012011719,2|0,0:0|0:0,0:0:0:0:
386,269,160849,6,0,P|400:223|354:114,1,157.440002402344,6|0,0:0|0:0,0:0:0:0:
224,80,161182,1,8,0:0:0:0:
213,164,161293,2,0,B|271:154|271:154|300:107,1,104.960001601563,8|8,3:0|3:0,0:0:0:0:
132,79,161516,6,0,B|122:178|122:178|141:237,1,149.759999085937,6|8,0:0|0:0,0:0:0:0:
217,85,161960,2,0,L|212:174,1,78.7200012011719,2|0,0:0|0:0,0:0:0:0:
241,240,162182,6,0,L|139:229,1,78.7200012011719,8|8,0:0|0:0,0:0:0:0:
103,322,162404,2,0,L|203:308,1,78.7200012011719,2|8,0:0|0:0,0:0:0:0:
309,173,162627,6,0,P|333:221|279:322,1,176.639994070313,6|2,0:0|0:0,0:0:0:0:
249,241,162960,1,8,0:0:0:0:
374,334,163071,2,0,L|489:301,1,117.759996046875,8|8,3:0|3:0,0:0:0:0:
330,116,163293,6,0,B|308:171|308:171|343:209|333:274,1,149.759999085937,6|0,0:0|0:0,0:0:0:0:
396,165,163738,2,0,P|415:107|418:84,1,69.1200016875,2|0,0:0|0:0,0:0:0:0:
310,51,163960,2,0,P|317:84|330:116,1,69.1200016875,8|0,0:0|0:0,0:0:0:0:
369,18,164182,2,0,L|236:11,1,103.68000253125,2|8,0:0|0:0,0:0:0:0:
225,49,164404,6,0,B|137:80|137:20|40:63,1,176.639994070313,6|0,0:0|0:0,0:0:0:0:
79,237,164738,1,8,0:0:0:0:
1,274,164849,2,0,P|-6:222|38:152,1,117.759996046875,8|8,3:0|3:0,0:0:0:0:
152,206,165071,6,0,B|192:203|192:203|217:210|217:210|258:197|306:206,1,149.759999085937,6|8,0:0|0:0,0:0:0:0:
344,289,165516,2,0,P|299:287|267:280,1,69.1200016875,2|0,0:0|0:0,0:0:0:0:
274,103,165738,6,0,P|291:161|300:212,1,78.7200012011719,8|8,0:0|0:0,0:0:0:0:
347,59,165960,2,0,P|330:117|324:164,1,78.7200012011719,2|8,0:0|0:0,0:0:0:0:
265,21,166182,6,0,B|132:24|132:24|82:55,1,176.639994070313,6|2,0:0|0:0,0:0:0:0:
135,252,166516,2,0,P|178:201|141:80,1,176.639994070313,8|0,0:0|0:0,0:0:0:0:
97,173,166849,6,0,B|178:154|189:199|282:171,1,178.559992916016,6|0,0:0|0:0,0:0:0:0:
337,111,167293,2,0,P|385:103|422:108,1,69.1200016875,2|0,0:0|0:0,0:0:0:0:
455,189,167516,2,0,P|407:181|370:186,1,69.1200016875,8|0,0:0|0:0,0:0:0:0:
320,242,167738,2,0,P|272:250|235:245,1,69.1200016875,2|0,0:0|0:0,0:0:0:0:
219,87,167960,6,0,B|232:56|232:56|275:178,1,157.440002402344,6|2,0:0|0:0,0:0:0:0:
183,167,168293,1,8,0:0:0:0:
119,229,168404,2,0,P|99:188|115:116,1,104.960001601563,8|8,3:0|3:0,0:0:0:0:
225,76,168627,6,0,B|240:45|240:45|279:172,1,149.759999085937,6|8,0:0|0:0,0:0:0:0:
304,243,169071,1,2,0:0:0:0:
304,243,169293,6,0,B|356:228|356:228|409:244,1,78.7200012011719,8|8,0:0|0:0,0:0:0:0:
355,308,169516,2,0,B|300:294|300:294|246:311,1,78.7200012011719,2|8,0:0|0:0,0:0:0:0:
183,355,169738,6,0,P|167:314|178:254,1,99.839999390625,6|0,0:0|0:0,0:0:0:0:
214,182,170071,1,0,3:0:0:0:
126,199,170182,2,0,L|19:180,1,99.839999390625,2|0,0:0|0:0,0:0:0:0:
91,114,170516,1,0,3:0:0:0:
96,283,170627,6,0,L|203:264,1,99.839999390625,2|0,0:0|0:0,0:0:0:0:
276,298,170960,1,0,3:0:0:0:
206,217,171071,2,0,P|198:245|191:286,1,49.9199996953125,2|0,0:0|0:0,0:0:0:0:
273,170,171293,2,0,P|281:198|288:239,1,49.9199996953125,0|0,3:0|0:0,0:0:0:0:
197,115,171516,6,0,P|231:99|322:92,1,119.039995277344,2|0,0:0|0:0,0:0:0:0:
386,142,171849,1,0,3:0:0:0:
273,170,171960,2,0,L|261:296,1,119.039995277344,2|0,0:0|0:0,0:0:0:0:
344,228,172293,1,0,3:0:0:0:
188,235,172404,6,0,P|137:225|69:169,1,119.039995277344,2|0,0:0|0:0,0:0:0:0:
169,157,172738,1,0,3:0:0:0:
99,108,172849,2,0,P|53:107|24:111,1,59.519997638672,2|0,0:0|0:0,0:0:0:0:
183,76,173071,2,0,P|229:75|258:79,1,59.519997638672,0|0,3:0|0:0,0:0:0:0:
321,194,173293,6,0,L|153:153,1,157.440002402344,6|8,0:0|0:0,0:0:0:0:
373,72,173738,1,2,0:0:0:0:
400,156,173849,2,0,P|408:209|330:288,1,157.440002402344,8|8,0:0|0:0,0:0:0:0:
224,258,174182,1,2,0:0:0:0:
251,163,174293,6,0,L|274:346,1,157.440002402344,8|8,0:0|0:0,0:0:0:0:
143,289,174627,2,0,L|146:198,1,78.7200012011719,2|0,0:0|0:0,0:0:0:0:
325,131,174849,2,0,L|334:214,1,78.7200012011719,8|0,0:0|0:0,0:0:0:0:
103,139,175071,6,0,P|160:137|228:171,1,95.9999952316285,12|0,0:0|0:0,0:0:0:0:
322,216,175293,1,2,0:0:0:0:
430,84,175404,6,0,P|373:82|305:115,1,95.9999952316285,12|0,0:0|0:0,0:0:0:0:
211,161,175627,1,2,0:0:0:0:
101,30,175738,6,0,P|158:28|226:61,1,95.9999952316285,12|0,0:0|0:0,0:0:0:0:
320,107,175960,1,2,0:0:0:0:
322,192,176071,1,12,0:0:0:0:
279,266,176182,1,8,0:0:0:0:
204,308,176293,1,8,0:0:0:0:
223,183,176404,5,6,0:0:0:0:
321,159,176516,1,8,0:0:0:0:
411,207,176627,1,8,3:0:0:0:
432,307,176738,1,4,3:0:0:0:
314,262,176849,5,6,0:0:0:0:
199,67,191071,6,0,B|181:118|181:118|193:183|193:183|167:259,1,192,6|8,0:0|0:0,0:0:0:0:
263,123,191737,2,0,L|271:180,1,48
169,250,191959,2,0,P|230:251|248:244,1,48,2|0,3:2|0:0,0:0:0:0:
317,167,192182,2,0,P|293:166|269:170,1,48,2|0,3:0|0:0,0:0:0:0:
186,270,192404,2,0,P|246:255|261:244,1,48,8|0,0:0|0:0,0:0:0:0:
308,151,192626,1,2,3:0:0:0:
308,294,192737,6,0,P|315:235|304:134,1,144,2|0,3:0|0:0,0:0:0:0:
234,31,193293,2,0,B|209:89|209:89|214:137,1,96,8|0,0:0|0:0,0:0:0:0:
153,264,193737,2,0,L|143:205,1,48,2|0,0:0|0:0,0:0:0:0:
109,84,193959,2,0,L|100:131,1,48,0|0,3:0|0:0,0:0:0:0:
149,295,194182,2,0,L|124:240,1,48,8|0,0:0|0:0,0:0:0:0:
58,125,194404,2,0,L|62:172,1,48,0|0,3:0|0:0,0:0:0:0:
246,164,194626,6,0,B|146:131|146:231|35:157,1,192,2|8,0:0|0:0,0:0:0:0:
204,238,195293,2,0,P|260:250|269:250,1,48
292,152,195515,2,0,P|268:155|245:163,1,48,2|0,3:0|0:0,0:0:0:0:
276,266,195737,2,0,P|333:263|341:260,1,48,0|0,3:0|0:0,0:0:0:0:
342,164,195959,2,0,P|320:173|300:187,1,48,8|0,0:0|0:0,0:0:0:0:
347,288,196182,1,2,3:0:0:0:
439,176,196293,6,0,P|368:167|266:210,1,144,2|0,3:0|0:0,0:0:0:0:
418,95,196848,2,0,P|352:93|306:107,1,96,8|0,0:0|0:0,0:0:0:0:
204,181,197293,2,0,P|270:179|316:193,1,96,2|0,0:0|0:0,0:0:0:0:
243,258,197626,1,0,0:0:0:0:
243,258,197737,2,0,L|171:266,1,48,2|0,3:0|0:0,0:0:0:0:
156,175,197959,2,0,L|228:183,1,48,0|0,3:0|0:0,0:0:0:0:
110,252,198182,5,6,0:0:0:0:
149,127,198404,2,0,L|158:193,1,48,8|0,3:0|0:0,0:0:0:0:
188,310,198626,2,0,L|194:262,1,48,8|0,0:0|0:0,0:0:0:0:
241,187,198848,1,0,3:0:0:0:
241,187,198959,1,0,3:0:0:0:
241,187,199071,2,0,L|298:183,1,48,2|0,0:0|0:0,0:0:0:0:
373,259,199293,2,0,L|316:255,1,48,2|0,3:0|0:0,0:0:0:0:
361,129,199515,2,0,L|367:184,1,48,8|0,0:0|0:0,0:0:0:0:
446,90,199737,2,0,L|440:145,1,48,0|0,3:0|0:0,0:0:0:0:
354,47,199959,5,2,0:0:0:0:
193,48,200071,2,0,B|280:28|280:28|340:39,1,144,0|8,0:0|0:0,0:0:0:0:
277,123,200515,2,0,B|211:137|211:137|163:125,1,96
40,66,200848,2,0,L|96:56,1,48,2|0,0:0|0:0,0:0:0:0:
183,130,201071,2,0,L|127:120,1,48,0|0,3:0|0:0,0:0:0:0:
22,96,201293,2,0,L|78:86,1,48,8|0,0:0|0:0,0:0:0:0:
165,160,201516,2,0,L|109:150,1,48,0|0,3:0|0:0,0:0:0:0:
10,291,201737,6,0,B|63:279|63:279|99:296|99:296|151:274|219:291,1,192,2|8,0:0|0:0,0:0:0:0:
132,213,202404,2,0,P|182:210|199:212,1,48,2|0,3:0|0:0,0:0:0:0:
289,288,202626,2,0,P|215:291|177:278,1,96,2|0,0:0|0:0,0:0:0:0:
297,206,203071,2,0,P|342:232|350:238,1,48,8|0,0:0|0:0,0:0:0:0:
419,271,203293,2,0,P|374:297|366:303,1,48,0|0,3:0|0:0,0:0:0:0:
407,187,203515,5,2,0:0:0:0:
288,121,203626,2,0,P|234:138|202:156,1,78.7200012011719,12|0,0:0|0:0,0:0:0:0:
150,268,203848,5,2,0:0:0:0:
265,202,203959,2,0,P|319:219|351:237,1,78.7200012011719,12|0,0:0|0:0,0:0:0:0:
399,352,204181,5,2,0:0:0:0:
284,286,204292,2,0,P|230:303|198:321,1,78.7200012011719,12|0,0:0|0:0,0:0:0:0:
453,240,204515,5,2,0:0:0:0:
338,174,204626,2,0,P|284:191|252:209,1,78.7200012011719,12|0,0:0|0:0,0:0:0:0:
134,327,204848,6,0,B|181:324|181:324|235:303,1,78.7200012011719,2|0,0:0|0:0,0:0:0:0:
268,122,205070,2,0,L|262:234,1,78.7200012011719,2|0,0:0|0:0,0:0:0:0:
376,337,205292,5,2,0:0:0:0:
422,112,205404,2,0,P|431:158|437:228,1,88.3199970351563,12|0,0:0|0:0,0:0:0:0:
368,322,205626,5,2,0:0:0:0:
322,97,205737,2,0,P|313:143|312:192,1,88.3199970351563,12|0,0:0|0:0,0:0:0:0:
376,308,205959,5,2,0:0:0:0:
422,83,206070,2,0,P|431:129|432:178,1,88.3199970351563,12|0,0:0|0:0,0:0:0:0:
364,293,206292,5,2,0:0:0:0:
318,68,206404,2,0,P|309:114|314:181,1,88.3199970351563,12|0,0:0|0:0,0:0:0:0:
450,353,206626,6,0,L|458:235,1,88.3199970351563,2|0,0:0|0:0,0:0:0:0:
399,46,206848,2,0,L|404:134,1,88.3199970351563,2|0,0:0|0:0,0:0:0:0:
360,239,207071,6,0,P|271:264|250:258,1,95.9999952316285,2|0,0:0|0:0,0:0:0:0:
198,211,207292,1,8,3:2:0:0:
121,251,207403,1,0,3:2:0:0:
129,149,207515,2,0,P|174:123|290:182,1,191.999990463257,2|8,3:2|0:0,0:0:0:0:
271,264,207848,1,0,3:2:0:0:
299,345,207959,1,2,3:2:0:0:
385,355,208070,1,0,3:2:0:0:
435,287,208181,1,8,3:2:0:0:
403,193,208293,6,0,B|383:135|383:135|349:291,1,191.999990463257,0|0,3:2|0:0,0:0:0:0:
299,345,208626,1,8,3:2:0:0:
207,324,208737,2,0,B|118:288|118:369|15:335,1,191.999990463257,0|0,3:2|0:2,0:2:0:0:
61,262,209070,5,8,3:2:0:0:
45,177,209181,1,0,3:2:0:0:
67,98,209292,2,0,L|165:92,1,95.9999952316285,2|0,3:2|0:2,0:2:0:0:
221,152,209515,5,8,3:2:0:0:
304,162,209626,1,0,3:2:0:0:
374,114,209737,1,2,3:2:0:0:
456,136,209848,1,0,3:2:0:0:
486,218,209959,1,8,3:2:0:0:
444,300,210070,6,0,B|386:295|386:295|328:312|328:312|243:304,1,191.999990463257,0|0,3:2|0:2,0:2:0:0:
185,246,210403,1,8,3:2:0:0:
133,317,210515,2,0,B|99:280|99:280|86:204|132:129,1,191.999990463257,0|0,3:2|0:2,0:2:0:0:
186,69,210848,6,0,P|216:123|218:158,1,95.9999952316285,8|0,3:2|0:2,0:2:0:0:
287,26,211070,2,0,P|257:80|255:114,1,95.9999952316285,2|0,3:2|0:2,0:2:0:0:
359,187,211292,2,0,P|353:138|329:98,1,95.9999952316285,8|0,3:2|0:2,0:2:0:0:
396,230,211516,2,0,P|401:181|424:141,1,95.9999952316285,2|0,3:2|0:2,0:2:0:0:
475,294,211737,2,0,B|421:319|421:319|366:310,1,95.9999952316285,8|0,3:2|0:2,0:2:0:0:
304,254,211959,2,0,B|265:248|265:248|214:272,1,95.9999952316285,2|0,3:2|0:2,0:2:0:0:
139,334,212181,2,0,P|119:274|129:224,1,95.9999952316285,8|0,3:2|0:2,0:2:0:0:
182,177,212404,6,0,P|201:123|86:117,1,191.999990463257,2|8,3:2|0:2,0:2:0:0:
198,63,212737,1,0,0:2:0:0:
274,99,212848,1,2,3:2:0:0:
279,184,212959,1,0,3:2:0:0:
263,269,213070,1,8,3:2:0:0:
302,349,213181,1,0,3:2:0:0:
375,232,213293,6,0,B|274:193|276:277|148:231,1,191.999990463257,2|8,3:2|0:2,0:2:0:0:
137,167,213626,1,2,0:2:0:0:
231,162,213737,2,0,L|328:122,1,95.9999952316285,2|0,0:2|0:2,0:2:0:0:
374,50,213959,2,0,P|315:36|267:49,1,95.9999952316285,8|0,0:2|0:2,0:2:0:0:
199,83,214182,6,0,P|142:91|13:30,2,191.999990463257,4|8|2,0:2|3:2|0:2,0:2:0:0:
281,42,214737,1,2,0:2:0:0:
319,123,214848,2,0,P|327:181|325:232,1,95.9999952316285,8|0,3:2|0:2,0:2:0:0:
235,267,215070,6,0,P|235:218|241:172,1,95.9999952316285,2|0,3:2|0:2,0:2:0:0:
312,325,215292,2,0,B|256:349|256:349|199:343,1,95.9999952316285,8|0,3:2|0:2,0:2:0:0:
144,248,215515,2,0,B|180:243|180:243|236:267,1,95.9999952316285,2|0,3:2|0:2,0:2:0:0:
127,331,215737,2,0,P|77:311|54:261,1,95.9999952316285,8|0,3:2|0:2,0:2:0:0:
90,162,215959,6,0,B|110:113|110:113|145:254,1,191.999990463257,2|8,3:2|0:2,0:2:0:0:
208,180,216292,1,0,0:2:0:0:
234,266,216404,2,0,P|291:267|390:169,1,191.999990463257,2|8,3:2|0:2,0:2:0:0:
351,102,216737,1,0,0:2:0:0:
439,65,216848,6,0,L|235:45,1,191.999990463257,2|8,3:2|0:2,0:2:0:0:
167,100,217181,1,0,0:2:0:0:
238,153,217292,2,0,L|244:249,1,95.9999952316285,2|0,0:2|0:2,0:2:0:0:
162,210,217515,2,0,L|155:305,1,95.9999952316285,8|0,0:2|0:2,0:2:0:0:
243,342,217737,6,0,P|293:313|410:361,1,191.999990463257,6|8,3:2|0:2,0:2:0:0:
360,238,218070,2,0,B|347:188|347:188|382:35,1,191.999990463257,0|0,3:2|0:2,0:2:0:0:
439,182,218404,6,0,P|379:147|262:231,1,191.999990463257,8|2,3:2|0:2,0:2:0:0:
225,264,218737,1,2,0:2:0:0:
154,202,218848,2,0,L|138:303,1,95.9999952316285,8|0,0:2|0:2,0:2:0:0:
49,253,219070,2,0,L|66:358,1,95.9999952316285,2|0,0:2|0:2,0:2:0:0:
147,188,219292,2,0,L|132:292,1,95.9999952316285,8|0,0:2|0:2,0:2:0:0:
57,162,219515,6,0,B|103:114|103:114|160:93|253:132,1,191.999990463257,2|8,3:2|0:2,0:2:0:0:
329,247,219848,2,0,L|141:186,1,191.999990463257,0|0,3:2|0:2,0:2:0:0:
395,178,220181,6,0,B|451:165|451:165|307:142,1,191.999990463257,8|2,3:2|0:2,0:2:0:0:
225,121,220515,1,2,0:2:0:0:
295,55,220626,2,0,P|318:94|318:143,1,95.9999952316285,8|0,0:2|0:2,0:2:0:0:
256,208,220848,2,0,P|233:247|239:308,1,95.9999952316285,2|0,0:2|0:2,0:2:0:0:
302,353,221070,1,8,0:2:0:0:
320,269,221181,1,0,0:2:0:0:
166,364,221293,6,0,B|151:292|151:292|181:137,1,191.999990463257,6|0,3:2|0:2,0:2:0:0:
397,45,221626,2,0,P|426:128|421:244,1,191.999990463257,6|0,3:2|0:2,0:2:0:0:
115,107,221959,6,0,B|210:59|224:141|327:97,1,191.999990463257,6|0,3:2|0:2,0:2:0:0:
490,170,222293,2,0,P|419:156|337:269,1,191.999990463257,6|0,3:2|0:2,0:2:0:0:
305,318,222626,5,8,0:2:0:0:
220,345,222737,1,8,0:2:0:0:
140,314,222848,1,8,3:2:0:0:
97,240,222959,1,4,3:0:0:0:
118,150,223070,6,0,B|146:100|146:100|189:256,1,191.999990463257,6|0,0:0|0:0,0:0:0:0:
357,58,223404,2,0,P|286:61|254:180,1,191.999990463257,6|0,0:0|0:0,0:0:0:0:
421,294,223737,2,0,P|430:236|417:194,1,95.9999952316285,2|0,0:0|0:0,0:0:0:0:
338,154,223959,5,2,0:0:0:0:
348,243,224070,1,8,0:0:0:0:
315,322,224181,1,8,3:0:0:0:
235,351,224292,1,8,3:0:0:0:
127,332,224403,5,8,0:0:0:0:
216,272,224516,1,8,0:0:0:0:
241,171,224626,1,4,3:0:0:0:
207,72,224737,1,8,3:0:0:0:
128,200,224848,5,6,0:0:0:0:
419,78,226626,5,6,0:0:0:0:
232,323,227516,6,0,L|246:224,1,95.9999952316285,8|0,0:0|0:0,0:0:0:0:
224,142,227737,1,2,0:0:0:0:
149,313,227848,6,0,L|165:211,1,97.9200005976563,8|0,0:0|0:0,0:0:0:0:
132,135,228070,1,2,0:0:0:0:
74,204,228181,1,8,0:0:0:0:
164,216,228292,1,0,0:0:0:0:
247,226,228404,6,0,P|296:227|341:248,1,99.839999390625,6|0,0:0|0:0,0:0:0:0:
423,306,228738,1,2,0:0:0:0:
423,306,228849,2,0,P|425:286|427:248,1,49.9199996953125,8|0,0:0|0:0,0:0:0:0:
380,179,229071,2,0,P|376:157|372:130,1,49.9199996953125,2|0,0:0|0:0,0:0:0:0:
443,48,229293,6,0,L|344:29,1,99.839999390625,2|0,0:0|0:0,0:0:0:0:
279,95,229627,1,2,0:0:0:0:
221,23,229738,2,0,B|194:52|194:52|189:111,1,99.839999390625,8|2,0:0|0:0,0:0:0:0:
249,183,230071,1,0,0:0:0:0:
120,75,230181,6,0,L|113:132,1,49.9199996953125,6|0,0:0|0:0,0:0:0:0:
140,212,230404,2,0,L|149:269,1,49.9199996953125
231,223,230626,2,0,P|270:220|289:221,1,49.9199996953125,8|0,0:0|0:0,0:0:0:0:
346,296,230850,2,0,P|307:293|288:294,1,49.9199996953125
221,331,231072,5,2,0:0:0:0:
230,222,231181,2,0,P|229:173|214:111,1,99.839999390625,8|0,0:0|0:0,0:0:0:0:
139,98,231516,1,8,0:0:0:0:
150,184,231626,1,8,0:0:0:0:
230,222,231737,1,4,3:0:0:0:
317,191,231848,1,8,3:0:0:0:
400,265,231960,6,0,B|363:264|363:264|335:270|335:270|290:268,1,99.839999390625,6|0,0:0|0:0,0:0:0:0:
230,222,232294,1,2,0:0:0:0:
230,222,232405,2,0,P|224:259|224:277,1,49.9199996953125,8|0,0:0|0:0,0:0:0:0:
147,309,232627,2,0,P|146:285|141:260,1,49.9199996953125,2|0,0:0|0:0,0:0:0:0:
157,166,232849,6,0,P|187:150|263:141,1,99.839999390625,2|0,0:0|0:0,0:0:0:0:
331,170,233183,1,2,0:0:0:0:
331,170,233294,2,0,L|403:175,1,49.9199996953125,8|0,0:0|0:0,0:0:0:0:
461,132,233516,2,0,L|467:188,1,49.9199996953125,2|0,0:0|0:0,0:0:0:0:
380,173,233738,6,0,B|374:213|389:245|389:245|406:285|382:339,2,149.759999085937,2|0|0,0:0|0:0|0:0,0:0:0:0:
460,215,234516,1,0,0:0:0:0:
460,215,234627,6,0,P|469:255|470:282,1,49.9199996953125,2|0,0:0|0:0,0:0:0:0:
413,135,234849,2,0,P|395:152|380:172,1,49.9199996953125
459,62,235071,2,0,P|476:79|491:99,1,49.9199996953125,8|0,0:0|0:0,0:0:0:0:
378,9,235294,2,0,P|371:33|367:57,1,49.9199996953125,2|0,0:0|0:0,0:0:0:0:
413,135,235516,6,0,P|349:138|303:126,1,99.839999390625,2|0,0:0|0:0,0:0:0:0:
245,83,235849,1,2,0:0:0:0:
245,83,235960,2,0,P|207:83|187:86,1,49.9199996953125,8|0,0:0|0:0,0:0:0:0:
175,165,236183,2,0,P|213:165|233:162,1,49.9199996953125,2|0,0:0|0:0,0:0:0:0:
130,117,236404,5,2,0:0:0:0:
88,153,236515,1,0,3:0:0:0:
127,201,236626,1,0,3:0:0:0:
175,165,236738,1,0,3:0:0:0:
136,86,236849,5,8,0:0:0:0:
51,155,236961,1,4,3:0:0:0:
121,237,237072,1,4,3:0:0:0:
209,173,237183,1,4,3:0:0:0:
323,279,237294,6,0,P|332:235|334:183,1,88.3199970351563,8|0,0:0|0:0,0:0:0:0:
309,110,237516,1,2,0:0:0:0:
417,224,237628,6,0,P|413:182|388:140,1,69.1200016875,8|0,0:0|0:0,0:0:0:0:
314,102,237850,1,2,0:0:0:0:
455,100,237961,6,0,P|417:82|387:83,1,49.9199996953125,8|0,0:0|0:0,0:0:0:0:
320,96,238183,1,2,0:0:0:0:
258,161,238294,1,8,0:0:0:0:
174,167,238405,1,4,3:0:0:0:
107,117,238516,1,8,3:0:0:0:
212,74,238628,5,8,0:0:0:0:
263,175,238739,1,8,0:0:0:0:
254,290,238850,1,4,3:0:0:0:
168,365,238961,1,4,3:0:0:0:
90,276,239072,6,0,P|145:247|200:253,1,99.839999390625,6|0,0:0|0:0,0:0:0:0:
265,294,239404,1,2,0:0:0:0:
265,294,239517,2,0,L|261:355,1,49.9199996953125,8|0,0:0|0:0,0:0:0:0:
348,247,239739,2,0,L|352:308,1,49.9199996953125,2|0,0:0|0:0,0:0:0:0:
260,205,239961,6,0,P|198:201|150:173,1,99.839999390625,2|0,0:0|0:0,0:0:0:0:
32,159,240293,1,2,0:0:0:0:
32,159,240404,2,0,P|80:150|104:149,1,49.9199996953125,8|0,0:0|0:0,0:0:0:0:
165,185,240627,2,0,P|190:181|215:175,1,49.9199996953125,2|0,0:0|0:0,0:0:0:0:
279,107,240850,6,0,B|340:60|357:115|430:56,2,149.759999085937,2|2|0,0:0|0:0|0:0,0:0:0:0:
342,168,241628,1,0,0:0:0:0:
342,168,241739,2,0,L|360:239,1,49.9199996953125,2|0,0:0|0:0,0:0:0:0:
270,228,241961,2,0,L|264:290,1,49.9199996953125,0|2,0:0|0:0,0:0:0:0:
269,365,242183,5,8,0:0:0:0:
231,359,242294,1,0,0:0:0:0:
198,339,242405,1,2,0:0:0:0:
184,306,242516,1,0,0:0:0:0:
183,222,242627,6,0,P|197:174|193:108,1,99.839999390625,2|0,0:0|0:0,0:0:0:0:
276,82,242960,1,2,0:0:0:0:
276,82,243071,2,0,L|281:143,1,49.9199996953125,8|0,0:0|0:0,0:0:0:0:
344,189,243293,2,0,L|325:247,1,49.9199996953125,2|0,0:0|0:0,0:0:0:0:
356,318,243516,6,0,P|300:329|248:323,1,99.839999390625,2|0,0:0|0:0,0:0:0:0:
190,265,243849,1,2,0:0:0:0:
128,327,243960,2,0,B|86:290|107:219,1,99.839999390625,8|2,0:0|0:0,0:0:0:0:
162,168,244293,1,0,0:0:0:0:
85,108,244405,6,0,L|144:84,1,49.9199996953125,2|0,0:0|0:0,0:0:0:0:
207,188,244627,2,0,L|159:166,1,49.9199996953125
212,87,244849,2,0,L|271:63,1,49.9199996953125,8|0,0:0|0:0,0:0:0:0:
334,167,245071,2,0,L|286:145,1,49.9199996953125,2|0,0:0|0:0,0:0:0:0:
346,73,245293,5,2,0:0:0:0:
420,198,245405,2,0,B|399:253|340:256,1,99.839999390625,8|0,0:0|0:0,0:0:0:0:
334,167,245738,1,8,0:0:0:0:
245,154,245849,1,8,0:0:0:0:
177,207,245960,1,4,3:0:0:0:
91,205,246071,1,8,3:0:0:0:
166,287,246183,6,0,B|216:299|276:284,1,99.839999390625,2|0,0:0|0:0,0:0:0:0:
347,314,246515,1,2,0:0:0:0:
347,314,246628,2,0,P|353:277|353:259,1,49.9199996953125,8|0,0:0|0:0,0:0:0:0:
426,216,246850,2,0,P|430:241|435:266,1,49.9199996953125,2|0,0:0|0:0,0:0:0:0:
338,186,247071,6,0,P|285:170|233:167,1,99.839999390625,6|0,0:0|0:0,0:0:0:0:
160,206,247405,1,2,0:0:0:0:
264,241,247516,2,0,P|272:275|274:298,1,49.9199996953125,8|0,0:0|0:0,0:0:0:0:
138,251,247738,2,0,P|147:227|159:206,1,49.9199996953125,2|0,0:0|0:0,0:0:0:0:
327,186,247960,6,0,P|344:218|352:242,1,49.9199996953125,6|0,0:0|0:0,0:0:0:0:
264,241,248183,1,0,0:0:0:0:
251,156,248294,1,2,0:0:0:0:
320,104,248405,2,0,L|378:108,1,49.9199996953125,8|0,0:0|0:0,0:0:0:0:
453,176,248627,2,0,L|395:180,1,49.9199996953125,2|0,0:0|0:0,0:0:0:0:
198,82,248849,6,0,P|168:123|162:186,1,99.839999390625,2|0,0:0|0:0,0:0:0:0:
190,256,249183,1,2,0:0:0:0:
248,184,249294,1,2,0:0:0:0:
290,266,249405,1,8,0:0:0:0:
346,194,249516,1,8,0:0:0:0:
389,275,249627,1,8,0:0:0:0:
307,116,249739,6,0,P|231:100|180:78,1,132.479995552735,6|0,0:0|0:0,0:0:0:0:
164,105,249961,2,0,L|62:110,1,88.3199970351563,8|0,0:0|0:0,0:0:0:0:
33,189,250182,1,4,3:0:0:0:
107,232,250293,1,4,3:0:0:0:
181,182,250404,1,4,3:0:0:0:
266,231,250516,6,0,B|321:229|321:229|417:140,1,176.639994070313,12|2,0:0|0:0,0:0:0:0:
281,67,250849,2,0,P|280:111|286:154,1,88.3199970351563,8|0,0:0|0:0,0:0:0:0:
446,229,251071,2,0,P|452:272|451:316,1,88.3199970351563,8|0,0:0|0:0,0:0:0:0:
371,350,251293,1,8,0:0:0:0:
290,384,251404,1,8,0:0:0:0:
201,349,251516,6,0,B|147:344|147:344|119:360|119:360|43:356,1,132.479995552735,6|0,0:0|0:0,0:0:0:0:
39,348,251738,2,0,L|32:254,1,88.3199970351563,8|0,0:0|0:0,0:0:0:0:
100,204,251960,1,4,3:0:0:0:
170,252,252071,1,4,3:0:0:0:
241,201,252183,1,4,3:0:0:0:
121,124,252294,6,0,B|180:132|180:132|235:111|235:111|303:120,1,176.639994070313,12|2,0:0|0:0,0:0:0:0:
375,265,252627,2,0,L|369:176,1,88.3199970351563,8|0,0:0|0:0,0:0:0:0:
473,67,252849,2,0,L|467:155,1,88.3199970351563,8|0,0:0|0:0,0:0:0:0:
388,96,253071,1,8,0:0:0:0:
292,118,253182,1,8,0:0:0:0:
212,79,253293,6,0,P|163:62|68:91,1,132.479995552735,2|0,0:0|0:0,0:0:0:0:
149,143,253516,2,0,P|167:190|122:285,1,132.479995552735,8|0,0:0|0:0,0:0:0:0:
60,314,253738,2,0,L|242:296,1,176.639994070313,8|4,0:0|3:0,0:0:0:0:
389,346,254071,6,0,P|339:299|377:189,1,176.639994070313,8|2,0:0|0:0,0:0:0:0:
482,92,254404,2,0,P|431:71|388:64,1,88.3199970351563,8|0,0:0|0:0,0:0:0:0:
210,168,254627,2,0,P|261:147|304:140,1,88.3199970351563,8|0,0:0|0:0,0:0:0:0:
500,293,254849,2,0,P|449:272|406:265,1,88.3199970351563,4|4,3:0|3:0,3:0:0:0:
235,296,255071,5,0,0:0:0:0:
114,101,258181,5,8,0:0:0:0:
80,180,258292,1,8,0:0:0:0:
168,169,258403,1,8,0:0:0:0:
114,101,258516,1,8,0:0:0:0:
136,250,258628,6,0,P|187:258|249:151,2,176.639994070313,6|8|2,0:0|0:0|0:0,0:0:0:0:
338,53,259293,2,0,L|356:153,1,88.3199970351563,8|2,0:0|0:0,0:0:0:0:
421,236,259515,6,0,L|405:322,1,88.3199970351563,2|0,0:0|0:0,0:0:0:0:
364,77,259738,2,0,L|382:177,1,88.3199970351563,8|0,2:0|0:0,0:0:0:0:
447,260,259960,2,0,L|431:346,1,88.3199970351563,2|0,0:0|0:0,0:0:0:0:
362,283,260182,1,8,0:0:0:0:
298,350,260293,1,0,0:0:0:0:
182,265,260404,6,0,B|266:235|277:311|369:251,2,176.639994070313,2|8|2,0:0|0:0|0:0,0:0:0:0:
4,105,261071,2,0,P|59:77|96:71,1,88.3199970351563,8|2,0:0|0:0,0:0:0:0:
180,134,261293,6,0,P|235:162|272:168,1,88.3199970351563,2|0,0:0|0:0,0:0:0:0:
319,96,261515,2,0,P|350:146|352:192,1,88.3199970351563,8|0,0:0|0:0,0:0:0:0:
460,174,261738,2,0,P|429:224|427:270,1,88.3199970351563,2|0,0:0|0:0,0:0:0:0:
465,334,261960,2,0,P|414:343|374:325,1,88.3199970351563,8|0,0:0|0:0,0:0:0:0:
316,267,262182,6,0,P|238:247|149:300,1,176.639994070313,6|8,0:0|0:0,0:0:0:0:
102,358,262515,1,0,0:0:0:0:
76,270,262627,2,0,L|64:167,1,88.3199970351563,2|0,0:0|0:0,0:0:0:0:
124,110,262849,2,0,L|134:22,1,88.3199970351563,8|2,0:0|0:0,0:0:0:0:
214,74,263071,6,0,P|264:86|308:88,1,88.3199970351563,2|0,0:0|0:0,0:0:0:0:
433,144,263293,2,0,P|383:156|339:158,1,88.3199970351563,8|0,0:0|0:0,0:0:0:0:
206,99,263515,2,0,P|256:111|300:113,1,88.3199970351563,2|0,0:0|0:0,0:0:0:0:
380,75,263738,1,8,0:0:0:0:
433,144,263849,1,0,0:0:0:0:
399,231,263960,6,0,L|388:328,1,88.3199970351563,2|0,0:0|0:0,0:0:0:0:
306,357,264182,2,0,L|296:269,1,88.3199970351563,8|0,0:0|0:0,0:0:0:0:
211,224,264404,2,0,L|201:311,1,88.3199970351563,2|0,0:0|0:0,0:0:0:0:
122,363,264627,1,8,0:0:0:0:
119,277,264738,6,0,P|115:231|11:161,1,176.639994070313,2|2,0:0|0:0,0:0:0:0:
109,111,265071,2,0,L|202:100,1,88.3199970351563,8|0,0:0|0:0,0:0:0:0:
281,146,265293,2,0,L|368:156,1,88.3199970351563,2|0,0:0|0:0,0:0:0:0:
428,88,265515,1,8,0:0:0:0:
466,165,265627,1,8,0:0:0:0:
406,264,265738,6,0,B|353:262|353:262|303:281|303:281|212:274,1,176.639994070313,6|8,0:0|0:0,0:0:0:0:
159,337,266071,1,0,0:0:0:0:
157,246,266182,2,0,P|144:197|114:165,1,88.3199970351563,2|0,0:0|0:0,0:0:0:0:
46,117,266404,1,8,0:0:0:0:
74,36,266515,1,2,0:0:0:0:
149,88,266627,6,0,P|195:95|243:80,1,88.3199970351563,2|0,0:0|0:0,0:0:0:0:
342,16,266849,2,0,L|359:113,1,88.3199970351563,8|0,0:0|0:0,0:0:0:0:
165,107,267071,2,0,P|211:114|259:99,1,88.3199970351563,2|0,0:0|0:0,0:0:0:0:
378,59,267293,1,8,0:0:0:0:
391,148,267404,1,0,0:0:0:0:
309,206,267515,6,0,P|388:182|451:277,1,176.639994070313,2|8,0:0|0:0,0:0:0:0:
367,264,267849,1,0,0:0:0:0:
285,296,267960,2,0,L|179:273,1,88.3199970351563,2|0,0:0|0:0,0:0:0:0:
118,247,268182,1,8,0:0:0:0:
82,165,268293,1,2,0:0:0:0:
136,57,268404,5,8,0:0:0:0:
162,160,268515,1,8,0:0:0:0:
255,217,268627,1,8,0:0:0:0:
360,193,268738,1,8,0:0:0:0:
269,105,268849,5,8,0:0:0:0:
210,182,268960,1,8,0:0:0:0:
208,288,269071,1,8,0:0:0:0:
290,374,269182,1,8,0:0:0:0:
290,374,269738,6,0,B|336:349|394:285|417:169|387:65|387:65|300:136|297:268|297:268|267:197|150:153|170:267|75:196|75:196|138:191|188:144|228:62|173:14|123:17|75:35|92:94,1,1151.99990762329,4|0,0:0|0:0,0:0:0:0:
