osu file format v14

[General]
AudioFilename: audio.mp3
AudioLeadIn: 0
PreviewTime: 224793
Countdown: 0
SampleSet: Soft
StackLeniency: 0.4
Mode: 0
LetterboxInBreaks: 0
WidescreenStoryboard: 1

[Editor]
Bookmarks: 4395,20395,36394,50617,68394,87950,107506,125283,143061,162617,176849,191071,207070,220394,239061,255061,269728
DistanceSpacing: 1.2
BeatDivisor: 8
GridSize: 8
TimelineZoom: 3.599998

[Metadata]
Title:RHAPSODY OF BLUE SKY
TitleUnicode:青空のラプソディ
Artist:fhana
ArtistUnicode:fhána
Creator:Sotarks
Version:Kalirutarks' Insane
Source:小林さんちのメイドラゴン
Tags:Kobayashi-san Chi no Maid Dragon Op Opening full ver version lantis anime aozora no junichi sato yuxuki waga kevin mitsunaga towana nozhomi xinely kalibe haruto haruto_aizawa pkk akitoshi corinn pentori
BeatmapID:1244429
BeatmapSetID:556757

[Difficulty]
HPDrainRate:6
CircleSize:3.7
OverallDifficulty:8
ApproachRate:9
SliderMultiplier:1.75
SliderTickRate:1

[Events]
//Background and Video events
0,0,"BG.jpg",0,0
//Break Periods
2,177049,190471
//Storyboard Layer 0 (Background)
//Storyboard Layer 1 (Fail)
//Storyboard Layer 2 (Pass)
//Storyboard Layer 3 (Foreground)
//Storyboard Sound Samples

[TimingPoints]
4405,444.444444444444,4,2,2,52,1,0
4405,-100,4,2,2,52,0,0
4516,-100,4,2,2,42,0,0
5182,-100,4,2,2,22,0,0
5293,-100,4,2,2,42,0,0
7849,-100,4,2,2,22,0,0
7960,-100,4,2,2,52,0,0
8071,-100,4,2,2,42,0,0
8738,-100,4,2,2,22,0,0
8849,-100,4,2,2,42,0,0
11071,-100,4,2,2,52,0,0
11516,-100,4,2,2,62,0,0
11627,-100,4,2,2,42,0,0
12293,-100,4,2,2,22,0,0
12404,-100,4,2,2,42,0,0
12516,-100,4,2,2,22,0,0
12627,-100,4,2,2,42,0,0
12738,-100,4,2,2,22,0,0
12849,-100,4,2,2,42,0,0
12960,-100,4,2,2,22,0,0
13071,-100,4,2,2,42,0,0
13182,-100,4,2,2,52,0,0
13516,-100,4,2,2,42,0,0
13849,-100,4,2,2,22,0,0
13960,-100,4,2,2,42,0,0
14627,-100,4,2,2,52,0,0
15071,-100,4,2,2,62,0,0
15182,-100,4,2,2,42,0,0
15627,-100,4,2,2,22,0,0
15738,-100,4,2,2,42,0,0
15849,-100,4,2,2,22,0,0
15960,-100,4,2,2,42,0,0
16849,-100,4,2,3,52,0,0
18627,-100,4,2,3,62,0,0
20404,-54.3478260869565,4,2,3,52,0,0
36404,-69.4444444444444,4,2,3,42,0,0
47071,-60.9756097560976,4,2,3,52,0,0
48849,-60.9756097560976,4,2,3,52,0,1
50182,-60.9756097560976,4,2,3,52,0,0
50627,-54.3478260869565,4,2,3,62,0,1
51960,-54.3478260869565,4,2,3,62,0,0
52404,-54.3478260869565,4,2,3,62,0,1
54182,-96.1538461538461,4,2,2,52,0,0
65738,-96.1538461538461,4,2,2,62,0,0
66182,-96.1538461538461,4,2,2,72,0,0
66627,-54.3478260869565,4,2,3,62,0,1
66960,-54.3478260869565,4,2,3,52,0,1
67293,-54.3478260869565,4,2,3,52,0,1
67960,-96.1538461538461,4,2,3,72,0,1
68404,-96.1538461538461,4,2,2,52,0,0
79071,-54.3478260869565,4,2,3,62,0,1
84404,-50,4,2,3,62,0,0
91516,-60.9756097560976,4,2,3,62,0,0
93293,-54.3478260869565,4,2,3,72,0,0
94627,-50,4,2,3,82,0,0
94793,-50,4,2,3,5,0,0
94849,-50,4,2,3,82,0,0
95016,-50,4,2,3,5,0,0
95071,-54.3478260869565,4,2,3,52,0,0
111071,-69.4444444444444,4,2,3,42,0,0
121738,-60.9756097560976,4,2,3,52,0,0
123516,-60.9756097560976,4,2,3,52,0,1
124849,-60.9756097560976,4,2,3,52,0,0
125293,-54.9450549450549,4,2,3,62,0,1
126627,-54.9450549450549,4,2,3,62,0,0
127071,-54.3478260869565,4,2,3,62,0,1
128849,-96.1538461538461,4,2,2,52,0,0
140405,-96.1538461538461,4,2,2,62,0,0
140849,-96.1538461538461,4,2,2,72,0,0
141293,-54.3478260869565,4,2,3,62,0,1
141627,-54.3478260869565,4,2,3,52,0,1
141960,-54.3478260869565,4,2,3,52,0,1
142627,-54.3478260869565,4,2,3,72,0,1
143071,-96.1538461538461,4,2,2,52,0,0
153738,-54.3478260869565,4,2,2,62,0,1
159071,-60.9756097560976,4,2,2,72,0,0
159738,-96.1538461538461,4,2,2,72,0,0
160182,-60.9756097560976,4,2,2,72,0,0
161516,-96.1538461538461,4,2,2,72,0,0
161960,-60.9756097560976,4,2,2,72,0,0
162627,-54.3478260869565,4,2,2,72,0,0
163293,-96.1538461538461,4,2,2,72,0,0
163738,-69.4444444444444,4,2,2,72,0,0
164404,-54.3478260869565,4,2,2,72,0,0
165071,-96.1538461538461,4,2,2,72,0,0
165516,-69.4444444444444,4,2,2,72,0,0
165738,-60.9756097560976,4,2,2,72,0,0
166182,-54.3478260869565,4,2,2,72,0,0
166849,-80.6451612903226,4,2,2,72,0,0
167293,-69.4444444444444,4,2,2,72,0,0
167960,-60.9756097560976,4,2,2,72,0,0
168627,-96.1538461538461,4,2,2,72,0,0
169293,-60.9756097560976,4,2,2,72,0,0
169738,-96.1538461538461,4,2,2,72,0,0
171516,-80.6451612903226,4,2,2,72,0,0
173293,-60.9756097560976,4,2,2,72,0,0
175071,-50,4,2,2,82,0,1
176849,-50,4,2,2,72,0,0
191071,-100,4,2,2,42,0,0
203516,-60.9756097560976,4,2,2,52,0,1
205293,-54.3478260869565,4,2,2,62,0,1
207071,-50,4,2,2,62,0,0
207181,-50,4,2,2,52,0,0
207515,-50,4,2,2,62,0,0
207570,-50,4,2,2,52,0,0
207848,-50,4,2,2,42,0,0
207959,-50,4,2,2,52,0,0
208070,-50,4,2,2,62,0,0
208181,-50,4,2,2,72,0,0
208292,-50,4,2,2,82,0,0
208348,-50,4,2,2,52,0,0
208737,-50,4,2,2,62,0,0
209515,-50,4,2,2,42,0,0
209737,-50,4,2,2,52,0,0
209959,-50,4,2,2,62,0,0
210070,-50,4,2,2,72,0,0
210126,-50,4,2,2,52,0,0
210515,-50,4,2,2,62,0,0
210848,-50,4,2,2,42,0,0
211070,-50,4,2,2,52,0,0
211515,-50,4,2,2,62,0,0
212403,-50,4,2,2,72,0,0
212737,-50,4,2,2,52,0,0
212848,-50,4,2,2,62,0,0
212959,-50,4,2,2,72,0,0
213070,-50,4,2,2,82,0,0
213348,-50,4,2,2,52,0,0
213626,-50,4,2,2,62,0,0
219514,-50,4,2,2,72,0,0
220181,-50,4,2,2,82,0,0
221293,-50,4,2,2,92,0,1
222627,-50,4,2,2,82,0,0
222737,-50,4,2,2,72,0,0
222848,-50,4,2,2,62,0,0
222959,-50,4,2,2,52,0,0
223071,-50,4,2,2,72,0,1
223959,-50,4,2,2,62,0,1
224404,-50,4,2,2,72,0,1
224849,-96.1538461538461,4,2,2,72,0,0
226627,-80.6451612903226,4,2,2,72,0,0
227516,-50,4,2,2,62,0,0
228403,-96.1538461538461,4,2,2,52,0,0
236404,-96.1538461538461,4,2,2,62,0,0
236849,-96.1538461538461,4,2,2,72,0,0
237293,-54.3478260869565,4,2,3,62,0,1
237627,-69.4444444444444,4,2,3,52,0,1
237960,-96.1538461538461,4,2,3,52,0,1
238627,-96.1538461538461,4,2,3,72,0,1
239071,-96.1538461538461,4,2,2,52,0,0
249738,-54.3478260869565,4,2,2,62,0,1
255071,-54.3478260869565,4,2,2,62,0,0
269738,-166.666666666667,4,2,2,62,0,0
274182,-166.666666666667,4,2,2,12,0,0

[Colours]
Combo1 : 172,210,205
Combo2 : 255,62,226
Combo3 : 242,255,85
Combo4 : 20,0,204
SliderTrackOverride : 0,0,10
SliderBorder : 255,255,250

[HitObjects]
244,129,4404,5,6,0:0:0:0:
329,150,4627,1,0,0:0:0:0:
423,80,4849,2,0,P|368:48|308:68,1,131.25,8|0,0:0|0:0,0:0:0:0:
244,129,5293,2,0,P|199:136|148:145,1,87.5,2|2,3:2|0:3,0:0:0:0:
3,58,5738,2,0,P|46:66|89:73,1,87.5,10|0,0:0|0:0,0:0:0:0:
162,24,6071,6,0,P|182:99|157:143,1,131.25,0|0,0:0|0:0,0:0:0:0:
5,230,6627,2,0,P|80:210|124:235,1,131.25,8|0,0:0|0:0,0:0:0:0:
98,318,7071,2,0,P|160:308|208:305,1,87.5,2|0,3:2|3:2,0:0:0:0:
353,355,7516,6,0,L|300:343,1,43.75,10|0,0:0|0:0,0:0:0:0:
184,305,7738,2,0,L|240:280,1,43.75,0|0,0:0|0:0,0:0:0:0:
335,235,7960,6,0,P|366:305|349:360,1,131.25,2|0,0:0|0:0,0:0:0:0:
223,287,8404,2,0,B|247:151,1,131.25,8|0,0:0|0:0,0:0:0:0:
239,69,8849,2,0,P|293:87|325:83,1,87.5,2|2,3:2|0:3,0:0:0:0:
483,151,9293,1,10,0:0:0:0:
483,151,9516,2,0,L|419:137,1,43.75,0|0,3:0|0:0,0:0:0:0:
358,171,9738,6,0,P|339:209|348:251,1,87.5,2|0,0:0|0:0,0:0:0:0:
496,156,10182,2,0,P|505:197|486:236,1,87.5,8|0,0:0|0:0,0:0:0:0:
345,340,10627,6,0,L|285:327,1,43.75,2|0,3:2|0:0,0:0:0:0:
233,276,10849,2,0,L|179:281,1,43.75,0|0,0:0|0:0,0:0:0:0:
96,324,11071,1,10,0:0:0:0:
96,324,11293,1,0,3:0:0:0:
80,158,11516,6,0,P|85:181|93:217,1,43.75,2|0,0:0|0:0,0:0:0:0:
189,280,11738,2,0,P|200:232|212:187,1,87.5,0|8,0:0|0:0,0:0:0:0:
85,56,12182,5,0,0:0:0:0:
239,128,12404,2,0,L|291:119,1,43.75,2|0,3:2|0:0,0:0:0:0:
288,32,12627,2,0,L|229:20,1,43.75,2|0,0:3|0:0,0:0:0:0:
172,71,12849,2,0,P|124:63|80:55,1,87.5,10|2,0:0|0:3,0:0:0:0:
42,132,13182,1,2,0:3:0:0:
42,132,13293,6,0,P|52:174|62:217,1,87.5,0|0,0:0|0:0,0:0:0:0:
156,332,13738,2,0,P|166:289|177:247,1,87.5,8|0,0:0|0:0,0:0:0:0:
256,113,14182,1,2,3:2:0:0:
296,283,14404,1,0,0:0:0:0:
442,186,14627,6,0,P|407:174|384:171,1,43.75,8|0,0:0|0:0,0:0:0:0:
317,199,14849,2,0,P|305:234|302:257,1,43.75,0|0,3:0|0:0,0:0:0:0:
375,349,15071,6,0,P|387:304|402:252,1,87.5,2|0,0:0|0:0,0:0:0:0:
449,96,15516,1,8,0:0:0:0:
278,134,15738,5,0,0:0:0:0:
278,134,15849,1,0,0:0:0:0:
278,134,15960,2,0,P|242:132|214:123,1,43.75,2|0,0:0|0:0,0:0:0:0:
166,75,16182,2,0,P|135:66|123:65,1,43.75,0|0,0:0|0:0,0:0:0:0:
8,120,16404,2,0,P|29:118|57:111,2,43.75,8|0|0,0:0|0:0|0:0,0:0:0:0:
171,254,16849,5,2,0:0:0:0:
82,324,16960,2,0,P|26:322|-3:303,1,87.5,8|2,0:0|0:0,0:0:0:0:
89,236,17293,2,0,P|145:238|175:258,1,87.5,8|2,0:0|0:0,0:0:0:0:
251,321,17627,2,0,P|307:319|339:300,1,87.5,8|2,0:0|0:0,0:0:0:0:
410,220,17960,1,8,0:0:0:0:
410,220,18182,2,0,L|503:242,1,87.5,2|2,0:0|0:0,0:0:0:0:
464,112,18627,5,2,0:0:0:0:
464,112,18738,2,0,P|417:103|369:92,1,87.5,8|2,0:0|0:0,0:0:0:0:
277,42,19071,5,8,0:0:0:0:
226,55,19182,1,0,0:0:0:0:
175,69,19293,1,2,0:0:0:0:
125,87,19404,2,0,P|110:148|123:178,1,87.5,8|2,0:0|0:0,0:0:0:0:
197,223,19738,5,8,0:0:0:0:
197,223,19849,1,0,0:0:0:0:
197,223,19960,2,0,L|244:212,1,43.75,2|0,0:0|0:0,0:0:0:0:
204,354,20182,2,0,L|149:340,1,43.75,2|0,0:0|0:0,0:0:0:0:
0,307,20405,6,0,B|60:300|114:293|114:293|171:307,2,160.999994595337,6|8|2,0:0|0:0|0:0,0:0:0:0:
17,210,20960,2,0,P|76:204|126:196,1,80.4999972976685,0|8,0:0|0:0,0:0:0:0:
163,131,21182,6,0,B|249:114|230:175|328:156,1,160.999994595337,2|2,0:0|0:0,0:0:0:0:
413,141,21516,2,0,P|371:76|294:63,1,160.999994595337,8|2,0:0|0:0,0:0:0:0:
243,232,21849,1,0,0:0:0:0:
243,232,21960,2,0,P|253:305|262:350,1,80.4999972976685,8|0,0:0|0:0,0:0:0:0:
328,237,22182,6,0,P|318:164|309:119,1,80.4999972976685,2|0,0:0|0:0,0:0:0:0:
413,242,22404,2,0,P|423:315|432:360,1,80.4999972976685,8|0,0:0|0:0,0:0:0:0:
328,237,22627,1,2,0:0:0:0:
254,311,22738,2,0,P|230:266|229:226,1,80.4999972976685,2|8,0:0|0:0,0:0:0:0:
202,67,22960,6,0,B|140:59|140:59|98:73|98:73|31:66,1,160.999994595337,2|2,0:0|0:0,0:0:0:0:
21,161,23293,2,0,P|25:226|44:257,1,80.4999972976685,0|0,0:0|0:0,0:0:0:0:
125,262,23516,2,0,P|121:197|102:166,1,80.4999972976685,2|2,0:0|0:0,0:0:0:0:
30,372,23738,2,0,P|91:363|145:355,1,80.4999972976685,8|8,0:0|0:0,0:0:0:0:
278,315,23960,6,0,B|370:332|336:271|442:292,2,160.999994595337,6|8|2,0:0|0:0|0:0,0:0:0:0:
218,237,24516,2,0,P|222:172|241:141,1,80.4999972976685,0|8,0:0|0:0,0:0:0:0:
366,42,24738,6,0,B|309:47|309:47|258:29|258:29|194:33,1,160.999994595337,2|2,0:0|0:0,0:0:0:0:
1,115,25071,2,0,P|58:114|119:212,1,160.999994595337,8|2,0:0|0:0,0:0:0:0:
36,282,25404,1,0,0:0:0:0:
36,282,25516,2,0,P|28:217|19:170,1,80.4999972976685,8|8,0:0|0:0,0:0:0:0:
178,261,25738,6,0,B|272:243|236:304|347:287,1,160.999994595337,6|8,0:0|0:0,0:0:0:0:
389,210,26071,1,2,0:0:0:0:
389,210,26182,2,0,P|353:195|313:193,2,80.4999972976685,0|4|8,0:0|3:0|0:0,0:0:0:0:
396,367,26516,6,0,P|344:331|244:362,1,160.999994595337,6|2,0:0|0:0,0:0:0:0:
157,354,26849,2,0,B|104:321|104:321|71:265|102:210,1,160.999994595337,8|8,0:0|0:0,0:0:0:0:
188,181,27182,1,8,0:0:0:0:
188,181,27293,2,0,P|178:256|173:292,1,80.4999972976685,8|8,3:0|3:0,0:0:0:0:
96,120,27516,6,0,P|191:72|256:91,2,160.999994595337,6|8|2,0:0|0:0|0:0,0:0:0:0:
188,181,28071,2,0,P|182:220|177:260,1,80.4999972976685,2|8,0:0|0:0,0:0:0:0:
292,184,28293,6,0,B|384:164|352:224|464:204,1,160.999994595337,2|2,0:0|0:0,0:0:0:0:
420,112,28627,1,8,0:0:0:0:
420,112,28738,1,0,0:0:0:0:
420,112,28849,2,0,P|368:92|324:88,1,80.4999972976685,2|0,0:0|0:0,0:0:0:0:
292,184,29071,2,0,P|297:223|302:263,1,80.4999972976685,8|0,0:0|0:0,0:0:0:0:
126,239,29293,6,0,P|182:237|213:250,1,80.4999972976685,2|0,0:0|0:0,0:0:0:0:
196,344,29516,2,0,P|139:346|108:332,1,80.4999972976685,8|0,0:0|0:0,0:0:0:0:
36,280,29738,1,2,0:0:0:0:
36,280,29849,2,0,L|41:240|46:200,1,80.4999972976685,2|8,0:0|0:0,0:0:0:0:
80,40,30071,6,0,B|132:28|132:28|180:48|180:48|240:32,1,160.999994595337,2|2,0:0|0:0,0:0:0:0:
320,76,30404,2,0,P|323:116|327:159,1,80.4999972976685,0|2,0:0|0:0,0:0:0:0:
244,208,30627,2,0,P|238:168|233:128,1,80.4999972976685,0|0,0:0|0:0,0:0:0:0:
411,185,30849,2,0,P|423:229|403:281,1,80.4999972976685,8|0,0:0|0:0,0:0:0:0:
331,307,31071,6,0,P|310:265|331:149,2,160.999994595337,2|8|2,0:0|0:0|0:0,0:0:0:0:
261,375,31627,2,0,P|223:340|179:336,1,80.4999972976685,2|8,0:0|0:0,0:0:0:0:
49,348,31849,6,0,B|22:299|22:299|40:183,1,160.999994595337,2|2,0:0|0:0,0:0:0:0:
62,101,32182,2,0,P|93:81|149:77,1,80.4999972976685,8|0,0:0|0:0,0:0:0:0:
216,170,32404,2,0,P|145:173|110:176,1,80.4999972976685,2|0,0:0|0:0,0:0:0:0:
233,71,32627,2,0,P|304:68|339:65,1,80.4999972976685,8|2,0:0|0:0,0:0:0:0:
473,132,32849,6,0,B|447:221|515:199|480:301,1,160.999994595337,6|8,0:0|0:0,0:0:0:0:
400,334,33182,1,2,0:0:0:0:
400,334,33293,2,0,P|390:274|404:229,2,80.4999972976685,0|2|8,0:0|0:0|0:0,0:0:0:0:
237,254,33627,6,0,B|283:272|283:272|415:251,1,160.999994595337,6|2,0:0|0:0,0:0:0:0:
292,174,33960,2,0,P|232:156|140:232,1,160.999994595337,8|2,0:0|0:0,0:0:0:0:
147,299,34293,1,0,0:0:0:0:
147,299,34404,2,0,P|151:345|155:393,1,80.4999972976685,8|0,0:0|0:0,0:0:0:0:
64,250,34627,6,0,P|55:155|47:56,1,160.999994595337,6|8,0:0|0:0,0:0:0:0:
114,17,34960,1,4,3:0:0:0:
114,17,35071,2,0,P|165:19|209:49,2,80.4999972976685,4|4|8,3:0|3:0|3:0,0:0:0:0:
176,128,35404,6,0,B|223:133|255:107|255:107|299:129|351:109,1,160.999994595337,2|0,0:0|0:0,0:0:0:0:
380,33,35738,2,0,P|343:19|304:24,1,80.4999972976685,8|0,0:0|0:0,0:0:0:0:
380,200,35960,2,0,P|411:175|426:138,1,80.4999972976685,8|4,0:0|3:0,0:0:0:0:
268,208,36182,2,0,P|280:280|288:320,1,80.4999972976685,8|8,3:0|3:0,0:0:0:0:
502,229,36404,6,0,P|406:205|350:193,1,126.000003076172,6|0,0:0|0:0,0:0:0:0:
367,309,36738,2,0,P|397:300|428:292,1,63.000001538086,2|8,0:0|0:0,0:0:0:0:
280,376,36960,2,0,P|269:344|252:300,1,63.000001538086,0|2,0:0|0:0,0:0:0:0:
152,214,37182,6,0,P|221:231|276:198,1,126.000003076172,8|8,0:0|0:0,0:0:0:0:
320,128,37516,2,0,P|244:108|192:100,2,126.000003076172,2|8|2,0:0|0:0|0:0,0:0:0:0:
380,200,38071,1,0,0:0:0:0:
304,280,38182,6,0,P|216:301|168:316,1,126.000003076172,2|0,0:0|0:0,0:0:0:0:
100,384,38516,1,2,0:0:0:0:
100,384,38627,2,0,P|76:328|88:264,1,126.000003076172,8|2,0:0|0:0,0:0:0:0:
160,196,38960,6,0,L|228:212,1,63.000001538086,0|2,0:0|0:0,0:0:0:0:
304,280,39182,1,8,0:0:0:0:
304,280,39293,2,0,L|388:264,1,63.000001538086,0|0,0:0|0:0,0:0:0:0:
452,208,39516,2,0,P|448:128|416:92,1,126.000003076172,8|2,0:0|0:0,0:0:0:0:
420,95,39960,6,0,P|368:129|307:126,1,126.000003076172,6|0,0:0|0:0,0:0:0:0:
210,133,40293,2,0,P|212:96|233:65,1,63.000001538086,0|8,0:0|0:0,0:0:0:0:
307,126,40516,2,0,L|293:191,1,63.000001538086,0|2,0:0|0:0,0:0:0:0:
276,284,40738,6,0,P|213:263|151:242,1,126.000003076172,8|8,0:0|0:0,0:0:0:0:
56,196,41071,2,0,P|42:256|72:312,2,126.000003076172,2|8|2,0:0|0:0|0:0,0:0:0:0:
124,136,41627,1,0,0:0:0:0:
220,180,41738,6,0,P|276:170|368:156,1,126.000003076172,2|0,0:0|0:0,0:0:0:0:
420,112,42071,1,2,0:0:0:0:
420,112,42182,2,0,P|460:124|504:140,1,63.000001538086,8|0,0:0|0:0,0:0:0:0:
360,44,42404,2,0,P|316:64|296:72,1,63.000001538086,0|0,0:0|0:0,0:0:0:0:
216,104,42627,5,2,0:0:0:0:
128,52,42738,2,0,P|100:128|116:184,1,126.000003076172,8|8,0:0|0:0,0:0:0:0:
240,264,43071,2,0,B|245:232|245:232|232:192,1,63.000001538086,8|8,0:0|0:0,0:0:0:0:
84,252,43293,2,0,B|78:283|78:283|92:324,1,63.000001538086,4|8,3:0|3:0,0:0:0:0:
204,376,43516,6,0,P|262:366|348:352,1,126.000003076172,6|0,0:0|0:0,0:0:0:0:
408,308,43849,1,2,0:0:0:0:
408,308,43960,2,0,P|441:314|488:328,2,63.000001538086,8|0|2,0:0|0:0|0:0,0:0:0:0:
316,268,44293,6,0,P|300:192|328:148,1,126.000003076172,8|8,0:0|0:0,0:0:0:0:
400,108,44627,2,0,L|472:124,1,63.000001538086,2|0,0:0|0:0,0:0:0:0:
316,64,44849,2,0,P|237:77|186:87,1,126.000003076172,8|2,0:0|0:0,0:0:0:0:
108,104,45182,1,0,0:0:0:0:
32,44,45293,5,2,0:0:0:0:
32,44,45404,2,0,P|8:124|40:172,1,126.000003076172,0|2,0:0|0:0,0:0:0:0:
156,228,45738,2,0,P|110:219|92:216,1,63.000001538086,8|0,0:0|0:0,0:0:0:0:
0,340,45960,6,0,P|68:324|144:312,1,126.000003076172,6|0,0:0|0:0,0:0:0:0:
184,220,46293,1,8,0:0:0:0:
236,376,46404,2,0,L|256:304,1,63.000001538086,0|2,0:0|0:0,0:0:0:0:
312,140,46627,1,8,0:0:0:0:
316,152,46738,1,8,0:0:0:0:
320,164,46849,2,0,L|340:232,1,63.000001538086,4|0,3:0|0:0,0:0:0:0:
381,343,47071,6,0,P|301:303|238:324,1,143.500002189636,2|0,0:0|0:0,0:0:0:0:
148,360,47404,1,2,0:0:0:0:
148,360,47516,2,0,L|172:204,1,143.500002189636,8|2,0:0|0:0,0:0:0:0:
224,140,47849,1,0,0:0:0:0:
224,140,47960,6,0,P|202:89|176:56,1,71.7500010948181,2|0,0:0|0:0,0:0:0:0:
320,164,48182,2,0,P|370:142|404:116,1,71.7500010948181,0|2,0:0|0:0,0:0:0:0:
252,232,48404,1,8,0:0:0:0:
248,252,48516,1,8,0:0:0:0:
248,276,48627,2,0,P|269:326|296:360,1,71.7500010948181,4|8,3:0|3:0,0:0:0:0:
340,276,48849,5,2,0:0:0:0:
188,352,48960,2,0,P|100:340|36:332,1,143.500002189636,12|2,0:0|0:0,0:0:0:0:
0,234,49293,2,0,P|72:247|130:212,1,143.500002189636,12|2,0:0|0:0,0:0:0:0:
242,108,49627,6,0,P|181:72|112:86,1,143.500002189636,12|2,0:0|0:0,0:0:0:0:
55,169,49960,2,0,P|88:175|128:183,1,71.7500010948181,12|0,0:0|0:0,0:0:0:0:
230,230,50182,1,8,0:0:0:0:
230,230,50293,1,8,0:0:0:0:
230,230,50404,2,0,P|263:224|303:216,1,71.7500010948181,4|8,3:0|3:0,0:0:0:0:
368,88,50627,5,2,0:0:0:0:
430,216,50738,2,0,P|334:172|264:195,1,160.999994595337,12|2,0:0|0:0,0:0:0:0:
262,312,51071,2,0,P|358:356|428:333,1,160.999994595337,12|2,0:0|0:0,0:0:0:0:
284,184,51404,6,0,B|168:208|168:208|132:256,1,160.999994595337,12|2,0:0|0:0,0:0:0:0:
47,378,51738,2,0,B|19:322|67:282|67:282|83:310|115:322,1,160.999994595337,12|8,0:0|0:0,0:0:0:0:
142,241,52071,1,8,0:0:0:0:
136,216,52127,1,0,0:0:0:0:
132,196,52182,2,0,L|120:116,1,80.4999972976685,4|8,3:0|3:0,0:0:0:0:
32,20,52404,6,0,P|104:68|188:32,1,160.999994595337,6|0,0:0|0:0,0:0:0:0:
296,4,52738,2,0,B|288:120|288:120|272:92|248:76,1,160.999994595337,6|0,0:0|0:0,0:0:0:0:
64,184,53071,2,0,P|136:136|220:172,1,160.999994595337,2|2,0:0|0:0,0:0:0:0:
280,216,53404,1,2,0:0:0:0:
280,216,53516,6,0,L|272:304,1,80.4999972976685,8|4,3:0|3:0,0:0:0:0:
152,304,53738,2,0,L|144:216,1,80.4999972976685,8|8,0:0|0:0,0:0:0:0:
288,120,53960,2,0,P|340:140|372:180,1,80.4999972976685,4|8,3:0|3:0,0:0:0:0:
267,351,54182,6,0,L|280:216,1,136.49999916687,6|2,0:0|0:0,0:0:0:0:
438,212,54627,2,0,P|394:247|344:254,1,90.9999994445801,8|2,0:0|0:0,0:0:0:0:
204,155,54960,1,0,0:0:0:0:
204,155,55071,6,0,L|191:20,1,136.49999916687,2|2,0:0|0:0,0:0:0:0:
23,163,55516,2,0,P|73:152|124:169,1,90.9999994445801,8|2,0:0|0:0,0:0:0:0:
251,240,55849,1,0,0:0:0:0:
251,240,55960,6,0,P|201:251|150:234,1,90.9999994445801,2|0,0:0|0:0,0:0:0:0:
23,163,56293,2,0,L|36:298,1,136.49999916687,2|0,0:0|0:0,0:0:0:0:
154,332,56738,1,0,0:0:0:0:
154,332,56849,6,0,L|162:241,1,90.9999994445801,2|0,0:0|0:0,0:0:0:0:
204,155,57182,1,2,0:0:0:0:
204,155,57293,2,0,L|195:64,1,90.9999994445801,8|2,0:0|0:0,0:0:0:0:
277,14,57627,1,0,0:0:0:0:
277,14,57738,6,0,P|322:7|399:65,1,136.49999916687,2|2,0:0|0:0,0:0:0:0:
328,232,58182,2,0,L|314:87,1,136.49999916687,8|0,0:0|0:0,0:0:0:0:
458,208,58627,6,0,B|378:195|405:244|319:230,1,136.49999916687,2|2,0:0|0:0,0:0:0:0:
428,383,59071,2,0,P|442:328|434:280,1,90.9999994445801,8|2,0:0|0:0,0:0:0:0:
234,200,59516,6,0,P|231:245|244:288,2,90.9999994445801,2|0|8,0:0|0:0|0:0,0:0:0:0:
272,112,60071,1,0,0:0:0:0:
176,120,60182,2,0,L|82:131,1,90.9999994445801,0|2,0:0|0:0,0:0:0:0:
6,185,60516,1,8,0:0:0:0:
88,232,60627,6,0,L|92:298,1,45.49999972229,0|0,0:0|0:0,0:0:0:0:
8,375,60849,2,0,L|11:330,1,45.49999972229,8|8,0:0|0:0,0:0:0:0:
167,325,61071,2,0,P|191:334|220:353,1,45.49999972229,4|8,3:0|3:0,0:0:0:0:
297,377,61293,6,0,L|283:223,1,136.49999916687,2|2,0:0|0:0,0:0:0:0:
240,155,61738,1,8,0:0:0:0:
335,159,61849,1,0,0:0:0:0:
335,159,61960,2,0,L|331:103,1,45.49999972229,2|0,0:0|0:0,0:0:0:0:
230,18,62182,6,0,L|240:166,1,136.49999916687,2|2,0:0|0:0,0:0:0:0:
192,238,62627,2,0,P|156:207|154:107,1,136.49999916687,8|0,0:0|0:0,0:0:0:0:
284,241,63071,6,0,L|277:341,1,90.9999994445801,2|0,0:0|0:0,0:0:0:0:
185,328,63404,2,0,L|192:228,1,90.9999994445801,0|0,0:0|0:0,0:0:0:0:
239,154,63738,2,0,P|279:145|302:148,1,45.49999972229,0|0,0:0|0:0,0:0:0:0:
372,253,63960,6,0,P|327:254|284:241,1,90.9999994445801,2|0,0:0|0:0,0:0:0:0:
298,145,64293,2,0,P|343:144|386:157,1,90.9999994445801,0|0,0:0|0:0,0:0:0:0:
462,216,64627,2,0,P|473:252|469:278,1,45.49999972229,2|0,0:0|0:0,0:0:0:0:
296,376,64849,2,0,L|283:229,1,136.49999916687,2|2,0:0|0:0,0:0:0:0:
267,58,65293,6,0,B|200:69|200:69|154:52|154:52|84:61,1,181.99999888916,8|2,0:0|0:0,0:0:0:0:
5,107,65849,1,0,3:0:0:0:
85,158,65960,2,0,L|96:216,1,45.49999972229,0|0,3:0|3:0,0:0:0:0:
2,295,66182,2,0,L|11:251,1,45.49999972229,8|4,0:0|3:0,0:0:0:0:
163,270,66404,2,0,L|151:330,1,45.49999972229,4|8,3:0|3:0,0:0:0:0:
261,296,66627,6,0,P|250:218|187:173,1,160.999994595337,8|2,0:0|0:0,0:0:0:0:
330,169,66960,2,0,P|269:217|261:295,1,160.999994595337,8|2,0:0|0:0,0:0:0:0:
456,238,67293,2,0,P|407:176|330:169,1,160.999994595337,8|2,0:0|0:0,0:0:0:0:
387,364,67627,2,0,P|448:315|456:237,1,160.999994595337,8|4,0:0|3:0,0:0:0:0:
359,266,67960,1,8,0:0:0:0:
359,266,68071,1,8,0:0:0:0:
261,295,68182,2,0,L|199:311,1,45.49999972229,4|4,3:0|3:0,0:0:0:0:
160,224,68404,6,0,P|82:213|7:199,2,136.49999916687,6|2|2,0:0|0:0|0:0,0:0:0:0:
283,191,69293,2,0,P|296:150|269:92,1,90.9999994445801,2|0,0:0|0:0,0:0:0:0:
240,39,69627,1,2,0:0:0:0:
240,39,69738,2,0,P|282:53|325:40,1,90.9999994445801,8|2,0:0|0:0,0:0:0:0:
459,44,70182,6,0,P|440:117|421:186,1,136.49999916687,2|2,0:0|0:0,0:0:0:0:
480,288,70627,2,0,P|438:263|386:254,1,90.9999994445801,0|0,0:0|0:0,0:0:0:0:
320,192,70960,1,0,0:0:0:0:
288,288,71071,6,0,L|301:337,2,45.49999972229,2|0|0,0:0|0:0|0:0,0:0:0:0:
381,355,71404,1,2,0:0:0:0:
381,355,71516,2,0,P|338:357|298:331,1,90.9999994445801,8|2,0:0|0:0,0:0:0:0:
220,244,71849,1,0,0:0:0:0:
160,320,71960,6,0,P|98:330|64:338,1,90.9999994445801,2|0,0:0|0:0,0:0:0:0:
0,224,72293,2,0,P|44:233|89:240,1,90.9999994445801,2|0,0:0|0:0,0:0:0:0:
192,160,72627,2,0,L|133:176,1,45.49999972229,2|0,0:0|0:0,0:0:0:0:
32,96,72849,6,0,P|19:51|45:-3,1,90.9999994445801,2|0,0:0|0:0,0:0:0:0:
128,64,73182,2,0,P|170:77|213:64,1,90.9999994445801,2|0,0:0|0:0,0:0:0:0:
352,0,73516,2,0,L|337:48,1,45.49999972229,2|0,0:0|0:0,0:0:0:0:
288,160,73738,5,2,0:0:0:0:
419,122,73960,1,0,0:0:0:0:
248,45,74182,1,8,0:0:0:0:
448,0,74404,1,0,0:0:0:0:
370,196,74627,5,2,0:0:0:0:
255,147,74738,2,0,P|264:192|278:255,1,90.9999994445801,8|0,0:0|0:0,0:0:0:0:
416,288,75071,2,0,P|389:298|360:309,1,45.49999972229,8|8,0:0|0:0,0:0:0:0:
265,365,75293,1,4,3:0:0:0:
187,338,75404,1,8,3:0:0:0:
150,264,75516,6,0,P|65:245|22:282,1,136.49999916687,2|2,0:0|0:0,0:0:0:0:
98,359,75960,2,0,P|140:348|200:334,1,90.9999994445801,8|2,0:0|0:0,0:0:0:0:
352,224,76404,6,0,P|309:213|250:199,1,90.9999994445801,6|0,0:0|0:0,0:0:0:0:
185,128,76738,1,2,0:0:0:0:
111,164,76849,2,0,P|101:120|122:74,1,90.9999994445801,8|2,0:0|0:0,0:0:0:0:
288,32,77293,6,0,L|392:50,1,90.9999994445801,6|0,0:0|0:0,0:0:0:0:
480,128,77627,2,0,L|384:142,1,90.9999994445801,2|0,0:0|0:0,0:0:0:0:
256,192,77960,2,0,L|277:139,1,45.49999972229,2|0,0:0|0:0,0:0:0:0:
384,288,78182,6,0,P|335:270|294:280,1,90.9999994445801,2|0,0:0|0:0,0:0:0:0:
192,352,78516,2,0,P|147:359|106:341,1,90.9999994445801,2|8,0:0|0:0,0:0:0:0:
33,285,78849,1,8,0:0:0:0:
33,285,78960,1,8,0:0:0:0:
101,199,79071,6,0,B|176:163|168:241|272:183,2,160.999994595337,6|8|4,0:0|0:0|3:0,0:0:0:0:
33,285,79627,2,0,P|14:245|10:189,1,80.4999972976685,4|4,3:0|3:0,0:0:0:0:
49,80,79849,6,0,P|110:119|93:207,1,160.999994595337,12|2,0:0|0:0,0:0:0:0:
29,364,80182,2,0,P|67:352|117:339,1,80.4999972976685,8|0,0:0|0:0,0:0:0:0:
192,256,80404,2,0,P|230:268|280:281,1,80.4999972976685,8|0,0:0|0:0,0:0:0:0:
384,352,80627,1,8,0:0:0:0:
358,275,80738,1,8,0:0:0:0:
403,208,80849,6,0,P|445:194|486:200,1,80.4999972976685,6|0,0:0|0:0,0:0:0:0:
384,352,81071,2,0,P|302:354|251:290,1,160.999994595337,8|4,0:0|3:0,0:0:0:0:
179,216,81404,2,0,L|264:196,1,80.4999972976685,4|4,3:0|3:0,0:0:0:0:
369,137,81627,6,0,P|286:157|231:111,1,160.999994595337,12|2,0:0|0:0,0:0:0:0:
288,18,81960,2,0,P|327:27|366:37,1,80.4999972976685,8|0,0:0|0:0,0:0:0:0:
447,117,82182,2,0,P|407:126|368:136,1,80.4999972976685,8|0,0:0|0:0,0:0:0:0:
179,216,82404,1,8,0:0:0:0:
231,112,82516,1,8,0:0:0:0:
320,192,82627,6,0,P|352:261|319:344,2,160.999994595337,6|8|4,0:0|0:0|3:0,0:0:0:0:
252,268,83182,2,0,P|212:258|175:244,1,80.4999972976685,4|4,3:0|3:0,0:0:0:0:
62,310,83404,6,0,P|33:232|70:165,1,160.999994595337,12|2,0:0|0:0,0:0:0:0:
8,61,83738,2,0,P|43:79|102:75,1,80.4999972976685,12|0,0:0|0:0,0:0:0:0:
256,32,83960,2,0,P|220:13|180:12,1,80.4999972976685,12|0,0:0|0:0,0:0:0:0:
67,167,84182,2,0,P|106:165|142:146,1,80.4999972976685,12|0,0:0|0:0,0:0:0:0:
271,45,84404,5,6,0:0:0:0:
197,233,84849,1,0,0:0:0:0:
75,83,85293,1,0,0:0:0:0:
197,233,85738,1,0,0:0:0:0:
384,32,86182,5,0,0:0:0:0:
234,154,86627,1,0,0:0:0:0:
408,235,87071,1,0,0:0:0:0:
133,139,87516,5,2,0:0:0:0:
0,255,87738,1,8,0:0:0:0:
167,313,87960,6,0,P|166:265|146:211,1,87.5,6|0,0:0|0:0,0:0:0:0:
0,255,88182,2,0,P|42:278|98:287,1,87.5,8|0,0:0|0:0,0:0:0:0:
133,139,88404,2,0,P|91:163|55:208,1,87.5,2|0,0:0|0:0,0:0:0:0:
100,379,88627,1,8,0:0:0:0:
167,313,88738,1,2,0:0:0:0:
250,356,88849,6,0,P|304:350|353:346,1,87.5,2|0,0:0|0:0,0:0:0:0:
505,300,89071,2,0,P|451:294|402:290,1,87.5,8|0,0:0|0:0,0:0:0:0:
303,169,89293,2,0,P|304:212|324:251,1,87.5,2|0,0:0|0:0,0:0:0:0:
403,184,89516,1,8,0:0:0:0:
364,92,89627,1,2,0:0:0:0:
266,81,89738,6,0,P|212:75|163:71,1,87.5,2|0,0:0|0:0,0:0:0:0:
72,14,89960,2,0,P|78:68|82:117,1,87.5,8|0,0:0|0:0,0:0:0:0:
169,159,90182,2,0,P|173:115|178:72,1,87.5,2|0,0:0|0:0,0:0:0:0:
77,205,90404,2,0,P|108:249|156:263,1,87.5,8|2,0:0|0:0,0:0:0:0:
303,169,90627,5,2,0:0:0:0:
276,167,90738,1,0,0:0:0:0:
256,167,90849,2,0,P|212:163|168:158,1,87.5,8|0,0:0|0:0,0:0:0:0:
77,205,91071,2,0,P|81:249|86:293,1,87.5,8|8,0:0|0:0,0:0:0:0:
234,360,91293,2,0,P|230:316|225:272,1,87.5,4|8,3:0|3:0,0:0:0:0:
206,68,91516,5,6,0:0:0:0:
206,68,91627,2,0,B|285:51|266:101|351:87,1,143.500002189636,8|2,0:0|0:0,0:0:0:0:
500,146,91960,2,0,P|452:133|371:199,1,143.500002189636,8|2,0:0|0:0,0:0:0:0:
440,362,92293,6,0,P|446:299|454:213,1,143.500002189636,8|2,0:0|0:0,0:0:0:0:
282,163,92627,2,0,P|288:234|295:305,2,143.500002189636,8|8|4,0:0|3:0|3:0,0:0:0:0:
27,35,93293,5,2,0:0:0:0:
40,49,93404,2,0,L|44:96|48:143,1,80.4999972976685,12|0,0:0|0:0,0:0:0:0:
195,122,93627,1,2,0:0:0:0:
207,118,93738,2,0,P|152:84|122:81,1,80.4999972976685,12|0,0:0|0:0,0:0:0:0:
111,257,93960,1,2,0:0:0:0:
120,270,94071,6,0,L|124:230|128:190,1,80.4999972976685,12|0,0:0|0:0,0:0:0:0:
0,219,94293,1,2,0:0:0:0:
8,235,94404,2,0,L|12:275|16:315,1,80.4999972976685,12|0,0:0|0:0,0:0:0:0:
102,378,94627,6,0,P|164:371|200:343,1,87.5,8|0,3:0|0:0,0:0:0:0:
213,225,94849,6,0,P|161:194|99:190,1,87.5,8|0,3:0|0:0,0:0:0:0:
311,311,95071,6,0,L|315:271|319:231,1,80.4999972976685,6|0,0:0|0:0,0:0:0:0:
222,145,95293,2,0,L|218:185|214:225,1,80.4999972976685,8|0,0:0|0:0,0:0:0:0:
403,279,95516,2,0,P|413:222|396:172,1,80.4999972976685,2|0,0:0|0:0,0:0:0:0:
305,85,95738,1,8,0:0:0:0:
305,85,95849,6,0,P|254:105|156:55,1,160.999994595337,2|2,0:0|0:0,0:0:0:0:
84,121,96182,2,0,L|80:161|76:201,1,80.4999972976685,8|0,0:0|0:0,0:0:0:0:
215,225,96404,2,0,L|219:185|223:145,1,80.4999972976685,2|0,0:0|0:0,0:0:0:0:
134,295,96627,1,8,0:0:0:0:
134,295,96738,1,0,0:0:0:0:
134,295,96849,6,0,P|185:330|224:334,1,80.4999972976685,2|0,0:0|0:0,0:0:0:0:
282,185,97071,2,0,P|226:211|203:243,1,80.4999972976685,8|0,0:0|0:0,0:0:0:0:
303,368,97293,1,2,0:0:0:0:
303,368,97404,2,0,P|307:306|291:270,1,80.4999972976685,2|8,0:0|0:0,0:0:0:0:
282,185,97627,6,0,P|344:193|477:211,1,160.999994595337,2|2,0:0|0:0,0:0:0:0:
501,130,97960,1,8,0:0:0:0:
405,115,98071,1,0,0:0:0:0:
405,115,98182,2,0,P|404:57|416:30,1,80.4999972976685,2|2,0:0|0:0,0:0:0:0:
508,51,98404,2,0,P|509:109|497:136,1,80.4999972976685,8|8,0:0|0:0,0:0:0:0:
380,275,98627,6,0,B|281:263|315:319|218:307,1,160.999994595337,6|8,0:0|0:0,0:0:0:0:
139,266,98960,1,0,0:0:0:0:
139,266,99071,2,0,P|129:214|122:166,1,80.4999972976685,2|0,0:0|0:0,0:0:0:0:
106,92,99293,1,8,0:0:0:0:
37,154,99404,6,0,P|118:140|209:126,1,160.999994595337,2|2,0:0|0:0,0:0:0:0:
292,116,99738,2,0,P|357:121|410:205,1,160.999994595337,8|2,0:0|0:0,0:0:0:0:
325,283,100071,1,0,0:0:0:0:
325,283,100182,2,0,P|316:234|308:179,1,80.4999972976685,8|8,0:0|0:0,0:0:0:0:
194,127,100404,6,0,P|208:206|221:286,1,160.999994595337,6|8,0:0|0:0,0:0:0:0:
162,364,100738,1,2,0:0:0:0:
162,364,100849,2,0,P|130:320|124:272,1,80.4999972976685,4|0,3:0|0:0,0:0:0:0:
131,199,101071,1,8,0:0:0:0:
194,127,101182,6,0,P|275:113|366:99,1,160.999994595337,6|2,0:0|0:0,0:0:0:0:
449,93,101516,2,0,P|496:136|489:234,1,160.999994595337,8|0,0:0|0:0,0:0:0:0:
332,193,101849,1,8,0:0:0:0:
332,193,101960,2,0,P|384:184|442:175,1,80.4999972976685,8|0,3:0|0:0,0:0:0:0:
347,372,102182,6,0,P|333:291|319:200,2,160.999994595337,6|8|2,0:0|0:0|0:0,0:0:0:0:
249,373,102738,2,0,P|239:319|230:259,1,80.4999972976685,2|0,0:0|0:0,0:0:0:0:
230,139,102960,2,0,P|182:166|84:113,1,160.999994595337,2|2,0:0|0:0,0:0:0:0:
21,13,103293,2,0,P|14:52|7:92,1,80.4999972976685,8|0,0:0|0:0,0:0:0:0:
165,83,103516,1,2,0:0:0:0:
165,83,103627,1,0,0:0:0:0:
165,83,103738,2,0,P|171:43|178:3,1,80.4999972976685,8|0,0:0|0:0,0:0:0:0:
368,151,103960,6,0,P|302:110|230:139,2,160.999994595337,2|8|2,0:0|0:0|0:0,0:0:0:0:
308,275,104516,2,0,L|301:235|294:195,1,80.4999972976685,2|8,0:0|0:0,0:0:0:0:
452,201,104738,6,0,P|436:289|422:377,1,160.999994595337,2|2,0:0|0:0,0:0:0:0:
329,369,105071,1,8,0:0:0:0:
329,369,105182,1,2,0:0:0:0:
329,369,105293,2,0,P|278:370|240:346,1,80.4999972976685,0|0,0:0|0:0,0:0:0:0:
109,165,105516,1,8,0:0:0:0:
97,183,105627,1,0,0:0:0:0:
85,201,105738,6,0,P|100:289|114:377,2,160.999994595337,2|8|2,0:0|0:0|0:0,0:0:0:0:
44,113,106293,1,2,0:0:0:0:
44,113,106404,1,8,0:0:0:0:
133,73,106516,6,0,B|224:56|199:117|290:102,1,160.999994595337,2|2,0:0|0:0,0:0:0:0:
376,69,106849,2,0,P|331:22|303:11,1,80.4999972976685,8|0,0:0|0:0,0:0:0:0:
285,102,107071,2,0,L|294:158|303:214,1,80.4999972976685,2|0,0:0|0:0,0:0:0:0:
400,240,107293,2,0,P|390:183|381:127,1,80.4999972976685,8|2,0:0|0:0,0:0:0:0:
163,199,107516,6,0,P|239:226|299:177,1,160.999994595337,6|8,0:0|0:0,0:0:0:0:
439,313,107849,2,0,P|376:267|304:294,1,160.999994595337,2|2,0:0|0:0,0:0:0:0:
242,374,108182,1,8,0:0:0:0:
123,319,108293,6,0,P|102:261|156:171,1,160.999994595337,6|2,0:0|0:0,0:0:0:0:
25,92,108627,2,0,B|104:134|104:57|188:96,1,160.999994595337,8|2,0:0|0:0,0:0:0:0:
253,23,108960,1,0,0:0:0:0:
253,23,109071,2,0,P|263:61|275:117,1,80.4999972976685,8|0,0:0|0:0,0:0:0:0:
188,258,109293,6,0,B|251:213|251:213|332:254,1,160.999994595337,6|8,0:0|0:0,0:0:0:0:
432,290,109627,2,0,B|447:252|447:252|428:203,1,80.4999972976685,4|0,3:0|0:0,0:0:0:0:
288,352,109849,2,0,B|326:367|326:367|375:348,1,80.4999972976685,4|0,3:0|0:0,0:0:0:0:
187,279,110071,6,0,P|81:305|24:325,1,160.999994595337,2|2,0:0|0:0,0:0:0:0:
211,378,110404,2,0,P|249:365|287:351,1,80.4999972976685,8|0,0:0|0:0,0:0:0:0:
172,183,110627,2,0,P|209:196|248:209,1,80.4999972976685,8|4,0:0|3:0,0:0:0:0:
338,246,110849,1,8,3:0:0:0:
338,246,110960,1,8,3:0:0:0:
446,221,111071,6,0,P|377:211|336:249,1,126.000003076172,6|0,0:0|0:0,0:0:0:0:
383,321,111404,2,0,P|411:315|448:309,2,63.000001538086,2|8|0,0:0|0:0|0:0,0:0:0:0:
299,366,111738,1,2,0:0:0:0:
206,326,111849,6,0,B|187:252|187:252|215:207,1,126.000003076172,8|8,0:0|0:0,0:0:0:0:
343,167,112182,2,0,L|265:150,1,63.000001538086,2|0,0:0|0:0,0:0:0:0:
117,93,112404,2,0,P|181:100|228:60,1,126.000003076172,8|2,0:0|0:0,0:0:0:0:
155,16,112738,1,0,0:0:0:0:
30,84,112849,6,0,P|36:113|47:152,1,63.000001538086,2|0,0:0|0:0,0:0:0:0:
189,237,113071,1,0,0:0:0:0:
201,224,113182,1,2,0:0:0:0:
213,210,113293,2,0,P|204:177|192:134,1,63.000001538086,8|0,0:0|0:0,0:0:0:0:
104,231,113516,2,0,L|112:261|120:291,1,63.000001538086,2|0,0:0|0:0,0:0:0:0:
200,352,113738,5,2,0:0:0:0:
288,288,113849,2,0,B|369:275|369:275|424:314,1,126.000003076172,8|0,0:0|0:0,0:0:0:0:
507,240,114182,2,0,L|430:222,1,63.000001538086,8|0,0:0|0:0,0:0:0:0:
318,163,114404,2,0,L|393:151,1,63.000001538086,2|0,0:0|0:0,0:0:0:0:
512,64,114627,6,0,P|437:52|361:38,1,126.000003076172,6|0,0:0|0:0,0:0:0:0:
299,2,114960,2,0,P|263:8|238:14,2,63.000001538086,0|8|0,0:0|0:0|0:0,0:0:0:0:
387,43,115293,1,0,0:0:0:0:
299,121,115404,6,0,P|224:130|180:93,1,126.000003076172,8|8,0:0|0:0,0:0:0:0:
131,17,115738,2,0,L|58:35,1,63.000001538086,2|0,0:0|0:0,0:0:0:0:
65,135,115960,2,0,L|191:101,1,126.000003076172,8|2,0:0|0:0,0:0:0:0:
237,14,116293,1,0,0:0:0:0:
299,121,116404,6,0,P|291:151|277:200,1,63.000001538086,2|0,0:0|0:0,0:0:0:0:
160,256,116627,1,0,0:0:0:0:
173,242,116738,1,2,0:0:0:0:
185,228,116849,2,0,L|193:258|201:288,1,63.000001538086,8|0,0:0|0:0,0:0:0:0:
352,256,117071,2,0,P|343:286|335:316,1,63.000001538086,0|0,0:0|0:0,0:0:0:0:
248,384,117293,5,2,0:0:0:0:
239,373,117404,1,8,0:0:0:0:
252,367,117516,1,2,0:0:0:0:
257,379,117627,1,8,0:0:0:0:
130,328,117738,5,8,0:0:0:0:
130,328,117849,1,8,0:0:0:0:
130,328,117960,2,0,L|191:312,1,63.000001538086,4|0,3:0|0:0,0:0:0:0:
298,204,118182,6,0,P|354:228|413:210,1,126.000003076172,6|0,0:0|0:0,0:0:0:0:
512,140,118516,2,0,L|481:133|450:126,2,63.000001538086,2|0|0,0:0|0:0|0:0,0:0:0:0:
413,210,118849,1,2,0:0:0:0:
360,143,118960,6,0,P|346:96|385:31,1,126.000003076172,8|8,0:0|0:0,0:0:0:0:
382,32,119293,2,0,L|447:47,1,63.000001538086,2|0,0:0|0:0,0:0:0:0:
360,143,119516,2,0,B|280:162|280:162|236:136,1,126.000003076172,8|0,0:0|0:0,0:0:0:0:
176,84,119849,1,0,0:0:0:0:
147,225,119960,5,2,0:0:0:0:
147,225,120071,2,0,L|174:98,1,126.000003076172,0|2,0:0|0:0,0:0:0:0:
75,63,120404,2,0,L|59:127,1,63.000001538086,8|0,0:0|0:0,0:0:0:0:
36,260,120627,6,0,P|80:224|152:227,1,126.000003076172,6|0,0:0|0:0,0:0:0:0:
224,296,120960,1,8,0:0:0:0:
224,296,121071,2,0,P|213:327|202:365,1,63.000001538086,0|2,0:0|0:0,0:0:0:0:
288,224,121293,1,8,0:0:0:0:
288,224,121404,1,8,0:0:0:0:
331,302,121516,2,0,P|344:330|359:358,1,63.000001538086,4|0,3:0|0:0,0:0:0:0:
415,231,121738,6,0,P|338:254|284:219,1,143.500002189636,2|0,0:0|0:0,0:0:0:0:
216,154,122071,1,2,0:0:0:0:
187,238,122182,6,0,P|189:198|210:163,1,71.7500010948181,8|0,0:0|0:0,0:0:0:0:
307,91,122404,1,2,0:0:0:0:
307,91,122516,1,0,0:0:0:0:
307,91,122627,6,0,P|259:76|232:68,1,71.7500010948181,2|0,0:0|0:0,0:0:0:0:
354,169,122849,2,0,P|401:154|429:146,1,71.7500010948181,0|2,0:0|0:0,0:0:0:0:
256,288,123071,6,0,P|241:335|233:363,1,71.7500010948181,8|8,0:0|0:0,0:0:0:0:
374,237,123293,2,0,P|359:189|351:162,1,71.7500010948181,4|8,3:0|3:0,0:0:0:0:
307,91,123516,5,2,0:0:0:0:
203,170,123627,2,0,P|126:199|63:181,1,143.500002189636,12|2,0:0|0:0,0:0:0:0:
118,284,123960,2,0,B|198:257|177:320|259:286,1,143.500002189636,12|2,0:0|0:0,0:0:0:0:
374,237,124293,6,0,B|416:239|460:253|460:253|474:234|481:198,1,143.500002189636,12|2,0:0|0:0,0:0:0:0:
448,96,124627,2,0,B|398:80|398:80|358:98|358:98|302:82,1,143.500002189636,12|8,0:0|0:0,0:0:0:0:
216,50,124960,1,8,0:0:0:0:
204,54,125071,2,0,L|167:66|130:78,1,71.7500010948181,8|4,3:0|3:0,0:0:0:0:
84,168,125293,5,2,0:0:0:0:
84,168,125404,2,0,P|95:244|107:336,1,160.999994595337,12|0,0:0|0:0,0:0:0:0:
168,157,125738,2,0,P|92:168|5:179,1,159.250005345917,12|2,0:0|0:0,0:0:0:0:
177,241,126071,6,0,P|168:165|156:73,1,159.250005345917,12|2,0:0|0:0,0:0:0:0:
95,251,126404,2,0,P|171:240|257:229,1,159.250005345917,12|8,0:0|0:0,0:0:0:0:
351,233,126738,1,8,0:0:0:0:
351,233,126849,2,0,P|390:194|397:151,1,79.6250026729585,4|8,3:0|3:0,0:0:0:0:
329,73,127071,6,0,P|339:153|351:233,1,160.999994595337,6|0,0:0|0:0,0:0:0:0:
449,326,127404,2,0,P|402:294|296:319,1,160.999994595337,6|0,0:0|0:0,0:0:0:0:
179,286,127738,2,0,P|226:318|332:293,1,160.999994595337,2|2,0:0|0:0,0:0:0:0:
254,230,128071,1,2,0:0:0:0:
254,230,128182,2,0,P|249:190|244:151,1,80.4999972976685,8|4,3:0|3:0,0:0:0:0:
107,165,128404,2,0,P|101:204|96:244,1,80.4999972976685,8|8,0:0|0:0,0:0:0:0:
189,365,128627,2,0,P|183:325|178:285,1,80.4999972976685,4|8,3:0|3:0,0:0:0:0:
178,71,128849,6,0,P|236:52|320:87,2,136.49999916687,6|2|2,0:0|0:0|0:0,0:0:0:0:
254,239,129738,2,0,L|248:194|242:149,1,90.9999994445801,2|0,0:0|0:0,0:0:0:0:
305,74,130071,2,0,P|339:121|342:154,1,90.9999994445801,2|0,0:0|0:0,0:0:0:0:
333,173,130404,1,2,0:0:0:0:
268,345,130627,6,0,P|261:299|255:254,1,90.9999994445801,2|0,0:0|0:0,0:0:0:0:
241,148,130960,2,0,P|199:163|169:197,1,90.9999994445801,2|0,0:0|0:0,0:0:0:0:
165,221,131293,1,0,0:0:0:0:
354,267,131516,6,0,P|399:260|444:254,1,90.9999994445801,2|0,0:0|0:0,0:0:0:0:
423,160,131849,2,0,P|377:166|332:172,1,90.9999994445801,2|0,0:0|0:0,0:0:0:0:
255,254,132182,2,0,P|260:294|265:335,1,45.49999972229,2|0,0:0|0:0,0:0:0:0:
152,311,132404,6,0,P|158:265|164:220,1,90.9999994445801,2|0,0:0|0:0,0:0:0:0:
169,197,132738,2,0,P|131:195|65:107,1,136.49999916687,2|0,0:0|0:0,0:0:0:0:
320,81,133293,6,0,P|326:126|331:171,1,90.9999994445801,2|0,0:0|0:0,0:0:0:0:
335,192,133627,2,0,P|372:136|437:122,1,136.49999916687,2|2,0:0|0:0,0:0:0:0:
433,305,134182,2,0,P|428:260|422:215,1,90.9999994445801,2|0,0:0|0:0,0:0:0:0:
422,215,134516,1,0,0:0:0:0:
422,215,134627,1,8,0:0:0:0:
244,170,134849,1,0,0:0:0:0:
340,237,135071,6,0,P|335:205|331:173,1,45.49999972229,2|8,0:0|0:0,0:0:0:0:
159,121,135293,2,0,P|149:141|145:163,1,45.49999972229,0|0,0:0|0:0,0:0:0:0:
224,285,135516,2,0,P|211:266|193:251,1,45.49999972229,8|0,0:0|0:0,0:0:0:0:
55,259,135738,2,0,P|77:257|98:249,1,45.49999972229,4|0,3:0|0:0,0:0:0:0:
309,101,135960,6,0,P|365:102|427:163,2,136.49999916687,2|2|2,0:0|0:0|0:0,0:0:0:0:
350,299,136849,2,0,P|344:253|338:208,1,90.9999994445801,2|0,0:0|0:0,0:0:0:0:
334,191,137182,1,2,0:0:0:0:
334,191,137293,1,8,0:0:0:0:
207,119,137516,1,2,0:0:0:0:
127,256,137738,6,0,P|180:253|228:222,1,90.9999994445801,2|0,0:0|0:0,0:0:0:0:
235,224,138071,1,0,0:0:0:0:
235,224,138182,1,0,0:0:0:0:
108,155,138404,1,0,0:0:0:0:
34,281,138627,6,0,L|28:326|22:371,1,90.9999994445801,2|0,0:0|0:0,0:0:0:0:
127,256,139071,1,8,0:0:0:0:
18,189,139293,2,0,P|11:149|15:128,1,45.49999972229,2|0,0:0|0:0,0:0:0:0:
96,64,139516,6,0,P|101:109|107:154,1,90.9999994445801,2|0,0:0|0:0,0:0:0:0:
127,256,139849,1,2,0:0:0:0:
130,274,139960,2,0,P|189:283|249:222,1,136.49999916687,8|0,0:0|0:0,0:0:0:0:
248,222,140404,6,0,P|253:176|259:131,1,90.9999994445801,2|0,0:0|3:0,0:0:0:0:
342,52,140738,1,0,3:0:0:0:
356,38,140849,6,0,P|394:51|414:65,1,45.49999972229,8|0,0:0|0:0,0:0:0:0:
358,188,141071,2,0,P|354:161|351:135,1,45.49999972229,4|8,3:0|3:0,0:0:0:0:
464,212,141293,6,0,P|399:200|363:298,1,160.999994595337,8|2,0:0|0:0,0:0:0:0:
430,332,141627,2,0,P|488:283|463:211,1,160.999994595337,8|2,0:0|0:0,0:0:0:0:
354,272,141960,2,0,B|252:304|252:304|189:283,1,160.999994595337,8|2,0:0|0:0,0:0:0:0:
206,147,142293,1,8,0:0:0:0:
224,135,142404,2,0,P|250:166|261:220,1,80.4999972976685,8|4,3:0|3:0,0:0:0:0:
128,205,142627,2,0,P|114:166|122:112,1,80.4999972976685,8|8,0:0|0:0,0:0:0:0:
186,47,142849,2,0,P|225:39|278:57,1,80.4999972976685,4|4,3:0|3:0,0:0:0:0:
358,159,143071,6,0,P|269:142|216:133,1,136.49999916687,6|2,0:0|0:0,0:0:0:0:
128,205,143516,2,0,P|111:250|125:293,1,90.9999994445801,8|2,0:0|0:0,0:0:0:0:
353,259,143960,5,2,0:0:0:0:
363,243,144071,2,0,P|374:199|357:158,1,90.9999994445801,0|2,0:0|0:0,0:0:0:0:
261,214,144404,2,0,P|268:260|277:318,1,90.9999994445801,8|2,0:0|0:0,0:0:0:0:
283,336,144738,1,0,0:0:0:0:
283,336,144849,6,0,P|343:368|408:345,1,136.49999916687,2|2,0:0|0:0,0:0:0:0:
494,265,145293,2,0,P|435:253|401:248,1,90.9999994445801,0|0,0:0|0:0,0:0:0:0:
337,188,145627,1,0,0:0:0:0:
458,175,145738,5,2,0:0:0:0:
458,175,145849,2,0,P|399:163|365:158,1,90.9999994445801,0|0,0:0|0:0,0:0:0:0:
266,235,146182,2,0,P|250:194|268:143,1,90.9999994445801,8|2,0:0|0:0,0:0:0:0:
332,70,146516,1,0,0:0:0:0:
332,70,146627,6,0,L|427:85,1,90.9999994445801,2|0,0:0|0:0,0:0:0:0:
262,150,146960,2,0,L|160:169,1,90.9999994445801,2|0,0:0|0:0,0:0:0:0:
349,221,147293,2,0,P|357:245|363:269,1,45.49999972229,2|0,0:0|0:0,0:0:0:0:
261,350,147516,6,0,B|204:361|204:361|164:334,1,90.9999994445801,2|0,0:0|0:0,0:0:0:0:
28,286,147849,2,0,B|85:297|85:297|125:270,1,90.9999994445801,2|0,0:0|0:0,0:0:0:0:
262,150,148182,2,0,L|248:193,1,45.49999972229,2|0,0:0|0:0,0:0:0:0:
187,267,148404,5,2,0:0:0:0:
349,221,148627,1,2,0:0:0:0:
177,238,148849,5,8,0:0:0:0:
384,320,149071,1,2,0:0:0:0:
375,147,149293,5,2,0:0:0:0:
375,147,149404,1,8,0:0:0:0:
375,147,149516,2,0,L|359:195,1,45.49999972229,0|0,0:0|0:0,0:0:0:0:
448,64,149738,2,0,L|460:117,1,45.49999972229,8|8,0:0|0:0,0:0:0:0:
483,203,149960,1,4,3:0:0:0:
483,203,150071,1,8,3:0:0:0:
400,296,150182,6,0,P|343:284|302:266,1,90.9999994445801,2|0,0:0|0:0,0:0:0:0:
224,232,150516,1,2,0:0:0:0:
224,232,150627,2,0,P|233:190|250:142,1,90.9999994445801,8|2,0:0|0:0,0:0:0:0:
307,71,150960,1,0,0:0:0:0:
307,71,151071,6,0,P|265:62|217:45,1,90.9999994445801,6|0,0:0|0:0,0:0:0:0:
62,145,151404,2,0,P|104:129|149:120,1,90.9999994445801,2|0,0:0|0:0,0:0:0:0:
234,178,151738,1,2,0:0:0:0:
234,178,151849,1,0,0:0:0:0:
178,271,151960,6,0,P|121:260|82:252,1,90.9999994445801,6|0,0:0|0:0,0:0:0:0:
0,330,152293,2,0,P|18:333|50:341,1,45.49999972229,2|8,0:0|0:0,0:0:0:0:
160,384,152516,1,0,0:0:0:0:
160,384,152627,2,0,P|182:378|204:374,1,45.49999972229,2|0,0:0|0:0,0:0:0:0:
384,320,152849,6,0,P|340:330|298:313,1,90.9999994445801,2|0,0:0|0:0,0:0:0:0:
272,290,153182,1,2,0:0:0:0:
267,205,153293,6,0,P|283:246|273:290,1,90.9999994445801,2|8,0:0|0:0,0:0:0:0:
190,254,153627,1,8,0:0:0:0:
292,192,153738,6,0,B|377:162|355:237|460:193,2,160.999994595337,6|8|4,0:0|0:0|3:0,0:0:0:0:
190,254,154293,2,0,P|171:203|183:168,1,80.4999972976685,4|4,3:0|3:0,0:0:0:0:
342,85,154516,6,0,B|281:85|243:108|243:108|185:86,1,160.999994595337,12|2,0:0|0:0,0:0:0:0:
75,203,154849,2,0,L|167:183,1,80.4999972976685,8|0,0:0|0:0,0:0:0:0:
309,284,155071,2,0,L|217:264,1,80.4999972976685,8|0,0:0|0:0,0:0:0:0:
76,340,155293,1,8,0:0:0:0:
158,300,155404,1,8,0:0:0:0:
248,352,155516,6,0,P|336:369|395:321,2,160.999994595337,6|8|4,0:0|0:0|3:0,0:0:0:0:
158,300,156071,2,0,P|151:259|170:216,1,80.4999972976685,4|4,3:0|3:0,0:0:0:0:
297,168,156293,6,0,P|387:190|461:207,1,160.999994595337,12|2,0:0|0:0,0:0:0:0:
332,262,156627,2,0,P|289:251|237:237,1,80.4999972976685,8|0,0:0|0:0,0:0:0:0:
301,83,156849,2,0,P|339:92|378:103,1,80.4999972976685,8|0,0:0|0:0,0:0:0:0:
480,212,157071,1,8,0:0:0:0:
504,124,157182,1,8,0:0:0:0:
474,231,157293,6,0,P|463:265|448:316,1,80.4999972976685,6|0,0:0|0:0,0:0:0:0:
327,345,157516,2,0,B|275:333|275:333|225:360|225:360|170:347,1,160.999994595337,8|0,0:0|0:0,0:0:0:0:
20,285,157849,2,0,B|62:287|62:287|109:262,1,80.4999972976685,4|0,3:0|0:0,0:0:0:0:
279,177,158071,6,0,P|178:205|139:172,1,160.999994595337,12|0,0:0|0:0,0:0:0:0:
20,186,158404,2,0,P|27:156|51:104,1,80.4999972976685,12|0,0:0|0:0,0:0:0:0:
127,0,158627,2,0,P|138:38|154:75,1,80.4999972976685,12|0,0:0|0:0,0:0:0:0:
279,177,158849,2,0,P|295:140|306:101,1,80.4999972976685,12|0,0:0|0:0,0:0:0:0:
128,192,159071,6,0,P|146:261|163:331,1,143.500002189636,6|2,0:0|0:0,0:0:0:0:
239,247,159404,2,0,P|288:202|381:237,1,167.416669221242,8|8,0:0|3:0,0:0:0:0:
453,348,159738,6,0,B|418:269|503:263|436:161,1,181.99999888916,6|2,0:0|0:0,0:0:0:0:
443,173,160404,2,0,P|418:105|456:47,1,143.500002189636,8|2,0:0|0:0,0:0:0:0:
512,115,160738,1,0,0:0:0:0:
443,173,160849,6,0,P|355:157|293:129,1,143.500002189636,6|0,0:0|0:0,0:0:0:0:
201,57,161182,2,0,B|192:105|166:149|166:149|197:219,1,167.416669221242,8|8,0:0|3:0,0:0:0:0:
265,281,161516,6,0,P|192:231|107:261,1,181.99999888916,6|2,0:0|0:0,0:0:0:0:
109,258,162182,2,0,P|75:245|42:231,1,71.7500010948181,8|8,0:0|0:0,0:0:0:0:
100,122,162404,2,0,P|133:134|166:148,1,71.7500010948181,2|8,0:0|0:0,0:0:0:0:
338,222,162627,6,0,P|346:292|358:392,1,160.999994595337,6|2,0:0|0:0,0:0:0:0:
440,213,162960,1,8,0:0:0:0:
440,213,163071,2,0,P|397:230|330:217,1,107.333329730225,8|8,3:0|3:0,0:0:0:0:
180,161,163293,6,0,P|235:129|311:154,1,136.49999916687,6|0,0:0|0:0,0:0:0:0:
264,343,163738,2,0,P|256:281|249:218,1,126.000003076172,2|8,0:0|0:0,0:0:0:0:
108,103,164182,1,2,0:0:0:0:
125,305,164404,6,0,P|201:289|240:197,1,160.999994595337,6|0,0:0|0:0,0:0:0:0:
44,203,164738,1,8,0:0:0:0:
43,203,164849,2,0,P|97:208|150:216,1,107.333329730225,8|8,3:0|3:0,0:0:0:0:
371,315,165071,6,0,P|305:305|250:342,1,136.49999916687,6|8,0:0|0:0,0:0:0:0:
461,366,165516,2,0,P|474:335|470:286,1,63.000001538086,2|0,0:0|0:0,0:0:0:0:
389,247,165738,2,0,P|370:298|376:340,1,71.7500010948181,8|8,0:0|0:0,0:0:0:0:
315,193,165960,1,2,0:0:0:0:
315,193,166182,6,0,B|257:182|257:182|211:197|211:197|141:187,1,160.999994595337,6|2,0:0|0:0,0:0:0:0:
72,112,166516,2,0,P|105:155|116:258,1,160.999994595337,8|0,0:0|0:0,0:0:0:0:
39,309,166849,2,0,B|114:274|130:348|214:309,1,162.749993543244,6|0,0:0|0:0,0:0:0:0:
196,315,167293,1,2,0:0:0:0:
229,53,167516,1,8,0:0:0:0:
279,289,167738,1,2,0:0:0:0:
307,81,167960,6,0,L|148:71,1,143.500002189636,6|2,0:0|0:0,0:0:0:0:
64,165,168293,2,0,P|113:117|213:138,1,167.416669221242,8|8,0:0|3:0,0:0:0:0:
270,193,168627,2,0,P|244:211|148:193,1,136.49999916687,6|8,0:0|0:0,0:0:0:0:
147,192,169071,1,2,0:0:0:0:
321,126,169293,2,0,P|352:186|352:217,1,71.7500010948181,8|8,0:0|0:0,0:0:0:0:
439,157,169516,2,0,P|438:224|423:251,1,71.7500010948181,2|8,0:0|0:0,0:0:0:0:
359,272,169738,6,0,L|266:288,1,90.9999994445801,6|0,0:0|0:0,0:0:0:0:
77,340,170182,2,0,P|69:296|63:239,1,90.9999994445801,2|0,0:0|0:0,0:0:0:0:
181,72,170627,2,0,P|175:117|167:161,1,90.9999994445801,2|0,0:0|0:0,0:0:0:0:
261,345,171071,1,2,0:0:0:0:
336,157,171293,1,0,3:0:0:0:
458,317,171516,6,0,P|398:320|328:302,1,108.499995695496,2|0,0:0|0:0,0:0:0:0:
207,264,171849,2,0,P|274:252|336:233,1,108.499995695496,0|0,3:0|0:0,0:0:0:0:
409,174,172182,2,0,P|370:204|353:317,1,162.749993543244,0|0,0:0|0:0,0:0:0:0:
479,231,172627,2,0,P|494:194|495:173,1,54.2499978477479,0|0,0:0|3:0,0:0:0:0:
409,174,172849,2,0,P|396:136|383:119,1,54.2499978477479,2|0,0:0|0:0,0:0:0:0:
318,175,173071,2,0,P|281:160|259:159,1,54.2499978477479,0|0,3:0|0:0,0:0:0:0:
264,245,173293,6,0,P|218:234|184:132,2,143.500002189636,6|8|2,0:0|0:0|0:0,0:0:0:0:
270,65,173849,2,0,L|105:55,1,143.500002189636,8|8,0:0|0:0,0:0:0:0:
46,168,174182,1,2,0:0:0:0:
46,168,174293,2,0,P|109:137|189:160,1,143.500002189636,8|8,0:0|0:0,0:0:0:0:
264,245,174627,1,2,0:0:0:0:
402,58,174849,1,8,0:0:0:0:
381,326,175071,6,0,B|324:316|324:316|282:330|282:330|183:314,1,175,12|2,0:0|0:0,0:0:0:0:
96,271,175404,2,0,P|178:276|272:239,1,175,12|2,0:0|0:0,0:0:0:0:
160,87,175738,2,0,P|115:125|191:178,1,175,12|2,0:0|0:0,0:0:0:0:
253,115,176071,1,12,0:0:0:0:
253,115,176182,2,0,P|303:96|337:92,1,87.5,8|8,0:0|0:0,0:0:0:0:
401,194,176404,2,0,P|351:175|308:172,1,87.5,6|8,0:0|0:0,0:0:0:0:
249,275,176627,2,0,P|299:256|339:253,1,87.5,8|4,3:0|3:0,0:0:0:0:
398,311,176849,5,6,0:0:0:0:
504,336,191071,6,0,L|461:344|418:352,1,87.5,6|0,0:0|0:0,0:0:0:0:
190,310,191515,2,0,P|251:300|320:288,1,131.25,8|0,0:0|0:0,0:0:0:0:
400,248,191959,2,0,L|448:256,1,43.75,2|0,3:2|0:0,0:0:0:0:
320,192,192182,2,0,L|272:200,1,43.75,2|0,3:0|0:0,0:0:0:0:
392,136,192404,2,0,P|408:96|392:48,1,87.5,8|2,0:0|3:0,0:0:0:0:
376,24,192737,1,2,3:0:0:0:
376,24,192848,5,0,0:0:0:0:
322,92,192959,2,0,L|202:68,1,87.5,0|0,0:0|0:0,0:0:0:0:
168,4,193293,2,0,P|130:60|147:122,1,131.25,8|0,0:0|0:0,0:0:0:0:
216,176,193737,6,0,L|280:192,1,43.75,2|0,0:0|0:0,0:0:0:0:
128,216,193959,2,0,L|72:200,1,43.75,0|0,3:0|0:0,0:0:0:0:
248,272,194182,6,0,L|304:264,1,43.75,8|0,0:0|0:0,0:0:0:0:
136,344,194404,2,0,L|80:352,1,43.75,0|0,3:0|0:0,0:0:0:0:
240,376,194626,6,0,L|344:360,1,87.5,2|0,0:0|0:0,0:0:0:0:
352,352,194959,1,0,0:0:0:0:
424,304,195071,2,0,P|434:261|442:218,1,87.5,8|0,0:0|0:0,0:0:0:0:
448,192,195404,1,0,0:0:0:0:
352,232,195515,6,0,L|304:248,1,43.75,2|0,3:0|0:0,0:0:0:0:
182,178,195737,2,0,L|224:192,1,43.75,0|0,3:0|0:0,0:0:0:0:
368,112,195959,2,0,P|326:132|284:125,1,87.5,8|2,0:0|3:0,0:0:0:0:
256,112,196293,1,2,3:0:0:0:
176,64,196404,6,0,P|120:76|72:88,1,87.5,0|0,0:0|0:0,0:0:0:0:
0,216,196848,2,0,P|55:228|104:240,1,87.5,8|0,0:0|0:0,0:0:0:0:
304,328,197293,2,0,P|232:320|184:352,1,131.25,2|0,0:0|0:0,0:0:0:0:
88,272,197737,2,0,P|116:279|136:288,1,43.75,2|0,3:0|0:0,0:0:0:0:
208,224,197959,2,0,P|229:219|251:216,1,43.75,0|0,3:0|0:0,0:0:0:0:
320,296,198182,5,6,0:0:0:0:
320,296,198404,1,8,3:0:0:0:
480,208,198626,2,0,B|419:182|419:233|351:202,1,131.25,8|0,0:0|3:0,0:0:0:0:
344,112,199071,1,2,0:0:0:0:
344,112,199182,2,0,L|387:120,1,43.75,0|2,0:0|3:0,0:0:0:0:
493,288,199515,2,0,L|450:280,1,43.75,8|0,0:0|0:0,0:0:0:0:
360,312,199737,1,0,3:0:0:0:
360,312,199959,5,2,0:0:0:0:
272,280,200071,2,0,P|204:289|168:296,1,87.5,0|0,0:0|0:0,0:0:0:0:
104,344,200404,5,8,0:0:0:0:
48,240,200515,2,0,P|59:284|72:328,1,87.5,0|0,0:0|0:0,0:0:0:0:
184,272,200848,6,0,L|128:264,1,43.75,2|0,0:0|0:0,0:0:0:0:
192,184,201071,2,0,L|136:176,1,43.75,0|0,3:0|0:0,0:0:0:0:
40,112,201293,6,0,L|96:104,1,43.75,8|0,0:0|0:0,0:0:0:0:
24,24,201515,2,0,L|80:16,1,43.75,0|0,3:0|0:0,0:0:0:0:
168,56,201737,6,0,P|240:72|288:40,1,131.25,2|0,0:0|0:0,0:0:0:0:
304,24,202182,1,8,0:0:0:0:
392,112,202404,2,0,L|488:96,1,87.5,2|2,3:0|0:0,0:0:0:0:
456,24,202737,1,0,0:0:0:0:
456,24,202848,2,0,L|400:32,1,43.75,0|0,0:0|0:0,0:0:0:0:
320,136,203071,1,8,0:0:0:0:
320,136,203182,1,0,0:0:0:0:
319,135,203293,2,0,L|362:128,1,43.75,0|0,3:0|0:0,0:0:0:0:
496,208,203515,5,2,0:0:0:0:
408,280,203626,2,0,P|328:296|280:256,1,143.500002189636,12|2,0:0|0:0,0:0:0:0:
208,160,203959,2,0,B|192:217|192:217|208:248|208:248|192:304,1,143.500002189636,12|2,0:0|0:0,0:0:0:0:
99,349,204293,6,0,B|128:256|128:256|70:281,1,143.500002189636,12|2,0:0|0:0,0:0:0:0:
24,216,204627,2,8,L|104:184,1,71.7500010948181,12|0,0:0|0:0,0:0:0:0:
24,56,204849,2,8,L|104:88,1,71.7500010948181,2|0,0:0|0:0,0:0:0:0:
208,160,205071,2,8,L|288:128,1,71.7500010948181,2|0,0:0|0:0,0:0:0:0:
208,72,205293,5,2,0:0:0:0:
264,226,205404,2,0,B|344:194|344:266|432:226,1,160.999994595337,12|2,0:0|0:0,0:0:0:0:
504,152,205738,2,0,L|424:136,1,80.4999972976685,12|0,0:0|0:0,0:0:0:0:
320,72,205960,1,2,0:0:0:0:
208,160,206071,6,0,P|176:224|224:304,1,160.999994595337,12|0,0:0|0:0,0:0:0:0:
312,360,206404,2,0,P|356:350|410:339,1,80.4999972976685,12|0,0:0|0:0,0:0:0:0:
512,264,206627,2,0,P|467:254|414:243,1,80.4999972976685,2|0,0:0|0:0,0:0:0:0:
320,152,206849,2,0,P|364:142|418:131,1,80.4999972976685,2|0,0:0|0:0,0:0:0:0:
253,46,207071,6,0,P|269:121|278:233,1,175,2|0,0:0|0:0,0:0:0:0:
207,278,207404,1,0,3:2:0:0:
207,278,207516,2,0,B|285:241|300:320|400:265,1,175,2|8,3:2|0:0,0:0:0:0:
435,200,207849,1,0,3:2:0:0:
435,200,207960,2,0,P|436:146|433:104,2,87.5,2|0|0,3:2|0:0|0:0,0:0:0:0:
353,150,208293,2,0,B|301:140|301:140|260:158|260:158|219:143|168:139,1,175,0|0,3:2|0:0,0:0:0:0:
93,123,208627,1,8,3:2:0:0:
93,123,208738,1,0,3:2:0:0:
12,334,209071,6,0,P|53:318|99:313,1,87.5,8|0,3:2|0:0,0:0:0:0:
186,352,209293,2,0,P|256:359|351:301,1,175,2|8,3:2|3:2,0:0:0:0:
315,223,209627,1,0,3:2:0:0:
225,252,209738,2,0,L|122:235,1,87.5,2|0,3:2|0:0,0:0:0:0:
80,170,209960,1,8,3:2:0:0:
119,90,210071,2,0,P|158:128|128:245,1,175,0|0,3:2|0:2,0:0:0:0:
43,250,210404,1,8,3:2:0:0:
43,250,210516,1,0,3:2:0:0:
292,31,210849,6,0,P|305:83|306:132,1,87.5,8|0,3:2|0:2,0:0:0:0:
398,75,211071,2,0,P|394:128|382:177,1,87.5,2|0,3:2|0:2,0:0:0:0:
265,189,211293,2,0,P|252:241|249:292,1,87.5,8|0,3:2|0:2,0:0:0:0:
159,233,211515,2,0,P|162:286|174:332,1,87.5,2|0,3:2|0:2,0:0:0:0:
392,341,211738,2,0,L|378:250,1,87.5,8|0,3:2|0:2,0:0:0:0:
466,286,211960,2,0,L|480:192,1,87.5,2|0,3:2|0:2,0:0:0:0:
386,163,212182,2,0,L|370:73,1,87.5,8|0,3:2|0:2,0:0:0:0:
466,40,212404,6,0,L|275:31,1,175,2|8,3:2|0:2,0:0:0:0:
207,64,212738,1,0,0:2:0:0:
259,135,212849,2,0,L|242:238,1,87.5,2|0,3:2|0:0,0:0:0:0:
173,284,213071,1,8,3:2:0:0:
229,354,213182,2,0,P|157:375|88:301,1,175,0|0,3:2|0:0,0:0:0:0:
98,222,213516,2,0,P|102:169|87:126,1,87.5,8|0,0:2|0:0,0:0:0:0:
19,72,213738,2,0,P|72:43|108:43,1,87.5,2|0,0:2|0:2,0:0:0:0:
176,100,213960,2,0,P|230:98|283:71,1,87.5,8|0,0:2|0:2,0:0:0:0:
326,17,214182,5,4,0:2:0:0:
326,17,214404,2,0,B|393:92|293:130|386:208,1,175,8|2,3:2|0:2,0:0:0:0:
432,124,214738,1,2,0:2:0:0:
446,216,214849,2,0,P|416:258|359:272,1,87.5,8|0,3:2|0:2,0:0:0:0:
294,231,215071,2,0,L|190:222,1,87.5,2|0,3:2|0:2,0:0:0:0:
121,288,215293,2,0,P|123:238|105:192,1,87.5,8|0,3:2|0:2,0:0:0:0:
20,243,215516,2,0,P|18:193|32:149,1,87.5,2|0,3:2|0:2,0:0:0:0:
111,202,215738,2,0,P|113:152|98:104,1,87.5,8|0,3:2|0:2,0:0:0:0:
25,70,215960,6,0,B|163:54|163:54|224:79,1,175,2|8,3:2|0:2,0:0:0:0:
268,136,216293,1,0,0:2:0:0:
338,69,216404,2,0,P|365:128|303:227,1,175,2|8,3:2|0:2,0:0:0:0:
233,257,216738,1,0,0:2:0:0:
146,298,216849,2,0,L|129:114,2,175,2|8|0,3:2|0:2|0:0,0:0:0:0:
121,39,217516,1,8,0:2:0:0:
61,310,217738,6,0,L|262:282,1,175,6|8,3:2|0:2,0:0:0:0:
434,256,218071,2,0,P|329:254|265:186,1,175,0|0,3:2|0:2,0:0:0:0:
333,6,218404,2,0,P|362:89|369:175,1,175,8|2,3:2|0:2,0:0:0:0:
287,125,218738,1,2,0:2:0:0:
203,163,218849,2,0,L|110:150,1,87.5,8|0,0:2|0:2,0:0:0:0:
26,79,219071,2,0,P|36:132|39:194,1,87.5,2|0,0:2|0:2,0:0:0:0:
16,258,219293,1,8,0:2:0:0:
16,258,219515,6,0,B|65:251|65:251|104:273|104:273|148:261|203:262,1,175,2|8,3:2|0:2,0:0:0:0:
363,354,219849,2,0,B|338:302|335:215|335:215|374:158,1,175,0|0,3:2|0:2,0:0:0:0:
509,63,220182,2,0,B|428:109|420:21|306:78,1,175,8|2,3:2|0:2,0:0:0:0:
269,123,220515,1,2,0:2:0:0:
191,76,220627,2,0,P|136:66|94:72,1,87.5,8|0,0:2|0:2,0:0:0:0:
40,153,220849,2,0,P|95:143|134:149,1,87.5,2|0,0:2|0:2,0:0:0:0:
186,217,221071,1,8,0:2:0:0:
432,348,221293,6,0,B|398:255|474:255|449:178,1,175,6|0,3:2|0:2,0:0:0:0:
362,31,221627,2,0,P|372:82|352:218,1,175,6|0,3:2|0:2,0:0:0:0:
269,336,221960,2,0,B|254:248|257:209|257:209|282:160,1,175,6|0,3:2|0:2,0:0:0:0:
438,85,222293,2,0,P|379:110|272:56,1,175,6|0,3:2|0:2,0:0:0:0:
187,24,222627,2,0,P|127:34|88:49,1,87.5,8|0,0:2|0:0,0:0:0:0:
14,114,222849,2,0,P|74:124|111:138,1,87.5,8|0,3:2|0:0,0:0:0:0:
201,210,223071,6,0,P|102:221|51:291,1,175,6|0,0:0|0:0,0:0:0:0:
211,138,223404,2,0,P|142:210|149:299,1,175,6|0,0:0|0:0,0:0:0:0:
170,79,223738,2,0,P|163:178|222:241,1,175,2|0,0:0|0:0,0:0:0:0:
243,144,224071,1,8,0:0:0:0:
305,213,224182,2,0,L|287:309,1,87.5,8|0,3:0|0:0,0:0:0:0:
373,317,224404,2,0,L|388:231,1,87.5,8|8,0:0|0:0,0:0:0:0:
456,152,224627,1,4,3:0:0:0:
456,152,224738,1,8,3:0:0:0:
378,112,224849,6,0,P|440:120|510:80,1,136.49999916687,6|0,0:0|0:0,0:0:0:0:
304,208,225515,1,0,0:0:0:0:
407,304,225738,6,0,B|342:280|342:341|260:304,1,136.49999916687,0|0,0:0|0:0,0:0:0:0:
112,168,226404,1,0,0:0:0:0:
21,321,226627,6,0,P|93:297|146:287,1,108.499995695496,6|0,0:0|0:0,0:0:0:0:
232,220,226960,2,0,P|183:211|115:189,1,108.499995695496,0|0,0:0|0:0,0:0:0:0:
15,132,227293,2,0,P|55:124|84:117,1,54.2499978477479,0|0,0:0|0:0,0:0:0:0:
160,48,227516,6,0,B|224:56|224:56|264:32|264:32|329:41,1,175,8|0,0:0|0:0,0:0:0:0:
488,112,227849,2,0,B|424:104|424:104|384:128|384:128|315:121,1,175,8|0,0:0|0:0,0:0:0:0:
208,176,228182,2,0,P|192:216|206:262,1,87.5,8|0,0:0|0:0,0:0:0:0:
288,344,228404,6,0,L|424:376,2,136.49999916687,6|2|2,0:0|0:0|0:0,0:0:0:0:
204,258,229293,2,0,P|148:266|96:280,1,90.9999994445801,2|0,0:0|0:0,0:0:0:0:
16,320,229627,2,0,P|24:274|40:216,1,90.9999994445801,2|0,0:0|0:0,0:0:0:0:
96,168,229960,2,0,L|152:184,1,45.49999972229,2|0,0:0|0:0,0:0:0:0:
216,240,230182,5,6,0:0:0:0:
152,96,230404,1,0,0:0:0:0:
104,296,230627,5,8,0:0:0:0:
240,160,230849,1,0,0:0:0:0:
304,360,231071,5,2,0:0:0:0:
304,360,231182,2,0,L|408:344,1,90.9999994445801,8|0,0:0|0:0,0:0:0:0:
504,304,231515,2,0,P|472:294|448:288,1,45.49999972229,8|8,0:0|0:0,0:0:0:0:
340,244,231738,2,0,L|362:238|384:232,1,45.49999972229,4|0,3:0|0:0,0:0:0:0:
480,200,231960,6,0,B|496:159|496:159|474:113,1,90.9999994445801,6|0,0:0|0:0,0:0:0:0:
456,88,232293,1,2,0:0:0:0:
368,152,232404,2,0,P|319:157|284:135,1,90.9999994445801,8|2,0:0|0:0,0:0:0:0:
136,48,232849,5,2,0:0:0:0:
136,48,232960,2,0,L|32:72,1,90.9999994445801,0|2,0:0|0:0,0:0:0:0:
136,128,233293,2,0,L|184:112,1,45.49999972229,8|0,0:0|0:0,0:0:0:0:
64,192,233515,2,0,L|16:176,1,45.49999972229,2|0,0:0|0:0,0:0:0:0:
152,232,233738,6,0,P|176:280|168:328,1,90.9999994445801,2|0,0:0|0:0,0:0:0:0:
8,312,234071,2,0,L|104:288,1,90.9999994445801,0|0,0:0|0:0,0:0:0:0:
176,224,234404,2,0,L|232:208,1,45.49999972229,0|0,0:0|0:0,0:0:0:0:
336,248,234627,5,2,0:0:0:0:
336,248,234738,2,0,B|348:294|348:294|332:334,1,90.9999994445801,0|0,0:0|0:0,0:0:0:0:
256,376,235071,2,0,B|240:336|240:336|252:289,1,90.9999994445801,8|2,0:0|0:0,0:0:0:0:
320,224,235404,1,0,0:0:0:0:
416,248,235515,6,0,L|507:263,1,90.9999994445801,2|0,0:0|0:0,0:0:0:0:
496,168,235849,1,2,0:0:0:0:
496,168,235960,2,0,L|405:153,1,90.9999994445801,8|2,0:0|0:0,0:0:0:0:
320,96,236293,1,0,0:0:0:0:
440,48,236404,6,0,P|370:59|344:64,1,90.9999994445801,2|0,0:0|3:0,0:0:0:0:
248,136,236738,2,0,P|203:128|158:121,1,90.9999994445801,0|4,3:0|3:0,0:0:0:0:
96,56,237070,1,0,0:0:0:0:
96,56,237181,1,0,0:0:0:0:
24,144,237293,6,0,B|8:200|-8:248|-8:248|32:296,1,160.999994595337,8|2,0:0|0:0,0:0:0:0:
200,240,237627,6,0,B|136:208|136:264|64:224,1,126.000003076172,8|2,0:0|0:0,0:0:0:0:
8,368,237960,6,0,P|48:336|104:344,1,90.9999994445801,8|2,0:0|0:0,0:0:0:0:
184,376,238293,1,8,0:0:0:0:
240,232,238404,6,0,L|264:288,1,45.49999972229,4|8,3:0|3:0,0:0:0:0:
92,187,238627,2,0,L|76:235,1,45.49999972229,8|8,0:0|0:0,0:0:0:0:
200,120,238849,2,0,L|256:104,1,45.49999972229,4|4,3:0|3:0,0:0:0:0:
352,160,239071,6,0,P|440:168|480:128,2,136.49999916687,6|2|2,0:0|0:0|0:0,0:0:0:0:
176,32,239960,1,2,0:0:0:0:
176,32,240071,2,0,P|184:67|192:129,1,90.9999994445801,0|2,0:0|0:0,0:0:0:0:
136,206,240404,2,0,P|188:217|235:206,1,90.9999994445801,8|2,0:0|0:0,0:0:0:0:
403,285,240849,6,0,P|326:293|263:277,2,136.49999916687,2|2|0,0:0|0:0|0:0,0:0:0:0:
468,100,241738,1,2,0:0:0:0:
468,100,241849,2,0,L|480:203,1,90.9999994445801,0|2,0:0|0:0,0:0:0:0:
371,124,242182,2,0,L|309:116,1,45.49999972229,8|0,0:0|0:0,0:0:0:0:
233,169,242404,2,0,L|187:174,1,45.49999972229,2|0,0:0|0:0,0:0:0:0:
98,81,242627,6,0,P|87:123|79:179,1,90.9999994445801,2|0,0:0|0:0,0:0:0:0:
206,263,242960,2,0,P|199:218|187:174,1,90.9999994445801,2|0,0:0|0:0,0:0:0:0:
121,295,243293,2,0,P|140:331|155:349,1,45.49999972229,2|0,0:0|0:0,0:0:0:0:
294,260,243515,2,0,B|240:252|240:252|191:267,1,90.9999994445801,2|0,0:0|0:0,0:0:0:0:
364,332,243849,2,0,L|392:234,1,90.9999994445801,2|0,0:0|0:0,0:0:0:0:
319,127,244182,2,0,L|330:182,1,45.49999972229,2|0,0:0|0:0,0:0:0:0:
419,82,244404,6,0,L|408:137,1,45.49999972229,2|0,0:0|0:0,0:0:0:0:
504,126,244627,2,0,L|515:181,1,45.49999972229,0|0,0:0|0:0,0:0:0:0:
489,39,244849,2,0,L|335:25,1,136.49999916687,8|0,0:0|0:0,0:0:0:0:
222,61,245293,1,2,0:0:0:0:
222,61,245404,2,0,P|251:88|264:154,1,90.9999994445801,8|0,0:0|0:0,0:0:0:0:
192,211,245738,2,0,P|173:238|164:264,1,45.49999972229,8|8,0:0|0:0,0:0:0:0:
194,338,245960,1,4,3:0:0:0:
194,338,246182,6,0,B|229:333|300:340,1,90.9999994445801,2|0,0:0|0:0,0:0:0:0:
378,258,246515,2,0,B|343:253|272:260,1,90.9999994445801,2|0,0:0|0:0,0:0:0:0:
390,344,246849,2,0,P|437:338|448:335,1,45.49999972229,2|0,0:0|0:0,0:0:0:0:
412,175,247071,6,0,P|388:215|377:274,1,90.9999994445801,6|0,0:0|0:0,0:0:0:0:
271,85,247404,2,0,P|295:125|306:184,1,90.9999994445801,2|0,0:0|0:0,0:0:0:0:
194,32,247738,2,0,P|182:71|177:95,1,45.49999972229,2|0,0:0|0:0,0:0:0:0:
211,240,247960,2,0,P|205:218|197:196,1,45.49999972229,6|0,0:0|0:0,0:0:0:0:
118,152,248182,1,0,0:0:0:0:
118,152,248293,2,0,P|112:195|105:251,1,90.9999994445801,2|0,0:0|0:0,0:0:0:0:
6,183,248627,2,0,L|11:239,1,45.49999972229,2|0,0:0|0:0,0:0:0:0:
26,326,248849,5,2,0:0:0:0:
60,94,249071,1,0,0:0:0:0:
26,326,249293,2,0,L|80:319,1,45.49999972229,2|8,0:0|0:0,0:0:0:0:
167,344,249515,2,0,L|212:349,1,45.49999972229,8|8,0:0|0:0,0:0:0:0:
372,309,249738,6,0,P|319:317|245:234,2,160.999994595337,6|8|4,0:0|0:0|3:0,0:0:0:0:
358,157,250293,2,0,P|338:203|331:239,1,80.4999972976685,4|4,3:0|3:0,0:0:0:0:
399,83,250515,2,0,B|316:52|321:125|218:75,1,160.999994595337,12|2,0:0|0:0,0:0:0:0:
87,43,250849,2,0,P|138:32|172:30,1,80.4999972976685,8|0,0:0|0:0,0:0:0:0:
221,165,251071,2,0,P|170:154|136:152,1,80.4999972976685,8|0,0:0|0:0,0:0:0:0:
70,246,251293,1,8,0:0:0:0:
166,234,251404,1,8,0:0:0:0:
290,311,251515,6,0,B|258:221|335:242|308:141,2,160.999994595337,6|8|4,0:0|0:0|3:0,0:0:0:0:
455,273,252071,2,0,P|389:267|359:272,1,80.4999972976685,4|4,3:0|3:0,0:0:0:0:
466,149,252293,2,0,P|413:179|376:285,1,160.999994595337,12|2,0:0|0:0,0:0:0:0:
380,77,252627,2,0,P|347:128|339:161,1,80.4999972976685,8|0,0:0|0:0,0:0:0:0:
250,107,252849,2,0,P|257:167|272:197,1,80.4999972976685,8|0,0:0|0:0,0:0:0:0:
149,201,253071,2,0,P|185:248|214:266,1,80.4999972976685,8|8,0:0|0:0,0:0:0:0:
139,325,253293,6,0,P|179:350|283:300,2,160.999994595337,2|8|8,0:0|0:0|0:0,0:0:0:0:
63,143,253960,1,4,3:0:0:0:
17,224,254071,2,0,P|70:231|162:170,1,160.999994595337,8|2,0:0|0:0,0:0:0:0:
349,100,254404,2,0,P|288:88|257:93,1,80.4999972976685,8|0,0:0|0:0,0:0:0:0:
158,176,254627,2,0,P|219:164|250:169,1,80.4999972976685,8|0,0:0|0:0,0:0:0:0:
353,253,254849,2,0,P|292:241|261:246,1,80.4999972976685,4|4,3:0|3:0,0:0:0:0:
229,323,255071,5,0,0:0:0:0:
270,89,255515,1,0,0:0:0:0:
319,329,255960,1,0,0:0:0:0:
184,90,256404,1,0,0:0:0:0:
138,321,256849,5,0,0:0:0:0:
361,90,257293,1,0,0:0:0:0:
414,336,257738,1,0,0:0:0:0:
236,157,258182,5,8,0:0:0:0:
425,191,258404,1,8,0:0:0:0:
271,246,258627,6,0,P|210:251|177:237,1,80.4999972976685,6|0,0:0|0:0,0:0:0:0:
209,81,258849,2,0,P|229:132|240:177,1,80.4999972976685,0|0,0:0|0:0,0:0:0:0:
89,203,259071,2,0,P|140:162|169:154,1,80.4999972976685,0|0,0:0|0:0,0:0:0:0:
192,245,259293,1,8,0:0:0:0:
151,331,259404,1,2,0:0:0:0:
275,307,259515,6,0,L|358:312,1,80.4999972976685,2|0,0:0|0:0,0:0:0:0:
407,224,259738,2,0,L|324:229,1,80.4999972976685,8|0,2:0|0:0,0:0:0:0:
269,140,259960,2,0,L|352:145,1,80.4999972976685,2|0,0:0|0:0,0:0:0:0:
406,73,260182,1,8,0:0:0:0:
464,147,260293,1,0,0:0:0:0:
471,33,260404,6,0,L|368:16,1,80.4999972976685,2|0,0:0|0:0,0:0:0:0:
294,54,260627,2,0,L|214:67,1,80.4999972976685,8|0,0:0|0:0,0:0:0:0:
57,144,260849,2,0,L|160:127,1,80.4999972976685,2|0,0:0|0:0,0:0:0:0:
234,165,261072,2,0,L|313:178,1,80.4999972976685,8|2,0:0|0:0,0:0:0:0:
395,285,261293,5,2,0:0:0:0:
363,277,261404,1,0,0:0:0:0:
333,269,261515,2,0,P|274:263|228:262,1,80.4999972976685,8|0,0:0|0:0,0:0:0:0:
107,245,261738,2,0,P|189:226|256:266,1,160.999994595337,2|8,0:0|0:0,0:0:0:0:
170,308,262071,1,0,0:0:0:0:
40,322,262182,6,0,P|12:271|8:231,1,80.4999972976685,6|0,0:0|0:0,0:0:0:0:
63,172,262404,2,0,P|84:138|94:99,1,80.4999972976685,8|0,0:0|0:0,0:0:0:0:
17,31,262627,2,0,L|126:15,1,80.4999972976685,2|0,0:0|0:0,0:0:0:0:
182,68,262849,1,8,0:0:0:0:
265,24,262960,1,2,0:0:0:0:
263,118,263071,6,0,L|279:199,1,80.4999972976685,2|0,0:0|0:0,0:0:0:0:
370,78,263293,2,0,L|354:159,1,80.4999972976685,8|0,0:0|0:0,0:0:0:0:
479,50,263515,2,0,L|445:127,1,80.4999972976685,2|0,0:0|0:0,0:0:0:0:
421,212,263738,1,8,0:0:0:0:
454,297,263849,1,0,0:0:0:0:
359,283,263960,6,0,B|275:265|280:336|173:285,2,160.999994595337,2|8|2,0:0|0:0|0:0,0:0:0:0:
239,127,264627,1,8,0:0:0:0:
161,183,264738,6,0,L|-2:167,1,160.999994595337,2|2,0:0|0:0,0:0:0:0:
99,36,265071,1,8,0:0:0:0:
194,271,265293,1,2,0:0:0:0:
321,35,265515,2,0,B|338:96|338:96|332:126,1,80.4999972976685,8|8,0:0|0:0,0:0:0:0:
299,202,265738,6,0,B|282:263|282:263|285:279,1,80.4999972976685,6|0,0:0|0:0,0:0:0:0:
359,351,265960,2,0,P|309:368|262:372,1,80.4999972976685,8|0,0:0|0:0,0:0:0:0:
193,270,266182,2,0,P|155:256|116:250,1,80.4999972976685,2|0,0:0|0:0,0:0:0:0:
39,310,266404,1,8,0:0:0:0:
8,219,266515,1,2,0:0:0:0:
36,125,266627,6,0,P|89:111|125:109,1,80.4999972976685,2|0,0:0|0:0,0:0:0:0:
241,192,266849,2,0,P|188:178|152:176,1,80.4999972976685,8|0,0:0|0:0,0:0:0:0:
243,101,267071,2,0,P|296:87|332:85,1,80.4999972976685,2|0,0:0|0:0,0:0:0:0:
397,143,267293,1,8,0:0:0:0:
347,222,267404,1,0,0:0:0:0:
399,306,267515,6,0,B|348:316|348:316|300:298|300:298|238:305,2,160.999994595337,2|8|2,0:0|0:0|0:0,0:0:0:0:
168,357,268182,1,8,0:0:0:0:
142,269,268293,1,2,0:0:0:0:
197,194,268404,6,0,P|134:184|97:182,1,80.4999972976685,8|8,0:0|0:0,0:0:0:0:
37,111,268627,2,0,P|100:101|137:99,1,80.4999972976685,8|8,0:0|0:0,0:0:0:0:
244,116,268849,5,8,0:0:0:0:
271,113,268960,1,8,0:0:0:0:
197,194,269071,5,8,0:0:0:0:
170,191,269182,1,8,0:0:0:0:
271,113,269738,6,0,B|354:202|479:138|330:-14|234:18|170:122|314:290|314:290|218:178|122:222|114:338|-13:269|-13:269|12:210|66:184|141:228,1,1049.99996795654,4|0,0:0|0:0,0:0:0:0:
