osu file format v14

[General]
AudioFilename: audio.mp3
AudioLeadIn: 0
PreviewTime: 224793
Countdown: 0
SampleSet: Soft
StackLeniency: 0.7
Mode: 0
LetterboxInBreaks: 0
WidescreenStoryboard: 1

[Editor]
DistanceSpacing: 1
BeatDivisor: 4
GridSize: 32
TimelineZoom: 1.4

[Metadata]
Title:RHAPSODY OF BLUE SKY
TitleUnicode:青空のラプソディ
Artist:fhana
ArtistUnicode:fhána
Creator:Sotarks
Version:Akitoshi's Normal
Source:小林さんちのメイドラゴン
Tags:Kobayashi-san Chi no Maid Dragon Op Opening full ver version lantis anime aozora no junichi sato yuxuki waga kevin mitsunaga towana nozhomi xinely kalibe haruto haruto_aizawa pkk akitoshi corinn pentori
BeatmapID:1192433
BeatmapSetID:556757

[Difficulty]
HPDrainRate:4
CircleSize:3
OverallDifficulty:4
ApproachRate:5
SliderMultiplier:1.12
SliderTickRate:1

[Events]
//Background and Video events
0,0,"BG.jpg",0,0
//Break Periods
2,84604,86316
2,88160,90316
2,177049,189871
//Storyboard Layer 0 (Background)
//Storyboard Layer 1 (Fail)
//Storyboard Layer 2 (Pass)
//Storyboard Layer 3 (Foreground)
//Storyboard Sound Samples

[TimingPoints]
4405,444.444444444444,4,2,2,52,1,0
4405,-100,4,2,2,52,0,0
16849,-100,4,2,3,52,0,0
18627,-100,4,2,3,62,0,0
20405,-66.6666666666667,4,2,3,52,0,0
36404,-66.6666666666667,4,2,3,42,0,0
47071,-66.6666666666667,4,2,3,52,0,0
48849,-66.6666666666667,4,2,3,52,0,1
50182,-66.6666666666667,4,2,3,52,0,0
50627,-66.6666666666667,4,2,3,62,0,1
51960,-66.6666666666667,4,2,3,62,0,0
52404,-66.6666666666667,4,2,3,62,0,1
54182,-66.6666666666667,4,2,2,52,0,0
65738,-66.6666666666667,4,2,2,62,0,0
66182,-66.6666666666667,4,2,2,72,0,0
66627,-66.6666666666667,4,2,3,62,0,1
66960,-66.6666666666667,4,2,3,52,0,1
67960,-66.6666666666667,4,2,3,72,0,1
68404,-66.6666666666667,4,2,2,52,0,0
79071,-66.6666666666667,4,2,3,62,0,1
84404,-66.6666666666667,4,2,3,62,0,0
93293,-66.6666666666667,4,2,3,72,0,0
94627,-66.6666666666667,4,2,3,82,0,0
95071,-66.6666666666667,4,2,3,52,0,0
111071,-66.6666666666667,4,2,3,42,0,0
121738,-66.6666666666667,4,2,3,52,0,0
123516,-66.6666666666667,4,2,3,52,0,1
124849,-66.6666666666667,4,2,3,52,0,0
125293,-66.6666666666667,4,2,3,62,0,1
126627,-66.6666666666667,4,2,3,62,0,0
127071,-66.6666666666667,4,2,3,62,0,1
128849,-66.6666666666667,4,2,2,52,0,0
140405,-66.6666666666667,4,2,2,62,0,0
140849,-66.6666666666667,4,2,2,72,0,0
141293,-66.6666666666667,4,2,3,62,0,1
141627,-66.6666666666667,4,2,3,52,0,1
141960,-66.6666666666667,4,2,3,52,0,1
142627,-66.6666666666667,4,2,3,72,0,1
143071,-66.6666666666667,4,2,2,52,0,0
153738,-66.6666666666667,4,2,2,62,0,1
159071,-66.6666666666667,4,2,2,72,0,0
175071,-66.6666666666667,4,2,2,82,0,1
176849,-66.6666666666667,4,2,2,72,0,0
191071,-100,4,2,2,72,0,0
203516,-66.6666666666667,4,2,2,52,0,1
205292,-66.6666666666667,4,2,2,62,0,1
207071,-66.6666666666667,4,2,2,62,0,0
219514,-66.6666666666667,4,2,2,72,0,0
220181,-66.6666666666667,4,2,2,82,0,0
221293,-66.6666666666667,4,2,2,82,0,1
222627,-66.6666666666667,4,2,2,82,0,0
223071,-66.6666666666667,4,2,2,72,0,1
223959,-66.6666666666667,4,2,2,62,0,1
224403,-66.6666666666667,4,2,2,72,0,1
224849,-66.6666666666667,4,2,2,72,0,0
227514,-66.6666666666667,4,2,2,62,0,0
228403,-66.6666666666667,4,2,2,52,0,0
236403,-66.6666666666667,4,2,2,62,0,0
236848,-66.6666666666667,4,2,2,72,0,0
237293,-66.6666666666667,4,2,3,62,0,1
237626,-66.6666666666667,4,2,3,52,0,1
237959,-66.6666666666667,4,2,3,52,0,1
238626,-66.6666666666667,4,2,3,72,0,1
239071,-66.6666666666667,4,2,2,52,0,0
249738,-66.6666666666667,4,2,2,72,0,1
255071,-66.6666666666667,4,2,2,62,0,0
274182,-66.6666666666667,4,2,2,12,0,0

[Colours]
Combo1 : 172,210,205
Combo2 : 255,62,226
Combo3 : 242,255,85
Combo4 : 20,0,204
SliderTrackOverride : 0,0,10
SliderBorder : 255,255,250

[HitObjects]
334,176,4405,6,0,P|389:157|459:175,2,112,6|8|2,0:0|0:0|3:2,0:0:0:0:
397,268,5738,1,10,0:0:0:0:
285,255,6182,2,0,P|248:213|251:137,1,112,2|8,2:0|0:0,0:0:0:0:
291,58,7071,2,0,P|249:47|174:70,1,112,2|10,3:2|0:0,0:0:0:0:
91,127,7960,6,0,P|72:74|91:3,2,112,2|8|2,0:0|0:0|3:2,0:0:0:0:
151,221,9293,1,10,0:0:0:0:
243,159,9738,2,0,L|361:153,1,112,2|8,0:0|0:0,0:0:0:0:
366,264,10627,2,0,L|248:270,1,112,2|10,3:2|0:0,0:0:0:0:
151,221,11516,6,0,P|133:173|151:97,2,112,2|8|2,0:0|0:0|3:2,0:0:0:0:
243,159,12849,1,10,0:0:0:0:
207,53,13293,2,0,P|160:27|89:43,1,112,0|8,0:0|0:0,0:0:0:0:
17,105,14182,2,0,L|17:218,1,112,2|8,3:2|0:0,0:0:0:0:
66,317,15071,6,0,P|125:322|178:308,1,112,2|8,0:0|0:0,0:0:0:0:
272,252,15960,1,2,0:0:0:0:
308,146,16404,1,8,0:0:0:0:
205,101,16849,6,0,P|131:84|-1:226,1,280,2|8,0:0|0:0,0:0:0:0:
2,270,18182,1,2,0:0:0:0:
73,356,18627,6,0,P|147:373|279:231,1,280,2|8,0:0|0:0,0:0:0:0:
273,186,19960,1,2,0:0:0:0:
414,94,20405,6,0,L|420:189,1,84.0000032043458,6|8,0:0|0:0,0:0:0:0:
363,240,20849,2,0,P|380:296|382:365,2,126.000004806519,2|2|8,0:0|0:0|0:0,0:0:0:0:
278,242,21738,2,0,P|244:269|195:276,1,84.0000032043458,2|8,0:0|0:0,0:0:0:0:
121,274,22182,6,0,P|86:248|66:202,1,84.0000032043458,2|8,0:0|0:0,0:0:0:0:
109,138,22627,2,0,L|100:13,2,126.000004806519,2|2|8,0:0|0:0|0:0,0:0:0:0:
176,188,23516,2,0,B|218:193|218:193|262:181,1,84.0000032043458,2|8,0:0|0:0,0:0:0:0:
321,126,23960,6,0,L|422:123,1,84.0000032043458,6|8,0:0|0:0,0:0:0:0:
488,116,24404,2,0,P|466:66|389:41,2,126.000004806519,2|2|8,0:0|0:0|0:0,0:0:0:0:
450,191,25293,2,0,L|458:274,1,84.0000032043458,2|8,0:0|0:0,0:0:0:0:
410,343,25738,6,0,P|370:357|290:326,1,126.000004806519,6|2,0:0|0:0,0:0:0:0:
234,270,26293,1,4,3:0:0:0:
173,211,26516,2,0,B|118:193|102:234|39:212,1,126.000004806519,6|8,0:0|0:0,0:0:0:0:
1,146,27071,1,8,0:0:0:0:
28,66,27293,1,8,3:0:0:0:
109,43,27516,6,0,P|145:41|189:64,1,84.0000032043458,6|8,0:0|0:0,0:0:0:0:
261,99,27960,2,0,L|397:91,2,126.000004806519,2|2|8,0:0|0:0|0:0,0:0:0:0:
202,160,28849,2,0,B|195:201|195:201|204:260,1,84.0000032043458,2|8,0:0|0:0,0:0:0:0:
244,314,29293,6,0,P|289:323|333:312,1,84.0000032043458,2|8,0:0|0:0,0:0:0:0:
386,257,29738,2,0,L|512:265,2,126.000004806519,2|2|8,0:0|0:0|0:0,0:0:0:0:
334,190,30627,2,0,P|325:146|322:107,1,84.0000032043458,0|8,0:0|0:0,0:0:0:0:
287,30,31071,6,0,B|244:24|244:24|193:31,1,84.0000032043458,2|8,0:0|0:0,0:0:0:0:
132,74,31516,2,0,L|5:66,2,126.000004806519,2|2|8,0:0|0:0|0:0,0:0:0:0:
176,145,32404,2,0,P|186:194|178:233,1,84.0000032043458,2|8,0:0|0:0,0:0:0:0:
133,296,32849,6,0,P|176:271|262:280,1,126.000004806519,6|2,0:0|0:0,0:0:0:0:
326,308,33404,1,2,0:0:0:0:
364,232,33627,2,0,L|354:103,1,126.000004806519,6|8,0:0|0:0,0:0:0:0:
372,24,34182,2,0,P|414:21|462:38,1,84.0000032043458,2|8,0:0|0:0,0:0:0:0:
484,111,34627,6,0,L|494:240,1,126.000004806519,6|4,0:0|3:0,0:0:0:0:
498,320,35182,1,4,3:0:0:0:
426,363,35404,2,0,P|376:372|304:337,1,126.000004806519,2|8,0:0|0:0,0:0:0:0:
252,279,35960,1,8,0:0:0:0:
168,283,36182,1,8,3:0:0:0:
83,286,36404,6,0,B|74:245|74:245|81:196,1,84.0000032043458,6|0,0:0|0:0,0:0:0:0:
142,146,36849,2,0,P|100:121|18:146,2,126.000004806519,8|8|2,0:0|0:0|0:0,0:0:0:0:
205,201,37738,2,0,L|294:201,1,84.0000032043458,8|2,0:0|0:0,0:0:0:0:
372,201,38182,6,0,B|379:245|379:245|374:296,2,84.0000032043458,2|0|8,0:0|0:0|0:0,0:0:0:0:
332,126,38849,2,0,P|369:116|457:197,1,168.000006408692,2|0,0:0|0:0,0:0:0:0:
459,278,39516,2,0,L|363:285,1,84.0000032043458,8|2,0:0|0:0,0:0:0:0:
306,332,39960,6,0,L|210:339,1,84.0000032043458,6|0,0:0|0:0,0:0:0:0:
151,292,40404,2,0,P|140:234|180:174,2,126.000004806519,8|8|2,0:0|0:0|0:0,0:0:0:0:
222,247,41293,2,0,L|320:241,1,84.0000032043458,8|2,0:0|0:0,0:0:0:0:
365,182,41738,6,0,L|463:176,2,84.0000032043458,2|0|8,0:0|0:0|0:0,0:0:0:0:
294,137,42404,2,0,B|283:106|296:55|296:55|252:67|213:52,1,168.000006408692,0|2,0:0|0:0,0:0:0:0:
130,31,43071,2,0,P|88:49|61:90,1,84.0000032043458,8|4,0:0|3:0,0:0:0:0:
52,161,43516,6,0,P|70:203|111:230,1,84.0000032043458,6|0,0:0|0:0,0:0:0:0:
178,253,43960,2,0,L|171:378,2,126.000004806519,8|8|2,0:0|0:0|0:0,0:0:0:0:
234,190,44849,2,0,P|274:180|328:195,1,84.0000032043458,8|2,0:0|0:0,0:0:0:0:
382,238,45293,6,0,P|389:150|318:105,1,168.000006408692,2|8,0:0|0:0,0:0:0:0:
247,94,45960,2,0,B|199:101|171:125|171:125|129:111|78:121,1,168.000006408692,6|0,0:0|0:0,0:0:0:0:
27,179,46627,1,8,0:0:0:0:
27,262,46849,1,4,3:0:0:0:
86,321,47071,6,0,P|129:341|247:306,1,168.000006408692,2|8,0:0|0:0,0:0:0:0:
287,242,47738,1,2,0:0:0:0:
330,169,47960,2,0,L|427:165,1,84.0000032043458,2|0,0:0|0:0,0:0:0:0:
408,81,48404,2,0,L|324:84,1,84.0000032043458,8|4,0:0|3:0,0:0:0:0:
239,86,48849,6,0,B|169:124|169:124|78:121,1,168.000006408692,2|12,0:0|0:0,0:0:0:0:
19,179,49516,2,0,P|9:258|60:339,1,168.000006408692,2|12,0:0|0:0,0:0:0:0:
128,365,50182,1,8,0:0:0:0:
211,365,50404,1,4,3:0:0:0:
283,322,50627,6,0,B|368:297|363:351|454:328,1,168.000006408692,2|12,0:0|0:0,0:0:0:0:
502,265,51293,2,0,B|511:153|511:153|485:95,1,168.000006408692,2|12,0:0|0:0,0:0:0:0:
429,41,51960,1,8,0:0:0:0:
348,18,52182,1,4,3:0:0:0:
279,66,52405,6,0,L|144:59,1,126.000004806519,6|6,0:0|0:0,0:0:0:0:
46,127,53071,2,0,P|30:177|84:278,1,168.000006408692,2|8,0:0|3:0,0:0:0:0:
160,297,53738,2,0,L|259:288,1,84.0000032043458,8|4,0:0|3:0,0:0:0:0:
316,248,54182,6,0,P|326:303|276:366,2,126.000004806519,6|2|2,0:0|0:0|0:0,0:0:0:0:
279,171,55071,2,0,L|286:41,2,126.000004806519,2|2|2,0:0|0:0|0:0,0:0:0:0:
205,211,55960,6,0,B|122:217|122:217|75:203,2,126.000004806519,2|2|0,0:0|0:0|0:0,0:0:0:0:
279,171,56849,2,0,P|341:159|428:209,1,168.000006408692,2|8,0:0|0:0,0:0:0:0:
465,285,57516,1,2,0:0:0:0:
406,345,57738,6,0,P|340:352|290:312,2,126.000004806519,2|2|2,0:0|0:0|0:0,0:0:0:0:
364,271,58627,2,0,P|308:235|240:254,2,126.000004806519,2|2|2,0:0|0:0|0:0,0:0:0:0:
294,319,59516,6,0,B|267:334|225:334|198:308|198:308|174:321|117:317,1,168.000006408692,2|8,0:0|0:0,0:0:0:0:
51,305,60182,1,0,0:0:0:0:
10,233,60404,2,0,P|7:152|64:85,1,168.000006408692,2|8,0:0|0:0,0:0:0:0:
141,66,61071,1,4,3:0:0:0:
218,98,61293,6,0,L|212:245,2,126.000004806519,2|2|2,0:0|0:0|0:0,0:0:0:0:
282,44,62182,2,0,P|331:28|407:77,2,126.000004806519,2|2|2,0:0|0:0|0:0,0:0:0:0:
331,112,63071,6,0,B|326:196|326:196|351:267,2,126.000004806519,2|0|0,0:0|0:0|0:0,0:0:0:0:
395,58,63960,2,0,P|453:67|493:172,1,168.000006408692,2|8,0:0|0:0,0:0:0:0:
473,239,64627,1,2,0:0:0:0:
405,289,64849,6,0,L|261:292,2,126.000004806519,2|2|2,0:0|0:0|0:0,0:0:0:0:
392,205,65738,2,0,L|248:208,2,126.000004806519,2|0|4,0:0|3:0|3:0,0:0:0:0:
445,139,66627,6,0,P|456:74|433:14,1,126.000004806519,8|8,0:0|0:0,0:0:0:0:
330,87,67293,2,0,L|185:79,1,126.000004806519,8|8,0:0|0:0,0:0:0:0:
77,77,67960,2,0,P|59:122|63:171,1,84.0000032043458,8|4,0:0|3:0,0:0:0:0:
93,233,68404,6,0,L|79:387,2,126.000004806519,6|2|2,0:0|0:0|0:0,0:0:0:0:
157,179,69293,2,0,P|217:196|283:150,2,126.000004806519,2|2|2,0:0|0:0|0:0,0:0:0:0:
208,112,70182,6,0,P|264:83|337:115,2,126.000004806519,2|2|0,0:0|0:0|0:0,0:0:0:0:
157,179,71071,2,0,B|109:185|76:162|76:162|40:186|31:239,1,168.000006408692,2|8,0:0|0:0,0:0:0:0:
49,313,71738,1,2,0:0:0:0:
117,361,71960,6,0,L|252:366,2,126.000004806519,2|2|2,0:0|0:0|0:0,0:0:0:0:
124,277,72849,2,0,L|259:282,2,126.000004806519,2|2|2,0:0|0:0|0:0,0:0:0:0:
49,313,73738,6,0,P|47:245|145:197,1,168.000006408692,2|8,0:0|0:0,0:0:0:0:
207,197,74404,1,0,0:0:0:0:
290,207,74627,2,0,B|397:218|397:218|453:185,1,168.000006408692,2|8,0:0|0:0,0:0:0:0:
510,129,75293,1,4,3:0:0:0:
467,56,75516,6,0,P|419:21|341:42,2,126.000004806519,2|2|2,0:0|0:0|0:0,0:0:0:0:
398,105,76404,2,0,P|337:114|277:63,2,126.000004806519,6|2|2,0:0|0:0|0:0,0:0:0:0:
467,56,77293,6,0,P|480:123|438:179,2,126.000004806519,6|2|2,0:0|0:0|0:0,0:0:0:0:
389,23,78182,2,0,B|338:18|338:18|284:34|284:34|213:26,1,168.000006408692,2|2,0:0|0:0,0:0:0:0:
140,14,78849,1,8,0:0:0:0:
68,58,79071,6,0,P|51:103|63:168,1,84.0000032043458,6|8,0:0|0:0,0:0:0:0:
94,211,79516,2,0,L|85:360,2,126.000004806519,4|12|8,3:0|0:0|0:0,0:0:0:0:
159,158,80404,1,8,0:0:0:0:
238,130,80627,1,8,0:0:0:0:
315,162,80849,6,0,L|432:155,1,84.0000032043458,6|8,0:0|0:0,0:0:0:0:
465,105,81293,2,0,P|484:161|434:234,2,126.000004806519,4|12|8,3:0|0:0|0:0,0:0:0:0:
409,41,82182,1,8,0:0:0:0:
325,41,82404,1,8,0:0:0:0:
263,98,82627,6,0,L|172:100,1,84.0000032043458,6|8,0:0|0:0,0:0:0:0:
109,146,83071,2,0,P|99:76|152:20,2,126.000004806519,4|12|12,3:0|0:0|0:0,0:0:0:0:
158,214,83960,1,12,0:0:0:0:
236,243,84182,1,12,0:0:0:0:
319,231,84404,5,6,0:0:0:0:
167,195,87516,6,0,L|262:190,2,84.0000032043458,2|8|6,0:0|0:0|0:0,0:0:0:0:
247,208,91516,6,0,P|235:151|115:106,1,168.000006408692,6|8,0:0|0:0,0:0:0:0:
26,142,92293,2,0,L|41:286,1,126.000004806519,8|8,0:0|0:0,0:0:0:0:
57,349,92849,2,0,P|108:358|158:339,1,84.0000032043458,8|4,3:0|3:0,0:0:0:0:
213,311,93293,6,0,B|296:296|296:296|406:317,1,168.000006408692,2|12,0:0|0:0,0:0:0:0:
498,350,94071,2,0,P|502:295|462:219,1,126.000004806519,12|12,0:0|0:0,0:0:0:0:
396,197,94627,2,0,L|393:99,1,84.0000032043458,8|8,3:0|3:0,0:0:0:0:
357,36,95071,6,0,P|313:28|256:48,1,84.0000032043458,6|8,0:0|0:0,0:0:0:0:
200,76,95516,2,0,L|57:71,2,126.000004806519,2|0|8,0:0|0:0|0:0,0:0:0:0:
263,130,96404,2,0,B|271:171|271:171|260:232,1,84.0000032043458,2|8,0:0|0:0,0:0:0:0:
218,283,96849,6,0,B|177:291|177:291|116:280,1,84.0000032043458,2|8,0:0|0:0,0:0:0:0:
84,216,97293,2,0,P|53:265|90:355,2,126.000004806519,2|2|8,0:0|0:0|0:0,0:0:0:0:
152,166,98182,2,0,L|158:64,1,84.0000032043458,2|8,0:0|0:0,0:0:0:0:
226,35,98627,6,0,P|274:29|327:48,1,84.0000032043458,6|8,0:0|0:0,0:0:0:0:
377,85,99071,2,0,L|505:76,2,126.000004806519,2|2|8,0:0|0:0|0:0,0:0:0:0:
322,149,99960,2,0,P|314:193|323:237,1,84.0000032043458,2|8,0:0|0:0,0:0:0:0:
368,300,100404,6,0,P|317:269|240:279,1,126.000004806519,6|2,0:0|0:0,0:0:0:0:
180,317,100960,1,4,3:0:0:0:
113,265,101182,2,0,L|115:125,1,126.000004806519,6|8,0:0|0:0,0:0:0:0:
174,79,101738,1,8,0:0:0:0:
257,79,101960,1,8,3:0:0:0:
316,138,102182,6,0,P|361:139|401:129,1,84.0000032043458,6|8,0:0|0:0,0:0:0:0:
458,70,102627,2,0,P|483:129|454:194,2,126.000004806519,2|0|8,0:0|0:0|0:0,0:0:0:0:
388,22,103516,2,0,L|295:28,1,84.0000032043458,2|0,0:0|0:0,0:0:0:0:
234,74,103960,6,0,P|227:116|239:160,1,84.0000032043458,2|8,0:0|0:0,0:0:0:0:
292,218,104404,2,0,P|237:239|167:201,2,126.000004806519,2|2|8,0:0|0:0|0:0,0:0:0:0:
358,165,105293,2,0,P|376:212|362:266,1,84.0000032043458,0|8,0:0|0:0,0:0:0:0:
346,324,105738,6,0,L|259:327,1,84.0000032043458,2|8,0:0|0:0,0:0:0:0:
180,308,106182,2,0,L|49:312,2,126.000004806519,2|2|8,0:0|0:0|0:0,0:0:0:0:
241,250,107071,2,0,P|247:203|233:152,1,84.0000032043458,2|8,0:0|0:0,0:0:0:0:
174,114,107516,6,0,P|236:83|303:111,1,126.000004806519,6|2,0:0|0:0,0:0:0:0:
359,141,108071,1,2,0:0:0:0:
409,207,108293,2,0,L|406:357,1,126.000004806519,6|8,0:0|0:0,0:0:0:0:
328,364,108849,2,0,B|284:368|284:368|224:360,1,84.0000032043458,2|8,0:0|0:0,0:0:0:0:
175,314,109293,6,0,B|111:298|111:340|32:319,1,126.000004806519,6|4,0:0|3:0,0:0:0:0:
5,252,109849,1,4,3:0:0:0:
46,178,110071,2,0,P|99:159|182:170,1,126.000004806519,2|8,0:0|0:0,0:0:0:0:
242,203,110627,1,8,0:0:0:0:
310,251,110849,1,8,3:0:0:0:
379,297,111071,6,0,L|475:290,1,84.0000032043458,6|0,0:0|0:0,0:0:0:0:
503,217,111516,2,0,P|500:154|431:103,2,126.000004806519,8|8|2,0:0|0:0|0:0,0:0:0:0:
423,189,112404,2,0,B|382:191|382:191|327:187,1,84.0000032043458,8|2,0:0|0:0,0:0:0:0:
258,164,112849,6,0,L|259:76,2,84.0000032043458,2|0|8,0:0|0:0|0:0,0:0:0:0:
218,238,113516,2,0,P|150:266|33:229,1,168.000006408692,2|0,0:0|0:0,0:0:0:0:
13,178,114182,2,0,L|14:90,1,84.0000032043458,8|2,0:0|0:0,0:0:0:0:
71,32,114627,6,0,P|109:26|158:41,1,84.0000032043458,6|0,0:0|0:0,0:0:0:0:
219,87,115071,2,0,L|378:72,2,126.000004806519,8|8|2,0:0|0:0|0:0,0:0:0:0:
164,151,115960,2,0,P|158:196|167:243,1,84.0000032043458,8|2,0:0|0:0,0:0:0:0:
210,303,116404,6,0,L|382:296,1,168.000006408692,2|8,0:0|0:0,0:0:0:0:
457,270,117071,2,0,B|459:223|459:223|434:172|434:172|453:142|437:84,1,168.000006408692,0|2,0:0|0:0,0:0:0:0:
361,131,117738,2,0,P|319:142|252:128,1,84.0000032043458,8|0,0:0|0:0,0:0:0:0:
199,112,118182,6,0,P|157:101|90:115,1,84.0000032043458,6|0,0:0|0:0,0:0:0:0:
41,142,118627,2,0,P|35:85|107:20,2,126.000004806519,8|0|2,0:0|0:0|0:0,0:0:0:0:
110,188,119516,2,0,L|106:296,1,84.0000032043458,8|0,0:0|0:0,0:0:0:0:
103,355,119960,6,0,B|213:370|213:370|275:338,1,168.000006408692,2|8,0:0|0:0,0:0:0:0:
320,281,120627,2,0,L|314:107,1,168.000006408692,6|0,0:0|0:0,0:0:0:0:
268,42,121293,1,8,0:0:0:0:
186,22,121516,1,4,3:0:0:0:
112,61,121738,6,0,B|67:68|31:48|31:48|40:139,1,168.000006408692,2|8,0:0|0:0,0:0:0:0:
46,215,122404,1,2,0:0:0:0:
100,279,122627,2,0,P|147:280|184:265,1,84.0000032043458,2|0,0:0|0:0,0:0:0:0:
249,218,123071,2,0,P|296:217|333:232,1,84.0000032043458,8|4,0:0|3:0,0:0:0:0:
407,263,123516,6,0,B|439:219|439:219|420:90,1,168.000006408692,2|12,0:0|0:0,0:0:0:0:
376,36,124182,2,0,P|296:25|223:80,1,168.000006408692,2|12,0:0|0:0,0:0:0:0:
178,141,124849,1,8,0:0:0:0:
100,109,125071,1,8,3:0:0:0:
22,141,125293,6,0,B|16:191|16:191|40:248|40:248|36:304,1,168.000006408692,2|12,0:0|0:0,0:0:0:0:
100,358,125960,2,0,B|134:371|168:370|182:358|201:344|230:340|289:359,1,168.000006408692,2|12,0:0|0:0,0:0:0:0:
347,364,126627,1,8,0:0:0:0:
428,343,126849,1,4,3:0:0:0:
466,267,127071,6,0,L|451:121,1,126.000004806519,6|6,0:0|0:0,0:0:0:0:
353,64,127738,2,0,B|282:43|255:95|176:73,1,168.000006408692,2|8,0:0|3:0,0:0:0:0:
104,66,128404,2,0,B|95:107|95:107|99:154,1,84.0000032043458,8|4,0:0|3:0,0:0:0:0:
118,230,128849,6,0,P|57:221|18:170,2,126.000004806519,6|2|2,0:0|0:0|0:0,0:0:0:0:
179,172,129738,2,0,L|329:169,2,126.000004806519,2|2|2,0:0|0:0|0:0,0:0:0:0:
98,148,130627,6,0,B|92:65|92:65|101:21,2,126.000004806519,2|2|0,0:0|0:0|0:0,0:0:0:0:
118,230,131516,2,0,B|124:278|104:312|104:312|149:310|193:341,1,168.000006408692,2|8,0:0|0:0,0:0:0:0:
259,369,132182,1,2,0:0:0:0:
335,334,132404,6,0,L|471:343,2,126.000004806519,2|2|2,0:0|0:0|0:0,0:0:0:0:
267,283,133293,2,0,P|256:211|303:157,2,126.000004806519,2|2|2,0:0|0:0|0:0,0:0:0:0:
336,235,134182,6,0,B|446:243|446:243|484:194,1,168.000006408692,2|8,0:0|0:0,0:0:0:0:
511,118,134849,1,0,0:0:0:0:
480,39,135071,2,0,P|398:21|307:81,1,168.000006408692,2|8,0:0|0:0,0:0:0:0:
275,124,135738,1,4,3:0:0:0:
216,183,135960,6,0,L|61:172,2,126.000004806519,2|2|2,0:0|0:0|0:0,0:0:0:0:
297,206,136849,2,0,P|325:261|308:360,2,126.000004806519,2|2|2,0:0|0:0|0:0,0:0:0:0:
216,183,137738,6,0,L|219:45,2,126.000004806519,2|0|0,0:0|0:0|0:0,0:0:0:0:
202,266,138627,2,0,B|157:258|139:217|139:217|101:244|43:225,1,168.000006408692,2|8,0:0|0:0,0:0:0:0:
7,162,139293,1,2,0:0:0:0:
86,136,139516,6,0,L|93:0,2,126.000004806519,2|2|2,0:0|0:0|0:0,0:0:0:0:
169,137,140404,2,0,L|176:1,2,126.000004806519,2|0|4,0:0|3:0|3:0,0:0:0:0:
163,221,141293,6,0,P|220:257|295:252,1,126.000004806519,8|8,0:0|0:0,0:0:0:0:
394,212,141960,2,0,B|415:262|415:262|410:341,1,126.000004806519,8|8,0:0|0:0,0:0:0:0:
290,374,142627,2,0,L|185:370,1,84.0000032043458,8|4,0:0|3:0,0:0:0:0:
122,364,143071,6,0,P|73:336|55:265,2,126.000004806519,6|2|2,0:0|0:0|0:0,0:0:0:0:
137,282,143960,2,0,L|132:133,2,126.000004806519,2|2|2,0:0|0:0|0:0,0:0:0:0:
206,330,144849,6,0,B|271:339|271:339|342:321,2,126.000004806519,2|2|0,0:0|0:0|0:0,0:0:0:0:
137,282,145738,2,0,L|131:87,1,168.000006408692,2|8,0:0|0:0,0:0:0:0:
188,51,146404,1,2,0:0:0:0:
266,80,146627,6,0,P|327:74|382:128,2,126.000004806519,2|2|2,0:0|0:0|0:0,0:0:0:0:
304,154,147516,2,0,L|293:294,2,126.000004806519,2|2|2,0:0|0:0|0:0,0:0:0:0:
375,112,148404,6,0,P|436:136|466:235,1,168.000006408692,2|8,0:0|0:0,0:0:0:0:
449,309,149071,1,2,0:0:0:0:
371,342,149293,2,0,B|288:324|288:324|177:334,1,168.000006408692,2|8,0:0|0:0,0:0:0:0:
121,341,149960,1,4,3:0:0:0:
52,292,150182,6,0,P|40:223|87:168,2,126.000004806519,2|2|2,0:0|0:0|0:0,0:0:0:0:
121,244,151071,2,0,L|254:239,2,126.000004806519,6|2|2,0:0|0:0|0:0,0:0:0:0:
69,179,151960,6,0,P|57:110|104:55,2,126.000004806519,6|2|2,0:0|0:0|0:0,0:0:0:0:
138,131,152849,2,0,L|335:123,1,168.000006408692,2|2,0:0|0:0,0:0:0:0:
390,119,153516,1,8,0:0:0:0:
473,116,153738,6,0,P|488:162|481:222,1,84.0000032043458,6|8,0:0|0:0,0:0:0:0:
419,246,154182,2,0,L|430:387,2,126.000004806519,4|12|8,3:0|0:0|0:0,0:0:0:0:
350,197,155071,1,8,0:0:0:0:
266,186,155293,1,8,0:0:0:0:
185,209,155516,6,0,P|138:214|85:196,1,84.0000032043458,6|8,0:0|0:0,0:0:0:0:
40,149,155960,2,0,P|20:196|55:274,2,126.000004806519,4|12|8,3:0|0:0|0:0,0:0:0:0:
100,90,156849,1,8,0:0:0:0:
181,70,157071,1,8,0:0:0:0:
258,102,157293,6,0,L|375:96,1,84.0000032043458,6|8,0:0|0:0,0:0:0:0:
426,96,157738,2,0,P|406:43|342:14,2,126.000004806519,4|12|12,3:0|0:0|0:0,0:0:0:0:
406,177,158627,1,12,0:0:0:0:
331,216,158849,1,12,0:0:0:0:
248,200,159071,6,0,B|190:192|190:192|138:200|138:200|58:190,1,168.000006408692,6|8,0:0|3:0,0:0:0:0:
12,240,159738,2,0,P|13:295|112:348,1,168.000006408692,6|2,0:0|0:0,0:0:0:0:
183,334,160404,1,8,0:0:0:0:
251,284,160627,1,2,0:0:0:0:
248,200,160849,6,0,B|307:181|354:201|354:201|429:190,1,168.000006408692,6|8,0:0|3:0,0:0:0:0:
488,153,161516,2,0,P|475:74|383:31,1,168.000006408692,6|2,0:0|0:0,0:0:0:0:
323,53,162182,2,0,B|280:59|280:59|209:53,1,84.0000032043458,8|2,0:0|0:0,0:0:0:0:
159,29,162627,6,0,B|149:76|176:109|176:109|157:208,1,168.000006408692,6|8,0:0|3:0,0:0:0:0:
152,274,163293,2,0,P|180:337|297:359,1,168.000006408692,6|2,0:0|0:0,0:0:0:0:
352,354,163960,1,8,0:0:0:0:
421,307,164182,1,2,0:0:0:0:
452,229,164404,6,0,B|460:116|460:116|433:50,1,168.000006408692,6|8,0:0|3:0,0:0:0:0:
361,32,165071,2,0,B|273:12|283:65|180:41,1,168.000006408692,6|2,0:0|0:0,0:0:0:0:
117,14,165738,2,0,P|113:63|137:106,1,84.0000032043458,8|2,0:0|0:0,0:0:0:0:
187,152,166182,6,0,B|205:267|205:267|189:335,1,168.000006408692,6|0,0:0|0:0,0:0:0:0:
131,374,166849,2,0,P|53:361|13:269,1,168.000006408692,6|2,0:0|0:0,0:0:0:0:
11,204,167516,1,8,0:0:0:0:
48,128,167738,1,2,0:0:0:0:
126,94,167960,6,0,B|188:81|251:83|251:83|302:117,1,168.000006408692,6|8,0:0|3:0,0:0:0:0:
344,166,168627,2,0,B|367:275|367:275|347:348,1,168.000006408692,6|2,0:0|0:0,0:0:0:0:
279,371,169293,2,0,P|236:376|177:368,1,84.0000032043458,8|2,0:0|0:0,0:0:0:0:
114,350,169738,6,0,L|103:166,2,168.000006408692,6|2|2,0:0|0:0|0:0,0:0:0:0:
279,371,171071,1,2,0:0:0:0:
334,212,171516,6,0,P|407:192|514:251,2,168.000006408692,2|2|2,0:0|0:0|0:0,0:0:0:0:
279,371,172849,1,2,0:0:0:0:
151,262,173293,6,0,B|139:144|139:144|162:83,1,168.000006408692,6|2,0:0|0:0,0:0:0:0:
216,38,173960,1,0,0:0:0:0:
298,21,174182,2,0,P|383:37|427:127,1,168.000006408692,2|2,0:0|0:0,0:0:0:0:
434,185,174849,1,8,0:0:0:0:
387,254,175071,6,0,L|239:244,1,126.000004806519,12|12,0:0|0:0,0:0:0:0:
180,148,175738,2,0,L|328:138,1,126.000004806519,12|12,0:0|0:0,0:0:0:0:
425,101,176404,2,0,P|423:58|396:4,1,84.0000032043458,6|8,0:0|3:0,0:0:0:0:
323,11,176849,5,6,0:0:0:0:
87,120,191071,6,0,P|140:105|226:124,2,112,6|8|2,0:0|0:0|3:2,0:0:0:0:
19,209,192404,1,8,0:0:0:0:
56,314,192848,2,0,L|188:307,1,112,0|8,0:0|0:0,0:0:0:0:
254,237,193737,2,0,L|386:230,1,112,2|8,0:0|0:0,0:0:0:0:
467,183,194626,6,0,B|471:127|471:127|446:43,1,112,2|8,0:0|0:0,0:0:0:0:
354,23,195515,1,2,3:0:0:0:
244,47,195959,1,8,0:0:0:0:
181,140,196404,2,0,L|46:137,1,112,0|8,0:0|0:0,0:0:0:0:
63,249,197293,2,0,L|198:252,1,112,2|2,0:0|3:0,0:0:0:0:
285,269,198182,6,0,P|279:298|281:353,2,56,6|8|8,0:0|3:0|0:0,0:0:0:0:
375,203,199071,2,0,L|365:53,1,112,2|8,0:0|0:0,0:0:0:0:
269,36,199960,2,0,P|200:23|138:44,1,112,2|8,0:0|0:0,0:0:0:0:
163,144,200849,2,0,P|232:157|294:136,1,112,2|8,0:0|0:0,0:0:0:0:
367,91,201738,6,0,B|424:88|424:88|491:112,2,112,2|8|2,0:0|0:0|0:0,0:0:0:0:
271,147,203072,1,8,0:0:0:0:
178,219,203516,6,0,L|7:212,1,168.000006408692,2|0,0:0|0:0,0:0:0:0:
0,295,204182,2,0,P|33:340|164:354,1,168.000006408692,2|12,0:0|0:0,0:0:0:0:
218,340,204849,1,2,0:0:0:0:
271,275,205071,1,2,0:0:0:0:
271,191,205293,6,0,B|331:180|384:210|384:210|438:188,1,168.000006408692,2|12,0:0|0:0,0:0:0:0:
495,135,205960,2,0,P|485:80|388:23,1,168.000006408692,2|12,0:0|0:0,0:0:0:0:
311,24,206627,1,2,0:0:0:0:
234,58,206849,1,2,0:0:0:0:
192,131,207071,6,0,L|16:125,1,168.000006408692,2|2,0:0|3:2,0:0:0:0:
4,207,207738,1,8,0:0:0:0:
28,287,207960,2,0,P|85:305|191:281,1,168.000006408692,2|0,3:2|0:0,0:0:0:0:
251,226,208627,1,8,3:2:0:0:
295,154,208849,6,0,L|289:45,2,84.0000032043458,0|0|0,0:0|0:0|0:0,0:0:0:0:
336,227,209516,1,8,3:2:0:0:
383,296,209738,2,0,P|326:356|228:365,1,168.000006408692,2|0,3:2|0:0,0:0:0:0:
161,358,210404,1,8,3:2:0:0:
103,296,210627,6,0,L|115:98,1,168.000006408692,0|0,0:0|0:0,0:0:0:0:
127,45,211293,1,8,3:2:0:0:
208,23,211516,2,0,B|262:19|262:19|325:39|325:39|396:32,1,168.000006408692,2|0,3:2|0:0,0:0:0:0:
455,22,212182,1,8,3:2:0:0:
502,91,212404,6,0,L|500:174,1,84.0000032043458,2|8,3:2|0:2,0:0:0:0:
467,252,212849,2,0,P|428:268|371:261,1,84.0000032043458,2|0,3:2|0:0,0:0:0:0:
319,216,213293,2,0,L|320:132,2,84.0000032043458,2|8|2,3:2|0:2|0:2,0:0:0:0:
312,300,213960,1,8,0:2:0:0:
243,348,214182,6,0,P|198:360|91:273,1,168.000006408692,4|2,0:2|0:2,0:0:0:0:
79,219,214849,1,8,3:2:0:0:
114,142,215071,2,0,L|108:32,1,84.0000032043458,2|0,3:2|0:0,0:0:0:0:
193,53,215516,2,0,L|199:163,1,84.0000032043458,2|0,3:2|0:0,0:0:0:0:
202,220,215960,6,0,B|258:240|285:221|320:199|385:220,1,168.000006408692,2|2,3:2|3:2,0:0:0:0:
446,242,216627,1,8,0:2:0:0:
496,175,216849,2,0,P|504:133|489:84,1,84.0000032043458,2|8,3:2|0:2,0:0:0:0:
433,35,217293,2,0,P|391:27|342:42,1,84.0000032043458,2|8,0:2|0:2,0:0:0:0:
284,87,217738,6,0,L|126:80,1,126.000004806519,6|0,3:2|0:0,0:0:0:0:
51,147,218404,2,0,P|22:219|44:316,1,168.000006408692,8|8,3:2|0:2,0:0:0:0:
116,336,219071,2,0,L|218:331,1,84.0000032043458,2|0,0:2|0:0,0:0:0:0:
280,307,219515,6,0,B|290:225|290:225|264:146,1,126.000004806519,2|0,3:2|3:2,0:0:0:0:
193,88,220182,2,0,P|251:60|362:91,1,168.000006408692,8|8,3:2|0:2,0:0:0:0:
414,133,220849,2,0,L|418:234,1,84.0000032043458,2|0,0:2|0:0,0:0:0:0:
400,299,221293,6,0,P|327:320|257:292,1,126.000004806519,6|6,3:2|3:2,0:0:0:0:
183,226,221960,2,0,B|122:219|73:237|73:237|22:190,1,168.000006408692,6|0,3:2|0:0,0:0:0:0:
14,116,222627,2,0,P|43:87|95:71,1,84.0000032043458,8|0,0:2|0:0,0:0:0:0:
164,89,223071,6,0,L|323:79,1,126.000004806519,6|6,0:0|0:0,0:0:0:0:
415,77,223738,2,0,B|438:126|438:126|431:243,1,168.000006408692,2|0,0:0|0:0,0:0:0:0:
409,320,224404,1,8,0:0:0:0:
329,349,224627,1,4,3:0:0:0:
246,332,224849,5,6,0:0:0:0:
246,332,226627,5,6,0:0:0:0:
35,70,227515,2,0,P|82:42|158:39,2,126.000004806519,8|8|8,0:0|0:0|0:0,0:0:0:0:
10,150,228404,6,0,L|14:355,1,168.000006408692,6|8,0:0|0:0,0:0:0:0:
85,361,229071,1,2,0:0:0:0:
153,312,229293,2,0,P|233:275|329:310,1,168.000006408692,2|8,0:0|0:0,0:0:0:0:
375,343,229960,1,2,0:0:0:0:
441,292,230182,6,0,B|456:236|456:236|442:105,1,168.000006408692,6|8,0:0|0:0,0:0:0:0:
429,43,230849,1,0,0:0:0:0:
346,28,231071,2,0,P|284:69|179:57,1,168.000006408692,2|8,0:0|0:0,0:0:0:0:
118,24,231738,1,4,3:0:0:0:
44,64,231960,6,0,P|21:125|59:191,2,126.000004806519,6|2|2,0:0|0:0|0:0,0:0:0:0:
104,122,232849,2,0,P|126:169|90:247,2,126.000004806519,2|2|2,0:0|0:0|0:0,0:0:0:0:
43,178,233738,6,0,P|20:239|58:305,2,126.000004806519,2|0|0,0:0|0:0|0:0,0:0:0:0:
104,122,234627,2,0,B|184:103|184:103|279:124,1,168.000006408692,2|8,0:0|0:0,0:0:0:0:
347,146,235293,1,2,0:0:0:0:
429,162,235515,6,0,P|442:109|417:13,2,126.000004806519,2|2|2,0:0|0:0|0:0,0:0:0:0:
374,226,236404,2,0,P|361:279|386:375,2,126.000004806519,2|0|4,0:0|3:0|3:0,0:0:0:0:
347,146,237293,6,0,L|203:156,1,126.000004806519,8|8,0:0|0:0,0:0:0:0:
95,163,237960,2,0,P|63:217|92:322,1,168.000006408692,8|4,0:0|3:0,0:0:0:0:
154,363,238627,2,0,B|196:367|196:367|256:356,1,84.0000032043458,8|4,0:0|3:0,0:0:0:0:
306,311,239071,6,0,P|376:319|467:323,2,126.000004806519,6|2|2,0:0|0:0|0:0,0:0:0:0:
256,242,239960,2,0,P|186:234|95:230,2,126.000004806519,2|2|2,0:0|0:0|0:0,0:0:0:0:
329,198,240849,6,0,P|339:258|306:311,2,126.000004806519,2|2|0,0:0|0:0|0:0,0:0:0:0:
274,134,241738,2,0,B|222:111|222:111|168:135|104:117,1,168.000006408692,2|8,0:0|0:0,0:0:0:0:
35,87,242404,1,2,0:0:0:0:
11,168,242627,6,0,P|8:233|60:283,2,126.000004806519,2|2|2,0:0|0:0|0:0,0:0:0:0:
87,203,243515,2,0,P|147:214|218:208,2,126.000004806519,2|2|2,0:0|0:0|0:0,0:0:0:0:
11,168,244404,6,0,P|18:103|92:27,1,168.000006408692,2|8,0:0|0:0,0:0:0:0:
169,23,245071,1,2,0:0:0:0:
236,72,245293,2,0,B|292:75|292:75|350:56|350:56|407:61,1,168.000006408692,2|8,0:0|0:0,0:0:0:0:
483,76,245960,1,4,3:0:0:0:
500,158,246182,6,0,P|483:215|422:249,2,126.000004806519,2|2|2,0:0|0:0|0:0,0:0:0:0:
415,163,247071,2,0,B|355:150|355:150|252:153,2,126.000004806519,6|2|2,0:0|0:0|0:0,0:0:0:0:
429,248,247960,6,0,B|439:374,2,126.000004806519,6|2|2,0:0|0:0|0:0,0:0:0:0:
415,163,248849,2,0,P|398:97|287:41,1,168.000006408692,2|2,0:0|0:0,0:0:0:0:
236,55,249515,1,8,0:0:0:0:
177,116,249738,6,0,L|65:118,1,84.0000032043458,6|8,0:0|0:0,0:0:0:0:
16,151,250182,2,0,P|17:84|76:34,2,126.000004806519,4|12|8,3:0|0:0|0:0,0:0:0:0:
55,225,251071,1,8,0:0:0:0:
131,258,251293,1,8,0:0:0:0:
206,221,251515,6,0,P|244:210|310:225,1,84.0000032043458,6|8,0:0|0:0,0:0:0:0:
352,268,251960,2,0,P|371:212|325:141,2,126.000004806519,4|12|8,3:0|0:0|0:0,0:0:0:0:
288,323,252849,1,8,0:0:0:0:
205,337,253071,1,8,0:0:0:0:
130,298,253293,6,0,L|120:198,1,84.0000032043458,2|8,0:0|0:0,0:0:0:0:
110,130,253738,2,0,P|60:156|39:233,2,126.000004806519,8|8|8,0:0|0:0|0:0,0:0:0:0:
194,123,254627,1,8,0:0:0:0:
267,164,254849,1,4,3:0:0:0:
281,246,255071,6,0,P|367:271|462:234,1,168.000006408692,0|0,0:0|0:0,0:0:0:0:
425,82,255960,2,0,P|339:57|244:94,1,168.000006408692,0|0,0:0|0:0,0:0:0:0:
194,123,256627,1,0,0:0:0:0:
131,178,256849,6,0,L|139:371,1,168.000006408692,0|0,0:0|0:0,0:0:0:0:
304,323,257738,2,0,L|296:130,1,168.000006408692,0|0,0:0|0:0,0:0:0:0:
265,78,258404,1,8,0:0:0:0:
190,37,258627,6,0,P|147:31|80:45,1,84.0000032043458,6|8,0:0|0:0,0:0:0:0:
30,71,259071,2,0,P|24:114|38:181,1,84.0000032043458,0|8,0:0|0:0,0:0:0:0:
85,215,259515,2,0,L|73:333,2,84.0000032043458,2|8|2,0:0|2:0|0:0,0:0:0:0:
149,160,260182,1,8,0:0:0:0:
217,112,260404,6,0,P|298:106|384:181,1,168.000006408692,2|2,0:0|0:0,0:0:0:0:
405,228,261071,1,8,0:0:0:0:
359,298,261293,2,0,B|317:304|317:304|274:297,1,84.0000032043458,2|8,0:0|0:0,0:0:0:0:
198,264,261738,2,0,B|156:258|156:258|113:265,1,84.0000032043458,2|8,0:0|0:0,0:0:0:0:
33,285,262182,6,0,L|38:375,2,84.0000032043458,6|8|2,0:0|0:0|0:0,0:0:0:0:
30,200,262849,1,8,0:0:0:0:
88,140,263071,2,0,P|129:128|184:134,1,84.0000032043458,2|8,0:0|0:0,0:0:0:0:
250,151,263515,2,0,P|291:163|346:157,1,84.0000032043458,2|8,0:0|0:0,0:0:0:0:
400,111,263960,6,0,L|392:27,2,84.0000032043458,2|8|2,0:0|0:0|0:0,0:0:0:0:
409,194,264627,1,8,0:0:0:0:
373,270,264849,2,0,P|330:278|279:264,1,84.0000032043458,0|8,0:0|0:0,0:0:0:0:
215,232,265293,1,2,0:0:0:0:
175,158,265515,1,8,0:0:0:0:
239,102,265738,6,0,B|297:94|297:94|344:119|344:119|417:109,1,168.000006408692,6|2,0:0|0:0,0:0:0:0:
482,94,266404,1,8,0:0:0:0:
504,175,266627,2,0,L|501:271,1,84.0000032043458,2|8,0:0|0:0,0:0:0:0:
474,338,267071,2,0,P|431:349|390:341,1,84.0000032043458,2|8,0:0|0:0,0:0:0:0:
318,302,267515,6,0,B|248:272|221:330|139:298,1,168.000006408692,2|2,0:0|0:0,0:0:0:0:
79,261,268182,1,8,0:0:0:0:
20,200,268404,2,0,L|23:109,1,84.0000032043458,8|8,0:0|0:0,0:0:0:0:
71,47,268849,1,8,0:0:0:0:
150,19,269071,1,8,0:0:0:0:
256,192,269738,12,0,274182,0:0:0:0:
