osu file format v14

[General]
AudioFilename: audio.mp3
AudioLeadIn: 0
PreviewTime: 50877
Countdown: 0
SampleSet: Soft
StackLeniency: 0.6
Mode: 0
LetterboxInBreaks: 0
WidescreenStoryboard: 1

[Editor]
Bookmarks: 37988
DistanceSpacing: 1.1
BeatDivisor: 4
GridSize: 32
TimelineZoom: 1

[Metadata]
Title:RHAPSODY OF BLUE SKY
TitleUnicode:青空のラプソディ
Artist:fhana
ArtistUnicode:fhána
Creator:[Kamiya]
Version:imouto's Extra
Source:小林さんちのメイドラゴン
Tags:kobayashi san chi no maidragon aozora no opening anime maid dragon OblivioN Karen Dynamix imoutosan Pata-Mon gxytcgxytc
BeatmapID:1243650
BeatmapSetID:586841

[Difficulty]
HPDrainRate:7.2
CircleSize:5
OverallDifficulty:7.2
ApproachRate:9.3
SliderMultiplier:2.5
SliderTickRate:1

[Events]
//Background and Video events
0,0,"visual_01_pc.jpg",0,0
Video,0,"video.avi"
//Break Periods
//Storyboard Layer 0 (Background)
//Storyboard Layer 1 (Fail)
//Storyboard Layer 2 (Pass)
//Storyboard Layer 3 (Foreground)
//Storyboard Sound Samples

[TimingPoints]
-678,444.444444444444,4,2,4,65,1,0
4211,-76.9230769230769,4,2,4,65,0,0
4654,-100,4,2,4,65,0,0
11322,-76.9230769230769,4,2,4,65,0,0
11766,-100,4,2,4,65,0,0
13544,-200,4,2,4,65,0,0
14877,-100,4,2,4,65,0,0
15433,-66.6666666666667,4,2,4,65,0,0
15766,-58.8235294117647,4,2,4,65,0,0
16099,-52.6315789473684,4,2,4,65,0,0
16433,-50,4,2,4,65,0,0
17099,-80,4,2,4,65,0,0
17322,-100,4,2,4,65,0,0
27211,-66.6666666666667,4,2,4,65,0,0
27544,-100,4,2,4,65,0,0
29544,-76.9230769230769,4,2,4,65,0,0
29877,-66.6666666666667,4,2,4,65,0,0
30265,-76.9230769230769,4,2,4,65,0,0
30655,-100,4,2,4,65,0,0
31322,-76.9230769230769,4,2,4,65,0,0
31655,-100,4,2,4,65,0,0
33099,-133.333333333333,4,2,4,65,0,0
42655,-111.111111111111,4,2,4,65,0,0
43766,-100,4,2,4,65,0,0
45544,-125,4,2,4,65,0,0
46877,-83.3333333333333,4,2,4,65,0,0
47322,-58.8235294117647,4,2,4,65,0,0
47766,-55.5555555555556,4,2,4,65,0,0
48099,-52.6315789473684,4,2,4,65,0,0
48377,-50,4,2,4,65,0,0
50877,-100,4,2,4,90,0,1
57099,-90.9090909090909,4,2,4,90,0,1
57544,-125,4,2,4,90,0,1
57988,-100,4,2,4,90,0,1
63210,-100,4,2,4,90,0,0
63321,-83.3333333333333,4,2,4,90,0,1
64655,-76.9230769230769,4,2,1,90,0,1
64877,-100,4,2,1,90,0,1
64988,-83.3333333333333,4,2,1,90,0,0
65099,-100,4,2,4,90,0,1
71322,-111.111111111111,4,2,4,90,0,1
71766,-100,4,2,4,90,0,1
73099,-90.9090909090909,4,2,4,90,0,1
73988,-83.3333333333333,4,2,4,90,0,1
74877,-100,4,2,4,90,0,1
75321,-100,4,2,4,90,0,0
75766,-76.9230769230769,4,2,4,90,0,1
77544,-71.4285714285714,4,2,4,90,0,1
79322,-66.6666666666667,4,2,4,90,0,1
81099,-100,4,2,4,80,0,0
84655,-100,4,2,4,80,0,0
88655,-200,4,2,4,80,0,0

[Colours]
Combo1 : 128,255,0
Combo2 : 255,128,192
Combo3 : 255,147,38
Combo4 : 38,147,255

[HitObjects]
76,268,655,6,0,P|88:244|92:208,1,62.5,2|0,0:0|0:0,0:0:0:0:
168,196,877,2,0,P|159:170|136:142,1,62.5,2|0,0:0|0:0,0:0:0:0:
208,84,1100,6,0,P|272:76|288:176,1,187.5,4|0,0:0|0:0,0:0:0:0:
248,272,1544,2,0,B|307:250|307:293|370:269,1,125,0|0,1:0|0:0,0:0:0:0:
100,316,1988,1,0,0:3:0:0:
72,160,2211,1,0,0:0:0:0:
100,316,2433,1,0,1:0:0:0:
72,160,2655,5,2,0:0:0:0:
88,184,2766,2,0,P|152:200|184:136,1,125
216,84,3100,2,0,B|288:76|288:76|263:122,1,125,2|0,0:0|1:0,0:0:0:0:
252,136,3433,1,0,0:0:0:0:
300,192,3544,2,0,L|368:184,1,62.5
288,204,3766,6,0,L|424:188,1,125,2|0,0:0|0:0,0:0:0:0:
197,282,4211,2,0,P|187:178|288:204,1,243.749988842011,8|0,1:3|0:0,0:0:0:0:
300,224,4655,6,0,P|377:244|370:165,1,187.5,4|0,0:0|0:0,0:0:0:0:
336,80,5100,2,0,B|396:60|404:96|458:77,1,125,0|0,1:0|0:0,0:0:0:0:
216,176,5544,1,2,0:0:0:0:
188,20,5767,1,0,0:0:0:0:
216,176,5989,1,0,1:0:0:0:
188,20,6211,5,2,0:0:0:0:
172,44,6322,2,0,P|108:60|76:-4,1,125
60,132,6655,2,0,B|48:220|48:220|73:194,1,125,2|0,0:0|1:0,0:0:0:0:
88,184,6988,1,0,0:0:0:0:
136,120,7100,2,0,L|68:112,1,62.5
148,108,7322,6,0,L|12:92,1,125,2|0,0:0|0:0,0:0:0:0:
279,147,7766,2,0,L|342:140,1,62.5,0|0,1:0|0:0,0:0:0:0:
420,164,7988,2,0,L|482:156,1,62.5,0|0,1:0|0:0,0:0:0:0:
360,219,8211,6,0,P|348:302|432:314,1,187.5,4|0,0:0|0:0,0:0:0:0:
328,308,8655,2,0,B|269:286|269:329|206:305,1,125,0|0,1:0|0:0,0:0:0:0:
84,256,9099,1,2,0:0:0:0:
240,228,9322,1,0,0:0:0:0:
84,256,9544,1,0,1:0:0:0:
240,228,9766,5,2,0:0:0:0:
216,244,9877,2,0,P|200:308|264:340,1,125
366,325,10211,2,0,B|392:288|392:288|316:312,1,125,2|0,0:0|1:0,0:0:0:0:
356,336,10544,1,0,0:0:0:0:
400,276,10655,2,0,L|436:224,1,62.5
416,96,10877,6,0,L|344:200,1,125,2|0,0:0|0:0,0:0:0:0:
104,188,11322,2,0,P|100:300|192:260,1,243.749988842011,8|0,1:3|0:0,0:0:0:0:
253,214,11766,6,0,P|263:293|188:269,1,187.5,4|0,0:0|0:0,0:0:0:0:
220,144,12211,2,0,B|280:124|288:160|342:141,1,125,0|0,1:0|0:0,0:0:0:0:
468,88,12655,1,2,0:0:0:0:
312,60,12878,1,0,0:0:0:0:
464,84,13099,1,0,1:0:0:0:
428,64,13210,1,2,0:0:0:0:
392,44,13321,1,2,0:0:0:0:
352,52,13432,1,2,0:0:0:0:
311,59,13543,5,0,1:0:0:0:
404,140,13655,2,0,L|450:177,1,46.875,4|0,0:0|3:0,0:0:0:0:
274,139,13877,5,0,1:0:0:0:
393,161,13989,2,0,L|440:169,1,46.875,4|0,0:0|3:0,0:0:0:0:
281,225,14211,5,0,1:0:0:0:
395,184,14321,2,0,L|451:162,1,46.875,4|0,0:0|3:0,0:0:0:0:
330,297,14544,5,0,1:0:0:0:
410,204,14655,2,0,L|439:167,1,46.875,4|0,0:0|3:0,0:0:0:0:
456,144,14877,6,0,L|397:167,1,62.5,4|0,1:0|0:0,0:0:0:0:
256,224,15099,2,0,L|197:201,1,62.5,0|0,1:0|0:0,0:0:0:0:
52,144,15322,5,0,1:0:0:0:
172,112,15433,2,0,B|222:64|222:64|152:67,1,140.625005364418,4|0,0:0|3:0,0:0:0:0:
52,144,15655,5,0,1:0:0:0:
175,162,15766,2,0,B|228:158|245:129|245:129|222:104|172:112,1,159.375003039837,4|0,0:0|3:0,0:0:0:0:
52,144,15988,5,0,1:0:0:0:
138,234,16099,2,0,P|213:226|175:162,1,178.124995243549,4|0,0:0|3:0,0:0:0:0:
52,144,16322,5,0,1:0:0:0:
77,221,16433,2,0,B|96:280|96:280|138:234,1,125,4|0,0:0|0:0,0:0:0:0:
93,97,16655,2,0,B|31:85|31:85|52:144,1,125,4|0,1:0|0:0,0:0:0:0:
191,172,16877,2,0,B|232:125|232:125|171:113,1,125,4|0,1:2|0:0,0:0:0:0:
138,233,17099,6,0,B|126:289|158:337|158:337|174:317|194:307,1,156.25,4|0,0:0|1:0,0:0:0:0:
412,304,17544,1,0,0:0:0:0:
412,304,17655,2,0,P|375:309|336:288,1,62.5,0|0,0:0|1:0,0:0:0:0:
216,298,17877,6,0,P|268:267|327:283,1,125,2|2,0:0|0:0,0:0:0:0:
460,280,18211,2,0,P|407:249|348:265,1,125,0|0,1:0|0:0,0:0:0:0:
44,340,18655,6,0,P|84:328|108:312,1,62.5,0|0,1:0|0:0,0:0:0:0:
160,264,18877,6,0,P|168:220|200:180,1,93.75,2|0,0:0|3:0,0:0:0:0:
197,181,19099,2,0,P|233:209|279:218,1,62.5,0|0,1:0|0:0,0:0:0:0:
420,168,19322,1,2,0:0:0:0:
420,168,19433,2,0,P|374:161|330:176,1,62.5,0|0,0:0|1:0,0:0:0:0:
190,237,19655,6,0,P|216:221|247:214,1,62.5
420,167,19877,2,0,P|398:190|385:219,1,62.5,2|0,0:0|1:0,0:0:0:0:
336,320,20099,6,0,P|285:266|275:193,1,125,2|0,0:0|0:0,0:0:0:0:
280,136,20433,2,0,P|284:112|284:88,2,41.6666666666667,0|2|2,1:2|0:0|0:0,0:0:0:0:
247,214,20655,6,0,P|180:248|107:230,1,125,0|0,0:0|1:0,0:0:0:0:
364,200,21099,1,0,0:0:0:0:
364,200,21211,2,0,P|376:172|380:140,1,62.5,0|0,0:0|1:0,0:0:0:0:
352,0,21433,6,0,P|345:61|371:117,1,125,2|2,0:0|0:0,0:0:0:0:
444,240,21766,2,0,P|434:178|394:132,1,125,0|0,1:0|0:0,0:0:0:0:
394,132,22211,5,0,1:0:0:0:
364,200,22322,1,0,0:0:0:0:
317,257,22433,2,0,P|288:278|261:286,1,62.5,4|0,0:1|0:0,0:0:0:0:
368,320,22655,5,0,1:0:0:0:
321,261,22766,1,0,1:0:0:0:
309,186,22877,1,2,0:0:0:0:
336,115,22988,1,0,1:0:0:0:
395,67,23099,1,0,1:0:0:0:
324,40,23211,6,0,B|264:32|224:64|224:64|260:88,1,125,6|0,0:0|0:0,0:0:0:0:
308,124,23544,2,0,P|328:148|336:188,1,62.5,0|0,1:0|0:0,0:0:0:0:
236,216,23766,5,0,1:0:0:0:
200,204,23877,5,0,0:0:0:0:
200,166,23988,5,0,0:0:0:0:
236,155,24099,5,0,0:0:0:0:
258,185,24211,6,0,P|320:216|392:184,1,125,4|0,0:0|1:0,0:0:0:0:
136,272,24655,1,0,0:0:0:0:
136,272,24766,2,0,P|96:268|72:256,1,62.5,0|0,0:0|1:0,0:0:0:0:
240,304,24988,6,0,P|304:280|340:232,1,125,2|2,0:0|0:0,0:0:0:0:
156,312,25322,2,0,P|139:285|52:256,1,125,0|0,1:0|0:0,0:0:0:0:
383,176,25766,6,0,P|410:159|440:153,1,62.5,0|0,1:0|0:0,0:0:0:0:
311,211,25988,6,0,P|303:165|321:123,1,93.75,2|0,0:0|3:0,0:0:0:0:
325,120,26211,2,0,P|342:77|334:31,1,62.5,0|0,1:0|0:0,0:0:0:0:
212,172,26433,1,2,0:0:0:0:
212,172,26544,2,0,P|183:184|152:186,1,62.5,0|0,0:0|1:0,0:0:0:0:
260,64,26766,6,0,P|253:18|223:-17,1,62.5,2|0,0:0|0:0,0:0:0:0:
292,188,26988,2,0,P|280:217|259:239,1,62.5,0|0,0:0|1:0,0:0:0:0:
160,292,27211,6,0,P|216:264|216:356,1,187.500007152558,2|0,0:0|0:0,0:0:0:0:
84,316,27544,2,0,P|80:288|88:256,1,62.5,0|0,1:0|0:0,0:0:0:0:
148,188,27766,6,0,B|88:172|72:128|72:128|84:124|120:132,1,125,0|0,0:0|1:0,0:0:0:0:
296,244,28211,1,2,0:0:0:0:
296,244,28322,2,0,P|328:243|354:232,1,62.5,0|0,0:0|1:0,0:0:0:0:
392,332,28544,6,0,P|368:274|382:214,1,125,2|2,0:0|0:0,0:0:0:0:
424,76,28877,2,0,P|395:130|402:191,1,125,0|0,1:0|0:0,0:0:0:0:
450,351,29322,2,0,P|414:335|390:331,1,62.5,0|0,1:0|0:0,0:0:0:0:
276,356,29544,6,0,P|208:344|176:264,1,162.499992561341,4|0,0:0|1:0,0:0:0:0:
204,180,29877,2,0,P|184:99|101:122,1,187.500007152558,2|2,0:0|0:0,0:0:0:0:
124,200,30211,1,0,0:0:0:0:
228,172,30322,6,0,B|304:156|336:208|336:208|312:220|284:184,1,162.499992561341,4|0,0:0|0:0,0:0:0:0:
388,112,30655,2,0,P|410:100|446:99,1,62.5,0|0,1:0|0:0,0:0:0:0:
299,200,30877,2,0,P|278:183|262:151,1,62.5
420,234,31099,2,0,P|419:259|402:290,1,62.5,0|0,1:0|0:0,0:0:0:0:
264,236,31322,6,0,B|240:168|280:120|280:120|292:144|288:168,1,162.499992561341,4|0,0:0|1:0,0:0:0:0:
188,263,31655,2,0,P|154:286|115:292,1,62.5,2|0,0:0|0:0,0:0:0:0:
52,200,31877,1,0,1:0:0:0:
52,176,31988,1,2,0:0:0:0:
60,156,32099,6,0,P|93:133|180:148,1,125,0|0,1:0|0:0,0:0:0:0:
244,184,32433,2,0,P|280:196|316:188,1,62.5,0|0,1:0|0:0,0:0:0:0:
376,152,32655,2,0,P|388:116|384:80,1,62.5,2|0,0:0|0:0,0:0:0:0:
316,44,32877,2,0,P|304:80|308:116,1,62.5,2|0,1:2|0:0,0:0:0:0:
380,236,33099,5,4,0:0:0:0:
107,297,33322,2,0,L|168:282,1,46.8750017881394
282,326,33544,1,8,0:0:0:0:
282,326,33655,2,0,L|221:311,1,46.8750017881394
58,288,33877,2,0,L|167:261,1,93.7500035762788,4|0,0:3|0:0,0:0:0:0:
221,309,34211,2,0,L|266:297,1,46.8750017881394
347,272,34433,2,0,L|360:226,1,46.8750017881394,8|0,0:0|0:0,0:0:0:0:
290,171,34655,2,0,L|276:216,1,46.8750017881394
418,324,34877,5,0,0:0:0:0:
480,78,35099,2,0,L|493:123,1,46.8750017881394
462,202,35322,2,0,L|448:247,1,46.8750017881394,8|0,0:0|0:0,0:0:0:0:
477,326,35544,2,0,L|490:371,1,46.8750017881394
384,305,35766,1,4,0:3:0:0:
384,305,35877,2,0,L|397:350,1,46.8750017881394
291,284,36099,1,8,0:0:0:0:
291,284,36211,2,0,L|304:329,1,46.8750017881394
231,383,36433,2,0,L|217:337,1,46.8750017881394,8|0,0:0|0:0,0:0:0:0:
187,231,36655,5,4,0:0:0:0:
451,185,36877,2,0,L|390:170,1,46.8750017881394
276,214,37099,1,8,0:0:0:0:
276,214,37210,2,0,L|337:199,1,46.8750017881394
500,176,37432,2,0,L|390:149,1,93.7500035762788,4|0,0:3|0:0,0:0:0:0:
358,79,37766,2,0,L|312:90,1,46.8750017881394
289,168,37988,2,0,L|276:214,1,46.8750017881394,8|0,0:0|0:0,0:0:0:0:
348,266,38211,2,0,L|361:220,1,46.8750017881394
233,111,38433,5,0,0:0:0:0:
171,357,38655,2,0,L|157:311,1,46.8750017881394
189,233,38878,2,0,L|202:187,1,46.8750017881394,8|0,0:0|0:0,0:0:0:0:
174,109,39100,2,0,L|160:63,1,46.8750017881394
267,130,39322,1,8,0:0:0:0:
267,130,39433,2,0,L|253:84,1,46.8750017881394
360,151,39655,5,8,0:0:0:0:
353,128,39767,1,0,0:0:0:0:
346,105,39877,1,0,0:0:0:0:
385,137,39988,5,8,0:3:0:0:
424,169,40099,1,0,0:0:0:0:
464,204,40211,1,4,0:3:0:0:
153,278,40433,6,0,L|107:289,1,46.8750017881394
236,306,40655,1,8,0:0:0:0:
236,307,40766,2,0,L|281:318,1,46.8750017881394
371,340,40988,2,0,L|348:249,1,93.7500035762788
325,160,41322,2,0,L|370:172,1,46.8750017881394
259,269,41544,2,0,L|272:223,1,46.8750017881394,8|0,0:0|0:0,0:0:0:0:
449,207,41766,2,0,L|435:252,1,46.8750017881394
408,338,41988,5,4,0:3:0:0:
408,338,42099,2,0,P|362:305|347:269,1,93.7500035762788,8|0,0:0|0:0,0:0:0:0:
435,251,42433,1,8,0:0:0:0:
301,194,42655,6,0,P|382:188|435:251,1,168.749994850159,4|0,0:0|0:0,0:0:0:0:
347,272,43099,2,0,P|350:230|382:188,1,56.2499982833863
460,124,43322,5,8,0:0:0:0:
453,96,43433,1,4,0:3:0:0:
402,80,43544,5,0,0:0:0:0:
407,58,43655,1,0,0:0:0:0:
369,25,43766,5,6,0:0:0:0:
310,229,43988,2,0,L|292:300,1,62.5
379,194,44211,2,0,P|318:152|258:171,1,125,2|0,0:0|0:0,0:0:0:0:
211,218,44544,1,0,0:0:0:0:
184,234,44655,2,0,P|123:240|76:201,1,125,2|0,0:0|0:0,0:0:0:0:
243,292,45099,1,2,1:2:0:0:
266,252,45210,1,0,1:0:0:0:
264,205,45321,1,0,1:0:0:0:
237,168,45432,1,0,0:0:0:0:
194,151,45544,5,4,0:3:0:0:
288,84,45655,2,0,P|327:82|356:98,1,74.9999977111817,4|0,0:0|3:0,0:0:0:0:
251,193,45877,5,0,1:0:0:0:
217,84,45988,2,0,P|227:45|252:22,1,74.9999977111817,4|0,0:0|3:0,0:0:0:0:
309,151,46211,5,4,0:3:0:0:
194,151,46322,2,0,P|161:129|147:98,1,74.9999977111817,4|0,0:0|3:0,0:0:0:0:
288,84,46544,5,0,1:0:0:0:
251,193,46655,2,0,P|219:217|186:221,1,74.9999977111817,4|0,0:0|3:0,0:0:0:0:
309,151,46877,6,0,P|322:188|316:221,1,74.9999977111817,8|0,0:3|0:0,0:0:0:0:
271,351,47099,2,0,P|258:314|264:281,1,74.9999977111817,4|0,0:3|0:0,0:0:0:0:
411,309,47322,5,0,1:0:0:0:
264,279,47433,2,0,P|230:220|297:208,1,159.375003039837,4|0,0:0|3:0,0:0:0:0:
411,309,47655,5,0,1:0:0:0:
297,208,47766,2,0,B|272:175|274:128|274:128|317:142|340:175,1,168.749994850159,4|0,0:0|3:0,0:0:0:0:
411,309,47988,5,4,0:3:0:0:
340,175,48099,2,0,B|352:86|352:86|405:157,1,178.124995243549,4|0,0:0|3:0,0:0:0:0:
411,309,48322,5,0,1:0:0:0:
404,156,48433,2,0,P|454:128|486:176,1,125,4|0,0:0|0:0,0:0:0:0:
370,296,48655,2,0,P|321:266|346:215,1,125,4|0,1:0|0:0,0:0:0:0:
509,256,48877,2,0,P|508:312|451:316,1,125,4|0,1:2|0:0,0:0:0:0:
256,192,49099,12,4,50211,0:3:0:0:
349,165,50433,5,0,1:0:0:0:
349,165,50544,1,0,0:0:0:0:
349,165,50655,1,0,0:0:0:0:
349,165,50766,1,0,0:0:0:0:
349,165,50877,2,0,P|252:156|205:222,1,187.5,4|0,0:0|0:0,0:0:0:0:
208,312,51321,2,0,P|265:289|293:235,1,125,0|0,1:0|0:0,0:0:0:0:
231,47,51766,6,0,L|360:74,1,125,2|0,0:0|0:0,0:0:0:0:
377,79,52099,1,2,0:0:0:0:
401,85,52210,1,0,1:0:0:0:
323,161,52433,1,0,0:0:0:0:
439,1,52655,6,0,P|492:79|423:175,1,187.5,4|0,0:3|0:0,0:0:0:0:
386,208,53099,2,0,P|380:270|418:320,1,125,0|0,1:0|0:0,0:0:0:0:
431,143,53544,5,2,0:0:0:0:
431,143,53655,2,0,P|380:179|318:171,1,125,0|0,1:0|0:0,0:0:0:0:
244,128,53988,1,2,1:2:0:0:
291,326,54211,2,0,P|309:362|334:378,1,62.5
367,304,54433,6,0,P|311:249|217:297,1,187.5
152,341,54877,2,0,P|110:342|54:286,1,125,0|0,1:0|0:0,0:0:0:0:
242,142,55321,5,2,0:0:0:0:
140,267,55544,1,0,0:0:0:0:
140,267,55655,1,0,0:0:0:0:
140,267,55766,1,0,1:0:0:0:
166,73,55988,1,0,0:0:0:0:
278,264,56211,6,0,P|311:286|345:291,1,62.5,4|0,0:0|0:0,0:0:0:0:
453,181,56433,2,0,P|427:162|397:154,1,62.5
385,351,56655,2,0,P|411:295|393:236,1,125,0|0,1:0|0:0,0:0:0:0:
393,236,56988,1,0,0:0:0:0:
393,236,57099,6,0,P|322:184|356:86,1,206.250006294251,2|0,0:0|0:0,0:0:0:0:
432,67,57544,2,0,P|428:117|396:154,1,100,0|4,1:0|0:3,0:0:0:0:
261,74,57877,1,0,0:0:0:0:
261,74,57988,6,0,P|193:64|116:150,1,187.5,4|0,0:0|0:0,0:0:0:0:
77,217,58433,2,0,P|110:185|191:181,1,125,0|0,1:0|0:0,0:0:0:0:
285,291,58877,5,2,0:0:0:0:
285,291,58988,2,0,P|251:322|170:326,1,125,0|0,1:0|0:0,0:0:0:0:
175,327,59322,1,2,1:2:0:0:
269,156,59544,1,0,0:0:0:0:
302,304,59766,6,0,P|326:242|438:226,1,187.5,2|0,0:0|0:0,0:0:0:0:
489,369,60211,2,0,P|429:357|394:308,1,125,0|0,1:0|0:0,0:0:0:0:
365,131,60655,5,4,0:3:0:0:
365,131,60766,1,0,0:0:0:0:
365,131,60877,1,0,0:0:0:0:
435,224,61099,1,0,1:0:0:0:
251,116,61322,1,0,0:0:0:0:
251,116,61433,1,0,0:0:0:0:
251,116,61544,6,0,P|281:179|338:202,1,125,4|0,0:0|0:0,0:0:0:0:
400,181,61877,1,0,0:0:0:0:
422,169,61988,2,0,P|445:103|421:46,1,125,0|0,1:0|0:0,0:0:0:0:
352,325,62433,5,2,0:0:0:0:
352,325,62544,2,0,P|354:267|412:263,1,125,0|0,1:0|0:0,0:0:0:0:
330,242,62877,2,0,P|311:203|329:144,1,125,0|0,1:0|0:0,0:0:0:0:
205,306,63322,5,4,0:0:0:0:
113,209,63544,5,0,1:0:0:0:
185,287,63655,1,4,0:0:0:0:
205,112,63877,5,0,1:0:0:0:
133,190,63988,1,4,0:0:0:0:
41,93,64211,5,4,1:0:0:0:
113,171,64321,2,0,P|125:243|83:303,1,149.999995422363
93,152,64655,6,0,P|113:134|174:127,1,81.2499962806703,0|0,3:0|3:0,0:0:0:0:
82,303,64877,2,0,P|57:313|-3:304,1,62.5,0|0,3:0|0:0,0:0:0:0:
161,226,65099,6,0,P|241:216|300:321,1,187.5,4|0,0:0|0:0,0:0:0:0:
370,348,65544,2,0,P|421:365|481:332,1,125,0|0,1:0|0:0,0:0:0:0:
282,140,65988,6,0,L|122:116,1,125,2|0,0:0|0:0,0:0:0:0:
133,117,66321,1,2,0:0:0:0:
108,112,66432,1,0,1:2:0:0:
227,84,66655,1,0,0:0:0:0:
331,215,66877,6,0,P|372:134|324:59,1,187.5,4|0,0:3|0:0,0:0:0:0:
392,105,67322,2,0,L|515:86,1,125,0|0,1:0|0:0,0:0:0:0:
222,209,67766,5,2,0:0:0:0:
191,214,67877,1,0,1:0:0:0:
339,300,68099,1,0,0:0:0:0:
339,300,68211,2,0,P|388:280|403:189,1,125,0|0,1:0|0:0,0:0:0:0:
355,148,68544,1,0,0:0:0:0:
343,125,68655,6,0,P|349:70|481:44,1,187.5
506,188,69099,2,0,P|451:163|425:108,1,125,0|0,1:0|0:0,0:0:0:0:
270,188,69544,6,0,P|208:188|151:143,1,125,2|0,0:0|0:0,0:0:0:0:
132,62,69877,1,0,0:0:0:0:
152,76,69988,2,0,P|169:150|115:210,1,125,0|0,1:0|0:0,0:0:0:0:
296,127,70433,6,0,L|249:168,1,62.5,4|0,0:0|0:0,0:0:0:0:
172,286,70655,2,0,L|230:235,1,62.5
319,222,70877,1,0,1:0:0:0:
319,222,70988,2,0,P|326:282|356:231,1,125
393,171,71322,6,0,P|322:132|249:168,1,168.749994850159,2|0,0:0|0:0,0:0:0:0:
249,168,71766,1,0,1:0:0:0:
342,46,71988,2,0,P|334:95|306:126,1,62.5,0|0,0:3|0:0,0:0:0:0:
193,222,72211,6,0,P|176:159|214:105,1,125,4|0,0:0|0:0,0:0:0:0:
226,97,72544,1,0,0:0:0:0:
249,89,72655,2,0,L|94:106,1,125,0|0,1:0|0:0,0:0:0:0:
311,314,73099,6,0,P|330:250|297:192,1,137.500004196167,4|0,0:0|0:0,0:0:0:0:
274,177,73432,1,0,0:0:0:0:
249,168,73543,2,0,L|384:182,1,137.500004196167,0|0,1:0|0:0,0:0:0:0:
100,224,73988,6,0,P|105:157|159:226,1,149.999995422363,4|0,0:0|0:0,0:0:0:0:
162,291,74322,1,0,0:0:0:0:
136,306,74433,2,0,P|56:303|10:217,1,149.999995422363,0|0,1:0|0:0,0:0:0:0:
269,319,74877,6,0,P|298:307|321:287,1,62.5,2|0,0:0|0:0,0:0:0:0:
335,202,75099,2,0,P|347:173|350:142,1,62.5,0|0,1:0|0:0,0:0:0:0:
233,69,75322,1,0,1:0:0:0:
198,63,75433,1,0,0:0:0:0:
168,85,75544,1,0,0:0:0:0:
166,121,75655,1,0,0:0:0:0:
191,148,75766,6,0,P|230:158|270:150,1,81.2499962806703,4|0,0:0|0:0,0:0:0:0:
463,43,75988,2,0,P|424:34|385:41,1,81.2499962806703,0|0,1:0|0:0,0:0:0:0:
294,137,76211,5,2,0:0:0:0:
361,54,76322,1,0,1:0:0:0:
313,119,76433,5,0,0:0:0:0:
464,44,76544,2,0,P|495:69|512:106,1,81.2499962806703,6|0,0:0|0:0,0:0:0:0:
327,96,76766,5,0,0:0:0:0:
512,106,76877,2,0,P|512:146|495:183,1,81.2499962806703,4|0,1:0|0:0,0:0:0:0:
323,148,77099,6,0,P|323:108|340:71,1,81.2499962806703,2|0,1:2|0:0,0:0:0:0:
495,182,77322,6,0,P|464:207|425:218,1,81.2499962806703,0|0,1:0|0:0,0:0:0:0:
234,138,77544,6,0,P|190:143|153:165,1,87.499997329712,4|0,0:0|0:0,0:0:0:0:
0,334,77766,2,0,P|43:327|81:306,1,87.499997329712,0|0,1:0|0:0,0:0:0:0:
134,185,77989,5,2,0:0:0:0:
101,288,78100,1,0,0:0:0:0:
126,211,78211,5,0,1:0:0:0:
134,314,78322,2,0,P|150:354|181:384,1,87.499997329712,6|0,0:0|0:0,0:0:0:0:
125,238,78544,5,0,0:0:0:0:
218,305,78655,2,0,P|260:303|299:284,1,87.499997329712,4|0,1:0|0:0,0:0:0:0:
237,103,78877,6,0,P|193:111|159:136,1,87.499997329712,0|0,1:0|0:0,0:0:0:0:
299,284,79099,6,0,P|325:249|335:207,1,87.499997329712,0|0,1:0|0:0,0:0:0:0:
351,34,79322,6,0,L|398:146,1,93.7500035762788,4|0,0:0|0:0,0:0:0:0:
382,319,79544,6,0,L|346:233,1,93.7500035762788,0|0,1:0|0:0,0:0:0:0:
398,146,79766,5,2,0:0:0:0:
335,207,79877,1,0,0:0:0:0:
410,172,79988,5,4,1:0:0:0:
223,192,80099,2,0,B|312:156|312:156|415:195,1,187.500007152558,4|0,1:2|0:0,0:0:0:0:
509,161,80433,6,0,L|397:208,1,93.7500035762788,0|0,1:0|0:0,0:0:0:0:
226,281,80655,6,0,L|312:244,1,93.7500035762788,4|0,1:0|0:0,0:0:0:0:
415,103,80877,6,0,P|371:118|340:152,1,93.7500035762788,0|0,1:0|0:0,0:0:0:0:
362,323,81099,6,0,P|404:246|366:170,1,125,4|0,0:0|0:0,0:0:0:0:
224,313,81544,2,0,B|158:336|169:294|99:319,1,125,0|0,1:0|0:0,0:0:0:0:
230,129,81988,2,0,P|188:206|226:282,1,125
362,323,82433,2,0,P|404:246|366:170,1,125,0|0,1:0|0:0,0:0:0:0:
383,192,82766,1,0,0:0:0:0:
370,170,82877,6,0,P|368:108|406:59,1,125
334,242,83322,2,0,B|400:265|389:223|459:248,1,125,0|0,1:0|0:0,0:0:0:0:
285,165,83766,2,0,L|168:115,1,125
247,294,84211,5,0,1:0:0:0:
275,287,84322,1,0,0:0:0:0:
291,236,84433,5,0,1:0:0:0:
313,241,84544,1,0,1:0:0:0:
346,203,84655,6,0,L|437:229,1,62.5,4|0,0:0|0:0,0:0:0:0:
457,147,84877,2,0,L|503:230,1,62.5
402,327,85099,2,0,P|377:273|406:219,1,125,2|0,0:0|0:0,0:0:0:0:
279,257,85433,1,0,0:0:0:0:
279,257,85544,6,0,L|175:236,1,62.5,2|0,0:0|0:0,0:0:0:0:
344,207,85766,2,0,L|405:219,1,62.5,2|0,0:0|0:0,0:0:0:0:
232,160,85988,2,0,L|128:139,1,62.5
319,202,86211,1,2,0:0:0:0:
311,178,86322,1,0,0:0:0:0:
311,153,86433,6,0,P|352:106|411:107,1,125,4|0,0:3|0:0,0:0:0:0:
371,266,86766,1,0,0:0:0:0:
380,283,86877,2,0,P|401:199|357:163,1,125,2|0,0:0|0:0,0:0:0:0:
311,298,87211,1,0,0:0:0:0:
320,315,87322,5,4,1:3:0:0:
244,304,87433,1,0,1:0:0:0:
168,293,87544,1,0,1:0:0:0:
92,282,87655,1,0,1:0:0:0:
101,299,87766,5,2,0:0:0:0:
177,276,87877,1,2,0:0:0:0:
154,200,87988,1,2,0:0:0:0:
78,223,88099,1,2,0:0:0:0:
434,161,88655,6,0,L|286:197,1,125,4|0,0:0|3:0,0:0:0:0:
