osu file format v14

[General]
AudioFilename: audio.mp3
AudioLeadIn: 0
PreviewTime: 50877
Countdown: 0
SampleSet: Soft
StackLeniency: 0.5
Mode: 0
LetterboxInBreaks: 0
WidescreenStoryboard: 0

[Editor]
Bookmarks: 17099,33099,50877,65099,81099
DistanceSpacing: 1.6
BeatDivisor: 4
GridSize: 32
TimelineZoom: 1.6

[Metadata]
Title:RHAPSODY OF BLUE SKY
TitleUnicode:青空のラプソディ
Artist:fhana
ArtistUnicode:fhána
Creator:[Kamiya]
Version:Pata-Mon's Insane
Source:小林さんちのメイドラゴン
Tags:kobayashi san chi no maidragon aozora no opening anime maid dragon OblivioN Karen Dynamix imoutosan Pata-Mon gxytcgxytc
BeatmapID:1249647
BeatmapSetID:586841

[Difficulty]
HPDrainRate:7
CircleSize:4.6
OverallDifficulty:7.5
ApproachRate:8
SliderMultiplier:1.8
SliderTickRate:2

[Events]
//Background and Video events
0,0,"visual_01_pc.jpg",0,0
Video,0,"video.avi"
//Break Periods
//Storyboard Layer 0 (Background)
//Storyboard Layer 1 (Fail)
//Storyboard Layer 2 (Pass)
//Storyboard Layer 3 (Foreground)
//Storyboard Sound Samples

[TimingPoints]
-678,444.444444444444,4,2,23,40,1,0
13544,-100,4,2,23,40,0,0
15321,-83.3333333333333,4,2,23,40,0,0
33099,-100,4,2,23,40,0,0
47321,-83.3333333333333,4,2,23,40,0,0
50877,-83.3333333333333,4,2,23,50,0,1
81099,-100,4,2,23,40,0,0
84655,-83.3333333333333,4,2,23,40,0,0
89099,-83.3333333333333,4,2,23,5,0,0

[Colours]
Combo1 : 128,255,0
Combo2 : 255,128,192
Combo3 : 255,147,38
Combo4 : 38,147,255

[HitObjects]
212,55,655,6,0,P|329:68|370:104,1,90,2|0,0:0|0:0,0:0:0:0:
256,282,1099,6,0,L|256:192,1,90,6|0,0:0|0:0,0:0:0:0:
393,57,1544,2,0,L|393:147,1,90,8|0,0:0|0:0,0:0:0:0:
345,200,1877,1,0,0:0:0:0:
349,204,1988,2,0,L|349:268,1,45,2|0,0:0|0:0,0:0:0:0:
316,313,2210,1,2,0:0:0:0:
423,214,2433,1,8,0:0:0:0:
276,161,2655,1,2,0:0:0:0:
280,165,2766,2,0,L|280:229,1,45,2|0,0:0|0:0,0:0:0:0:
324,28,3099,6,0,P|207:41|166:77,1,90,2|8,0:0|0:0,0:0:0:0:
188,83,3433,2,0,P|71:70|30:34,1,90,2|0,0:0|0:0,0:0:0:0:
53,28,3766,2,0,P|31:22|-8:25,2,45,2|2|2,0:0|0:0|0:0,0:0:0:0:
184,163,4210,2,0,P|126:203|123:134,1,135,8|0,0:0|0:0,0:0:0:0:
254,147,4655,6,0,P|252:198|206:261,1,90,2|0,0:0|0:0,0:0:0:0:
105,162,5099,2,0,P|107:111|153:48,1,90,8|0,0:0|0:0,0:0:0:0:
183,38,5433,1,0,0:0:0:0:
187,42,5544,2,0,L|257:42,1,45,2|0,0:0|0:0,0:0:0:0:
289,84,5766,1,2,0:0:0:0:
105,162,5988,1,8,0:0:0:0:
293,88,6210,1,2,0:0:0:0:
297,92,6321,2,0,L|367:92,1,45,2|0,0:0|0:0,0:0:0:0:
366,268,6655,6,0,P|249:255|208:219,1,90,2|8,0:0|0:0,0:0:0:0:
230,213,6989,2,0,P|113:226|72:262,1,90,2|0,0:0|0:0,0:0:0:0:
95,268,7321,2,0,P|73:271|26:258,3,45,2|2|2|2,0:0|0:0|0:0|0:0,0:0:0:0:
72,199,7766,2,0,P|72:178|88:122,1,45,8|0,0:0|0:0,0:0:0:0:
167,280,7988,2,0,P|170:302|170:324,1,45,2|0,0:0|0:0,0:0:0:0:
141,213,8210,6,0,P|203:190|287:194,1,135,6|0,0:0|0:0,0:0:0:0:
337,221,8655,2,0,P|375:206|403:135,1,90,8|0,0:0|0:0,0:0:0:0:
331,101,8988,1,0,0:0:0:0:
327,105,9099,2,0,L|334:176,1,45,2|0,0:0|0:0,0:0:0:0:
337,221,9321,1,2,0:0:0:0:
407,95,9544,1,8,0:0:0:0:
259,80,9766,1,2,0:0:0:0:
255,84,9877,2,0,L|262:155,1,45,2|0,0:0|0:0,0:0:0:0:
422,25,10210,6,0,P|357:43|337:112,1,90,2|8,0:0|0:0,0:0:0:0:
344,131,10544,2,0,P|385:164|462:142,1,90,2|0,0:0|0:0,0:0:0:0:
452,95,10877,2,0,L|407:95,2,45,2|2|2,0:0|0:0|0:0,0:0:0:0:
286,16,11321,1,8,0:0:0:0:
282,12,11433,2,0,P|208:17|178:66,1,90,2|0,0:0|0:0,0:0:0:0:
249,165,11766,6,0,P|255:116|249:75,1,90,2|0,0:0|0:0,0:0:0:0:
64,126,12210,2,0,P|58:175|64:216,1,90,8|0,0:0|0:0,0:0:0:0:
112,268,12544,1,0,0:0:0:0:
116,272,12655,2,0,P|116:294|113:316,1,45,2|0,0:0|0:0,0:0:0:0:
73,376,12877,1,2,0:0:0:0:
135,200,13099,2,0,P|170:189|214:202,1,45,8|0,0:0|0:0,0:0:0:0:
240,226,13321,2,0,P|275:237|319:224,1,45,2|0,0:0|0:0,0:0:0:0:
382,119,13544,5,2,0:0:0:0:
386,123,13655,2,0,P|351:134|323:171,1,45,8|0,0:0|0:0,0:0:0:0:
334,297,13877,1,2,0:0:0:0:
330,293,13988,2,0,P|351:263|352:217,1,45,8|0,0:0|0:0,0:0:0:0:
271,117,14210,1,2,0:0:0:0:
275,121,14321,2,0,P|275:157|301:195,1,45,8|0,0:0|0:0,0:0:0:0:
424,225,14544,1,2,0:0:0:0:
420,229,14655,2,0,P|398:199|354:184,1,45,8|0,0:0|0:0,0:0:0:0:
240,226,14877,6,0,P|275:237|319:224,1,45,2|0,0:0|0:0,0:0:0:0:
386,123,15099,2,0,P|351:134|323:171,1,45,2|0,0:0|0:0,0:0:0:0:
353,255,15322,5,2,0:0:0:0:
356,266,15433,2,0,P|346:310|332:338,1,53.9999983520508,8|0,0:0|0:0,0:0:0:0:
277,165,15655,1,2,0:0:0:0:
268,157,15766,2,0,P|250:115|245:84,1,53.9999983520508,8|0,0:0|0:0,0:0:0:0:
392,194,15988,1,2,0:0:0:0:
403,194,16099,2,0,P|441:217|464:239,1,53.9999983520508,8|0,0:0|0:0,0:0:0:0:
282,237,16321,1,2,0:0:0:0:
272,243,16432,2,0,P|227:247|196:242,1,53.9999983520508,8|0,0:0|0:0,0:0:0:0:
349,127,16655,6,0,P|382:97|410:82,1,53.9999983520508,2|0,0:0|0:0,0:0:0:0:
356,266,16877,2,0,P|346:310|332:338,1,53.9999983520508,2|0,0:0|0:0,0:0:0:0:
389,92,17099,6,0,P|443:71|526:70,1,107.999996704102,6|8,0:0|0:0,0:0:0:0:
280,232,17544,2,0,P|226:226|176:206,1,107.999996704102,2|8,0:0|0:0,0:0:0:0:
262,153,17877,2,0,P|230:192|176:206,1,107.999996704102,2|2,0:0|0:0,0:0:0:0:
104,158,18210,2,0,P|96:108|116:63,1,53.9999983520508,8|0,0:0|0:0,0:0:0:0:
182,120,18433,1,2,0:0:0:0:
17,173,18655,2,0,P|10:135|11:93,1,53.9999983520508,8|0,0:0|0:0,0:0:0:0:
45,41,18877,5,2,0:0:0:0:
73,238,19099,1,8,0:0:0:0:
182,120,19321,1,2,0:0:0:0:
186,116,19433,2,0,P|219:108|260:109,1,53.9999983520508,2|8,0:0|0:0,0:0:0:0:
380,192,19655,2,0,P|320:202|263:170,1,107.999996704102,2|0,0:0|0:0,0:0:0:0:
449,141,19988,1,8,0:0:0:0:
453,145,20099,2,0,L|462:232,1,53.9999983520508,2|0,0:0|0:0,0:0:0:0:
410,270,20321,1,2,0:0:0:0:
414,274,20432,2,0,L|423:361,1,53.9999983520508,8|0,0:0|0:0,0:0:0:0:
278,184,20655,6,0,P|338:174|395:206,1,107.999996704102,2|8,0:0|0:0,0:0:0:0:
195,299,21099,2,0,L|100:304,1,53.9999983520508,2|0,0:0|0:0,0:0:0:0:
64,262,21321,1,8,0:0:0:0:
60,258,21433,2,0,P|47:215|60:128,1,107.999996704102,2|2,0:0|0:0,0:0:0:0:
120,100,21766,2,0,L|215:95,2,53.9999983520508,8|0|2,0:0|0:0|0:0,0:0:0:0:
278,184,22210,1,8,0:0:0:0:
293,168,22321,1,8,0:0:0:0:
307,151,22433,6,0,P|316:87|300:28,1,107.999996704102,6|8,0:0|0:0,0:0:0:0:
174,97,22766,2,0,P|201:98|228:93,1,53.9999983520508,8|0,0:0|0:0,0:0:0:0:
229,7,22988,2,0,P|202:6|175:11,1,53.9999983520508,2|8,0:0|0:0,0:0:0:0:
125,168,23210,2,0,P|186:179|257:167,1,107.999996704102,6|2,0:0|0:0,0:0:0:0:
88,90,23544,2,0,P|45:136|39:173,1,53.9999983520508,8|0,0:0|0:0,0:0:0:0:
137,220,23766,2,0,P|137:209|125:168,1,53.9999983520508,8|8,0:0|0:0,0:0:0:0:
0,197,23988,2,0,P|62:212|97:199,1,53.9999983520508,10|2,0:0|0:0,0:0:0:0:
174,97,24210,6,0,P|230:89|284:98,1,107.999996704102,6|8,0:0|0:0,0:0:0:0:
227,313,24655,2,0,L|227:259,1,53.9999983520508,2|0,0:0|0:0,0:0:0:0:
284,377,24877,1,8,0:0:0:0:
280,381,24988,2,0,P|224:389|170:380,1,107.999996704102,2|2,0:0|0:0,0:0:0:0:
312,298,25321,2,0,P|368:290|422:299,1,107.999996704102,8|2,0:0|0:0,0:0:0:0:
141,301,25766,2,0,L|141:247,1,53.9999983520508,8|0,0:0|0:0,0:0:0:0:
227,313,25988,5,2,0:0:0:0:
55,296,26210,1,8,0:0:0:0:
214,175,26433,1,2,0:0:0:0:
218,179,26544,2,0,L|218:233,1,53.9999983520508,2|8,0:0|0:0,0:0:0:0:
151,124,26766,2,0,P|138:50|195:-10,1,107.999996704102,2|2,0:0|0:0,0:0:0:0:
279,69,27099,1,8,0:0:0:0:
275,73,27210,2,0,L|221:73,1,53.9999983520508,2|0,0:0|0:0,0:0:0:0:
47,73,27544,1,8,0:0:0:0:
97,289,27766,6,0,P|128:238|135:149,1,107.999996704102,2|8,0:0|0:0,0:0:0:0:
38,20,28210,2,0,P|40:46|47:72,1,53.9999983520508,2|0,0:0|0:0,0:0:0:0:
128,105,28433,1,8,0:0:0:0:
132,101,28544,2,0,P|181:83|257:79,1,107.999996704102,2|2,0:0|0:0,0:0:0:0:
318,107,28877,1,8,0:0:0:0:
220,250,29099,1,2,0:0:0:0:
48,223,29321,1,8,0:0:0:0:
54,202,29433,1,8,0:0:0:0:
61,181,29544,6,0,P|99:127|132:101,1,107.999996704102,6|8,0:0|0:0,0:0:0:0:
232,6,29877,2,0,P|213:21|198:46,1,53.9999983520508,2|0,0:0|0:0,0:0:0:0:
212,133,30099,2,0,P|256:162|298:163,1,53.9999983520508,2|8,0:0|0:0,0:0:0:0:
379,63,30321,2,0,P|325:55|279:78,1,107.999996704102,6|2,0:0|0:0,0:0:0:0:
303,235,30655,2,0,P|339:187|320:104,1,107.999996704102,8|0,0:0|0:0,0:0:0:0:
77,140,31099,2,0,P|99:184|142:209,1,53.9999983520508,8|0,0:0|0:0,0:0:0:0:
256,162,31321,6,0,P|208:126|125:145,1,107.999996704102,6|8,0:0|0:0,0:0:0:0:
102,187,31654,1,8,0:0:0:0:
96,197,31766,1,2,0:0:0:0:
89,229,31877,1,2,0:0:0:0:
83,239,31989,1,8,0:0:0:0:
77,271,32099,2,0,P|125:307|208:288,1,107.999996704102,6|2,0:0|0:0,0:0:0:0:
270,208,32433,2,0,P|233:246|225:287,1,53.9999983520508,8|2,0:0|0:0,0:0:0:0:
369,283,32655,2,0,P|353:232|322:204,1,53.9999983520508,8|8,0:0|0:0,0:0:0:0:
255,331,32877,2,0,P|306:343|346:329,1,53.9999983520508,10|2,0:0|0:0,0:0:0:0:
454,275,33099,6,0,P|445:230|427:190,1,90,6|0,0:0|0:0,0:0:0:0:
371,143,33433,2,0,L|377:71,1,45,2|8,0:0|0:0,0:0:0:0:
454,275,33766,2,2,P|412:291|354:297,1,90
305,261,34099,1,8,0:0:0:0:
301,265,34210,2,0,L|241:261,1,45,2|0,0:0|0:0,0:0:0:0:
116,236,34433,2,0,P|157:219|216:214,1,90,8|2,0:0|0:0,0:0:0:0:
10,333,34877,6,0,P|2:271|4:208,1,90,2|0,0:0|0:0,0:0:0:0:
64,152,35210,2,0,P|62:174|55:196,1,45,2|8,0:0|0:0,0:0:0:0:
9,18,35544,2,0,P|55:8|128:17,1,90,2|2,0:0|0:0,0:0:0:0:
156,50,35877,1,8,0:0:0:0:
160,54,35988,2,0,L|153:117,1,45,2|0,0:0|0:0,0:0:0:0:
214,6,36210,1,8,0:0:0:0:
195,158,36433,1,2,0:0:0:0:
353,138,36655,6,0,P|299:130|247:132,1,90,6|0,0:0|0:0,0:0:0:0:
199,162,36988,1,2,0:0:0:0:
203,166,37099,1,8,0:0:0:0:
270,293,37321,2,0,P|276:248|269:175,1,90,2|2,0:0|0:0,0:0:0:0:
207,170,37655,1,8,0:0:0:0:
211,174,37766,2,0,P|203:143|202:111,1,45,2|0,0:0|0:0,0:0:0:0:
332,160,37988,1,8,0:0:0:0:
205,245,38210,1,2,0:0:0:0:
291,101,38433,6,0,P|363:95|398:131,1,90,2|0,0:0|0:0,0:0:0:0:
332,205,38766,2,0,L|332:160,1,45,2|8,0:0|0:0,0:0:0:0:
394,241,38988,1,2,0:0:0:0:
398,245,39099,2,0,L|398:290,1,45,2|0,0:0|0:0,0:0:0:0:
340,372,39321,1,2,0:0:0:0:
336,368,39433,1,8,0:0:0:0:
332,364,39544,2,0,L|332:319,1,45,2|0,0:0|0:0,0:0:0:0:
264,293,39766,1,8,0:0:0:0:
269,283,39877,1,8,0:0:0:0:
254,253,39988,1,2,0:0:0:0:
259,243,40099,1,2,0:0:0:0:
244,213,40210,6,0,P|199:208|126:216,1,90,6|0,0:0|0:0,0:0:0:0:
90,243,40544,2,0,L|93:316,1,45,2|8,0:0|0:0,0:0:0:0:
171,139,40877,2,0,P|172:90|158:36,1,90,2|2,0:0|0:0,0:0:0:0:
110,2,41210,1,8,0:0:0:0:
106,6,41321,2,0,L|20:11,1,45,2|0,0:0|0:0,0:0:0:0:
21,102,41544,1,8,0:0:0:0:
163,50,41766,1,2,0:0:0:0:
33,191,41988,5,2,0:0:0:0:
29,195,42099,2,0,P|33:246|63:317,1,90,8|2,0:0|0:0,0:0:0:0:
90,339,42433,1,8,0:0:0:0:
266,213,42655,2,0,P|208:173|205:242,1,135,6|0,0:0|0:0,0:0:0:0:
322,258,43099,2,0,P|362:253|390:231,1,45,2|0,0:0|0:0,0:0:0:0:
336,134,43321,1,8,0:0:0:0:
332,138,43433,1,8,0:0:0:0:
328,142,43544,2,0,L|333:187,1,45,2|0,0:0|0:0,0:0:0:0:
391,87,43766,5,6,0:0:0:0:
251,53,43988,1,2,0:0:0:0:
247,57,44100,1,2,0:0:0:0:
243,61,44211,2,0,L|253:151,1,90,8|2,0:0|0:0,0:0:0:0:
309,195,44544,1,2,0:0:0:0:
313,199,44655,2,0,L|308:244,1,45
257,295,44877,2,0,L|252:340,1,45,2|0,0:0|0:0,0:0:0:0:
188,232,45099,2,0,P|212:225|232:224,1,45,8|0,0:0|0:0,0:0:0:0:
375,307,45321,2,0,P|351:314|331:315,1,45,8|0,0:0|0:0,0:0:0:0:
327,133,45544,5,2,0:0:0:0:
331,129,45655,2,0,P|353:130|374:137,1,45,8|0,0:0|0:0,0:0:0:0:
185,133,45877,1,2,0:0:0:0:
181,129,45988,2,0,P|159:130|138:137,1,45,8|0,0:0|0:0,0:0:0:0:
297,200,46210,1,2,0:0:0:0:
301,204,46321,2,0,P|320:229|329:269,1,45,8|0,0:0|0:0,0:0:0:0:
215,200,46544,1,2,0:0:0:0:
211,204,46655,2,0,P|192:229|183:269,1,45,8|0,0:0|0:0,0:0:0:0:
256,134,46877,6,0,L|256:54,1,45,2|0,0:0|0:0,0:0:0:0:
256,260,47099,2,0,L|256:340,1,45,2|0,0:0|0:0,0:0:0:0:
297,200,47321,5,2,0:0:0:0:
307,195,47432,2,0,P|330:185|383:181,1,53.9999983520508,8|0,0:0|0:0,0:0:0:0:
215,200,47655,1,2,0:0:0:0:
205,195,47766,2,0,P|181:185|129:181,1,53.9999983520508,8|0,0:0|0:0,0:0:0:0:
341,103,47988,1,2,0:0:0:0:
351,99,48099,2,0,P|381:102|407:113,1,53.9999983520508,8|0,0:0|0:0,0:0:0:0:
171,103,48321,1,2,0:0:0:0:
161,99,48433,2,0,P|131:102|105:113,1,53.9999983520508,8|0,0:0|0:0,0:0:0:0:
349,232,48655,6,0,P|356:205|359:179,1,53.9999983520508,2|0,0:0|0:0,0:0:0:0:
153,180,48877,2,0,P|156:206|163:232,1,53.9999983520508,2|0,0:0|0:0,0:0:0:0:
256,350,49099,6,0,L|256:222,1,107.999996704102,6|0,0:0|0:0,0:0:0:0:
361,126,49433,6,0,P|359:179|349:233,1,107.999996704102,6|0,0:0|0:0,0:0:0:0:
163,233,49766,6,0,P|152:179|151:126,1,107.999996704102,6|0,0:0|0:0,0:0:0:0:
287,88,50099,5,2,0:0:0:0:
283,92,50210,2,0,P|242:94|194:79,1,53.9999983520508,2|0,0:0|0:0,0:0:0:0:
358,51,50433,1,8,0:0:0:0:
365,66,50544,1,8,0:0:0:0:
365,107,50655,1,2,0:0:0:0:
372,122,50766,1,2,0:0:0:0:
372,163,50877,6,0,P|327:191|233:204,1,107.999996704102,6|0,0:0|0:0,0:0:0:0:
191,183,51210,2,0,P|190:220|215:267,1,53.9999983520508,2|8,0:0|0:0,0:0:0:0:
260,36,51544,2,0,P|226:22|184:21,1,53.9999983520508,2|0,0:0|0:0,0:0:0:0:
129,52,51766,1,2,0:0:0:0:
125,56,51877,2,0,P|99:51|75:39,1,53.9999983520508,8|0,0:0|0:0,0:0:0:0:
197,105,52099,1,2,0:0:0:0:
201,109,52210,2,0,P|219:159|221:213,1,107.999996704102,8|2,0:0|0:0,0:0:0:0:
30,296,52655,6,0,P|65:168|124:119,1,107.999996704102,2|0,0:0|0:0,0:0:0:0:
126,231,52988,2,0,P|115:277|135:330,1,53.9999983520508,2|8,0:0|0:0,0:0:0:0:
168,352,53210,1,2,0:0:0:0:
172,356,53321,2,0,P|221:359|260:338,1,53.9999983520508,2|0,0:0|0:0,0:0:0:0:
282,292,53544,1,2,0:0:0:0:
286,288,53655,2,0,P|261:212|194:188,1,107.999996704102,8|2,0:0|0:0,0:0:0:0:
201,274,53988,1,8,0:0:0:0:
368,330,54210,1,2,0:0:0:0:
386,309,54321,1,8,0:0:0:0:
404,288,54433,6,0,P|415:233|419:143,1,107.999996704102,2|0,0:0|0:0,0:0:0:0:
370,110,54766,2,0,P|376:76|386:32,1,53.9999983520508,2|8,0:0|0:0,0:0:0:0:
494,261,55099,2,0,P|488:295|478:339,1,53.9999983520508,2|0,0:0|0:0,0:0:0:0:
426,377,55321,1,2,0:0:0:0:
422,381,55433,2,0,P|386:380|337:368,1,53.9999983520508,8|0,0:0|0:0,0:0:0:0:
317,308,55655,1,2,0:0:0:0:
313,304,55767,2,0,P|277:304|228:317,1,53.9999983520508,8|0,0:0|0:0,0:0:0:0:
188,354,55988,2,0,P|152:353|103:341,1,53.9999983520508,2|0,0:0|0:0,0:0:0:0:
64,256,56210,6,0,P|48:318|-5:339,1,107.999996704102,2|0,0:0|0:0,0:0:0:0:
23,180,56544,1,2,0:0:0:0:
27,176,56655,2,0,L|118:180,1,53.9999983520508,8|0,0:0|0:0,0:0:0:0:
147,233,56877,2,0,L|238:229,1,53.9999983520508,2|0,0:0|0:0,0:0:0:0:
267,176,57099,2,0,L|358:180,3,53.9999983520508,10|2|2|2,0:0|0:0|0:0|0:0,0:0:0:0:
432,239,57544,1,8,0:0:0:0:
420,215,57655,1,8,0:0:0:0:
408,191,57766,2,0,L|418:130,1,53.9999983520508,2|0,0:0|0:0,0:0:0:0:
482,23,57988,6,0,P|435:51|357:29,1,107.999996704102,6|0,0:0|0:0,0:0:0:0:
309,2,58321,2,0,L|215:12,1,53.9999983520508,0|8,0:0|0:0,0:0:0:0:
232,194,58655,2,0,L|326:184,1,53.9999983520508,2|0,0:0|0:0,0:0:0:0:
157,150,58877,2,0,P|105:145|59:173,1,107.999996704102,2|0,0:0|0:0,0:0:0:0:
123,282,59210,2,0,L|126:229,1,53.9999983520508,2|8,0:0|0:0,0:0:0:0:
17,37,59544,2,0,L|20:90,1,53.9999983520508,2|0,0:0|0:0,0:0:0:0:
207,76,59766,6,0,P|154:59|78:65,1,107.999996704102,2|0,0:0|0:0,0:0:0:0:
20,90,60099,2,0,L|23:143,1,53.9999983520508,2|8,0:0|0:0,0:0:0:0:
264,197,60433,2,0,L|261:144,1,53.9999983520508,2|0,0:0|0:0,0:0:0:0:
197,252,60655,1,2,0:0:0:0:
201,256,60766,2,0,P|291:279|345:227,1,107.999996704102,8|2,0:0|0:0,0:0:0:0:
350,205,61099,1,8,0:0:0:0:
255,50,61322,1,2,0:0:0:0:
231,62,61433,1,8,0:0:0:0:
207,74,61544,6,0,P|156:71|73:55,1,107.999996704102,2|0,0:0|0:0,0:0:0:0:
12,11,61877,2,0,P|14:38|14:65,1,53.9999983520508,2|8,0:0|0:0,0:0:0:0:
2,284,62210,2,0,P|0:257|0:230,1,53.9999983520508,2|0,0:0|0:0,0:0:0:0:
42,153,62433,1,2,0:0:0:0:
46,149,62544,2,0,P|75:150|102:157,1,53.9999983520508,8|0,0:0|0:0,0:0:0:0:
161,216,62766,1,2,0:0:0:0:
165,220,62877,2,0,P|194:219|221:212,1,53.9999983520508,8|8,0:0|0:0,0:0:0:0:
288,161,63099,1,2,0:0:0:0:
314,154,63210,1,2,0:0:0:0:
334,171,63321,6,0,P|326:272|275:322,1,107.999996704102,6|8,0:0|0:0,0:0:0:0:
240,92,63655,6,0,P|297:54|413:77,1,107.999996704102,6|8,0:0|0:0,0:0:0:0:
218,213,63988,6,0,P|137:160|117:85,1,107.999996704102,6|8,0:0|0:0,0:0:0:0:
334,171,64321,5,8,0:0:0:0:
354,190,64433,2,0,L|356:263,1,53.9999983520508,2|2,0:0|0:0,0:0:0:0:
397,111,64655,1,8,0:0:0:0:
417,130,64766,1,8,0:0:0:0:
437,149,64877,2,0,L|439:222,1,53.9999983520508,2|0,0:0|0:0,0:0:0:0:
268,229,65099,6,0,P|256:173|274:83,1,107.999996704102,6|0,0:0|0:0,0:0:0:0:
309,50,65433,2,0,L|413:57,1,53.9999983520508,2|8,0:0|0:0,0:0:0:0:
165,172,65766,2,0,L|61:179,1,53.9999983520508,2|0,0:0|0:0,0:0:0:0:
30,146,65988,1,2,0:0:0:0:
26,150,66099,2,0,L|29:223,1,53.9999983520508,8|0,0:0|0:0,0:0:0:0:
94,260,66321,1,2,0:0:0:0:
98,264,66433,2,0,P|99:337|62:374,1,107.999996704102,8|2,0:0|0:0,0:0:0:0:
91,95,66877,6,0,P|143:102|216:140,1,107.999996704102,2|0,0:0|0:0,0:0:0:0:
257,182,67210,2,0,L|338:179,1,53.9999983520508,2|8,0:0|0:0,0:0:0:0:
98,264,67544,2,0,L|17:261,1,53.9999983520508,2|0,0:0|0:0,0:0:0:0:
153,197,67766,1,2,0:0:0:0:
157,201,67877,2,0,P|180:291|128:345,1,107.999996704102,8|2,0:0|0:0,0:0:0:0:
106,350,68210,1,8,0:0:0:0:
64,159,68432,1,2,0:0:0:0:
71,133,68544,1,8,0:0:0:0:
78,107,68655,6,0,P|142:101|196:104,1,107.999996704102,2|0,0:0|0:0,0:0:0:0:
253,156,68988,2,0,L|322:155,1,53.9999983520508,2|8,0:0|0:0,0:0:0:0:
512,37,69321,2,0,L|443:38,1,53.9999983520508,2|0,0:0|0:0,0:0:0:0:
381,77,69544,2,0,P|386:106|413:159,1,53.9999983520508,2|0,0:0|0:0,0:0:0:0:
455,190,69766,1,2,0:0:0:0:
459,194,69877,2,0,P|454:223|427:276,1,53.9999983520508,2|8,0:0|0:0,0:0:0:0:
279,105,70210,2,0,P|284:76|311:23,1,53.9999983520508,2|0,0:0|0:0,0:0:0:0:
309,186,70433,6,0,P|290:243|248:286,1,107.999996704102,2|0,0:0|0:0,0:0:0:0:
176,254,70766,1,2,0:0:0:0:
172,250,70877,2,0,L|104:256,1,53.9999983520508,8|0,0:0|0:0,0:0:0:0:
139,339,71099,2,0,L|207:333,1,53.9999983520508,2|0,0:0|0:0,0:0:0:0:
56,315,71321,2,0,L|-12:321,3,53.9999983520508,10|2|2|2,0:0|0:0|0:0|0:0,0:0:0:0:
52,200,71766,1,8,0:0:0:0:
40,188,71877,1,8,0:0:0:0:
38,147,71988,1,2,0:0:0:0:
26,135,72099,1,2,0:0:0:0:
24,94,72210,6,0,P|66:65|156:78,1,107.999996704102,6|0,0:0|0:0,0:0:0:0:
204,93,72544,2,0,L|224:188,1,53.9999983520508,2|8,0:0|0:0,0:0:0:0:
131,315,72877,2,0,L|111:220,1,53.9999983520508,2|0,0:0|0:0,0:0:0:0:
254,223,73099,2,0,P|183:226|160:212,1,53.9999983520508,2|0,0:0|0:0,0:0:0:0:
136,174,73322,1,2,0:0:0:0:
132,170,73433,2,0,P|131:126|156:83,1,53.9999983520508,2|8,0:0|0:0,0:0:0:0:
337,199,73766,2,0,P|338:243|313:286,1,53.9999983520508,2|0,0:0|0:0,0:0:0:0:
275,139,73988,6,0,P|335:113|417:166,1,107.999996704102,6|0,0:0|0:0,0:0:0:0:
424,193,74321,2,0,P|425:230|421:270,1,53.9999983520508,2|8,0:0|0:0,0:0:0:0:
382,323,74544,1,0,0:0:0:0:
378,327,74655,2,0,P|377:364|381:404,1,53.9999983520508,2|0,0:0|0:0,0:0:0:0:
301,288,74877,2,0,P|245:281|177:285,1,107.999996704102,2|0,0:0|0:0,0:0:0:0:
110,302,75210,1,2,0:0:0:0:
106,306,75321,1,8,0:0:0:0:
185,151,75544,1,2,0:0:0:0:
211,159,75655,1,8,0:0:0:0:
237,167,75766,5,6,0:0:0:0:
102,310,75988,1,8,0:0:0:0:
5,159,76210,1,8,0:0:0:0:
25,140,76321,1,2,0:0:0:0:
45,121,76433,1,8,0:0:0:0:
78,93,76544,6,0,P|159:97|201:181,1,107.999996704102,6|2,0:0|0:0,0:0:0:0:
121,225,76877,2,0,L|115:172,1,53.9999983520508,8|2,0:0|0:0,0:0:0:0:
253,154,77099,1,8,0:0:0:0:
249,170,77210,1,2,0:0:0:0:
274,202,77321,1,8,0:0:0:0:
270,218,77432,1,2,0:0:0:0:
295,250,77544,5,6,0:0:0:0:
178,112,77766,1,8,0:0:0:0:
357,164,77988,1,8,0:0:0:0:
364,190,78099,1,2,0:0:0:0:
371,216,78210,1,8,0:0:0:0:
381,258,78321,6,0,P|324:331|252:325,1,107.999996704102,6|2,0:0|0:0,0:0:0:0:
242,242,78655,2,0,L|295:250,1,53.9999983520508,8|2,0:0|0:0,0:0:0:0:
164,278,78877,1,8,0:0:0:0:
148,276,78988,1,2,0:0:0:0:
115,252,79099,1,8,0:0:0:0:
99,250,79210,1,2,0:0:0:0:
66,226,79321,6,0,L|69:153,1,53.9999983520508,6|0,0:0|0:0,0:0:0:0:
151,116,79544,2,0,L|154:189,1,53.9999983520508,8|0,0:0|0:0,0:0:0:0:
98,48,79766,1,8,0:0:0:0:
123,38,79877,1,2,0:0:0:0:
148,28,79988,1,8,0:0:0:0:
190,39,80099,6,0,P|235:95|207:182,1,107.999996704102,6|2,0:0|0:0,0:0:0:0:
110,150,80433,2,0,P|124:133|151:116,1,53.9999983520508,8|2,0:0|0:0,0:0:0:0:
232,216,80655,2,0,P|209:211|182:196,1,53.9999983520508,8|2,0:0|0:0,0:0:0:0:
309,177,80877,1,8,0:0:0:0:
316,203,80988,1,8,0:0:0:0:
323,229,81099,5,14,0:0:0:0:
273,50,81544,1,10,0:0:0:0:
142,183,81988,1,10,0:0:0:0:
246,154,82210,1,2,0:0:0:0:
217,50,82433,1,10,0:0:0:0:
113,79,82655,1,2,0:0:0:0:
109,83,82766,2,0,L|34:77,1,45,2|8,0:0|0:0,0:0:0:0:
292,119,83321,5,10,0:0:0:0:
169,260,83766,1,10,0:0:0:0:
190,154,83988,1,2,0:0:0:0:
169,260,84210,2,0,P|156:226|158:182,1,45,8|8,0:0|0:0,0:0:0:0:
190,154,84433,2,0,P|186:132|176:111,1,45,8|8,0:0|0:0,0:0:0:0:
72,209,84655,6,0,P|82:260|118:332,1,107.999996704102,6|8,0:0|0:0,0:0:0:0:
274,160,85099,2,0,P|264:109|228:37,1,107.999996704102,2|8,0:0|0:0,0:0:0:0:
244,241,85433,1,2,0:0:0:0:
248,245,85544,2,0,L|338:242,1,53.9999983520508,2|0,0:0|0:0,0:0:0:0:
360,178,85766,2,0,L|450:175,1,53.9999983520508,8|0,0:0|0:0,0:0:0:0:
495,207,85988,1,2,0:0:0:0:
379,79,86210,1,8,0:0:0:0:
375,75,86321,2,0,L|285:78,1,53.9999983520508,2|0,0:0|0:0,0:0:0:0:
169,220,86655,5,8,0:0:0:0:
343,220,86877,1,2,0:0:0:0:
191,76,87099,2,0,L|101:73,1,53.9999983520508,8|2,0:0|0:0,0:0:0:0:
48,37,87321,1,8,0:0:0:0:
54,52,87433,1,8,0:0:0:0:
33,87,87544,1,8,0:0:0:0:
39,102,87656,1,8,0:0:0:0:
18,137,87766,1,8,0:0:0:0:
24,152,87877,2,0,L|17:225,2,53.9999983520508,8|8|8,0:0|0:0|0:0,0:0:0:0:
292,162,88655,6,0,P|250:240|226:156,1,215.999993408203,6|0,0:0|0:0,0:0:0:0:
