osu file format v14

[General]
AudioFilename: audio.mp3
AudioLeadIn: 0
PreviewTime: 50877
Countdown: 0
SampleSet: Soft
StackLeniency: 1
Mode: 0
LetterboxInBreaks: 0
WidescreenStoryboard: 1

[Editor]
Bookmarks: 37988
DistanceSpacing: 1.8
BeatDivisor: 4
GridSize: 32
TimelineZoom: 2.2

[Metadata]
Title:RHAPSODY OF BLUE SKY
TitleUnicode:青空のラプソディ
Artist:fhana
ArtistUnicode:fhána
Creator:[Kamiya]
Version:My Angel Kanna
Source:小林さんちのメイドラゴン
Tags:kobayashi san chi no maidragon aozora no opening anime maid dragon OblivioN Karen Dynamix imoutosan Pata-Mon gxytcgxytc
BeatmapID:1245760
BeatmapSetID:586841

[Difficulty]
HPDrainRate:6
CircleSize:3
OverallDifficulty:8
ApproachRate:9.3
SliderMultiplier:3.2
SliderTickRate:1

[Events]
//Background and Video events
0,0,"kanna.jpg",0,0
Video,0,"video.avi"
//Break Periods
//Storyboard Layer 0 (Background)
//Storyboard Layer 1 (Fail)
//Storyboard Layer 2 (Pass)
//Storyboard Layer 3 (Foreground)
//Storyboard Sound Samples

[TimingPoints]
-678,444.444444444444,4,2,8,65,1,0
1100,-133.333333333333,4,2,8,65,0,0
2877,-200,4,2,8,65,0,0
3322,-133.333333333333,4,2,8,65,0,0
4211,-74.074074074074,4,2,8,65,0,0
4655,-133.333333333333,4,2,8,65,0,0
6433,-200,4,2,8,65,0,0
6877,-133.333333333333,4,2,8,65,0,0
7766,-100,4,2,8,65,0,0
8211,-133.333333333333,4,2,8,65,0,0
9988,-200,4,2,8,65,0,0
10433,-133.333333333333,4,2,8,65,0,0
11322,-74.074074074074,4,2,8,65,0,0
11766,-133.333333333333,4,2,8,65,0,0
13544,-133.333333333333,4,2,8,75,0,0
13655,-86.9565217391303,4,2,8,75,0,0
15321,-86.9565217391303,4,2,8,85,0,0
17099,-133.333333333333,4,2,8,65,0,0
33099,-153.846153846153,4,2,8,55,0,0
45544,-86.9565217391303,4,2,8,75,0,0
47321,-86.9565217391303,4,2,8,85,0,0
49099,-86.9565217391303,4,2,8,65,0,0
50877,-80,4,2,8,75,0,1
63321,-80,4,2,8,85,0,0
65099,-80,4,2,8,75,0,1
75766,-80,4,2,8,85,0,1
81099,-133.333333333333,4,2,8,65,0,0
84655,-117.647058823529,4,2,8,65,0,0
88655,-500,4,2,8,65,0,0
88877,-500,4,2,8,35,0,0
89099,-500,4,2,8,5,0,0

[Colours]
Combo1 : 255,202,255
Combo2 : 187,119,255

[HitObjects]
6,111,655,6,0,P|31:142|68:160,1,80,2|0,0:0|0:0,0:0:0:0:
6,139,877,2,0,P|38:162|78:170,1,80,2|0,0:0|0:0,0:0:0:0:
196,166,1100,5,4,0:0:0:0:
383,181,1322,1,2,0:0:0:0:
280,381,1544,2,0,P|266:320|283:253,1,120.000004577637,8|0,1:0|0:0,0:0:0:0:
391,189,1877,1,0,0:0:0:0:
391,189,1988,2,0,L|369:269,1,60.0000022888184,2|0,0:3|0:0,0:0:0:0:
272,102,2211,2,0,L|292:186,1,60.0000022888184,2|0,0:0|0:0,0:0:0:0:
484,245,2433,1,8,1:0:0:0:
195,210,2655,1,2,0:0:0:0:
195,210,2766,1,0,0:0:0:0:
231,303,2877,6,0,L|133:297,2,80,2|0|0,0:3|0:0|1:0,0:0:0:0:
461,150,3544,1,0,0:0:0:0:
461,150,3655,1,0,0:0:0:0:
461,150,3766,2,0,P|454:86|492:37,1,120.000004577637,2|0,0:3|0:0,0:0:0:0:
314,20,4099,1,0,0:0:0:0:
314,20,4211,6,0,B|242:13|204:27|167:80|167:80|135:26|93:8|12:31,1,324.000001235962,8|0,1:0|0:0,0:0:0:0:
69,133,4655,5,2,0:3:0:0:
267,129,4877,1,2,0:0:0:0:
167,41,5099,2,0,L|169:180,1,120.000004577637,0|0,1:0|0:0,0:0:0:0:
107,289,5433,1,0,0:0:0:0:
107,289,5544,2,0,P|101:241|81:208,1,60.0000022888184,2|0,0:3|0:0,0:0:0:0:
188,349,5766,2,0,P|202:317|207:281,1,60.0000022888184,2|0,0:0|0:0,0:0:0:0:
2,284,5988,1,8,1:0:0:0:
302,341,6211,1,2,0:0:0:0:
302,341,6322,1,0,0:0:0:0:
366,245,6433,6,0,L|281:232,2,80,2|0|8,0:3|0:0|1:0,0:0:0:0:
444,91,7099,1,2,0:0:0:0:
444,91,7211,1,0,0:0:0:0:
444,91,7322,6,0,L|446:53,1,30.0000011444092,2|2,0:3|0:0,0:0:0:0:
444,91,7433,2,0,L|469:58,1,30.0000011444092,2|2,0:0|0:0,0:0:0:0:
444,91,7544,2,0,L|495:77,1,30.0000011444092,2|2,0:0|0:0,0:0:0:0:
444,91,7655,2,0,L|488:110,1,30.0000011444092,2|2,0:0|0:0,0:0:0:0:
357,139,7766,6,0,P|343:95|358:49,1,80,8|0,1:0|0:0,0:0:0:0:
359,162,7988,2,0,P|334:123|336:74,1,80,2|0,0:0|0:0,0:0:0:0:
455,205,8210,5,2,0:3:0:0:
241,171,8433,1,0,0:0:0:0:
331,384,8655,2,0,L|338:241,1,120.000004577637,8|0,1:0|0:0,0:0:0:0:
484,336,8988,1,0,0:0:0:0:
484,336,9099,6,0,L|406:325,1,60.0000022888184,2|0,0:3|0:0,0:0:0:0:
482,196,9322,2,0,L|409:235,1,60.0000022888184,2|0,0:0|0:0,0:0:0:0:
342,155,9544,1,8,1:0:0:0:
194,274,9766,1,2,0:0:0:0:
194,274,9877,1,0,0:0:0:0:
93,292,9988,6,0,L|103:197,2,80,2|0|8,0:3|0:0|1:0,0:0:0:0:
138,82,10655,5,2,0:0:0:0:
138,82,10766,1,0,0:0:0:0:
138,82,10877,2,0,P|78:102|13:80,1,120.000004577637,2|0,0:3|0:0,0:0:0:0:
210,166,11211,1,0,0:0:0:0:
210,166,11322,6,0,P|322:129|270:259,1,324.000001235962,8|0,1:0|0:0,0:0:0:0:
159,268,11766,5,2,0:3:0:0:
392,249,11988,1,2,0:0:0:0:
279,381,12211,2,0,L|425:361,1,120.000004577637,8|0,1:0|0:0,0:0:0:0:
505,320,12544,1,0,0:0:0:0:
505,320,12655,6,0,L|515:240,1,60.0000022888184,2|0,0:3|0:0,0:0:0:0:
320,220,12877,2,0,L|327:280,1,60.0000022888184,2|0,0:0|0:0,0:0:0:0:
468,138,13099,5,8,1:0:0:0:
487,93,13211,1,2,0:0:0:0:
485,57,13322,1,2,0:0:0:0:
470,37,13433,1,2,0:0:0:0:
363,13,13544,5,2,0:3:0:0:
258,87,13655,2,0,P|257:134|275:187,1,92.0000017547608,10|0,1:0|0:0,0:0:0:0:
365,48,13877,5,2,0:3:0:0:
274,139,13988,2,0,P|281:185|308:234,1,92.0000017547608,10|0,1:0|0:0,0:0:0:0:
373,79,14211,5,2,0:3:0:0:
299,184,14322,2,0,P|314:228|349:272,1,92.0000017547608,10|0,1:0|0:0,0:0:0:0:
170,299,14544,5,0,0:0:0:0:
108,201,14655,2,0,P|129:290|98:372,2,184.000003509522,10|10|10,1:0|1:0|1:0,0:0:0:0:
363,13,15322,5,2,0:3:0:0:
232,150,15433,2,0,P|243:195|274:242,1,92.0000017547608,10|0,1:0|0:0,0:0:0:0:
365,48,15655,5,2,0:3:0:0:
260,196,15766,2,0,P|278:238|317:278,1,92.0000017547608,10|0,1:0|0:0,0:0:0:0:
373,79,15989,5,2,0:3:0:0:
296,233,16100,2,0,P|321:271|367:305,1,92.0000017547608,10|0,1:0|0:0,0:0:0:0:
133,278,16322,5,2,0:3:0:0:
126,179,16433,2,0,B|130:129|130:129|159:169,1,92.0000017547608,10|0,1:0|0:0,0:0:0:0:
217,333,16655,2,0,B|257:361|257:361|208:366,1,92.0000017547608,10|0,1:1|0:0,0:0:0:0:
53,341,16877,2,0,B|7:361|7:361|27:317,1,92.0000017547608,10|0,1:1|0:0,0:0:0:0:
233,229,17099,6,0,L|357:219,1,120.000004577637,4|8,0:0|1:0,0:0:0:0:
475,55,17544,2,0,P|439:93|439:172,1,120.000004577637,2|8,0:3|1:0,0:0:0:0:
450,298,17877,2,0,L|465:134,1,120.000004577637,2|2,0:0|0:0,0:0:0:0:
325,188,18211,2,0,L|340:314,1,120.000004577637,8|2,1:0|0:3,0:0:0:0:
257,66,18655,2,0,L|177:81,1,60.0000022888184,8|0,1:0|0:0,0:0:0:0:
107,19,18877,6,0,P|38:15|-14:55,1,120.000004577637,2|8,0:3|1:0,0:0:0:0:
60,173,19322,1,2,0:3:0:0:
60,173,19433,2,0,L|73:82,1,60.0000022888184,0|8,0:0|1:0,0:0:0:0:
170,179,19655,2,0,L|180:304,1,120.000004577637,2|2,0:0|0:0,0:0:0:0:
282,193,19988,2,0,L|273:252,1,60.0000022888184,8|0,1:0|0:0,0:0:0:0:
374,361,20211,5,2,0:2:0:0:
366,319,20322,1,2,0:2:0:0:
487,321,20433,5,8,1:0:0:0:
497,280,20544,1,2,0:2:0:0:
402,203,20655,6,0,P|386:131|417:72,1,120.000004577637,2|8,0:3|1:0,0:0:0:0:
211,26,21099,2,0,P|227:98|196:157,1,120.000004577637,2|8,0:3|1:0,0:0:0:0:
105,159,21433,2,0,L|126:297,1,120.000004577637,2|2,0:0|0:0,0:0:0:0:
225,240,21766,2,0,L|212:385,1,120.000004577637,8|2,1:0|0:3,0:0:0:0:
23,308,22211,2,0,L|13:237,1,60.0000022888184,8|8,1:0|1:0,0:0:0:0:
15,121,22433,6,0,P|73:151|141:137,1,120.000004577637,2|0,0:3|0:0,0:0:0:0:
199,38,22766,1,0,1:0:0:0:
199,38,22877,1,0,1:0:0:0:
280,104,22988,2,0,L|263:161,1,60.0000022888184,0|0,1:0|0:0,0:0:0:0:
195,340,23211,6,0,B|202:262|202:262|178:194,1,120.000004577637,4|0,0:0|0:0,0:0:0:0:
300,250,23544,2,0,L|294:321,1,60.0000022888184,8|0,1:0|0:0,0:0:0:0:
434,378,23766,1,0,1:0:0:0:
504,312,23877,1,0,1:0:0:0:
512,216,23988,1,0,1:0:0:0:
445,146,24099,1,0,1:0:0:0:
349,158,24211,6,0,B|285:158|285:158|234:124,1,120.000004577637,4|8,0:0|1:0,0:0:0:0:
406,41,24655,2,0,L|475:43,1,60.0000022888184,2|0,0:3|0:0,0:0:0:0:
445,146,24877,1,8,1:0:0:0:
445,146,24988,2,0,P|428:195|452:268,1,120.000004577637,0|2,1:0|0:0,0:0:0:0:
341,379,25322,2,0,L|340:234,1,120.000004577637,8|2,1:0|0:3,0:0:0:0:
169,76,25766,2,0,L|196:140,1,60.0000022888184,8|0,1:0|0:0,0:0:0:0:
295,162,25988,6,0,P|345:147|419:193,1,120.000004577637,2|8,0:3|1:0,0:0:0:0:
217,241,26433,1,2,0:3:0:0:
217,241,26544,2,0,L|139:230,1,60.0000022888184,0|8,0:0|1:0,0:0:0:0:
63,269,26766,2,0,P|82:325|65:393,1,120.000004577637,2|2,0:0|0:0,0:0:0:0:
217,353,27099,1,8,1:0:0:0:
217,353,27211,1,0,0:0:0:0:
318,380,27322,2,0,P|306:321|325:265,1,120.000004577637,2|8,0:3|1:0,0:0:0:0:
460,63,27766,6,0,L|322:37,1,120.000004577637,2|8,0:3|1:0,0:0:0:0:
52,63,28211,2,0,L|119:49,1,60.0000022888184,2|0,0:3|0:0,0:0:0:0:
211,104,28433,1,8,1:0:0:0:
211,104,28544,2,0,P|231:172|205:235,1,120.000004577637,0|2,1:0|0:0,0:0:0:0:
123,347,28877,2,0,L|113:208,1,120.000004577637,8|2,1:1|0:3,0:0:0:0:
321,326,29322,2,0,L|253:309,1,60.0000022888184,8|0,1:0|0:0,0:0:0:0:
319,210,29544,6,0,L|453:193,1,120.000004577637,4|8,0:0|1:0,0:0:0:0:
313,104,29877,1,2,0:0:0:0:
313,104,29988,2,0,L|207:93,1,60.0000022888184,2|2,0:3|0:0,0:0:0:0:
136,115,30211,1,8,1:0:0:0:
136,115,30322,2,0,B|139:20|139:20|172:36,1,120.000004577637,0|0,1:0|0:0,0:0:0:0:
213,195,30655,2,0,P|225:255|190:333,1,120.000004577637,2|4,0:3|0:3,0:0:0:0:
442,253,31099,1,2,0:3:0:0:
442,253,31321,6,0,L|309:241,1,120.000004577637,2|0,1:0|1:0,0:0:0:0:
384,154,31655,1,0,1:0:0:0:
384,154,31766,1,0,1:0:0:0:
368,338,31877,2,0,L|445:346,1,60.0000022888184,2|0,0:0|0:0,0:0:0:0:
476,98,32099,6,0,P|431:51|359:46,1,120.000004577637,2|0,1:0|0:0,0:0:0:0:
236,179,32433,5,2,1:0:0:0:
322,242,32544,1,4,0:3:0:0:
221,285,32655,5,2,1:0:0:0:
329,262,32766,1,4,0:3:0:0:
298,368,32877,5,2,1:0:0:0:
347,267,32988,1,4,0:3:0:0:
407,369,33099,6,0,L|522:344,1,103.999995239258,4|0,0:0|0:0,0:0:0:0:
508,346,33433,1,4,0:3:0:0:
508,346,33544,1,0,1:0:0:0:
403,177,33766,1,0,0:0:0:0:
403,177,33877,1,0,0:0:0:0:
403,177,33988,2,0,L|419:47,1,103.999995239258,2|0,0:0|0:0,0:0:0:0:
265,21,34433,1,0,1:0:0:0:
265,21,34655,1,4,0:3:0:0:
137,152,34877,6,0,P|81:162|32:139,1,103.999995239258
110,267,35211,1,2,0:3:0:0:
110,267,35322,2,0,L|177:263,1,51.999997619629,0|0,1:0|0:0,0:0:0:0:
289,262,35544,1,0,0:0:0:0:
275,284,35655,1,0,0:0:0:0:
263,307,35766,2,0,L|268:182,1,103.999995239258,2|0,0:0|0:0,0:0:0:0:
432,137,36211,1,0,1:1:0:0:
432,137,36433,1,4,0:3:0:0:
511,343,36655,6,0,P|451:315|399:323,1,103.999995239258,4|0,0:0|0:0,0:0:0:0:
414,317,36988,1,0,0:0:0:0:
414,317,37099,2,0,L|306:326,1,103.999995239258,0|0,1:0|0:0,0:0:0:0:
149,104,37544,1,4,0:3:0:0:
195,264,37766,1,0,0:0:0:0:
354,218,37988,1,0,1:0:0:0:
309,58,38211,1,0,0:0:0:0:
470,147,38433,6,0,L|451:250,1,103.999995239258,2|0,0:0|0:0,0:0:0:0:
257,184,38766,1,4,0:3:0:0:
261,188,38877,2,0,L|267:250,1,51.999997619629,0|0,1:0|0:0,0:0:0:0:
373,364,39099,1,4,0:3:0:0:
346,338,39210,1,4,0:3:0:0:
246,332,39321,1,4,0:3:0:0:
214,350,39433,1,4,0:3:0:0:
119,337,39544,1,4,0:3:0:0:
92,311,39655,1,4,0:3:0:0:
170,182,39766,5,0,1:0:0:0:
169,88,39877,1,8,0:3:0:0:
80,58,39988,1,0,1:0:0:0:
23,132,40099,1,0,1:0:0:0:
86,220,40211,1,4,1:2:0:0:
86,220,40433,5,2,0:2:0:0:
86,220,40544,2,0,L|15:228,1,51.999997619629
0,336,40766,2,0,L|55:341,1,51.999997619629,2|0,0:0|0:0,0:0:0:0:
196,272,40988,1,2,0:0:0:0:
196,272,41099,2,0,P|243:263|299:300,1,103.999995239258,4|0,0:3|0:0,0:0:0:0:
492,218,41544,1,0,1:0:0:0:
492,218,41766,1,4,0:3:0:0:
293,184,41988,5,4,0:3:0:0:
284,143,42099,1,0,1:0:0:0:
452,310,42322,1,4,0:3:0:0:
443,350,42433,1,0,1:0:0:0:
401,149,42655,6,0,B|391:4|391:4|435:55,1,207.999990478516,4|0,1:2|0:0,0:0:0:0:
330,250,43322,1,0,1:0:0:0:
258,189,43433,1,0,1:0:0:0:
164,191,43544,1,4,0:3:0:0:
94,253,43655,1,4,0:3:0:0:
107,357,43766,1,4,1:2:0:0:
107,357,43988,5,2,0:0:0:0:
107,357,44099,1,2,0:0:0:0:
107,357,44211,2,0,L|95:287,1,51.999997619629,8|0,1:0|0:0,0:0:0:0:
180,137,44433,1,2,0:0:0:0:
180,137,44544,1,2,0:0:0:0:
180,137,44655,6,0,P|144:144|110:138,1,51.999997619629,2|0,0:3|0:0,0:0:0:0:
332,137,44877,2,0,P|368:144|402:138,1,51.999997619629,2|0,0:0|0:0,0:0:0:0:
189,301,45099,2,0,L|178:242,1,51.999997619629,8|0,1:0|1:0,0:0:0:0:
323,301,45322,2,0,L|334:242,1,51.999997619629,4|4,0:3|0:3,0:0:0:0:
256,62,45544,5,2,0:3:0:0:
332,137,45655,2,0,P|374:145|424:132,1,92.0000017547608,10|0,1:0|0:0,0:0:0:0:
243,45,45877,5,2,0:3:0:0:
296,137,45988,2,0,P|334:155|386:155,1,92.0000017547608,10|0,1:0|0:0,0:0:0:0:
235,25,46211,5,2,0:3:0:0:
262,127,46322,2,0,P|294:154|344:168,1,92.0000017547608,10|0,1:0|0:0,0:0:0:0:
256,282,46544,5,2,0:3:0:0:
171,350,46655,2,0,P|255:325|357:358,2,184.000003509522,10|10|10,1:0|1:0|1:0,0:0:0:0:
256,62,47322,5,2,0:3:0:0:
346,177,47433,2,0,P|388:173|433:148,1,92.0000017547608,10|0,1:0|0:0,0:0:0:0:
243,45,47655,5,2,0:3:0:0:
311,186,47766,2,0,P|353:193|403:181,1,92.0000017547608,10|0,1:0|0:0,0:0:0:0:
235,25,47989,5,2,0:3:0:0:
275,185,48100,2,0,P|313:203|365:203,1,92.0000017547608,10|0,1:0|0:0,0:0:0:0:
204,278,48322,5,2,0:3:0:0:
102,290,48433,2,0,B|52:284|52:284|91:256,1,92.0000017547608,10|0,1:0|0:0,0:0:0:0:
295,336,48655,2,0,B|315:380|315:380|270:360,1,92.0000017547608,10|0,1:0|0:0,0:0:0:0:
242,184,48877,2,0,B|270:142|270:142|275:191,1,92.0000017547608,10|0,1:0|0:0,0:0:0:0:
155,361,49099,6,0,L|151:170,1,184.000003509522,4|0,1:2|0:0,0:0:0:0:
170,1,49433,2,0,P|191:41|185:102,1,92.0000017547608,2|0,0:0|1:0,0:0:0:0:
48,162,49655,1,0,0:0:0:0:
264,156,49766,2,0,P|286:116|291:71,1,92.0000017547608,2|0,0:0|0:0,0:0:0:0:
367,232,49988,5,0,1:0:0:0:
370,323,50099,1,0,1:0:0:0:
462,323,50211,1,0,1:0:0:0:
459,231,50322,1,0,1:0:0:0:
345,211,50433,5,8,1:0:0:0:
349,344,50544,1,8,1:0:0:0:
483,344,50656,1,8,1:0:0:0:
479,209,50767,1,8,1:0:0:0:
416,276,50877,6,0,B|435:190|413:109|413:109|452:182,1,200,6|0,1:0|0:0,0:0:0:0:
512,63,51210,1,2,0:1:0:0:
512,63,51322,2,0,L|298:46,1,200,8|2,1:0|1:1,0:0:0:0:
90,86,51766,6,0,P|94:183|1:186,1,200,2|0,1:0|0:0,0:0:0:0:
110,290,52099,1,2,0:1:0:0:
110,290,52210,2,0,B|175:296|175:296|235:271|235:271|315:276,1,200,8|2,1:0|1:0,0:0:0:0:
483,166,52544,1,0,0:0:0:0:
463,271,52655,6,0,B|418:257|396:225|396:225|412:267|412:293|387:347,1,200,2|0,1:0|0:0,0:0:0:0:
306,176,52988,1,2,1:0:0:0:
306,176,53099,2,0,P|301:120|319:71,1,100,8|0,1:0|0:0,0:0:0:0:
508,46,53321,2,0,P|463:77|406:79,1,100,2|0,1:0|0:0,0:0:0:0:
229,25,53544,5,2,1:0:0:0:
229,25,53655,2,0,B|180:16|180:16|194:65,1,100,0|0,1:0|0:0,0:0:0:0:
170,286,53877,1,0,1:0:0:0:
170,286,53988,2,0,B|218:294|218:294|205:246,1,100,8|0,1:0|0:0,0:0:0:0:
64,147,54211,1,8,1:0:0:0:
163,153,54322,1,8,1:0:0:0:
260,162,54433,6,0,B|408:169|408:169|352:121,1,200,2|0,1:0|0:0,0:0:0:0:
393,293,54766,1,2,0:1:0:0:
393,293,54877,2,0,P|326:272|354:370,1,200,8|2,1:0|1:0,0:0:0:0:
500,35,55321,6,0,B|470:114|470:114|493:256,1,200,2|0,1:0|0:0,0:0:0:0:
368,135,55655,1,2,0:1:0:0:
368,135,55766,2,0,B|266:67|258:171|159:111,1,200,8|2,1:0|1:0,0:0:0:0:
142,256,56099,1,0,0:0:0:0:
70,114,56210,6,0,B|53:73|53:73|100:45,1,100,2|0,0:1|0:0,0:0:0:0:
257,261,56433,2,0,B|274:302|274:302|227:330,1,100,2|0,0:1|0:0,0:0:0:0:
37,229,56655,6,0,L|149:220,1,100,2|0,1:0|0:0,0:0:0:0:
307,122,56877,2,0,L|207:130,1,100,2|0,1:0|0:0,0:0:0:0:
330,373,57099,6,0,P|390:307|501:332,1,200,2|0,1:1|0:0,0:0:0:0:
413,206,57433,1,0,1:0:0:0:
413,206,57544,2,0,B|405:154|405:154|424:92,1,100,0|0,1:0|1:0,0:0:0:0:
262,27,57766,1,0,1:0:0:0:
276,125,57877,1,0,1:0:0:0:
280,224,57988,6,0,P|240:129|144:151,1,200,6|0,1:0|0:0,0:0:0:0:
35,198,58322,1,2,0:1:0:0:
35,198,58433,2,0,P|27:144|37:93,1,100,8|0,1:0|0:0,0:0:0:0:
138,245,58655,2,0,P|145:298|136:350,1,100,2|0,1:0|0:0,0:0:0:0:
275,331,58877,6,0,B|314:333|341:318|357:298|357:298|377:326|401:343|466:343,1,200,2|0,1:0|0:0,0:0:0:0:
465,103,59211,1,2,0:1:0:0:
465,103,59321,2,0,B|422:84|422:84|438:252,1,200,8|2,1:0|1:0,0:0:0:0:
275,331,59655,1,0,0:0:0:0:
280,224,59766,6,0,P|221:145|123:151,1,200,2|0,1:0|0:0,0:0:0:0:
292,83,60099,1,2,0:1:0:0:
177,242,60211,2,0,L|177:341,1,100,8|0,1:0|0:0,0:0:0:0:
34,192,60433,2,0,L|33:92,1,100,2|0,1:0|0:0,0:0:0:0:
208,33,60655,6,0,B|294:83|294:83|414:56,2,200,2|0|8,1:0|0:0|1:0,0:0:0:0:
324,265,61322,1,2,0:0:0:0:
324,265,61433,1,2,0:0:0:0:
324,265,61544,6,0,P|306:180|392:186,1,200,2|0,1:0|0:0,0:0:0:0:
478,350,61877,1,2,0:1:0:0:
478,350,61988,2,0,B|427:326|384:357|384:357|340:388|259:360,1,200,8|2,1:0|1:0,0:0:0:0:
114,75,62433,6,0,B|153:134|153:134|127:278,1,200,2|0,1:0|0:0,0:0:0:0:
40,164,62766,1,2,0:1:0:0:
40,164,62877,6,0,L|19:266,1,100,2|0,1:0|0:0,0:0:0:0:
174,363,63099,1,0,1:0:0:0:
174,363,63211,1,0,1:0:0:0:
233,271,63322,6,0,L|224:166,1,100,10|0,1:0|0:0,0:0:0:0:
278,73,63544,1,2,1:0:0:0:
184,261,63655,6,0,L|226:165,1,100,2|0,1:0|0:0,0:0:0:0:
278,73,63877,1,0,1:0:0:0:
142,227,63988,6,0,L|228:166,1,100,2|0,1:0|0:0,0:0:0:0:
380,59,64211,5,0,1:0:0:0:
453,128,64322,1,0,1:0:0:0:
459,227,64433,1,0,1:0:0:0:
386,295,64544,1,0,1:0:0:0:
269,267,64655,5,8,1:0:0:0:
159,319,64766,1,8,1:0:0:0:
54,260,64877,2,0,L|48:145,1,100,8|0,1:0|0:0,0:0:0:0:
180,37,65099,6,0,B|107:60|36:57|36:57|70:57|120:78,1,200,6|0,1:0|0:0,0:0:0:0:
201,211,65433,1,2,0:1:0:0:
201,211,65544,2,0,L|-3:197,1,200,8|2,1:0|1:0,0:0:0:0:
318,214,65988,6,0,B|344:148|344:148|328:89|288:74|232:118,1,200,2|0,1:0|0:0,0:0:0:0:
147,306,66321,1,2,0:1:0:0:
147,306,66433,2,0,B|198:329|241:310|241:310|285:290|355:320,1,200,8|2,1:0|1:0,0:0:0:0:
512,212,66766,1,0,0:0:0:0:
497,313,66877,6,0,B|452:299|430:267|430:267|446:309|446:335|415:387,1,200,2|0,1:0|0:0,0:0:0:0:
318,214,67210,1,2,0:1:0:0:
318,214,67321,2,0,L|310:98,1,100,8|0,1:0|0:0,0:0:0:0:
456,17,67544,2,0,L|462:116,1,100,2|0,1:0|0:0,0:0:0:0:
257,28,67766,5,2,1:0:0:0:
257,28,67877,2,0,B|208:23|208:23|225:70,1,100,0|0,1:0|0:0,0:0:0:0:
473,256,68099,1,0,1:0:0:0:
473,256,68210,2,0,B|489:211|489:211|440:214,1,100,8|0,1:0|0:0,0:0:0:0:
302,352,68433,1,8,1:0:0:0:
302,252,68544,1,8,1:0:0:0:
299,152,68655,6,0,P|207:182|100:123,1,200,2|0,1:0|0:0,0:0:0:0:
192,336,68988,1,2,0:1:0:0:
192,336,69099,2,0,B|187:268|210:189|210:189|196:212|170:238,1,200,8|2,1:0|1:0,0:0:0:0:
20,46,69544,6,0,P|62:138|42:273,1,200,2|0,1:0|0:0,0:0:0:0:
155,116,69877,1,2,0:1:0:0:
155,116,69988,2,0,B|219:106|219:106|285:135|285:135|382:127,1,200,8|2,1:0|1:0,0:0:0:0:
297,30,70321,1,0,0:0:0:0:
199,211,70433,6,0,L|222:309,1,100,2|0,0:1|0:0,0:0:0:0:
440,207,70655,2,0,L|463:109,1,100,2|0,0:1|0:0,0:0:0:0:
337,306,70877,2,0,L|434:329,1,100,2|0,1:0|0:0,0:0:0:0:
311,48,71099,2,0,L|214:71,1,100,2|0,1:0|0:0,0:0:0:0:
344,176,71321,6,0,P|404:110|515:135,1,200,2|0,1:0|0:0,0:0:0:0:
432,306,71655,1,0,1:0:0:0:
432,306,71766,2,0,L|441:182,1,100,0|0,1:0|1:0,0:0:0:0:
239,118,71988,1,0,1:0:0:0:
254,216,72099,1,0,1:0:0:0:
260,316,72211,6,0,B|203:278|130:332|130:332|55:327,1,200,6|0,1:0|0:0,0:0:0:0:
0,150,72544,1,2,1:0:0:0:
0,150,72655,2,0,P|23:105|21:31,1,100,8|0,1:0|0:0,0:0:0:0:
118,123,72877,2,0,P|121:172|144:216,1,100,2|0,1:0|0:0,0:0:0:0:
360,151,73099,6,0,B|220:149|220:149|316:107,1,200,2|0,1:0|0:0,0:0:0:0:
247,253,73433,1,2,0:1:0:0:
247,253,73544,2,0,P|255:353|161:364,1,200,8|2,1:0|1:0,0:0:0:0:
85,200,73877,1,0,0:0:0:0:
32,307,73988,6,0,L|23:86,1,200,2|0,1:0|0:0,0:0:0:0:
209,145,74321,1,2,0:1:0:0:
225,27,74433,2,0,P|260:56|332:56,1,100,8|0,1:0|0:0,0:0:0:0:
334,217,74655,2,0,P|284:221|246:252,1,100,2|0,1:0|0:0,0:0:0:0:
96,177,74877,6,0,P|119:79|55:13,2,200,2|0|8,1:0|1:0|1:0,0:0:0:0:
158,374,75544,1,0,1:0:0:0:
158,374,75655,1,0,1:0:0:0:
158,374,75766,6,0,L|146:258,1,100,6|0,1:0|0:0,0:0:0:0:
354,374,75988,2,0,L|366:258,1,100,6|0,1:0|0:0,0:0:0:0:
255,95,76211,1,0,1:0:0:0:
313,175,76322,1,0,1:0:0:0:
412,182,76433,1,0,1:0:0:0:
468,98,76544,6,0,P|444:188|495:294,1,200,2|0,1:0|0:0,0:0:0:0:
512,9,76877,2,0,P|458:-3|407:23,1,100,4|4,0:3|0:3,0:0:0:0:
256,160,77099,5,0,1:0:0:0:
256,260,77211,1,0,1:0:0:0:
256,160,77322,5,8,1:0:0:0:
256,260,77433,1,8,1:0:0:0:
161,113,77544,6,0,L|39:96,1,100,6|0,1:0|0:0,0:0:0:0:
351,113,77766,2,0,L|473:96,1,100,6|0,1:0|0:0,0:0:0:0:
352,291,77988,1,0,1:0:0:0:
256,260,78099,1,0,1:0:0:0:
159,287,78211,1,0,1:0:0:0:
88,357,78322,6,0,B|107:285|85:186|85:186|132:242,1,200,2|0,1:0|0:0,0:0:0:0:
143,74,78655,2,0,P|90:89|21:68,1,100,4|4,0:3|0:3,0:0:0:0:
212,171,78877,5,0,1:0:0:0:
310,152,78988,1,0,1:0:0:0:
212,171,79099,5,8,1:0:0:0:
310,152,79211,1,8,1:0:0:0:
387,275,79322,6,0,P|330:251|289:254,1,100,6|0,1:0|0:0,0:0:0:0:
17,231,79544,2,0,P|61:209|111:209,1,100,6|0,1:0|0:0,0:0:0:0:
180,369,79766,1,0,1:0:0:0:
195,270,79877,1,0,1:0:0:0:
212,171,79988,1,0,1:0:0:0:
302,27,80099,6,0,P|207:59|92:4,1,200,2|0,1:0|0:0,0:0:0:0:
302,27,80433,2,0,P|243:66|206:68,1,100,2|0,1:0|0:0,0:0:0:0:
113,141,80655,5,0,1:0:0:0:
116,240,80766,1,0,1:0:0:0:
201,189,80877,5,0,1:0:0:0:
204,288,80988,1,0,1:0:0:0:
115,344,81099,6,0,L|339:320,1,180.000006866455,4|0,1:2|0:0,0:0:0:0:
472,344,81544,2,0,L|248:320,1,180.000006866455,0|0,1:0|0:0,0:0:0:0:
301,185,81988,2,0,P|315:126|300:66,1,120.000004577637,0|0,1:0|0:0,0:0:0:0:
168,266,82433,1,0,1:0:0:0:
37,132,82655,1,0,0:0:0:0:
37,132,82766,1,0,0:0:0:0:
37,132,82877,6,0,B|98:110|98:110|214:125,1,180.000006866455,0|0,1:0|0:0,0:0:0:0:
387,132,83322,2,0,B|326:110|326:110|210:125,1,180.000006866455,0|0,1:0|0:0,0:0:0:0:
147,220,83766,1,0,1:0:0:0:
282,224,83988,1,0,0:0:0:0:
147,220,84211,5,0,1:0:0:0:
156,266,84322,1,0,1:0:0:0:
282,224,84433,5,0,1:0:0:0:
269,270,84544,1,0,1:0:0:0:
217,356,84655,6,0,P|277:322|354:341,1,136.000002593994,0|8,1:0|1:0,0:0:0:0:
512,251,85099,2,0,L|364:238,1,136.000002593994,0|8,1:0|1:0,0:0:0:0:
433,84,85433,1,0,1:0:0:0:
433,84,85544,6,0,L|442:163,1,68.0000012969971,0|0,1:0|0:0,0:0:0:0:
269,270,85766,2,0,L|276:202,1,68.0000012969971,8|0,1:0|0:0,0:0:0:0:
447,258,85988,2,0,L|368:267,1,68.0000012969971,0|0,1:0|0:0,0:0:0:0:
261,94,86210,2,0,L|328:101,1,68.0000012969971,8|0,1:0|0:0,0:0:0:0:
497,112,86433,5,0,1:0:0:0:
309,3,86655,1,8,1:0:0:0:
196,189,86877,1,0,1:0:0:0:
384,300,87099,1,8,1:0:0:0:
381,334,87211,1,0,1:0:0:0:
364,219,87322,5,0,1:0:0:0:
275,144,87433,1,0,1:0:0:0:
159,136,87544,1,0,1:0:0:0:
91,229,87655,1,0,1:0:0:0:
181,280,87766,5,8,1:0:0:0:
140,139,87877,1,8,1:0:0:0:
0,179,87988,1,8,1:0:0:0:
39,319,88099,1,8,1:0:0:0:
256,192,88655,6,2,L|256:128,1,64,2|0,1:0|0:0,1:0:0:0:
