osu file format v14

[General]
AudioFilename: audio.mp3
AudioLeadIn: 0
PreviewTime: 50877
Countdown: 0
SampleSet: Soft
StackLeniency: 0.7
Mode: 0
LetterboxInBreaks: 0
WidescreenStoryboard: 0

[Editor]
DistanceSpacing: 1
BeatDivisor: 4
GridSize: 4
TimelineZoom: 1

[Metadata]
Title:RHAPSODY OF BLUE SKY
TitleUnicode:青空のラプソディ
Artist:fhana
ArtistUnicode:fhána
Creator:[Kamiya]
Version:Easy
Source:小林さんちのメイドラゴン
Tags:kobayashi san chi no maidragon aozora no opening anime maid dragon OblivioN Karen Dynamix imoutosan Pata-Mon gxytcgxytc
BeatmapID:1242687
BeatmapSetID:586841

[Difficulty]
HPDrainRate:2
CircleSize:3
OverallDifficulty:2
ApproachRate:3
SliderMultiplier:0.800000005960464
SliderTickRate:1

[Events]
//Background and Video events
0,0,"visual_01_pc.jpg",0,0
Video,0,"video.avi"
//Break Periods
//Storyboard Layer 0 (Background)
//Storyboard Layer 1 (Fail)
//Storyboard Layer 2 (Pass)
//Storyboard Layer 3 (Foreground)
//Storyboard Sound Samples

[TimingPoints]
-678,444.444444444444,4,2,1,70,1,0
1100,-100,4,2,1,70,0,0
17099,-100,4,2,1,70,0,0
33099,-100,4,2,1,70,0,0
50877,-100,4,2,1,70,0,1
81099,-100,4,2,1,70,0,0

[Colours]
Combo1 : 128,255,0
Combo2 : 255,128,192
Combo3 : 255,147,38
Combo4 : 38,147,255

[HitObjects]
88,256,1100,6,0,B|152:288|152:288|240:272,1,160.000001192093,2|0,0:0|0:0,0:0:0:0:
316,248,2433,1,8,0:0:0:0:
392,272,2877,2,0,L|408:104,1,160.000001192093
344,64,4211,6,0,B|296:56|296:56|256:64,1,80,0|2,0:0|0:0,0:0:0:0:
188,88,5099,1,0,0:0:0:0:
132,28,5544,6,0,L|100:196,1,160
104,264,6877,1,8,0:0:0:0:
172,308,7322,1,0,0:0:0:0:
252,300,7766,6,0,B|300:292|300:292|340:300,1,80,0|2,0:0|0:0,0:0:0:0:
408,312,8655,1,0,0:0:0:0:
480,348,9099,6,0,L|464:188,1,160
432,116,10433,1,8,0:0:0:0:
356,96,10877,1,0,0:0:0:0:
280,116,11322,6,0,B|272:76|272:76|280:36,1,80,0|2,0:0|0:0,0:0:0:0:
200,24,12211,2,0,L|160:192,1,160,0|8,0:0|0:0,0:0:0:0:
124,248,13544,6,8,P|60:264|4:240,2,120,12|8|8,0:0|0:0|0:0,0:0:0:0:
184,192,15322,2,8,P|248:176|304:192,2,120,12|8|8,0:0|0:0|0:0,0:0:0:0:
200,272,17099,6,0,P|272:296|352:272,1,160,8|0,0:0|0:0,0:0:0:0:
412,220,18433,1,2,0:0:0:0:
488,244,18877,2,0,L|424:92,1,160,8|0,0:0|0:0,0:0:0:0:
364,44,20211,1,2,0:0:0:0:
292,84,20655,6,0,P|204:108|140:84,1,160,10|0,0:0|0:0,0:0:0:0:
80,36,21988,1,2,0:0:0:0:
28,96,22433,2,0,L|52:184,1,80,8|0,0:0|0:0,0:0:0:0:
76,248,23322,1,8,0:0:0:0:
128,308,23766,1,2,0:0:0:0:
200,272,24211,6,0,P|280:248|360:272,1,160,12|0,0:0|0:0,0:0:0:0:
424,300,25544,1,2,0:0:0:0:
464,232,25988,2,0,L|424:72,1,160,8|0,0:0|0:0,0:0:0:0:
364,24,27322,1,2,0:0:0:0:
296,64,27766,6,0,P|216:88|144:56,1,160,8|0,0:0|0:0,0:0:0:0:
72,32,29099,1,2,0:0:0:0:
68,112,29544,2,0,L|92:200,1,80,8|0,0:0|0:0,0:0:0:0:
48,260,30433,2,0,L|72:348,1,80,8|0,0:0|0:0,0:0:0:0:
148,324,31322,6,0,P|228:308|300:332,1,160.000001192093,8|0,0:0|0:0,0:0:0:0:
376,360,32655,1,4,0:0:0:0:
444,316,33100,6,0,P|476:236|444:172,2,160.000001192093,12|0|0,0:0|0:0|0:0,0:0:0:0:
304,240,35766,1,2,0:0:0:0:
156,176,36655,6,0,P|130:249|162:321,2,160,8|0|0,0:0|0:0|0:0,0:0:0:0:
296,100,39322,1,2,0:0:0:0:
372,240,40211,6,0,P|300:272|228:240,1,160,8|0,0:0|0:0,0:0:0:0:
196,84,41988,2,0,P|140:64|84:84,2,120.00000089407,0|4|0,0:0|0:0|0:0,0:0:0:0:
276,80,43766,6,0,L|292:168,1,80,4|8,0:0|0:0,0:0:0:0:
368,184,44655,2,0,L|384:280,1,80,0|8,0:0|0:0,0:0:0:0:
340,332,45544,6,0,P|276:348|212:324,2,120,12|8|8,0:0|0:0|0:0,0:0:0:0:
364,256,47322,2,0,P|428:240|484:256,2,120,12|8|8,0:0|0:0|0:0,0:0:0:0:
284,264,49099,6,2,P|268:200|284:144,2,120,14|10|10,0:0|0:0|0:0,0:0:0:0:
264,340,50877,6,0,L|348:352,1,80.0000005960464,12|0,0:0|0:0,0:0:0:0:
376,280,51766,2,0,L|464:292,1,80.0000005960464,2|0,0:0|0:0,0:0:0:0:
472,212,52655,2,0,P|460:172|416:144,1,80.0000005960464,8|0,0:0|0:0,0:0:0:0:
352,144,53544,2,0,P|304:156|264:144,1,80.0000005960464,2|0,0:0|0:0,0:0:0:0:
200,124,54433,6,0,L|156:204,1,80.0000005960464,8|0,0:0|0:0,0:0:0:0:
84,184,55321,2,0,L|36:268,1,80.0000005960464,2|0,0:0|0:0,0:0:0:0:
96,316,56211,2,0,P|136:308|176:316,1,80,8|0,0:0|0:0,0:0:0:0:
252,340,57099,1,2,0:0:0:0:
332,356,57544,1,2,0:0:0:0:
400,316,57988,6,0,L|368:232,1,80.0000005960464,8|0,0:0|0:0,0:0:0:0:
428,184,58877,2,0,L|396:104,1,80.0000005960464,2|0,0:0|0:0,0:0:0:0:
352,44,59766,2,0,P|312:68|272:68,1,80.0000005960464,8|0,0:0|0:0,0:0:0:0:
208,36,60655,2,0,P|164:28|128:36,1,80.0000005960464,2|0,0:0|0:0,0:0:0:0:
48,36,61544,6,0,L|76:124,1,80.0000005960464,8|0,0:0|0:0,0:0:0:0:
152,124,62433,2,0,L|184:212,1,80.0000005960464,2|0,0:0|0:0,0:0:0:0:
172,280,63322,2,0,B|208:232|208:232|264:200,2,120.00000089407,12|8|8,0:0|0:0|0:0,0:0:0:0:
220,344,65099,6,0,P|260:348|296:328,1,80.0000005960464,8|0,0:0|0:0,0:0:0:0:
300,248,65988,2,0,P|336:236|388:248,1,80.0000005960464,2|0,0:0|0:0,0:0:0:0:
440,292,66877,2,0,L|472:216,1,80.0000005960464,8|0,0:0|0:0,0:0:0:0:
420,156,67766,2,0,L|455:76,1,80.0000005960464,2|0,0:0|0:0,0:0:0:0:
380,44,68655,6,0,P|336:56|296:44,1,80.0000005960464,8|0,0:0|0:0,0:0:0:0:
224,32,69544,2,0,P|176:20|136:32,1,80.0000005960464,2|0,0:0|0:0,0:0:0:0:
88,80,70433,2,0,L|112:160,1,80,8|0,0:0|0:0,0:0:0:0:
140,232,71321,1,2,0:0:0:0:
168,308,71766,1,2,0:0:0:0:
220,244,72210,6,0,P|264:236|304:248,1,80.0000005960464,8|0,0:0|0:0,0:0:0:0:
356,300,73099,2,0,P|392:312|436:300,1,80.0000005960464,2|0,0:0|0:0,0:0:0:0:
480,236,73988,2,0,P|492:192|480:152,1,80.0000005960464,8|0,0:0|0:0,0:0:0:0:
444,88,74877,2,0,P|408:60|360:64,1,80.0000005960464,2|0,0:0|0:0,0:0:0:0:
296,72,75766,6,0,P|256:140|288:208,1,160.000001192093,12|0,0:0|0:0,0:0:0:0:
360,244,77099,1,2,0:0:0:0:
436,272,77544,2,0,L|276:312,1,160.000001192093,12|0,0:0|0:0,0:0:0:0:
204,332,78877,1,2,0:0:0:0:
148,276,79321,2,0,P|112:204|152:132,1,160.000001192093,12|0,0:0|0:0,0:0:0:0:
204,84,80655,1,8,0:0:0:0:
276,52,81099,6,0,P|352:32|436:56,1,160.000001192093,6|0,0:0|0:0,0:0:0:0:
432,212,82877,2,0,P|355:231|279:208,1,160,2|0,0:0|0:0,0:0:0:0:
212,168,84211,5,0,0:0:0:0:
192,92,84655,2,0,L|153:161,1,80,8|0,0:0|0:0,0:0:0:0:
108,228,85544,1,0,0:0:0:0:
64,296,85988,1,0,0:0:0:0:
136,328,86433,2,0,P|208:352|288:328,1,160,8|0,0:0|0:0,0:0:0:0:
348,276,87766,5,0,0:0:0:0:
208,196,88655,1,4,0:0:0:0:
