osu file format v14

[General]
AudioFilename: audio.mp3
AudioLeadIn: 0
PreviewTime: 50877
Countdown: 0
SampleSet: Soft
StackLeniency: 0.7
Mode: 0
LetterboxInBreaks: 0
WidescreenStoryboard: 1

[Editor]
Bookmarks: 81099,88655
DistanceSpacing: 3
BeatDivisor: 4
GridSize: 4
TimelineZoom: 2.2

[Metadata]
Title:RHAPSODY OF BLUE SKY
TitleUnicode:青空のラプソディ
Artist:fhana
ArtistUnicode:fhána
Creator:[Kamiya]
Version:Insane
Source:小林さんちのメイドラゴン
Tags:kobayashi san chi no maidragon aozora no opening anime maid dragon OblivioN Karen Dynamix imoutosan Pata-Mon gxytcgxytc
BeatmapID:1243651
BeatmapSetID:586841

[Difficulty]
HPDrainRate:6
CircleSize:4
OverallDifficulty:8
ApproachRate:9.3
SliderMultiplier:1.8
SliderTickRate:1

[Events]
//Background and Video events
0,0,"visual_01_pc.jpg",0,0
Video,0,"video.avi"
//Break Periods
//Storyboard Layer 0 (Background)
//Storyboard Layer 1 (Fail)
//Storyboard Layer 2 (Pass)
//Storyboard Layer 3 (Foreground)
//Storyboard Sound Samples

[TimingPoints]
-678,444.444444444444,4,2,2,60,1,0
1100,-100,4,2,2,60,0,0
13544,-55.5555555555556,4,2,2,60,0,0
17099,-66.6666666666667,4,2,2,60,0,0
31988,-50,4,2,2,60,0,0
32433,-50,4,2,2,60,0,0
33099,-100,4,2,2,60,0,0
43321,-55.5555555555556,4,2,2,60,0,0
43766,-83.3333333333333,4,2,2,60,0,0
45099,-71.4285714285714,4,2,2,60,0,0
45322,-62.5,4,2,2,60,0,0
45544,-55.5555555555556,4,2,2,60,0,0
50877,-66.6666666666667,4,2,2,80,0,1
63322,-55.5555555555556,4,2,2,80,0,1
65099,-66.6666666666667,4,2,2,80,0,1
72211,-62.5,4,2,2,80,0,1
74877,-66.6666666666667,4,2,2,80,0,1
75766,-55.5555555555556,4,2,2,80,0,1
81099,-50,4,2,2,60,0,0
84655,-66.6666666666667,4,2,2,60,0,0

[Colours]
Combo1 : 128,255,0
Combo2 : 255,128,192
Combo3 : 255,147,38
Combo4 : 38,147,255

[HitObjects]
152,92,1100,6,0,L|156:200,1,90,6|0,2:0|0:0,0:0:0:0:
160,316,1544,1,0,0:1:0:0:
248,212,1766,1,0,0:0:0:0:
272,192,1877,1,0,0:0:0:0:
296,176,1988,6,0,P|348:164|392:176,1,90,2|0,0:0|0:0,0:0:0:0:
508,220,2433,1,0,0:0:0:0:
240,304,2655,1,0,0:0:0:0:
240,304,2766,1,0,0:0:0:0:
240,304,2877,2,0,L|248:256,1,45,2|0,0:0|0:0,0:0:0:0:
320,176,3099,2,0,L|328:228,1,45
240,304,3321,5,0,0:0:0:0:
208,324,3433,1,2,0:1:0:0:
176,332,3544,1,0,0:0:0:0:
140,328,3655,1,2,0:1:0:0:
112,312,3766,2,0,P|96:264|112:216,1,90,2|0,0:0|0:0,0:0:0:0:
280,48,4211,6,0,B|296:96|288:144|288:144|270:122|252:120,1,135,4|0,0:0|0:0,0:0:0:0:
100,64,4655,2,0,P|152:56|196:64,1,90,6|0,0:0|0:0,0:0:0:0:
320,92,5099,1,0,0:0:0:0:
456,240,5322,1,0,0:0:0:0:
456,240,5433,1,0,0:0:0:0:
456,240,5544,6,0,L|424:156,1,90,2|0,0:0|0:0,0:0:0:0:
376,28,5988,1,0,0:0:0:0:
292,136,6211,1,0,0:0:0:0:
292,136,6322,1,0,0:0:0:0:
292,136,6433,2,0,L|336:160,1,45,2|0,0:0|0:0,0:0:0:0:
260,24,6655,2,0,L|212:40,1,45
120,72,6877,5,0,0:0:0:0:
92,96,6988,1,2,0:1:0:0:
68,128,7099,1,0,0:0:0:0:
56,168,7211,1,2,0:1:0:0:
52,208,7322,2,0,P|56:256|84:288,1,90,2|0,0:0|0:0,0:0:0:0:
292,356,7766,5,4,0:0:0:0:
232,208,7988,1,0,0:0:0:0:
82,286,8211,1,6,0:0:0:0:
376,320,8433,1,0,0:0:0:0:
376,320,8544,1,0,0:0:0:0:
376,320,8655,6,0,P|396:268|392:224,1,90
292,32,9099,2,0,P|276:80|284:124,1,90,2|0,0:0|0:0,0:0:0:0:
412,152,9544,1,0,0:0:0:0:
204,240,9766,1,0,0:0:0:0:
204,240,9877,1,0,0:0:0:0:
204,240,9988,2,0,L|196:188,1,45,2|0,0:0|0:0,0:0:0:0:
56,144,10210,2,0,L|60:192,1,45
76,296,10433,5,0,0:0:0:0:
108,328,10544,1,2,0:1:0:0:
152,344,10655,1,0,0:0:0:0:
196,328,10766,1,2,0:1:0:0:
236,304,10877,2,0,P|284:292|328:316,1,90,2|0,0:0|0:0,0:0:0:0:
404,140,11322,5,4,0:0:0:0:
404,140,11433,2,0,L|392:40,1,90,2|0,0:1|0:0,0:0:0:0:
324,156,11766,2,0,P|344:200|380:224,1,90,6|0,0:0|0:0,0:0:0:0:
204,348,12211,2,0,P|180:296|140:280,1,90
20,164,12655,2,0,L|28:68,1,90,2|0,0:0|0:0,0:0:0:0:
172,36,12988,1,0,0:0:0:0:
172,36,13099,6,0,L|224:60,1,45,2|0,0:1|0:0,0:0:0:0:
306,154,13322,2,0,L|362:178,1,45,2|0,0:1|0:0,0:0:0:0:
212,54,13544,5,2,0:0:0:0:
212,54,13655,2,0,L|160:120,1,80.9999975280763,8|0,0:0|0:0,0:0:0:0:
306,154,13877,1,2,0:0:0:0:
306,154,13988,2,0,L|258:222,1,80.9999975280763,8|0,0:0|0:0,0:0:0:0:
388,264,14211,1,2,0:0:0:0:
388,264,14322,2,0,L|336:336,1,80.9999975280763,8|0,0:0|0:0,0:0:0:0:
160,196,14544,1,2,0:0:0:0:
160,196,14655,2,0,L|108:268,1,80.9999975280763,8|0,0:0|0:0,0:0:0:0:
204,128,14877,6,0,P|240:168|244:208,1,80.9999975280763,12|0,0:0|0:0,0:0:0:0:
76,116,15099,2,0,P|64:64|76:32,1,80.9999975280763,12|0,0:0|0:0,0:0:0:0:
288,296,15322,5,2,0:0:0:0:
288,296,15433,2,0,L|334:229,1,80.9999975280763,8|0,0:0|0:0,0:0:0:0:
200,180,15655,1,2,0:0:0:0:
200,180,15766,2,0,L|246:113,1,80.9999975280763,8|0,0:0|0:0,0:0:0:0:
108,68,15988,1,2,0:0:0:0:
108,68,16099,2,0,L|154:1,1,80.9999975280763,8|0,0:0|0:0,0:0:0:0:
424,156,16321,1,2,0:0:0:0:
424,156,16432,2,0,L|470:89,1,80.9999975280763,8|0,0:0|0:0,0:0:0:0:
416,236,16655,6,0,P|376:220|348:184,1,80.9999975280763,12|0,0:0|0:0,0:0:0:0:
140,136,16877,2,0,P|128:172|132:220,1,80.9999975280763,12|0,0:0|0:0,0:0:0:0:
236,128,17099,6,0,P|212:72|144:40,1,135.000005149842,6|8,0:0|0:0,0:0:0:0:
149,343,17544,2,0,P|209:314|240:256,1,135.000005149842,2|8,0:0|0:0,0:0:0:0:
140,223,17877,1,2,0:0:0:0:
140,223,17988,2,0,L|144:156,1,67.5000025749208,0|2,0:0|0:0,0:0:0:0:
292,192,18211,2,0,P|360:172|424:192,1,135.000005149842,8|2,0:0|0:0,0:0:0:0:
352,336,18655,1,8,0:0:0:0:
352,336,18766,1,0,0:0:0:0:
352,336,18877,6,0,L|352:268,1,67.5000025749208,2|0,0:0|0:0,0:0:0:0:
196,264,19099,2,0,L|196:336,1,67.5000025749208,8|0,0:0|0:0,0:0:0:0:
172,144,19322,1,2,0:0:0:0:
172,144,19433,2,0,P|140:136|104:148,1,67.5000025749208,2|8,0:0|0:0,0:0:0:0:
304,99,19655,1,2,0:0:0:0:
304,99,19766,2,0,P|312:131|304:163,1,67.5000025749208,0|2,0:0|0:0,0:0:0:0:
96,280,19988,2,0,P|124:264|140:232,1,67.5000025749208,8|0,0:0|0:0,0:0:0:0:
72,84,20211,2,0,P|48:152|72:212,1,135.000005149842,2|8,0:0|0:0,0:0:0:0:
443,208,20655,6,0,P|464:145|440:84,1,135.000005149842,2|8,0:0|0:0,0:0:0:0:
184,64,21099,2,0,L|304:136,1,135.000005149842,2|8,0:0|0:0,0:0:0:0:
88,76,21433,1,2,0:0:0:0:
88,76,21544,2,0,P|100:112|130:136,1,67.5000025749208,0|2,0:0|0:0,0:0:0:0:
216,208,21766,2,0,P|244:276|220:332,1,135.000005149842,8|2,0:0|0:0,0:0:0:0:
48,288,22211,6,0,L|120:280,1,67.5000025749208,8|8,0:0|0:0,0:0:0:0:
341,221,22433,2,0,P|277:193|213:209,1,135.000005149842,6|8,0:0|0:0,0:0:0:0:
412,280,22766,1,0,0:0:0:0:
412,280,22877,6,0,L|428:208,1,67.5000025749208,2|2,0:0|0:0,0:0:0:0:
352,112,23099,1,8,0:0:0:0:
352,112,23211,2,0,L|366:46,1,67.5000025749208,10|0,0:0|0:0,0:0:0:0:
232,184,23433,1,2,0:0:0:0:
232,184,23544,2,0,L|268:252,1,67.5000025749208,8|0,0:0|0:0,0:0:0:0:
296,40,23766,5,2,1:1:0:0:
224,16,23877,1,2,1:0:0:0:
152,28,23988,1,2,0:0:0:0:
96,76,24099,1,2,0:0:0:0:
72,148,24211,6,0,P|80:220|120:264,1,135.000005149842,2|8,0:0|0:0,0:0:0:0:
480,120,24655,2,0,P|460:76|436:60,1,67.5000025749208,2|0,0:0|0:0,0:0:0:0:
352,156,24877,1,8,0:0:0:0:
352,156,24988,2,0,L|344:224,1,67.5000025749208,2|0,0:0|0:0,0:0:0:0:
200,284,25211,1,2,0:0:0:0:
200,284,25322,2,0,L|224:136,1,135.000005149842,8|2,0:0|0:0,0:0:0:0:
432,296,25766,1,8,0:0:0:0:
432,296,25877,1,0,0:0:0:0:
432,296,25988,6,0,L|360:288,1,67.5000025749208,2|0,0:0|0:0,0:0:0:0:
312,128,26211,2,0,L|324:200,1,67.5000025749208,8|0,0:0|0:0,0:0:0:0:
408,76,26433,1,2,0:0:0:0:
408,76,26544,2,0,P|392:44|364:28,1,67.5000025749208,2|8,0:0|0:0,0:0:0:0:
487,204,26766,1,2,0:0:0:0:
487,204,26877,2,0,P|454:210|422:199,1,67.5000025749208,0|2,0:0|0:0,0:0:0:0:
244,96,27099,2,0,L|236:168,1,67.5000025749208,8|8,0:0|0:0,0:0:0:0:
124,308,27322,2,0,P|104:244|128:184,1,135.000005149842,2|8,0:0|0:0,0:0:0:0:
383,183,27766,6,0,P|408:244|388:308,1,135.000005149842,2|8,0:0|0:0,0:0:0:0:
164,60,28211,2,0,P|188:24|216:12,1,67.5000025749208,2|0,0:0|0:0,0:0:0:0:
344,108,28433,1,8,0:0:0:0:
344,108,28544,2,0,L|276:108,1,67.5000025749208,2|0,0:0|0:0,0:0:0:0:
192,240,28766,1,2,0:0:0:0:
192,240,28877,2,0,P|256:264|320:240,1,135.000005149842,8|2,0:0|0:0,0:0:0:0:
316,242,29322,6,0,L|304:176,1,67.5000025749208,8|8,0:0|0:0,0:0:0:0:
203,105,29544,2,0,L|191:241,1,135.000005149842,6|8,0:0|0:0,0:0:0:0:
372,336,29877,1,0,0:0:0:0:
372,336,29988,2,0,L|404:268,1,67.5000025749208,2|2,0:0|0:0,0:0:0:0:
191,239,30211,1,8,0:0:0:0:
191,239,30322,2,0,P|128:216|64:236,1,135.000005149842,6|2,0:0|0:0,0:0:0:0:
224,328,30655,2,0,P|276:280|276:208,1,135.000005149842,2|8,0:0|0:0,0:0:0:0:
196,40,31099,5,8,0:0:0:0:
196,40,31322,2,0,P|168:108|192:160,1,135.000005149842,6|8,0:0|0:0,0:0:0:0:
252,208,31655,1,8,0:0:0:0:
328,196,31766,1,2,0:0:0:0:
380,144,31877,1,2,0:0:0:0:
396,72,31988,1,2,0:0:0:0:
356,8,32099,6,0,P|320:64|392:148,1,180,6|0,0:0|0:0,0:0:0:0:
396,72,32433,2,0,L|288:80,1,90,8|0,0:0|0:0,0:0:0:0:
108,252,32655,2,0,P|96:300|108:344,1,90,8|0,0:0|0:0,0:0:0:0:
252,208,32877,2,0,L|208:128,1,90,8|0,0:0|0:0,0:0:0:0:
148,12,33099,1,2,0:0:0:0:
148,12,33322,6,0,L|112:100,1,90,0|2,0:0|0:1,0:0:0:0:
24,148,33655,1,0,0:0:0:0:
24,148,33766,2,0,L|24:96,1,45
116,192,33988,6,0,L|116:244,1,45,2|0,0:0|0:0,0:0:0:0:
204,232,34211,2,0,L|204:280,1,45,2|0,0:0|0:0,0:0:0:0:
296,212,34433,2,0,P|276:164|240:140,1,90,2|0,0:1|0:0,0:0:0:0:
116,192,34877,1,2,0:0:0:0:
292,300,35099,2,0,P|337:293|376:252,1,90,0|2,0:0|0:1,0:0:0:0:
452,140,35544,1,0,0:0:0:0:
452,140,35655,1,0,0:0:0:0:
452,140,35766,6,0,L|452:92,1,45,2|0,0:0|0:0,0:0:0:0:
352,120,35988,2,0,L|352:75,1,45,2|0,0:0|0:0,0:0:0:0:
240,32,36211,2,0,P|192:16|152:28,1,90,2|0,0:1|0:0,0:0:0:0:
96,288,36655,1,2,0:0:0:0:
96,288,36877,2,0,L|96:184,1,90,0|2,0:0|0:1,0:0:0:0:
180,84,37211,1,0,0:0:0:0:
180,84,37322,2,0,L|180:140,1,45
268,216,37544,6,0,L|268:171,1,45,2|0,0:0|0:0,0:0:0:0:
352,184,37766,2,0,L|352:139,1,45,2|0,0:0|0:0,0:0:0:0:
444,144,37988,2,0,P|432:92|400:60,1,90,2|0,0:1|0:0,0:0:0:0:
276,24,38322,1,0,0:0:0:0:
276,24,38433,6,0,P|264:76|280:112,1,90,2|0,0:1|0:0,0:0:0:0:
328,196,38766,2,0,P|344:244|332:284,1,90,2|0,0:1|0:0,0:0:0:0:
240,332,39099,2,0,B|216:344|184:336|184:336|160:328|136:336,1,90,0|2,0:0|0:0,0:0:0:0:
56,260,39433,1,0,0:0:0:0:
56,260,39544,6,0,L|56:212,1,45,2|0,0:1|0:0,0:0:0:0:
172,132,39766,2,0,L|172:176,1,45,2|0,0:1|0:0,0:0:0:0:
240,332,39988,2,0,L|240:284,1,45,2|0,0:1|0:0,0:0:0:0:
296,180,40211,1,2,0:0:0:0:
296,180,40433,6,0,L|296:232,1,45
384,212,40655,2,0,L|384:260,1,45,2|0,0:1|0:0,0:0:0:0:
424,80,40877,1,0,0:0:0:0:
424,80,40988,1,0,0:0:0:0:
424,80,41099,6,0,P|380:68|336:80,1,90,2|0,0:0|0:0,0:0:0:0:
216,140,41544,2,0,P|168:152|128:140,1,90,2|0,0:1|0:0,0:0:0:0:
36,80,41877,1,0,0:0:0:0:
36,80,41988,6,0,L|36:180,1,90,2|0,0:0|0:0,0:0:0:0:
108,300,42322,2,0,L|108:244,1,45,0|2,0:0|0:1,0:0:0:0:
172,64,42655,2,0,P|216:52|264:64,1,90,4|2,0:0|0:0,0:0:0:0:
380,152,43099,1,0,0:0:0:0:
316,336,43321,5,0,0:0:0:0:
275,265,43433,1,0,0:0:0:0:
233,195,43544,1,0,0:0:0:0:
191,125,43655,1,0,0:0:0:0:
152,51,43766,2,0,P|114:89|108:142,1,107.999996704102,8|0,0:0|0:0,0:0:0:0:
233,194,44099,1,2,0:0:0:0:
233,194,44211,6,0,P|268:155|273:102,1,107.999996704102,2|0,0:0|0:0,0:0:0:0:
396,48,44544,1,0,0:0:0:0:
396,48,44655,2,0,L|396:160,1,107.999996704102,2|2,0:0|0:0,0:0:0:0:
268,301,44988,1,0,0:0:0:0:
268,301,45099,6,0,L|268:236,1,62.9999980773926,8|0,0:0|0:0,0:0:0:0:
172,264,45322,2,0,L|172:192,1,72,8|0,0:0|0:0,0:0:0:0:
84,112,45544,5,2,0:0:0:0:
84,112,45655,2,0,L|84:196,1,80.9999975280763,8|0,0:0|0:0,0:0:0:0:
171,344,45877,5,2,0:0:0:0:
171,344,45988,2,0,L|172:244,1,80.9999975280763,8|0,0:0|0:0,0:0:0:0:
256,112,46210,5,2,0:0:0:0:
256,112,46322,2,0,L|256:192,1,80.9999975280763,8|0,0:0|0:0,0:0:0:0:
344,344,46544,5,2,0:0:0:0:
344,344,46655,2,0,L|344:260,1,80.9999975280763,8|0,0:0|0:0,0:0:0:0:
280,84,46877,5,8,0:0:0:0:
220,136,46988,1,2,0:0:0:0:
220,212,47099,1,8,0:0:0:0:
268,272,47211,1,2,0:0:0:0:
296,200,47322,5,2,0:0:0:0:
296,200,47433,2,0,L|208:200,1,80.9999975280763,8|0,0:0|0:0,0:0:0:0:
256,84,47655,5,2,0:0:0:0:
256,84,47766,2,0,L|176:84,1,80.9999975280763,8|0,0:0|0:0,0:0:0:0:
24,160,47988,5,2,0:0:0:0:
24,160,48099,2,0,L|108:160,1,80.9999975280763,8|0,0:0|0:0,0:0:0:0:
64,284,48322,5,2,0:0:0:0:
64,284,48433,2,0,L|148:284,1,80.9999975280763,8|0,0:0|0:0,0:0:0:0:
296,200,48655,5,8,0:0:0:0:
220,168,48766,1,8,0:0:0:0:
144,206,48877,2,0,P|134:247|148:290,1,80.9999975280763,10|2,0:0|0:0,0:0:0:0:
360,280,49099,6,0,P|396:208|360:124,1,161.999995056153,12|0,0:0|0:0,0:0:0:0:
256,48,49433,2,0,B|220:80|224:120|224:120|196:84|152:72,1,161.999995056153,12|2,0:0|0:0,0:0:0:0:
28,44,49766,2,0,P|20:88|32:128,1,80.9999975280763,12|0,0:0|0:0,0:0:0:0:
144,244,49988,2,0,P|156:196|144:164,1,80.9999975280763,2|0,0:0|0:0,0:0:0:0:
40,256,50211,5,8,0:0:0:0:
72,296,50322,1,8,0:0:0:0:
120,320,50433,1,2,0:0:0:0:
180,332,50544,1,2,0:0:0:0:
248,328,50655,1,2,0:0:0:0:
316,296,50766,1,2,0:0:0:0:
384,224,50877,6,0,P|400:156|372:96,1,135.000005149842,2|0,0:0|0:0,0:0:0:0:
216,40,51211,1,2,0:0:0:0:
216,40,51322,2,0,P|196:108|220:172,1,135.000005149842,8|0,0:0|0:0,0:0:0:0:
336,324,51766,6,0,B|264:340|264:340|196:324,1,135.000005149842,2|0,0:0|0:0,0:0:0:0:
112,196,52099,1,2,0:0:0:0:
112,196,52211,2,0,L|104:61,1,135.000005149842,8|0,0:0|0:0,0:0:0:0:
272,64,52655,6,0,P|336:44|404:64,1,135.000005149842,2|0,0:0|0:0,0:0:0:0:
404,220,52988,1,0,0:0:0:0:
404,220,53099,2,0,P|332:244|272:220,1,135.000005149842,8|0,0:0|0:0,0:0:0:0:
128,136,53433,1,0,0:0:0:0:
128,136,53544,2,0,L|112:208,1,67.5000025749208,2|0,0:0|0:0,0:0:0:0:
200,80,53766,2,0,P|172:52|136:48,1,67.5000025749208,0|2,0:0|0:0,0:0:0:0:
40,256,53988,2,0,P|104:296|168:272,1,135.000005149842,8|0,0:0|0:0,0:0:0:0:
260,192,54322,1,0,0:0:0:0:
260,192,54433,6,0,P|320:160|384:180,1,135.000005149842,2|0,0:0|0:0,0:0:0:0:
440,312,54766,1,2,0:0:0:0:
440,312,54877,2,0,L|468:176,1,135.000005149842,8|0,0:0|0:0,0:0:0:0:
287,59,55322,2,0,L|259:191,1,135.000005149842,2|0,0:0|0:0,0:0:0:0:
108,140,55655,1,2,0:0:0:0:
108,140,55766,2,0,P|120:72|76:16,1,135.000005149842,8|0,0:0|0:0,0:0:0:0:
40,248,56211,6,0,P|100:284|172:272,1,135.000005149842,2|0,0:0|0:0,0:0:0:0:
259,191,56544,1,2,0:0:0:0:
259,191,56655,2,0,L|304:320,1,135.000005149842,8|0,0:0|0:0,0:0:0:0:
424,272,56988,1,0,0:0:0:0:
424,272,57099,6,0,L|400:200,1,67.5000025749208,2|0,0:0|0:0,0:0:0:0:
308,72,57322,2,0,L|332:144,1,67.5000025749208,0|2,0:0|0:0,0:0:0:0:
408,68,57544,1,8,0:0:0:0:
352,12,57655,1,8,0:0:0:0:
272,12,57766,1,2,0:0:0:0:
212,64,57877,1,2,0:0:0:0:
216,144,57988,6,0,P|240:212|304:240,1,135.000005149842,2|0,0:0|0:0,0:0:0:0:
472,316,58322,1,2,0:0:0:0:
472,316,58433,2,0,P|408:288|340:304,1,135.000005149842,8|0,0:0|0:0,0:0:0:0:
188,344,58877,6,0,P|116:368|44:340,1,135.000005149842,2|0,0:0|0:0,0:0:0:0:
56,208,59211,1,2,0:0:0:0:
56,208,59322,2,0,P|120:188|184:208,1,135.000005149842,8|0,0:0|0:0,0:0:0:0:
346,300,59766,6,0,P|364:232|340:172,1,135.000005149842,2|0,0:0|0:0,0:0:0:0:
187,72,60099,1,2,0:0:0:0:
187,72,60211,2,0,L|183:208,1,135.000005149842,8|0,0:0|0:0,0:0:0:0:
288,104,60544,1,0,0:0:0:0:
288,104,60655,6,0,L|288:32,1,67.5000025749208,2|0,0:0|0:0,0:0:0:0:
116,16,60877,2,0,P|100:56|100:84,1,67.5000025749208,0|2,0:0|0:0,0:0:0:0:
128,288,61099,2,0,P|196:312|252:288,1,135.000005149842,8|0,0:0|0:0,0:0:0:0:
336,180,61433,1,0,0:0:0:0:
336,180,61544,6,0,P|396:152|460:176,1,135.000005149842,2|0,0:0|0:0,0:0:0:0:
404,372,61877,1,2,0:0:0:0:
404,372,61988,2,0,L|400:232,1,135.000005149842,8|0,0:0|0:0,0:0:0:0:
188,104,62433,6,0,P|168:172|196:236,1,135.000005149842,2|0,0:0|0:0,0:0:0:0:
280,92,62766,1,2,0:0:0:0:
280,92,62877,2,0,P|244:28|180:12,1,135.000005149842,8|0,0:0|0:0,0:0:0:0:
190,229,63211,1,0,0:0:0:0:
190,229,63322,6,0,P|270:257|350:225,1,161.999995056153,12|0,0:0|0:0,0:0:0:0:
188,104,63655,2,0,P|114:75|39:103,1,161.999995056153,12|0,0:0|0:0,0:0:0:0:
284,180,63988,2,0,L|348:32,1,161.999995056153,14|0,0:0|0:0,0:0:0:0:
452,176,64322,2,0,L|416:256,1,80.9999975280763,12|6,0:0|0:0,0:0:0:0:
292,344,64544,1,0,0:0:0:0:
232,284,64655,1,12,0:0:0:0:
212,204,64766,1,0,0:0:0:0:
176,132,64877,2,0,P|136:168|132:208,1,80.9999975280763,12|0,0:0|0:0,0:0:0:0:
304,232,65099,6,0,P|328:168|304:104,1,135.000005149842,6|0,0:0|0:0,0:0:0:0:
131,74,65433,1,2,0:0:0:0:
131,74,65544,2,0,P|103:134|144:200,1,135.000005149842,8|0,0:0|0:0,0:0:0:0:
376,280,65988,6,0,L|432:156,1,135.000005149842,2|0,0:0|0:0,0:0:0:0:
280,56,66322,1,2,0:0:0:0:
280,56,66433,2,0,P|208:36|148:56,1,135.000005149842,8|0,0:0|0:0,0:0:0:0:
80,240,66877,6,0,P|136:264|208:244,1,135.000005149842,2|0,0:0|0:0,0:0:0:0:
304,152,67211,1,2,0:0:0:0:
304,152,67322,2,0,P|368:132|432:156,1,135.000005149842,8|0,0:0|0:0,0:0:0:0:
364,316,67655,1,0,0:0:0:0:
364,316,67766,6,0,L|364:240,1,67.5000025749208,2|0,0:0|0:0,0:0:0:0:
208,144,67988,2,0,L|208:216,1,67.5000025749208,0|2,0:0|0:0,0:0:0:0:
304,152,68211,2,0,P|280:76|228:48,1,135.000005149842,8|0,0:0|0:0,0:0:0:0:
92,184,68544,1,0,0:0:0:0:
92,184,68655,6,0,P|106:248|160:286,1,135.000005149842,2|0,0:0|0:0,0:0:0:0:
324,192,68988,1,2,0:0:0:0:
324,192,69099,2,0,P|256:172|196:192,1,135.000005149842,8|0,0:0|0:0,0:0:0:0:
364,284,69544,6,0,P|418:246|432:181,1,135.000005149842,2|0,0:0|0:0,0:0:0:0:
256,56,69877,1,2,0:0:0:0:
256,56,69988,2,0,L|256:200,1,135.000005149842,8|0,0:0|0:0,0:0:0:0:
256,56,70433,5,2,0:0:0:0:
256,336,70655,1,8,0:0:0:0:
176,68,70877,1,2,0:0:0:0:
256,336,71099,5,2,0:0:0:0:
256,336,71211,1,2,0:0:0:0:
256,336,71322,2,0,L|312:292,1,67.5000025749208,2|0,0:0|0:0,0:0:0:0:
348,140,71544,2,0,L|292:184,1,67.5000025749208,2|0,0:0|0:0,0:0:0:0:
139,179,71766,2,0,L|193:221,1,67.5000025749208,10|8,0:0|0:0,0:0:0:0:
362,335,71988,2,0,L|294:283,1,67.5000025749208,8|0,0:0|0:0,0:0:0:0:
139,179,72211,6,0,P|195:143|283:155,1,144,2|0,0:0|0:0,0:0:0:0:
420,276,72544,1,2,0:0:0:0:
420,276,72655,2,0,P|359:313|289:306,1,144,8|0,0:0|0:0,0:0:0:0:
40,312,73099,6,0,P|35:241|75:183,1,144,2|0,0:0|0:0,0:0:0:0:
340,48,73433,1,2,0:0:0:0:
340,48,73544,2,0,L|382:185,1,144,8|0,0:0|0:0,0:0:0:0:
472,356,73988,6,0,P|396:368|336:336,1,144,2|0,0:0|0:0,0:0:0:0:
124,88,74322,1,2,0:0:0:0:
124,88,74433,2,0,P|196:88|252:136,1,144,8|0,0:0|0:0,0:0:0:0:
168,320,74766,1,0,0:0:0:0:
168,320,74877,6,0,L|216:264,1,67.5000025749208,2|0,0:0|0:0,0:0:0:0:
364,208,75099,2,0,L|316:264,1,67.5000025749208,2|0,0:0|0:0,0:0:0:0:
56,304,75322,2,0,L|108:248,1,67.5000025749208,8|0,0:0|0:0,0:0:0:0:
472,208,75544,2,0,L|424:268,1,67.5000025749208,8|0,0:0|0:0,0:0:0:0:
256,312,75766,6,0,L|256:136,1,161.999995056153,6|8,0:0|0:0,0:0:0:0:
256,48,76099,1,0,0:0:0:0:
256,48,76211,2,0,P|212:52|180:76,1,80.9999975280763,2|2,0:0|0:0,0:0:0:0:
172,260,76433,1,8,0:0:0:0:
172,260,76544,2,0,P|256:280|328:260,1,161.999995056153,2|2,0:0|0:0,0:0:0:0:
424,164,76877,6,0,P|432:112|420:84,1,80.9999975280763,8|2,0:0|0:0,0:0:0:0:
327,260,77099,2,0,P|316:304|332:344,1,80.9999975280763,8|8,0:0|0:0,0:0:0:0:
296,156,77322,2,0,P|252:144|216:156,1,80.9999975280763,12|8,0:0|0:0,0:0:0:0:
256,36,77544,6,0,L|256:212,1,161.999995056153,6|8,0:0|0:0,0:0:0:0:
300,288,77877,1,0,0:0:0:0:
300,288,77988,2,0,P|340:256|352:224,1,80.9999975280763,2|2,0:0|0:0,0:0:0:0:
116,132,78211,1,8,0:0:0:0:
116,132,78322,2,0,P|100:212|124:288,1,161.999995056153,2|2,0:0|0:0,0:0:0:0:
220,128,78655,6,0,P|208:88|176:60,1,80.9999975280763,8|2,0:0|0:0,0:0:0:0:
296,220,78877,2,0,P|340:232|376:220,1,80.9999975280763,8|8,0:0|0:0,0:0:0:0:
168,232,79099,2,0,P|132:264|120:307,1,80.9999975280763,12|8,0:0|0:0,0:0:0:0:
452,296,79322,6,0,P|476:212|444:140,1,161.999995056153,6|8,0:0|0:0,0:0:0:0:
256,116,79655,1,0,0:0:0:0:
256,116,79766,2,0,L|316:180,1,80.9999975280763,2|2,0:0|0:0,0:0:0:0:
224,312,79988,1,8,0:0:0:0:
224,312,80099,2,0,L|108:188,1,161.999995056153,2|2,0:0|0:0,0:0:0:0:
216,44,80433,6,0,P|256:32|296:44,1,80.9999975280763,8|2,0:0|0:0,0:0:0:0:
320,172,80655,1,2,0:0:0:0:
296,248,80766,1,2,0:0:0:0:
215,247,80877,1,8,0:0:0:0:
190,170,80988,1,2,0:0:0:0:
256,116,81099,2,0,P|320:164|296:252,1,180,6|0,0:0|0:0,0:0:0:0:
176,356,81544,5,8,0:0:0:0:
452,304,81766,1,0,0:1:0:0:
452,304,81877,1,0,0:0:0:0:
452,304,81988,1,8,0:0:0:0:
208,256,82211,1,0,0:1:0:0:
372,368,82433,5,8,0:0:0:0:
260,136,82655,1,0,0:0:0:0:
260,136,82766,1,0,0:0:0:0:
260,136,82877,1,8,0:0:0:0:
264,328,83099,1,0,0:0:0:0:
172,168,83322,5,8,0:0:0:0:
388,228,83544,1,0,0:0:0:0:
388,228,83655,1,0,0:0:0:0:
388,228,83766,1,8,0:0:0:0:
124,280,83988,1,0,0:0:0:0:
400,52,84211,5,8,0:0:0:0:
376,80,84322,1,8,0:0:0:0:
356,104,84433,1,8,0:0:0:0:
336,128,84544,1,8,0:0:0:0:
316,152,84655,2,0,L|228:264,1,135.000005149842,2|8,0:0|0:0,0:0:0:0:
64,96,85099,6,0,P|128:72|192:96,1,135.000005149842,2|8,0:0|0:0,0:0:0:0:
232,258,85433,1,0,0:0:0:0:
232,258,85544,2,0,P|168:288|108:268,1,135.000005149842,2|8,0:0|0:0,0:0:0:0:
408,316,85988,2,0,L|328:204,1,135.000005149842,2|8,0:0|0:0,0:0:0:0:
168,172,86322,1,0,0:0:0:0:
168,172,86433,2,0,L|248:288,1,135.000005149842,2|8,0:0|0:0,0:0:0:0:
388,112,86877,6,0,P|324:88|256:112,1,135.000005149842,2|8,0:0|0:0,0:0:0:0:
320,256,87211,1,0,0:0:0:0:
320,256,87322,2,0,L|320:176,1,67.5000025749208,8|2,0:0|0:0,0:0:0:0:
320,12,87544,2,0,L|320:80,1,67.5000025749208,8|2,0:0|0:0,0:0:0:0:
160,144,87766,2,0,L|240:144,1,67.5000025749208,8|8,0:0|0:0,0:0:0:0:
480,144,87988,2,0,L|400:144,1,67.5000025749208,8|10,0:0|0:0,0:0:0:0:
192,260,88655,5,12,0:0:0:0:
