osu file format v14

[General]
AudioFilename: audio.mp3
AudioLeadIn: 0
PreviewTime: 50877
Countdown: 0
SampleSet: Soft
StackLeniency: 0.7
Mode: 0
LetterboxInBreaks: 0
WidescreenStoryboard: 1

[Editor]
DistanceSpacing: 1.1
BeatDivisor: 4
GridSize: 4
TimelineZoom: 1

[Metadata]
Title:RHAPSODY OF BLUE SKY
TitleUnicode:青空のラプソディ
Artist:fhana
ArtistUnicode:fhána
Creator:[Kamiya]
Version:Hard
Source:小林さんちのメイドラゴン
Tags:kobayashi san chi no maidragon aozora no opening anime maid dragon OblivioN Karen Dynamix imoutosan Pata-Mon gxytcgxytc
BeatmapID:1242688
BeatmapSetID:586841

[Difficulty]
HPDrainRate:6
CircleSize:4
OverallDifficulty:6
ApproachRate:8
SliderMultiplier:1.5
SliderTickRate:1

[Events]
//Background and Video events
0,0,"visual_01_pc.jpg",0,0
Video,0,"video.avi"
//Break Periods
//Storyboard Layer 0 (Background)
//Storyboard Layer 1 (Fail)
//Storyboard Layer 2 (Pass)
//Storyboard Layer 3 (Foreground)
//Storyboard Sound Samples

[TimingPoints]
-678,444.444444444444,4,2,1,60,1,0
1100,-100,4,2,1,60,0,0
17099,-100,4,2,1,60,0,0
33099,-111.111111111111,4,2,1,60,0,0
45544,-100,4,2,1,60,0,0
50877,-90.9090909090909,4,2,1,70,0,1
81099,-100,4,2,1,60,0,0

[Colours]
Combo1 : 128,255,0
Combo2 : 255,128,192
Combo3 : 255,147,38
Combo4 : 38,147,255

[HitObjects]
104,256,1100,6,0,P|176:280|248:256,1,150,8|2,0:0|0:0,0:0:0:0:
320,208,1766,1,0,0:0:0:0:
240,88,1988,2,0,B|232:128|232:128|240:176,1,75,2|0,0:0|0:0,0:0:0:0:
320,208,2433,1,8,0:0:0:0:
384,144,2655,2,0,L|384:96,1,37.5
416,80,2877,6,0,P|440:152|416:232,1,150,2|8,0:0|0:0,0:0:0:0:
376,296,3544,1,0,0:0:0:0:
288,272,3766,2,0,B|248:264|248:264|208:272,1,75,2|0,0:0|0:0,0:0:0:0:
128,288,4211,1,8,0:0:0:0:
128,288,4655,6,0,P|104:216|128:144,1,150,2|8,0:0|0:0,0:0:0:0:
176,72,5322,1,0,0:0:0:0:
304,144,5544,2,0,B|264:152|264:152|224:144,1,75
176,72,5988,1,8,0:0:0:0:
125,147,6211,2,0,L|128:192,1,37.5
136,232,6433,6,0,P|208:256|280:232,1,150,2|8,0:0|0:0,0:0:0:0:
352,184,7099,1,0,0:0:0:0:
320,104,7322,2,0,B|312:56|312:56|320:24,1,75,2|0,0:0|0:0,0:0:0:0:
408,48,7766,1,8,0:0:0:0:
408,48,8211,6,0,P|432:128|408:192,1,150,2|8,0:0|0:0,0:0:0:0:
344,248,8877,1,0,0:0:0:0:
272,384,9099,2,0,B|264:344|264:344|272:304,1,75,2|0,0:0|0:0,0:0:0:0:
344,248,9544,1,8,0:0:0:0:
288,176,9766,2,0,L|240:176,1,37.5
208,184,9988,6,0,P|184:104|208:40,1,150,2|8,0:0|0:0,0:0:0:0:
288,16,10655,1,0,0:0:0:0:
376,40,10877,2,0,B|384:80|384:80|376:120,1,75,2|0,0:0|0:0,0:0:0:0:
344,200,11322,1,8,0:0:0:0:
344,200,11766,6,0,P|264:224|200:200,1,150,2|8,0:0|0:0,0:0:0:0:
104,176,12433,1,0,0:0:0:0:
176,48,12655,2,0,P|184:88|176:120,1,75,2|0,0:0|0:0,0:0:0:0:
104,176,13099,2,8,L|96:224,3,37.5,10|10|8|8,0:0|0:0|0:0|0:0,0:0:0:0:
88,248,13544,5,0,0:0:0:0:
88,248,13655,2,0,P|128:276|164:276,1,75,12|0,0:0|0:0,0:0:0:0:
192,292,13988,2,0,B|232:304|272:280,1,75,12|0,0:0|0:0,0:0:0:0:
304,280,14322,2,0,P|340:256|352:216,1,75,12|0,0:0|0:0,0:0:0:0:
376,192,14655,2,0,P|376:144|360:112,1,75,12|0,0:0|0:0,0:0:0:0:
340,40,15099,1,8,0:0:0:0:
264,72,15322,5,8,0:0:0:0:
264,72,15433,2,0,P|224:88|200:72,1,75,12|0,0:0|0:0,0:0:0:0:
172,44,15766,2,0,P|132:36|100:52,1,75,12|0,0:0|0:0,0:0:0:0:
76,80,16099,2,0,P|60:120|68:152,1,75,12|0,0:0|0:0,0:0:0:0:
80,188,16433,2,0,P|104:228|136:244,1,75,12|0,0:0|0:0,0:0:0:0:
208,260,16877,1,2,0:0:0:0:
288,236,17099,6,0,P|328:220|368:236,1,75,8|0,0:0|0:0,0:0:0:0:
432,264,17544,1,2,0:0:0:0:
456,120,17766,1,8,0:0:0:0:
456,120,17877,2,0,P|416:128|384:112,1,75
348,96,18211,2,0,P|308:88|268:104,1,75,8|0,0:0|0:0,0:0:0:0:
192,104,18655,6,0,L|160:144,1,37.5,8|0,0:0|0:0,0:0:0:0:
132,156,18877,2,0,B|116:116|116:116|116:76,1,75,0|8,0:0|0:0,0:0:0:0:
32,80,19322,1,2,0:0:0:0:
32,80,19433,2,0,L|32:160,1,75,8|8,0:0|0:0,0:0:0:0:
32,196,19766,2,0,P|48:244|72:260,1,75,2|8,0:0|0:0,0:0:0:0:
148,276,20211,2,0,P|148:228|124:196,1,75,0|8,0:0|0:0,0:0:0:0:
112,344,20655,6,0,P|144:356|184:348,1,75,0|8,0:0|0:0,0:0:0:0:
256,312,21099,2,0,P|304:304|328:312,1,75,0|8,0:0|0:0,0:0:0:0:
368,324,21433,2,0,B|384:284|384:284|376:244,1,75
376,216,21766,1,8,0:0:0:0:
456,236,21988,1,0,0:0:0:0:
360,104,22211,6,0,L|320:120,1,37.5,8|0,0:0|0:0,0:0:0:0:
284,128,22433,2,0,P|236:136|204:120,1,75,0|8,0:0|0:0,0:0:0:0:
176,112,22766,1,2,0:0:0:0:
144,140,22877,2,0,P|124:140|104:132,2,37.5,2|2|8,0:0|0:0|0:0,0:0:0:0:
132,180,23211,2,0,P|124:228|140:260,1,75
156,288,23544,1,8,0:0:0:0:
312,216,23766,5,2,0:0:0:0:
216,216,23988,1,8,0:0:0:0:
376,288,24211,6,0,P|400:256|408:208,1,75,0|8,0:0|0:0,0:0:0:0:
408,140,24655,2,0,P|392:92|352:68,1,75,2|8,0:0|0:0,0:0:0:0:
332,80,24988,2,0,P|292:88|260:80,1,75
220,72,25322,1,8,0:0:0:0:
148,32,25544,1,2,0:0:0:0:
116,108,25766,6,0,L|108:172,1,37.5,8|0,0:0|0:0,0:0:0:0:
104,184,25988,2,0,P|104:232|128:264,1,75,2|8,0:0|0:0,0:0:0:0:
200,268,26433,2,0,P|240:260|280:268,1,75,2|8,0:0|0:0,0:0:0:0:
312,284,26766,2,0,P|352:292|392:284,1,75
424,272,27099,1,8,0:0:0:0:
448,192,27322,2,0,L|408:104,1,75,2|8,0:0|0:0,0:0:0:0:
352,72,27766,6,0,P|304:64|272:72,1,75,2|8,0:0|0:0,0:0:0:0:
200,92,28211,2,0,P|152:100|128:92,1,75,2|8,0:0|0:0,0:0:0:0:
88,80,28544,2,0,P|72:120|80:160,1,75
88,192,28877,1,8,0:0:0:0:
144,252,29099,1,2,0:0:0:0:
216,292,29322,2,0,L|264:316,1,37.5,8|0,0:0|0:0,0:0:0:0:
288,324,29544,6,0,P|320:292|328:260,1,75,2|8,0:0|0:0,0:0:0:0:
328,224,29877,2,0,P|376:216|400:224,1,75
440,240,30211,1,8,0:0:0:0:
440,240,30322,2,0,L|424:152,1,75
416,128,30655,1,8,0:0:0:0:
496,136,30877,1,2,0:0:0:0:
320,32,31099,5,8,0:0:0:0:
320,32,31322,2,0,P|272:40|240:32,1,75,0|8,0:0|0:0,0:0:0:0:
204,36,31655,1,2,0:0:0:0:
172,64,31766,2,0,P|152:60|136:48,2,37.5,2|2|8,0:0|0:0|0:0,0:0:0:0:
164,104,32099,2,0,P|148:144|172:216,1,112.5,0|8,0:0|0:0,0:0:0:0:
248,196,32655,2,0,B|288:180|288:180|336:196,1,75,0|8,0:0|0:0,0:0:0:0:
392,220,33099,5,6,0:0:0:0:
400,300,33322,1,2,0:0:0:0:
468,256,33544,2,0,P|492:192|476:128,1,134.999995880127,8|0,0:0|0:0,0:0:0:0:
428,64,34211,1,2,0:0:0:0:
352,96,34433,6,0,P|280:112|216:96,1,134.999995880127,8|0,0:0|0:0,0:0:0:0:
148,64,35099,1,2,0:0:0:0:
84,116,35322,2,0,B|68:180|68:180|76:252,1,134.999995880127,8|0,0:0|0:0,0:0:0:0:
80,328,35988,1,2,0:0:0:0:
156,296,36211,2,0,P|196:288|228:296,1,67.4999979400635,8|0,0:0|0:0,0:0:0:0:
300,312,36655,1,4,0:0:0:0:
336,384,36877,1,2,0:0:0:0:
380,316,37099,6,0,B|396:244|396:244|388:180,1,134.999995880127,8|0,0:0|0:0,0:0:0:0:
368,104,37766,1,2,0:0:0:0:
308,52,37988,2,0,P|228:36|172:52,1,134.999995880127,8|0,0:0|0:0,0:0:0:0:
104,84,38655,1,2,0:0:0:0:
52,144,38877,2,0,L|44:216,1,67.4999979400635,8|0,0:0|0:0,0:0:0:0:
68,288,39322,6,2,L|116:296,3,33.7499989700318
132,268,39766,2,0,L|188:276,3,33.7499989700318,8|2|2|2,0:0|0:0|0:0|0:0,0:0:0:0:
204,280,40211,2,0,B|244:280|244:280|284:296,1,67.4999979400635,2|0,0:0|0:0,0:0:0:0:
344,316,40655,2,0,P|360:244|344:180,1,134.999995880127,8|0,0:0|0:0,0:0:0:0:
308,112,41322,1,2,0:0:0:0:
236,152,41544,2,0,P|204:160|172:152,1,67.4999979400635,8|0,0:0|0:0,0:0:0:0:
164,72,41988,6,0,P|140:136|156:200,1,134.999995880127,2|8,0:0|0:0,0:0:0:0:
204,264,42655,2,0,P|244:256|284:264,2,67.4999979400635,0|2|0,0:0|0:0|0:0,0:0:0:0:
124,280,43322,2,0,L|108:312,2,33.7499989700318,8|0|0,0:0|0:0|0:0,0:0:0:0:
190,176,43766,6,0,P|182:136|190:104,1,67.4999979400635,2|0,0:0|0:0,0:0:0:0:
232,40,44211,1,8,0:0:0:0:
272,112,44433,1,0,0:0:0:0:
188,111,44655,2,0,P|148:119|124:111,2,67.4999979400635,2|0|8,0:0|0:0|0:0,0:0:0:0:
232,40,45322,1,0,0:0:0:0:
320,48,45544,5,0,0:0:0:0:
320,48,45655,2,0,P|336:96|328:120,1,75,12|0,0:0|0:0,0:0:0:0:
300,148,45988,2,0,P|284:196|300:236,1,75,12|0,0:0|0:0,0:0:0:0:
292,260,46322,2,0,B|260:292|220:284,1,75,12|0,0:0|0:0,0:0:0:0:
184,288,46655,5,12,0:0:0:0:
128,228,46877,2,8,P|88:220|56:228,1,75
8,320,47322,5,0,0:0:0:0:
8,320,47433,2,0,L|16:232,1,75,12|0,0:0|0:0,0:0:0:0:
55,228,47766,2,0,L|63:140,1,75,12|0,0:0|0:0,0:0:0:0:
56,112,48099,2,0,P|88:88|136:96,1,75,12|0,0:0|0:0,0:0:0:0:
164,100,48433,5,12,0:0:0:0:
252,176,48655,2,0,L|268:216,3,37.5,8|2|2|2,0:0|0:0|0:0|0:0,0:0:0:0:
288,248,49099,6,0,P|316:220|360:220,1,75,8|0,0:0|0:0,0:0:0:0:
392,224,49433,2,0,P|384:268|404:304,1,75,8|0,0:0|0:0,0:0:0:0:
404,336,49766,2,0,B|356:352|324:328|324:328|284:352|252:336,1,150,8|0,0:0|0:0,0:0:0:0:
160,260,50433,1,2,0:0:0:0:
160,260,50544,1,2,0:0:0:0:
160,260,50655,1,8,0:0:0:0:
160,260,50766,1,8,0:0:0:0:
160,260,50877,6,0,P|136:196|156:140,1,123.75000377655,6|0,0:0|0:0,0:0:0:0:
200,153,51322,2,0,P|232:169|284:169,1,82.5000025177003,8|0,0:0|0:0,0:0:0:0:
288,56,51766,2,0,P|264:120|288:184,1,123.75000377655,2|0,0:0|0:0,0:0:0:0:
312,208,52211,2,0,P|352:236|392:244,1,82.5000025177003,8|0,0:0|0:0,0:0:0:0:
464,168,52655,6,0,P|416:184|384:256,1,123.75000377655,2|0,0:0|0:0,0:0:0:0:
380,296,53099,2,0,P|332:312|300:304,1,82.5000025177003,8|0,0:0|0:0,0:0:0:0:
208,280,53544,1,2,0:0:0:0:
208,280,53655,2,0,P|160:272|128:280,1,82.5000025177003,8|0,0:0|0:0,0:0:0:0:
112,328,53988,2,0,L|88:248,1,82.5000025177003,8|0,0:0|0:0,0:0:0:0:
64,152,54433,6,0,P|112:136|184:152,1,123.75000377655,10|0,0:0|0:0,0:0:0:0:
224,168,54877,2,0,P|240:128|232:88,1,82.5000025177003,8|0,0:0|0:0,0:0:0:0:
304,160,55322,2,0,P|256:192|232:256,1,123.75000377655,10|0,0:0|0:0,0:0:0:0:
232,304,55766,2,0,P|256:344|288:360,1,82.5000025177003,8|0,0:0|0:0,0:0:0:0:
392,320,56211,6,0,P|416:272|400:192,1,123.75000377655,2|0,0:0|0:0,0:0:0:0:
376,168,56655,2,0,P|360:128|368:88,1,82.5000025177003,8|0,0:0|0:0,0:0:0:0:
400,56,56988,1,8,0:0:0:0:
400,56,57099,2,0,L|312:40,1,82.5000025177003,8|0,0:0|0:0,0:0:0:0:
232,92,57544,2,8,L|224:132,3,41.2500012588501
208,180,57988,6,0,P|128:204|88:188,1,123.75000377655,2|0,0:0|0:0,0:0:0:0:
52,164,58433,2,0,P|28:204|28:244,1,82.5000025177003,8|0,0:0|0:0,0:0:0:0:
104,320,58877,2,0,P|192:336|224:320,1,123.75000377655,2|0,0:0|0:0,0:0:0:0:
256,288,59322,2,0,P|296:280|336:288,1,82.5000025177003,8|0,0:0|0:0,0:0:0:0:
432,312,59766,6,0,P|464:240|456:192,1,123.75000377655,2|0,0:0|0:0,0:0:0:0:
432,152,60211,2,0,P|408:112|376:96,1,82.5000025177003,8|0,0:0|0:0,0:0:0:0:
280,72,60655,1,2,0:0:0:0:
280,72,60766,2,0,L|192:64,1,82.5000025177003,8|0,0:0|0:0,0:0:0:0:
152,40,61099,2,0,P|136:80|144:120,1,82.5000025177003,8|0,0:0|0:0,0:0:0:0:
216,184,61544,6,0,P|160:232|104:232,1,123.75000377655,2|0,0:0|0:0,0:0:0:0:
64,216,61988,2,0,P|32:184|32:144,1,82.5000025177003,8|0,0:0|0:0,0:0:0:0:
49,44,62433,2,0,P|129:28|177:44,1,123.75000377655,2|0,0:0|0:0,0:0:0:0:
216,56,62877,2,0,P|264:72|296:64,1,82.5000025177003,8|0,0:0|0:0,0:0:0:0:
384,24,63321,5,8,0:0:0:0:
468,76,63544,1,2,0:0:0:0:
468,76,63655,2,0,P|424:92|404:128,1,82.5000025177003,8|0,0:0|0:0,0:0:0:0:
388,164,63988,1,8,0:0:0:0:
340,68,64210,2,2,L|324:108,3,41.2500012588501
312,140,64655,2,8,L|296:180,3,41.2500012588501
264,216,65099,6,0,P|208:232|144:216,1,123.75000377655,2|0,0:0|0:0,0:0:0:0:
112,184,65544,2,0,P|72:176|32:184,1,82.5000025177003,8|0,0:0|0:0,0:0:0:0:
48,280,65988,2,0,P|80:336|144:352,1,123.75000377655,2|0,0:0|0:0,0:0:0:0:
184,344,66433,2,0,P|224:336|264:344,1,82.5000025177003,8|0,0:0|0:0,0:0:0:0:
360,376,66877,6,0,P|384:336|392:256,1,123.75000377655,2|0,0:0|0:0,0:0:0:0:
376,216,67322,2,0,P|360:176|320:144,1,82.5000025177003,8|0,0:0|0:0,0:0:0:0:
280,64,67766,1,2,0:0:0:0:
280,64,67877,2,0,L|248:144,1,82.5000025177003,8|0,0:0|0:0,0:0:0:0:
224,184,68211,2,0,P|176:192|144:160,1,82.5000025177003,8|0,0:0|0:0,0:0:0:0:
88,108,68655,6,0,P|64:176|80:224,1,123.75000377655,2|0,0:0|0:0,0:0:0:0:
112,256,69099,2,0,P|152:280|200:272,1,82.5000025177003,8|0,0:0|0:0,0:0:0:0:
272,224,69544,2,0,P|328:208|392:224,1,123.75000377655,2|0,0:0|0:0,0:0:0:0:
432,256,69988,2,0,P|472:272|512:256,1,82.5000025177003,8|0,0:0|0:0,0:0:0:0:
456,136,70433,6,0,P|408:120|336:136,1,123.75000377655,2|0,0:0|0:0,0:0:0:0:
288,152,70877,1,8,0:0:0:0:
296,24,71099,1,2,0:0:0:0:
296,24,71211,1,8,0:0:0:0:
296,24,71322,2,8,L|248:32,3,41.2500012588501,2|2|8|8,0:0|0:0|0:0|0:0,0:0:0:0:
208,40,71766,2,0,L|184:136,1,82.5000025177003,2|8,0:0|0:0,0:0:0:0:
176,168,72099,1,2,0:0:0:0:
152,216,72211,6,0,P|96:232|32:208,1,123.75000377655,2|0,0:0|0:0,0:0:0:0:
35,211,72655,2,0,P|19:259|27:291,1,82.5000025177003,8|0,0:0|0:0,0:0:0:0:
104,336,73099,2,0,P|160:360|224:344,1,123.75000377655,2|0,0:0|0:0,0:0:0:0:
219,346,73544,2,0,P|227:306|211:266,1,82.5000025177003,8|0,0:0|0:0,0:0:0:0:
147,163,73988,6,0,L|279:179,1,123.75000377655,2|0,0:0|0:0,0:0:0:0:
270,178,74433,2,0,P|272:136|256:92,1,82.5000025177003,8|0,0:0|0:0,0:0:0:0:
348,124,74877,2,0,P|396:132|436:124,2,82.5000025177003,2|8|2,0:0|0:0|0:0,0:0:0:0:
216,232,75544,1,2,0:0:0:0:
216,232,75655,1,2,0:0:0:0:
216,232,75766,6,0,P|232:183|224:151,1,82.5000025177003,8|0,0:0|0:0,0:0:0:0:
140,104,76210,2,0,L|176:68,2,41.2500012588501,2|8|0,0:0|0:0|0:0,0:0:0:0:
112,136,76544,2,0,P|96:176|104:216,1,82.5000025177003,8|0,0:0|0:0,0:0:0:0:
136,248,76877,2,0,P|152:288|136:328,1,82.5000025177003,8|0,0:0|0:0,0:0:0:0:
56,376,77322,1,2,0:0:0:0:
139,323,77544,6,0,P|187:307|227:323,1,82.5000025177003,8|8,0:0|0:0,0:0:0:0:
316,312,77988,2,0,L|304:356,2,41.2500012588501,2|8|0,0:0|0:0|0:0,0:0:0:0:
336,272,78322,2,0,P|352:224|336:184,1,82.5000025177003,8|2,0:0|0:0,0:0:0:0:
312,160,78655,2,0,P|296:112|312:80,1,82.5000025177003,8|2,0:0|0:0,0:0:0:0:
384,36,79099,1,2,0:0:0:0:
292,44,79321,6,0,L|200:56,1,82.5000025177003,8|0,0:0|0:0,0:0:0:0:
116,160,79766,2,0,L|140:116,2,41.2500012588501,2|8|0,0:0|0:0|0:0,0:0:0:0:
112,208,80099,2,0,P|168:232|232:208,1,123.75000377655,8|0,0:0|0:0,0:0:0:0:
336,96,80655,1,8,0:0:0:0:
352,128,80766,1,8,0:0:0:0:
368,160,80877,1,8,0:0:0:0:
384,192,80988,1,8,0:0:0:0:
400,224,81099,6,0,L|480:360,1,150,12|0,0:0|0:0,0:0:0:0:
296,328,81988,2,0,L|219:198,1,150,2|0,0:0|0:0,0:0:0:0:
180,128,82655,1,0,0:0:0:0:
180,128,82877,6,0,P|260:104|332:128,1,150,2|0,0:0|0:0,0:0:0:0:
320,288,83766,2,0,P|249:311|178:294,1,150,2|2,0:0|0:0,0:0:0:0:
128,228,84433,1,8,0:0:0:0:
128,228,84544,1,8,0:0:0:0:
128,228,84655,6,0,P|120:180|128:148,1,75,2|8,0:0|0:0,0:0:0:0:
212,156,85099,2,0,P|220:196|212:236,1,75,2|8,0:0|0:0,0:0:0:0:
224,272,85433,1,0,0:0:0:0:
224,272,85544,2,0,P|216:320|224:352,1,75,0|8,0:0|0:0,0:0:0:0:
304,344,85988,6,0,L|384:336,1,75,2|8,0:0|0:0,0:0:0:0:
420,332,86322,1,0,0:0:0:0:
420,332,86433,2,0,P|432:292|420:252,1,75,0|8,0:0|0:0,0:0:0:0:
352,220,86877,2,0,P|344:260|352:292,1,75,2|8,0:0|0:0,0:0:0:0:
448,124,87321,6,8,L|404:128,3,37.5
380,100,87766,2,8,L|328:104,3,37.5
256,292,88655,5,4,0:0:0:0:
