osu file format v14

[General]
AudioFilename: audio.mp3
AudioLeadIn: 0
PreviewTime: 114287
Countdown: 0
SampleSet: Soft
StackLeniency: 0.7
Mode: 0
LetterboxInBreaks: 0
EpilepsyWarning: 1
WidescreenStoryboard: 1

[Editor]
DistanceSpacing: 2
BeatDivisor: 4
GridSize: 4
TimelineZoom: 3.299999

[Metadata]
Title:Outside of Melancholy ~Yuuutsu no Mukougawa~
TitleUnicode:Outside of Melancholy 〜憂鬱の向こう側〜
Artist:fhana
ArtistUnicode:fhána
Creator:Sotarks
Version:Melancholy
Source:
Tags:lantis Junichi Sato yuxuki waga kevin mitsunaga towana zerss
BeatmapID:1205029
BeatmapSetID:568455

[Difficulty]
HPDrainRate:6.2
CircleSize:4.2
OverallDifficulty:8.7
ApproachRate:9.3
SliderMultiplier:2.24
SliderTickRate:1

[Events]
//Background and Video events
0,0,"melancholy.jpg",0,0
//Break Periods
2,114350,119276
//Storyboard Layer 0 (Background)
//Storyboard Layer 1 (Fail)
//Storyboard Layer 2 (Pass)
//Storyboard Layer 3 (Foreground)
Sprite,Foreground,Centre,"SB\highlight.png",192,263 F,2,107182,107232,0,1 C,0,107232,,23,123,53 M,0,107232,107295,192,263,206.4403,261.1367 F,2,107232,108359,1,0 P,0,107232,108359,A M,0,107295,107359,206.4403,261.1367,220.8806,259.2735 S,18,107359,108359,1,0.2
Sprite,Foreground,Centre,"SB\highlight.png",334,299 F,2,107436,107486,0,1 C,0,107486,,23,123,53 M,0,107486,107549,334,299,316.7884,296.7353 F,2,107486,108613,1,0 P,0,107486,108613,A M,0,107549,107613,316.7884,296.7353,299.5767,294.4706 S,18,107613,108613,1,0.2
Sprite,Foreground,Centre,"SB\highlight.png",171,238 F,2,107690,107740,0,1 C,0,107740,,214,227,228 M,0,107740,107803,171,238,190.9574,235.1489 F,2,107740,108867,1,0 P,0,107740,108867,A M,0,107803,107867,190.9574,235.1489,210.9148,232.2979 S,18,107867,108867,1,0.2
Sprite,Foreground,Centre,"SB\highlight.png",358,270 F,2,107944,107994,0,1 C,0,107994,,214,227,228 M,0,107994,108057,358,270,335.34,266.3004 F,2,107994,109121,1,0 P,0,107994,109121,A M,0,108057,108121,335.34,266.3004,312.6801,262.6008 S,18,108121,109121,1,0.2
Sprite,Foreground,Centre,"SB\highlight.png",150,208 F,2,108199,108249,0,1 C,0,108249,,23,123,53 M,0,108249,108312,150,208,175.4841,204.2401 F,2,108249,109376,1,0 P,0,108249,109376,A M,0,108312,108376,175.4841,204.2401,200.9682,200.4801 S,18,108376,109376,1,0.2
Sprite,Foreground,Centre,"SB\highlight.png",374,241 F,2,108453,108503,0,1 C,0,108503,,23,123,53 M,0,108503,108566,374,241,345.7721,236.6572 F,2,108503,109630,1,0 P,0,108503,109630,A M,0,108566,108630,345.7721,236.6572,317.5442,232.3145 S,18,108630,109630,1,0.2
Sprite,Foreground,Centre,"SB\highlight.png",245,105 F,2,108707,108757,0,1 C,0,108757,,214,227,228 M,0,108757,108820,245,105,260.5721,132.1723 F,2,108757,109884,1,0 P,0,108757,109884,A M,0,108820,108884,260.5721,132.1723,272.1414,161.2738 S,18,108884,109884,1,0.2
Sprite,Foreground,Centre,"SB\highlight.png",289,294 F,2,108961,109011,0,1 C,0,109011,,214,227,228 M,0,109011,109074,289,294,304.3059,263.4773 F,2,109011,110138,1,0 P,0,109011,110138,A M,0,109074,109138,304.3059,263.4773,316.7539,231.682 S,18,109138,110138,1,0.2
Sprite,Foreground,Centre,"SB\highlight.png",335,88 F,2,109216,109266,0,1 C,0,109266,,23,123,53 M,0,109266,109329,335,88,343.9951,123.7729 F,2,109266,110393,1,0 P,0,109266,110393,A M,0,109329,109393,343.9951,123.7729,346.0428,160.6043 S,18,109393,110393,1,0.2
Sprite,Foreground,Centre,"SB\highlight.png",304,325 F,2,109470,109520,0,1 C,0,109520,,23,123,53 M,0,109520,109583,304,325,329.7883,294.7684 F,2,109520,110647,1,0 P,0,109520,110647,A M,0,109583,109647,329.7883,294.7684,352.3529,262.06 S,18,109647,110647,1,0.2
Sprite,Foreground,Centre,"SB\highlight.png",422,120 F,2,109724,109774,0,1 C,0,109774,,214,227,228 M,0,109774,109837,422,120,421.5644,162.4849 F,2,109774,110901,1,0 P,0,109774,110901,A M,0,109837,109901,421.5644,162.4849,413.7659,204.2481 S,18,109901,110901,1,0.2
Sprite,Foreground,Centre,"SB\highlight.png",322,353 F,2,109978,110028,0,1 C,0,110028,,214,227,228 M,0,110028,110091,322,353,358.7695,326.4892 F,2,110028,111155,1,0 P,0,110028,111155,A M,0,110091,110155,358.7695,326.4892,392.2322,295.9167 S,18,110155,111155,1,0.2
Sprite,Foreground,Centre,"SB\highlight.png",508,190 F,2,110233,110283,0,1 C,0,110283,,23,123,53 M,0,110283,110346,508,190,460.0154,190.7148 F,2,110283,111410,1,0 P,0,110283,111410,A M,0,110346,110410,460.0154,190.7148,413.856,203.832 S,18,110410,111410,1,0.2
Sprite,Foreground,Centre,"SB\highlight.png",213,253 F,2,110487,110537,0,1 C,0,110537,,23,123,53 M,0,110537,110600,213,253,260.9846,253.7148 F,2,110537,111664,1,0 P,0,110537,111664,A M,0,110600,110664,260.9846,253.7148,307.144,266.832 S,18,110664,111664,1,0.2
Sprite,Foreground,Centre,"SB\highlight.png",440,122 F,2,110741,110791,0,1 C,0,110791,,214,227,228 M,0,110791,110854,440,122,393.7044,134.5777 F,2,110791,111918,1,0 P,0,110791,111918,A M,0,110854,110918,393.7044,134.5777,352.549,159.2248 S,18,110918,111918,1,0.2
Sprite,Foreground,Centre,"SB\highlight.png",166,297 F,2,110995,111045,0,1 C,0,111045,,214,227,228 M,0,111045,111108,166,297,212.3134,284.5096 F,2,111045,112172,1,0 P,0,111045,112172,A M,0,111108,111172,212.3134,284.5096,260.2723,285.2191 S,18,111172,112172,1,0.2
Sprite,Foreground,Centre,"SB\highlight.png",294,71 F,2,111250,111300,0,1 C,0,111300,,23,123,53 M,0,111300,111363,294,71,283.0419,120.7679 F,2,111300,112427,1,0 P,0,111300,112427,A M,0,111363,111427,283.0419,120.7679,272.0839,170.5358 S,18,111427,112427,1,0.2
Sprite,Foreground,Centre,"SB\highlight.png",357,352 F,2,111504,111554,0,1 C,0,111554,,23,123,53 M,0,111554,111617,357,352,346.0506,302.2302 F,2,111554,112681,1,0 P,0,111554,112681,A M,0,111617,111681,346.0506,302.2302,335.1013,252.4604 S,18,111681,112681,1,0.2
Sprite,Foreground,Centre,"SB\highlight.png",149,123 F,2,111758,111808,0,1 C,0,111808,,214,227,228 M,0,111808,111871,149,123,176.4183,165.9553 F,2,111808,112935,1,0 P,0,111808,112935,A M,0,111871,111935,176.4183,165.9553,203.8366,208.9106 S,18,111935,112935,1,0.2
Sprite,Foreground,Centre,"SB\highlight.png",478,258 F,2,112012,112062,0,1 C,0,112062,,214,227,228 M,0,112062,112125,478,258,435.0688,230.544 F,2,112062,113189,1,0 P,0,112062,113189,A M,0,112125,112189,435.0688,230.544,392.1376,203.088 S,18,112189,113189,1,0.2
Sprite,Foreground,Centre,"SB\highlight.png",80,261 F,2,112267,112317,0,1 C,0,112317,,23,123,53 M,0,112317,112380,80,261,132.2755,273.5461 F,2,112317,113444,1,0 P,0,112317,113444,A M,0,112380,112444,132.2755,273.5461,184.5511,286.0923 S,18,112444,113444,1,0.2
Sprite,Foreground,Centre,"SB\highlight.png",472,106 F,2,112521,112571,0,1 C,0,112571,,23,123,53 M,0,112571,112634,472,106,419.5537,117.8122 F,2,112571,113698,1,0 P,0,112571,113698,A M,0,112634,112698,419.5537,117.8122,367.1075,129.6244 S,18,112698,113698,1,0.2
Sprite,Foreground,Centre,"SB\highlight.png",159,422 F,2,112775,112825,0,1 C,0,112825,,214,227,228 M,0,112825,112888,159,422,206.7238,397.3248 F,2,112825,113952,1,0 P,0,112825,113952,A M,0,112888,112952,206.7238,397.3248,251.2869,367.3196 S,18,112952,113952,1,0.2
Sprite,Foreground,Centre,"SB\highlight.png",313,56 F,2,113029,113079,0,1 C,0,113079,,214,227,228 M,0,113079,113142,313,56,279.0694,97.55283 F,2,113079,114206,1,0 P,0,113079,114206,A M,0,113142,113206,279.0694,97.55283,254.5052,145.2452 S,18,113206,114206,1,0.2
Sprite,Foreground,Centre,"SB\highlight.png",280,206 F,2,119780,119830,0,1 C,0,119830,,214,227,228 M,0,119830,119893,280,206,275.8268,169.2764 F,2,119830,120957,1,0 P,0,119830,120957,A M,0,119893,119957,275.8268,169.2764,280,206 S,18,119957,120957,1,0.2
Sprite,Foreground,Centre,"SB\highlight.png",309,375 F,2,120034,120084,0,1 C,0,120084,,214,227,228 F,2,120084,121084,1,0 S,18,120084,121084,1,0.2 P,0,120084,121084,A
Sprite,Foreground,Centre,"SB\highlight.png",254,282 F,2,120161,120211,0,1 C,0,120211,,214,227,228 M,0,120211,120274,254,282,289.5435,289.1363 F,2,120211,121338,1,0 P,0,120211,121338,A M,0,120274,120338,289.5435,289.1363,323.1251,275.4664 S,18,120338,121338,1,0.2
Sprite,Foreground,Centre,"SB\highlight.png",536,172 F,2,120415,120465,0,1 C,0,120465,,138,172,183 M,0,120465,120528,536,172,494.4494,162.9143 F,2,120465,121592,1,0 P,0,120465,121592,A M,0,120528,120592,494.4494,162.9143,452.1588,158.4382 S,18,120592,121592,1,0.2
Sprite,Foreground,Centre,"SB\highlight.png",280,206 F,2,120669,120719,0,1 C,0,120719,,138,172,183 F,2,120719,121719,1,0 S,18,120719,121719,1,0.2 P,0,120719,121719,A
Sprite,Foreground,Centre,"SB\highlight.png",99,122 F,2,120796,120846,0,1 C,0,120846,,170,193,172 M,0,120846,120909,99,122,137.475,104.2203 F,2,120846,122036,1,0 P,0,120846,122036,A M,0,120909,120973,137.475,104.2203,179.4329,98.40173 M,0,120973,121036,179.4329,98.40173,221.2558,105.0354 S,18,121036,122036,1,0.2
Sprite,Foreground,Centre,"SB\highlight.png",222,126 F,2,121051,121101,0,1 C,0,121101,,170,193,172 M,0,121101,121164,222,126,180.1023,119.4966 F,2,121101,122291,1,0 P,0,121101,122291,A M,0,121164,121228,180.1023,119.4966,138.1593,125.6984 M,0,121228,121291,138.1593,125.6984,100,144 S,18,121291,122291,1,0.2
Sprite,Foreground,Centre,"SB\highlight.png",86,182 F,2,121305,121355,0,1 C,0,121355,,170,193,172 M,0,121355,121418,86,182,123.3307,161.7863 F,2,121355,122609,1,0 P,0,121355,122609,A M,0,121418,121482,123.3307,161.7863,164.351,150.9 M,0,121482,121545,164.351,150.9,206.7711,149.9436 M,0,121545,121609,206.7711,149.9436,248.2243,158.9669 S,18,121609,122609,1,0.2
Sprite,Foreground,Centre,"SB\highlight.png",383,258 F,2,121686,121736,0,1 C,0,121736,,138,172,183 M,0,121736,121799,383,258,340.7856,253.5527 F,2,121736,122863,1,0 P,0,121736,122863,A M,0,121799,121863,340.7856,253.5527,298.6983,259.0607 S,18,121863,122863,1,0.2
Sprite,Foreground,Centre,"SB\highlight.png",109,319 F,2,121941,121991,0,1 C,0,121991,,138,172,183 M,0,121991,122054,109,319,151.2144,314.5527 F,2,121991,123118,1,0 P,0,121991,123118,A M,0,122054,122118,151.2144,314.5527,193.3017,320.0606 S,18,122118,123118,1,0.2
Sprite,Foreground,Centre,"SB\highlight.png",342,334 F,2,122194,122244,0,1 C,0,122244,,214,227,228 F,2,122244,123244,1,0 S,18,122244,123244,1,0.2 P,0,122244,123244,A
Sprite,Foreground,Centre,"SB\highlight.png",148,393 F,2,122322,122372,0,1 C,0,122372,,214,227,228 F,2,122372,123372,1,0 S,18,122372,123372,1,0.2 P,0,122372,123372,A
//Storyboard Sound Samples

[TimingPoints]
935,521.739130434783,4,2,2,32,1,0
935,-192.307692307692,4,2,2,32,0,0
13456,555.555555555556,4,2,2,32,1,0
13456,-192.307692307692,4,2,2,32,0,0
15708,681.818181818182,4,2,2,32,1,0
15708,-192.307692307692,4,2,2,32,0,0
16389,-192.307692307693,4,2,2,32,0,0
17044,750,4,2,2,32,1,0
17044,-192.307692307692,4,2,2,32,0,0
18708,508.474576271186,4,2,22,82,1,0
18708,-65.7894736842105,4,2,22,82,0,0
18771,-65.7894736842105,4,2,2,62,0,0
22780,508.474576271186,4,2,2,72,1,0
22780,-61.7283950617284,4,2,2,72,0,0
23669,-192.307692307692,4,2,2,62,0,0
25195,-138.888888888889,4,2,2,42,0,0
25830,508.474576271186,4,2,2,52,1,0
25830,-98.0392156862745,4,2,2,52,0,0
56338,-75.7575757575758,4,2,69,62,0,1
56402,-75.7575757575758,4,2,2,62,0,1
70575,-75.7575757575758,4,2,2,62,0,0
72609,-75.7575757575758,4,2,69,62,0,1
72674,-75.7575757575758,4,2,2,62,0,1
84813,-75.7575757575758,4,2,2,62,0,0
86855,508.474576271186,4,2,2,62,1,0
86855,-75.7575757575758,4,2,2,62,0,0
88913,508.474576271186,4,2,69,62,1,1
88913,-65.7894736842105,4,2,69,62,0,1
88976,-65.7894736842105,4,2,2,62,0,1
92995,508.474576271186,4,2,2,62,1,1
92995,-65.7894736842105,4,2,2,62,0,1
95028,-75.7575757575758,4,2,2,62,0,0
103164,-70.4225352112676,4,2,2,62,0,0
107232,-192.307692307692,4,2,69,42,0,0
107295,-192.307692307692,4,2,2,32,0,0
107359,-192.307692307692,4,2,2,12,0,0
107486,-161.290322580645,4,2,2,32,0,0
107613,-161.290322580645,4,2,2,12,0,0
107740,-138.888888888889,4,2,2,42,0,0
107867,-138.888888888889,4,2,2,12,0,0
107994,-121.951219512195,4,2,2,42,0,0
108122,-121.951219512195,4,2,2,12,0,0
108249,-108.695652173913,4,2,2,42,0,0
108376,-108.695652173913,4,2,2,12,0,0
108503,-98.0392156862745,4,2,2,42,0,0
108630,-98.0392156862745,4,2,2,12,0,0
108757,-89.2857142857143,4,2,2,52,0,0
108884,-89.2857142857143,4,2,2,12,0,0
109011,-81.9672131147541,4,2,2,52,0,0
109139,-81.9672131147541,4,2,2,12,0,0
109266,-75.7575757575758,4,2,2,52,0,0
109393,-75.7575757575758,4,2,2,12,0,0
109520,-70.4225352112676,4,2,2,52,0,0
109647,-70.4225352112676,4,2,2,12,0,0
109774,-65.7894736842105,4,2,2,62,0,0
109901,-65.7894736842105,4,2,2,12,0,0
110028,-61.7283950617284,4,2,2,62,0,0
110156,-61.7283950617284,4,2,2,12,0,0
110283,-58.1395348837209,4,2,2,62,0,0
110410,-58.1395348837209,4,2,2,12,0,0
110537,-58.1395348837209,4,2,2,62,0,0
110664,-58.1395348837209,4,2,2,12,0,0
110791,-58.1395348837209,4,2,2,72,0,0
110918,-58.1395348837209,4,2,2,12,0,0
111045,-58.1395348837209,4,2,2,72,0,0
111172,-58.1395348837209,4,2,2,12,0,0
111300,-54.9450549450549,4,2,2,72,0,0
111427,-54.9450549450549,4,2,2,12,0,0
111554,-54.9450549450549,4,2,2,72,0,0
111681,-54.9450549450549,4,2,2,12,0,0
111808,-54.9450549450549,4,2,2,72,0,0
111935,-54.9450549450549,4,2,2,12,0,0
112062,-54.9450549450549,4,2,2,72,0,0
112189,-54.9450549450549,4,2,2,12,0,0
112317,-52.0833333333333,4,2,2,82,0,0
112444,-52.0833333333333,4,2,2,12,0,0
112571,-52.0833333333333,4,2,2,82,0,0
112698,-52.0833333333333,4,2,2,12,0,0
112825,-52.0833333333333,4,2,2,92,0,0
112952,-52.0833333333333,4,2,2,12,0,0
113079,-52.0833333333333,4,2,2,92,0,0
113206,-52.0833333333333,4,2,2,12,0,0
119830,508.474576271186,4,2,2,52,1,0
119830,-75.7575757575758,4,2,2,52,0,0
120465,508.474576271186,4,2,2,52,1,0
120465,-65.7894736842105,4,2,2,52,0,0
121037,-65.7894736842105,4,2,2,5,0,0
121100,-65.7894736842105,4,2,2,52,0,0
121291,-65.7894736842105,4,2,2,5,0,0
121354,-65.7894736842105,4,2,2,52,0,0
122498,-75.7575757575758,4,2,69,72,0,1
122562,-75.7575757575758,4,2,2,62,0,1
126566,-75.7575757575758,4,2,2,62,0,0
130634,-75.7575757575758,4,2,69,62,0,1
130698,-75.7575757575758,4,2,2,62,0,1
146905,-75.7575757575758,4,2,2,62,0,0
149433,508.474576271186,4,2,2,62,1,0
149433,-75.7575757575758,4,2,2,62,0,0
150704,-98.0392156862745,4,2,2,62,0,0
150958,508.474576271186,4,2,2,62,1,0
150958,-75.7575757575758,4,2,2,62,0,0
155025,-65.7894736842105,4,2,69,62,0,1
155089,-65.7894736842105,4,2,2,62,0,1
163185,508.474576271186,4,2,2,72,1,0
163185,-61.7283950617284,4,2,2,72,0,0
164074,-192.307692307692,4,2,2,72,0,0
167315,521.739130434783,4,2,2,32,1,0
167315,-192.307692307692,4,2,2,32,0,0
171482,625,4,2,2,32,1,0
171482,-192.307692307692,4,2,2,32,0,0
172746,681.818181818182,4,2,2,32,1,0
172746,-192.307692307692,4,2,2,32,0,0
174110,750,4,2,2,32,1,0
174110,-192.307692307692,4,2,2,32,0,0
175606,789.473684210526,4,2,2,32,1,0
175606,-192.307692307692,4,2,2,32,0,0
180737,-100,4,2,2,22,0,0
186165,-100,4,2,2,5,0,0

[Colours]
Combo1 : 201,61,14
Combo2 : 170,193,172
Combo3 : 138,172,183
Combo4 : 91,91,255
Combo5 : 214,227,228
Combo6 : 23,123,53
Combo7 : 53,255,255
Combo8 : 255,79,255

[HitObjects]
120,168,935,6,0,P|176:144|236:152,1,116.479999289063,2|2,0:0|0:0,0:0:0:0:
296,208,1717,1,0,0:0:0:0:
412,72,1978,2,0,L|400:191,1,116.479999289063,2|0,0:0|0:0,0:0:0:0:
294,308,2761,2,0,B|259:303|259:303|224:312|224:312|172:304,1,116.479999289063,2|0,0:0|0:0,0:0:0:0:
120,205,3543,2,0,L|125:139,1,58.2399996445313,2|0,0:0|0:0,0:0:0:0:
36,236,4065,2,0,L|26:171,1,58.2399996445313,2|0,0:0|0:0,0:0:0:0:
112,286,4587,2,0,P|149:283|176:273,1,58.2399996445313,2|0,0:0|0:0,0:0:0:0:
274,147,5108,5,2,0:0:0:0:
320,333,5369,1,0,0:0:0:0:
359,245,5630,2,0,L|362:184,1,58.2399996445313,2|0,0:0|0:0,0:0:0:0:
112,176,6152,2,0,L|109:118,2,58.2399996445313,2|0|2,0:0|0:0|0:0,0:0:0:0:
189,109,6935,1,0,0:0:0:0:
70,250,7195,2,0,P|117:253|184:222,1,116.479999289063,2|0,0:0|0:0,0:0:0:0:
330,245,7978,2,0,P|317:291|317:292,1,29.1199998222656
269,346,8239,2,0,L|388:337,1,116.479999289063,2|0,0:0|0:0,0:0:0:0:
422,160,9021,2,0,P|396:168|378:170,1,29.1199998222656
321,138,9282,102,0,B|239:115|240:183|143:148,1,174.719998933594,2|0,0:0|0:0,0:0:0:0:
286,210,10326,2,0,P|295:252|297:305,2,87.3599994667969,2|2|2,0:0|0:0|0:0,0:0:0:0:
246,353,11369,2,0,P|277:369|329:369,1,87.3599994667969,2|0,0:0|0:0,0:0:0:0:
384,291,11891,2,0,L|294:296,1,87.3599994667969,2|0,0:0|0:0,0:0:0:0:
187,235,12413,2,0,P|229:228|261:195,1,87.3599994667969,2|0,0:0|0:0,0:0:0:0:
190,149,12935,1,2,0:0:0:0:
134,323,13195,1,0,0:0:0:0:
102,153,13456,6,0,L|96:72,1,58.2399996445313,2|0,0:0|0:0,0:0:0:0:
248,39,14011,1,0,0:0:0:0:
248,39,14150,2,0,P|284:55|323:51,1,58.2399996445313,2|0,0:0|0:0,0:0:0:0:
419,134,14567,2,0,L|300:144,1,116.479999289063,2|0,0:0|0:0,0:0:0:0:
150,313,15708,102,0,P|147:278|133:234,1,58.2399996445313,2|0,0:0|0:0,0:0:0:0:
81,167,16389,2,0,P|82:139|96:105,1,58.2399996445313,2|0,0:0|0:0,0:0:0:0:
216,153,17044,2,0,P|254:153|326:134,2,87.3599994667969,2|0|2,0:0|0:0|0:0,0:0:0:0:
424,37,18708,21,4,1:0:0:0:
424,37,18835,2,0,B|440:92|440:92|428:140,1,85.1199989609375,8|0,0:0|0:0,0:0:0:0:
284,169,19089,1,0,1:0:0:0:
284,169,19216,2,0,B|278:141|278:141|294:86,1,85.1199989609375,8|0,0:0|0:0,0:0:0:0:
229,317,19470,1,0,1:0:0:0:
348,238,19597,2,0,B|269:278|251:209|170:253,1,170.239997921875,12|0,0:0|1:0,0:0:0:0:
85,175,19979,2,0,P|85:125|65:84,1,85.1199989609375,8|0,0:0|0:0,0:0:0:0:
5,151,20233,1,8,0:0:0:0:
162,119,20360,2,0,L|270:109,2,85.1199989609375,0|8|8,1:0|0:0|0:0,0:0:0:0:
313,23,20741,5,4,1:0:0:0:
313,23,20869,2,0,P|350:71|349:120,1,85.1199989609375,8|0,0:0|0:0,0:0:0:0:
239,195,21123,1,0,1:0:0:0:
239,195,21250,2,0,L|247:99,1,85.1199989609375,8|0,0:0|0:0,0:0:0:0:
283,319,21504,1,0,1:0:0:0:
384,280,21631,2,0,L|192:272,1,170.239997921875,12|0,0:0|1:0,0:0:0:0:
54,197,22013,2,0,L|145:183,1,85.1199989609375,8|0,0:0|1:0,0:0:0:0:
239,195,22267,1,8,0:0:0:0:
100,110,22394,2,0,P|89:60|93:19,2,85.1199989609375,0|8|8,1:0|0:0|0:0,0:0:0:0:
396,64,22780,101,4,1:0:0:0:
291,21,22907,2,0,P|333:53|342:182,1,181.440004429688,8|0,0:0|1:0,0:0:0:0:
108,302,23288,2,0,B|167:289|167:289|220:304|220:304|308:281,1,181.440004429688,12|0,0:0|1:0,0:0:0:0:
233,87,23669,6,0,B|214:71|213:54|220:35|241:24|264:28|281:43|289:73|280:90|264:110|253:119|245:135|208:169|217:221|237:255|260:277|292:291,1,349.439997867188,12|0,0:0|3:0,0:0:0:0:
354,194,25322,2,0,P|304:202|297:205,1,40.320000984375,0|0,3:0|3:0,0:0:0:0:
176,278,25576,2,0,P|151:275|125:266,1,40.320000984375,0|0,3:0|0:0,0:0:0:0:
40,167,25830,6,0,P|57:221|25:286,2,114.240000697266,6|0|10,1:2|3:0|0:0,0:0:0:0:
282,84,26466,2,0,L|212:80,1,57.1200003486328,0|0,1:0|0:0,0:0:0:0:
130,125,26720,1,8,0:0:0:0:
346,160,26847,2,0,L|360:284,1,114.240000697266,2|0,1:2|3:0,0:0:0:0:
358,273,27356,2,0,P|319:292|282:292,1,57.1200003486328,10|0,0:0|0:0,0:0:0:0:
119,246,27610,1,2,0:0:0:0:
197,94,27737,2,0,P|216:126|220:137,1,28.5600001743164,0|0,1:0|1:0,1:0:0:0:
272,178,27864,54,0,L|137:165,2,114.240000697266,0|0|8,1:0|3:0|0:0,0:0:0:0:
430,57,28500,2,0,P|428:100|436:128,1,57.1200003486328,0|0,1:0|0:0,0:0:0:0:
491,295,28754,1,8,0:0:0:0:
355,108,28881,2,0,P|361:142|380:169,1,57.1200003486328,0|0,1:0|0:0,0:0:0:0:
303,319,29135,2,0,P|305:281|303:252,1,57.1200003486328,0|0,3:0|0:0,0:0:0:0:
192,73,29390,2,0,P|224:123|204:185,1,114.240000697266,8|0,0:0|3:0,0:0:0:0:
67,311,29771,2,0,P|104:300|116:299,1,28.5600001743164,0|0,1:0|1:0,0:0:0:0:
176,339,29898,54,0,P|212:348|243:348,1,57.1200003486328,2|0,1:2|0:0,0:0:0:0:
439,292,30152,2,0,P|411:284|383:282,1,57.1200003486328,2|0,3:2|0:0,0:0:0:0:
301,109,30407,2,0,P|310:154|304:184,1,57.1200003486328,10|0,0:0|0:0,0:0:0:0:
280,249,30661,1,2,3:2:0:0:
369,53,30788,1,8,0:0:0:0:
229,152,30915,2,0,L|102:132,1,114.240000697266,2|2,1:2|3:2,0:0:0:0:
442,117,31424,1,10,0:2:0:0:
386,193,31551,2,0,L|387:277,1,57.1200003486328,0|2,1:0|0:0,0:0:0:0:
286,363,31805,2,0,L|290:318,1,28.5600001743164,0|0,1:0|1:0,0:0:0:0:
244,253,31932,53,2,1:2:0:0:
92,349,32059,2,0,L|224:336,1,114.240000697266,8|0,0:0|1:0,0:0:0:0:
142,163,32441,2,0,P|134:209|133:233,1,57.1200003486328,8|0,0:0|0:0,0:0:0:0:
377,132,32695,2,0,P|374:103|368:75,1,57.1200003486328,2|2,0:0|0:0,0:0:0:0:
260,23,32949,1,2,1:2:0:0:
325,225,33076,2,0,P|426:208|462:196,1,114.240000697266,8|0,0:0|0:0,0:0:0:0:
250,113,33457,53,8,0:0:0:0:
224,312,33585,1,8,0:0:0:0:
312,214,33712,1,4,3:0:0:0:
338,309,33839,1,8,3:0:0:0:
177,213,33966,70,0,B|120:201|120:239|42:215,2,114.240000697266,2|0|8,1:2|3:0|0:0,0:0:0:0:
367,223,34602,2,0,P|320:217|294:203,1,57.1200003486328,0|2,1:0|0:0,0:0:0:0:
164,132,34856,1,8,0:0:0:0:
236,26,34983,2,0,L|245:161,1,114.240000697266,2|0,1:2|3:0,0:0:0:0:
177,213,35364,1,0,0:0:0:0:
328,133,35491,2,0,L|405:125,1,57.1200003486328,8|0,0:0|0:0,0:0:0:0:
272,241,35746,2,0,P|275:227|293:182,2,38.0800002324219,2|0|8,1:2|1:0|0:0,0:0:0:0:
320,298,36000,102,0,P|279:287|195:301,1,114.240000697266,6|0,1:2|0:0,0:0:0:0:
132,331,36381,1,0,0:0:0:0:
20,251,36508,2,0,P|84:246|134:206,1,114.240000697266,8|0,0:0|3:0,0:0:0:0:
54,172,36890,1,8,0:0:0:0:
264,139,37017,1,2,1:2:0:0:
217,214,37144,2,0,B|188:184|188:184|180:149|186:91,1,114.240000697266,8|0,0:0|1:0,0:0:0:0:
348,111,37525,2,0,B|352:152|344:186|344:186|315:217,1,114.240000697266,8|0,0:0|3:0,0:0:0:0:
266,325,37907,2,0,L|266:284,1,28.5600001743164,0|0,1:0|1:0,0:0:0:0:
264,139,38034,6,0,L|263:63,1,57.1200003486328,2|0,1:2|0:0,0:0:0:0:
100,145,38288,2,0,L|111:70,1,57.1200003486328,2|0,3:2|0:0,0:0:0:0:
181,215,38542,1,10,1:2:0:0:
144,15,38669,2,0,P|171:38|178:128,1,114.240000697266,2|0,1:2|1:0,0:0:0:0:
108,285,39051,1,2,1:2:0:0:
294,224,39178,2,0,L|157:213,1,114.240000697266,8|0,0:0|1:0,0:0:0:0:
370,308,39559,2,0,P|388:268|392:183,1,114.240000697266,8|0,0:0|3:0,0:0:0:0:
280,36,39941,1,8,0:0:0:0:
180,214,40068,101,2,1:2:0:0:
236,146,40195,2,0,P|200:132|172:131,1,57.1200003486328,8|2,0:0|3:2,0:0:0:0:
103,165,40449,1,0,3:0:0:0:
281,218,40576,2,0,P|306:195|318:169,1,57.1200003486328,10|0,0:2|0:0,0:0:0:0:
175,73,40830,2,0,L|183:143,1,57.1200003486328,2|0,1:2|0:0,0:0:0:0:
351,64,41085,1,0,1:0:0:0:
267,104,41212,2,0,L|283:238,1,114.240000697266,8|2,0:0|1:2,0:0:0:0:
429,318,41593,5,8,0:0:0:0:
242,308,41720,1,8,0:0:0:0:
349,254,41847,2,0,P|356:219|355:198,1,57.1200003486328,4|0,3:0|0:0,0:0:0:0:
110,267,42102,54,0,L|43:258,1,57.1200003486328,6|0,1:2|0:0,0:0:0:0:
203,152,42356,2,0,L|146:159,1,57.1200003486328,2|0,0:2|1:0,0:0:0:0:
242,308,42610,2,0,L|247:244,1,57.1200003486328,10|0,0:2|0:0,0:0:0:0:
293,80,42864,2,0,L|297:136,1,57.1200003486328,2|0,1:2|0:0,0:0:0:0:
432,220,43118,2,0,P|392:215|366:219,1,57.1200003486328,2|8,1:2|0:0,0:0:0:0:
242,308,43373,2,0,P|202:313|176:309,1,57.1200003486328,2|0,0:2|1:0,0:0:0:0:
165,85,43627,2,0,L|180:151,1,57.1200003486328,10|0,0:2|0:0,0:0:0:0:
297,136,43881,2,0,L|284:191,1,57.1200003486328,2|0,1:2|0:0,0:0:0:0:
152,297,44135,102,0,P|248:295|286:290,1,114.240000697266,0|2,1:0|0:2,0:0:0:0:
445,233,44517,2,0,P|405:225|377:215,1,57.1200003486328,2|8,1:2|0:0,0:0:0:0:
148,216,44771,2,0,P|176:211|203:202,1,57.1200003486328,2|0,0:2|1:0,0:0:0:0:
283,140,45025,1,2,0:2:0:0:
82,148,45152,1,0,1:0:0:0:
69,235,45279,2,0,P|88:274|169:292,1,114.240000697266,8|0,0:0|1:0,0:0:0:0:
280,259,45661,2,0,P|316:250|342:249,1,57.1200003486328,8|0,0:0|0:0,0:0:0:0:
458,329,45915,2,0,P|476:295|482:269,1,57.1200003486328,0|0,1:0|0:0,0:0:0:0:
392,104,46169,6,0,L|401:181,1,57.1200003486328,2|0,1:2|0:0,0:0:0:0:
265,38,46424,2,0,L|256:115,1,57.1200003486328,2|0,0:2|1:0,0:0:0:0:
101,200,46678,2,0,P|167:192|182:190,1,57.1200003486328,10|0,0:2|0:0,0:0:0:0:
298,251,46932,2,0,P|232:243|217:241,1,57.1200003486328,2|0,1:2|0:0,0:0:0:0:
369,179,47186,2,0,P|393:213|405:246,1,57.1200003486328,2|8,1:2|0:0,0:0:0:0:
483,103,47441,2,0,P|459:137|447:170,1,57.1200003486328,2|0,0:2|1:0,0:0:0:0:
329,92,47695,1,10,0:2:0:0:
174,217,47822,2,0,L|297:201,1,114.240000697266,2|0,0:2|0:0,0:0:0:0:
75,88,48203,102,0,P|54:137|37:204,1,114.240000697266,2|0,1:2|0:0,0:0:0:0:
53,289,48585,1,0,1:0:0:0:
192,144,48712,2,0,P|138:152|114:159,1,57.1200003486328,8|0,0:0|0:0,0:0:0:0:
287,202,48966,2,0,P|314:207|343:210,1,57.1200003486328,2|0,1:2|0:0,0:0:0:0:
457,88,49220,2,0,P|438:133|435:168,1,57.1200003486328,6|8,1:2|0:0,0:0:0:0:
455,271,49474,1,2,1:2:0:0:
332,154,49602,2,0,P|342:199|343:224,1,57.1200003486328,2|8,0:2|0:0,0:0:0:0:
277,302,49856,2,0,P|273:273|266:246,1,57.1200003486328,2|0,0:2|3:0,0:0:0:0:
159,208,50110,1,2,0:2:0:0:
83,337,50237,6,0,B|70:265|70:265|79:204,1,114.240000697266,2|2,1:2|0:2,0:0:0:0:
106,143,50618,1,0,1:0:0:0:
309,189,50746,2,0,L|317:115,1,57.1200003486328,8|0,0:0|0:0,0:0:0:0:
217,27,51000,2,0,L|223:83,1,57.1200003486328,0|0,1:0|0:0,0:0:0:0:
224,219,51254,2,0,L|232:145,1,57.1200003486328,8|2,0:0|0:2,0:0:0:0:
296,55,51508,1,0,0:0:0:0:
309,189,51635,2,0,L|316:245,1,57.1200003486328,2|10,0:2|0:2,0:0:0:0:
408,226,51890,2,0,L|402:299,1,57.1200003486328,2|0,0:2|3:0,0:0:0:0:
468,46,52144,102,0,P|438:24|356:31,1,114.240000697266,6|0,1:2|0:0,0:0:0:0:
189,131,52525,2,0,P|153:123|122:101,1,57.1200003486328,2|0,1:2|0:0,0:0:0:0:
404,105,52779,2,0,L|413:170,1,57.1200003486328,10|0,0:2|0:0,0:0:0:0:
289,245,53034,2,0,L|296:188,1,57.1200003486328,2|0,3:0|0:0,0:0:0:0:
383,241,53288,1,0,1:0:0:0:
223,310,53415,2,0,P|273:338|340:324,1,114.240000697266,8|0,0:0|1:0,0:0:0:0:
165,221,53796,2,0,L|99:241,1,57.1200003486328,8|0,0:0|0:0,0:0:0:0:
47,128,54051,2,0,L|113:148,1,57.1200003486328,2|0,3:0|0:0,0:0:0:0:
339,74,54305,6,0,P|291:80|226:43,1,114.240000697266,6|0,1:2|0:0,0:0:0:0:
301,1,54686,1,0,0:0:0:0:
399,170,54813,2,0,L|407:291,1,114.240000697266,10|0,0:2|0:0,0:0:0:0:
376,363,55195,1,0,0:0:0:0:
200,276,55322,2,0,P|241:264|275:261,1,57.1200003486328,2|8,1:2|0:0,0:0:0:0:
82,328,55576,1,10,0:2:0:0:
284,268,55703,1,8,0:0:0:0:
28,311,55830,2,0,P|53:323|81:327,1,57.1200003486328,4|4,3:0|3:0,3:0:0:0:
253,340,56085,2,0,P|228:352|200:356,1,57.1200003486328,4|4,3:0|3:0,3:0:0:0:
286,127,56339,86,0,P|250:129|215:141,1,73.9199997744141,6|0,1:2|0:0,0:0:0:0:
420,186,56593,1,2,0:0:0:0:
323,54,56720,2,0,L|243:46,1,73.9199997744141,2|8,1:2|0:0,0:0:0:0:
103,235,56974,2,0,L|183:227,1,73.9199997744141,2|0,0:0|1:0,0:0:0:0:
451,273,57229,2,0,L|371:265,1,73.9199997744141,2|0,0:0|1:0,0:0:0:0:
215,141,57483,2,0,P|209:216|265:276,1,147.839999548828,10|0,0:0|1:0,0:0:0:0:
365,165,57864,2,0,P|318:173|284:190,1,73.9199997744141,10|0,0:0|0:0,0:0:0:0:
227,359,58118,2,0,P|274:351|308:334,1,73.9199997744141,2|0,0:0|0:0,0:0:0:0:
134,144,58373,2,0,L|122:225,1,73.9199997744141,2|0,1:2|0:0,0:0:0:0:
245,275,58627,1,2,0:0:0:0:
188,73,58754,2,0,P|143:62|97:66,1,73.9199997744141,2|8,1:2|0:0,0:0:0:0:
365,165,59008,2,0,P|410:154|456:158,1,73.9199997744141,2|0,0:0|1:0,0:0:0:0:
123,217,59263,2,0,P|78:206|32:210,1,73.9199997744141,2|0,0:0|1:0,0:0:0:0:
265,32,59517,2,0,L|274:181,1,147.839999548828,8|0,0:0|1:0,0:0:0:0:
193,331,59898,2,0,L|203:244,1,73.9199997744141,8|0,0:0|0:0,0:0:0:0:
344,129,60152,2,0,L|352:202,1,73.9199997744141,0|0,1:0|0:0,0:0:0:0:
128,175,60407,102,0,B|190:151|211:202|287:175,1,147.839999548828,2|2,1:2|0:0,0:0:0:0:
437,67,60788,2,0,P|384:53|351:46,1,73.9199997744141,2|8,1:2|0:0,0:0:0:0:
164,90,61042,2,0,P|215:98|250:111,1,73.9199997744141,2|0,0:0|1:0,0:0:0:0:
357,243,61296,2,0,P|350:194|353:148,1,73.9199997744141,2|0,0:0|1:0,0:0:0:0:
467,347,61551,2,0,L|300:330,1,147.839999548828,10|0,0:0|1:0,0:0:0:0:
129,368,61932,2,0,P|198:355|230:347,1,73.9199997744141,10|0,0:0|0:0,0:0:0:0:
357,243,62186,2,0,P|288:230|256:222,1,73.9199997744141,2|0,1:2|0:0,0:0:0:0:
120,94,62441,2,0,P|98:142|87:184,1,73.9199997744141,2|0,1:2|0:0,0:0:0:0:
99,250,62695,1,2,0:0:0:0:
273,132,62822,2,0,L|177:143,1,73.9199997744141,2|8,1:2|0:0,0:0:0:0:
46,85,63076,2,0,L|142:96,1,73.9199997744141,2|0,0:0|1:0,0:0:0:0:
296,22,63330,2,0,P|250:37|225:65,1,73.9199997744141,2|0,0:0|1:0,0:0:0:0:
255,275,63585,2,0,P|277:209|269:120,1,147.839999548828,8|0,0:0|1:0,0:0:0:0:
173,309,63966,2,0,P|199:348|229:359,1,73.9199997744141,10|0,0:0|0:0,0:0:0:0:
394,211,64220,2,0,P|362:232|339:266,1,73.9199997744141,2|0,0:0|0:0,0:0:0:0:
506,142,64474,6,0,L|342:120,1,147.839999548828,2|2,1:2|0:0,0:0:0:0:
194,206,64856,2,0,P|252:199|283:189,1,73.9199997744141,2|8,1:2|0:0,0:0:0:0:
93,69,65110,2,0,P|66:118|60:158,1,73.9199997744141,2|0,0:0|1:0,0:0:0:0:
208,277,65364,2,0,P|206:244|192:204,1,73.9199997744141,2|0,0:0|1:0,0:0:0:0:
45,359,65618,2,0,P|86:368|207:353,1,147.839999548828,10|0,0:0|1:0,0:0:0:0:
409,269,66000,2,0,P|347:256|322:257,1,73.9199997744141,10|0,0:0|0:0,0:0:0:0:
120,192,66254,2,0,P|182:205|207:204,1,73.9199997744141,2|0,0:0|1:0,0:0:0:0:
410,174,66508,102,0,P|356:171|299:90,1,147.839999548828,2|2,1:2|0:0,0:0:0:0:
501,158,66890,2,0,L|511:246,1,73.9199997744141,2|8,1:2|0:0,0:0:0:0:
328,329,67144,2,0,L|336:255,1,73.9199997744141,2|0,0:0|0:0,0:0:0:0:
361,26,67398,2,0,P|382:87|382:127,1,73.9199997744141,2|0,0:0|1:0,0:0:0:0:
201,224,67652,2,0,P|265:216|346:268,1,147.839999548828,10|0,0:0|1:0,0:0:0:0:
134,291,68034,2,0,P|116:244|115:207,1,73.9199997744141,8|0,0:0|0:0,0:0:0:0:
171,64,68288,1,2,1:2:0:0:
201,224,68415,1,2,0:0:0:0:
0,167,68542,6,0,B|49:150|49:150|89:153|89:153|167:131,1,147.839999548828,6|0,1:2|0:0,0:0:0:0:
236,146,68924,1,0,1:0:0:0:
444,60,69051,2,0,P|389:48|355:57,1,73.9199997744141,8|0,0:0|0:0,0:0:0:0:
320,184,69305,1,2,0:0:0:0:
195,67,69432,2,0,L|89:52,1,73.9199997744141,2|0,0:0|1:0,0:0:0:0:
320,184,69686,2,0,P|336:234|288:339,1,147.839999548828,8|0,0:0|1:0,0:0:0:0:
413,254,70068,2,0,P|466:247|501:247,1,73.9199997744141,8|0,0:0|0:0,0:0:0:0:
254,241,70322,2,0,P|201:234|166:234,1,73.9199997744141
311,48,70576,102,0,B|342:91|342:91|315:204,1,147.839999548828,6|0,1:2|0:0,0:0:0:0:
255,112,70957,1,0,1:0:0:0:
388,24,71085,2,0,B|419:67|419:67|417:103,1,73.9199997744141,10|0,0:0|0:0,0:0:0:0:
405,192,71339,1,0,0:0:0:0:
311,48,71466,1,8,0:0:0:0:
341,252,71593,6,0,P|320:194|321:156,1,73.9199997744141,6|0,1:2|0:0,0:0:0:0:
228,30,71847,2,0,P|221:66|206:99,1,73.9199997744141,10|0,3:0|0:0,0:0:0:0:
87,203,72102,1,0,1:0:0:0:
242,175,72229,1,8,0:0:0:0:
60,124,72356,2,0,P|107:123|141:138,1,73.9199997744141,4|0,3:0|0:0,0:0:0:0:
325,274,72610,22,0,P|336:227|355:188,1,73.9199997744141,6|0,1:2|0:0,0:0:0:0:
488,152,72864,1,2,0:0:0:0:
428,352,72991,2,0,L|337:361,1,73.9199997744141,2|8,1:2|0:0,0:0:0:0:
152,276,73246,2,0,L|225:283,1,73.9199997744141,2|0,0:0|1:0,0:0:0:0:
419,196,73500,2,0,L|345:203,1,73.9199997744141,2|0,0:0|1:0,0:0:0:0:
164,163,73754,2,0,P|224:225|214:307,1,147.839999548828,10|0,0:0|1:0,0:0:0:0:
348,129,74135,2,0,L|344:216,1,73.9199997744141,10|0,0:0|0:0,0:0:0:0:
160,89,74390,2,0,L|164:176,1,73.9199997744141,2|0,1:2|0:0,0:0:0:0:
373,42,74644,2,0,B|413:64|413:64|436:106|431:178,1,147.839999548828,2|2,1:2|0:0,0:0:0:0:
318,291,75025,1,2,1:2:0:0:
271,210,75152,2,0,L|356:201,1,73.9199997744141,8|2,0:0|0:0,0:0:0:0:
426,248,75407,1,0,1:0:0:0:
218,289,75534,2,0,L|127:277,1,73.9199997744141,2|2,0:0|1:2,0:0:0:0:
227,77,75788,2,0,P|268:136|262:234,1,147.839999548828,8|0,0:0|1:0,0:0:0:0:
142,92,76169,2,0,P|148:42|166:15,2,73.9199997744141,8|0|0,0:0|0:0|1:0,0:0:0:0:
187,166,76551,1,0,0:0:0:0:
373,81,76678,70,0,B|329:73|329:73|281:82|281:82|218:76,1,147.839999548828,2|2,1:2|0:0,0:0:0:0:
393,170,77059,1,2,1:2:0:0:
356,253,77186,2,0,L|366:341,1,73.9199997744141,8|2,0:0|0:0,0:0:0:0:
437,280,77441,1,0,1:0:0:0:
153,309,77568,2,0,P|221:308|255:300,1,73.9199997744141,2|0,0:0|1:0,0:0:0:0:
167,88,77822,2,0,P|148:131|197:226,1,147.839999548828,10|0,0:0|1:0,0:0:0:0:
65,193,78203,2,0,P|15:182|-16:179,1,73.9199997744141,10|0,0:0|0:0,0:0:0:0:
234,142,78457,2,0,P|284:131|315:128,1,73.9199997744141,2|0,1:2|0:0,0:0:0:0:
76,49,78712,2,0,B|53:150|53:150|66:199,1,147.839999548828,2|2,1:2|0:0,0:0:0:0:
220,291,79093,1,2,1:2:0:0:
185,218,79220,2,0,P|150:248|133:290,1,73.9199997744141,8|2,0:0|0:0,0:0:0:0:
156,353,79474,1,0,1:0:0:0:
268,220,79602,2,0,B|256:177|256:177|218:134,1,73.9199997744141,10|2,0:0|1:2,0:0:0:0:
41,234,79856,2,0,B|83:244|83:244|204:212,1,147.839999548828,8|0,0:0|1:0,0:0:0:0:
99,72,80237,5,10,0:0:0:0:
86,165,80364,1,8,0:0:0:0:
223,62,80491,1,4,3:0:0:0:
236,155,80618,1,8,3:0:0:0:
76,42,80746,22,0,L|53:222,1,147.839999548828,6|0,1:2|0:0,0:0:0:0:
75,278,81127,1,0,1:0:0:0:
257,217,81254,2,0,P|213:197|178:189,1,73.9199997744141,8|0,0:0|0:0,0:0:0:0:
190,278,81508,1,2,1:2:0:0:
297,75,81635,2,0,P|263:106|250:132,1,73.9199997744141,2|0,0:0|1:0,0:0:0:0:
400,229,81890,2,0,B|361:218|361:218|309:229|309:229|246:214,1,147.839999548828,8|0,0:0|1:0,0:0:0:0:
123,336,82271,2,0,P|167:353|200:355,1,73.9199997744141,10|0,0:0|0:0,0:0:0:0:
434,304,82525,2,0,B|387:306|387:306|355:295,1,73.9199997744141,2|0,1:2|0:0,0:2:0:0:
111,216,82779,70,0,B|177:194|184:246|269:211,1,147.839999548828,2|0,1:2|0:0,0:0:0:0:
336,159,83161,1,0,1:0:0:0:
187,67,83288,2,0,L|209:138,1,73.9199997744141,8|0,0:0|0:0,0:0:0:0:
412,105,83542,1,2,1:2:0:0:
260,19,83669,2,0,L|281:89,1,73.9199997744141,2|0,0:0|1:0,0:0:0:0:
319,294,83924,2,0,P|303:221|348:148,1,147.839999548828,8|0,0:0|1:0,0:0:0:0:
217,218,84305,1,8,0:0:0:0:
217,218,84432,1,8,0:0:0:0:
382,229,84559,2,0,P|431:224|477:214,1,73.9199997744141,2|2,1:2|0:0,0:0:0:0:
211,127,84813,38,0,P|156:148|134:249,1,147.839999548828,2|0,1:2|0:0,0:0:0:0:
139,317,85195,1,0,1:0:0:0:
56,136,85322,2,0,P|42:187|38:235,1,73.9199997744141,8|0,0:0|0:0,0:0:0:0:
51,294,85576,1,2,1:2:0:0:
120,79,85703,2,0,P|134:130|138:178,1,73.9199997744141,2|0,0:0|1:0,0:0:0:0:
303,28,85957,2,0,L|286:199,1,147.839999548828,8|0,0:0|1:0,0:0:0:0:
347,336,86339,69,8,0:0:0:0:
368,214,86466,1,8,0:0:0:0:
230,286,86593,1,4,3:0:0:0:
330,297,86720,1,8,3:0:0:0:
213,198,86855,38,0,P|171:219|152:254,1,73.9199997744141,4|0,1:0|1:0,0:0:0:0:
230,286,87109,1,8,0:0:0:0:
230,286,87236,1,8,0:0:0:0:
221,124,87363,2,0,L|212:197,1,73.9199997744141,0|0,1:0|0:0,0:0:0:0:
131,144,87617,1,8,0:0:0:0:
233,44,87744,1,8,0:0:0:0:
303,110,87871,1,4,1:0:0:0:
149,61,87999,2,0,P|104:63|43:153,1,147.839999548828,8|0,0:0|1:0,0:0:0:0:
123,293,88380,69,8,0:0:0:0:
131,144,88507,1,8,0:0:0:0:
47,333,88634,2,0,P|40:291|55:240,1,73.9199997744141,8|8,3:0|3:0,0:0:0:0:
219,194,88913,5,4,1:2:0:0:
323,347,89040,2,0,L|332:258,1,85.1199989609375,8|0,0:0|0:0,0:0:0:0:
254,114,89294,1,0,1:0:0:0:
169,267,89421,2,0,L|94:210,1,85.1199989609375,8|0,0:0|0:0,0:0:0:0:
177,73,89675,1,0,1:0:0:0:
334,152,89802,2,0,B|394:137|394:137|445:143|445:143|513:119,1,170.239997921875,8|0,0:0|1:0,0:0:0:0:
305,48,90184,2,0,P|265:88|251:122,1,85.1199989609375,8|0,0:0|0:0,0:0:0:0:
418,255,90438,2,0,P|414:184|398:144,2,85.1199989609375,8|0|8,0:0|1:0|0:0,0:0:0:0:
242,345,90819,1,8,0:0:0:0:
364,323,90946,101,4,1:0:0:0:
219,264,91074,2,0,L|128:268,1,85.1199989609375,8|0,0:0|0:0,0:0:0:0:
331,244,91328,1,0,1:0:0:0:
178,189,91455,2,0,L|87:193,1,85.1199989609375,8|0,0:0|0:0,0:0:0:0:
301,171,91709,1,0,1:0:0:0:
242,345,91836,2,0,P|231:293|176:186,1,170.239997921875,8|0,0:0|1:0,0:0:0:0:
59,33,92217,2,0,P|34:91|22:131,1,85.1199989609375,8|0,0:0|0:0,0:0:0:0:
222,116,92472,2,0,P|165:107|129:113,2,85.1199989609375,8|0|8,0:0|1:0|0:0,0:0:0:0:
155,294,92853,1,8,0:0:0:0:
27,111,92995,5,4,1:0:0:0:
199,191,93122,2,0,P|256:187|287:166,1,85.1199989609375,8|0,0:0|0:0,0:0:0:0:
168,27,93376,1,0,1:0:0:0:
83,227,93503,2,0,L|72:320,1,85.1199989609375,8|0,0:0|0:0,0:0:0:0:
265,332,93757,1,0,1:0:0:0:
180,126,93884,2,0,L|161:310,1,170.239997921875,12|8,0:0|0:0,0:0:0:0:
280,174,94265,2,0,P|337:164|376:159,1,85.1199989609375,0|0,1:0|0:0,0:0:0:0:
83,227,94520,2,0,P|21:215|-18:210,1,85.1199989609375,8|8,0:0|0:0,0:0:0:0:
273,253,94774,1,8,0:0:0:0:
99,148,94901,1,8,0:0:0:0:
416,91,95028,38,0,P|445:132|412:235,1,147.839999548828,4|0,1:0|0:0,0:0:0:0:
192,160,95410,2,0,P|246:147|271:141,1,73.9199997744141,8|4,0:0|3:0,0:0:0:0:
364,160,95664,1,8,3:0:0:0:
138,237,95791,2,0,P|110:205|136:96,1,147.839999548828,4|0,1:0|0:0,0:0:0:0:
123,107,96300,1,0,1:0:0:0:
240,45,96428,2,0,L|327:38,1,73.9199997744141,0|8,0:0|0:0,0:0:0:0:
470,151,96682,2,0,P|411:126|320:167,1,147.839999548828
171,333,97063,54,0,L|157:162,1,147.839999548828,4|0,1:0|0:0,0:0:0:0:
268,28,97444,2,0,L|260:111,1,73.9199997744141,8|4,0:0|3:0,0:0:0:0:
258,188,97699,1,8,3:0:0:0:
45,102,97826,2,0,B|144:59|163:159|289:87,1,221.759999323242,4|0,1:0|0:0,0:0:0:0:
476,34,98333,2,0,P|422:44|390:72,1,73.9199997744141,0|0,1:0|1:0,0:0:0:0:
344,228,98588,1,8,0:0:0:0:
260,101,98715,1,8,0:0:0:0:
433,208,98842,2,0,L|414:304,1,73.9199997744141,4|0,3:0|0:0,0:0:0:0:
120,204,99096,54,0,B|160:197|160:197|211:209|211:209|287:196,1,147.839999548828,4|0,1:0|0:0,0:0:0:0:
61,123,99478,2,0,L|156:107,1,73.9199997744141,8|4,0:0|3:0,0:0:0:0:
219,126,99732,1,8,3:0:0:0:
134,275,99859,2,0,P|119:219|123:185,1,73.9199997744141,4|0,1:0|0:0,0:0:0:0:
210,323,100113,2,0,P|168:357|71:333,1,147.839999548828
212,238,100495,2,0,L|298:224,1,73.9199997744141,0|8,1:0|0:0,0:0:0:0:
407,327,100749,2,0,P|382:277|452:192,1,147.839999548828
290,91,101130,54,0,B|236:95|177:78|177:78|121:104,1,147.839999548828,4|8,1:0|0:0,0:0:0:0:
28,206,101511,2,0,P|75:192|121:189,1,73.9199997744141,0|4,1:0|3:0,0:0:0:0:
184,233,101766,1,8,3:0:0:0:
289,90,101893,1,4,1:0:0:0:
329,170,102020,2,0,P|283:179|202:117,1,147.839999548828,0|0,0:0|1:0,0:0:0:0:
405,120,102401,2,0,P|419:167|412:207,1,73.9199997744141,0|0,1:0|0:0,0:0:0:0:
330,304,102656,53,8,0:0:0:0:
329,170,102783,1,8,0:0:0:0:
350,329,102910,1,8,0:0:0:0:
403,105,103037,1,8,0:0:0:0:
264,236,103164,22,0,B|183:266|191:199|80:250,1,159.0399919917,4|0,1:0|0:0,0:0:0:0:
148,316,103545,1,0,1:0:0:0:
229,165,103672,2,0,P|223:101|215:67,1,79.5199959958498,8|0,0:0|0:0,0:0:0:0:
144,141,103927,1,2,1:2:0:0:
144,141,104054,1,2,0:0:0:0:
304,103,104181,2,0,L|420:97,1,79.5199959958498,2|8,1:2|0:0,0:0:0:0:
473,131,104435,1,2,0:0:0:0:
308,196,104562,2,0,L|192:190,1,79.5199959958498,2|8,1:2|0:0,0:0:0:0:
167,57,104817,2,0,P|214:100|219:215,1,159.0399919917,2|0,0:0|0:0,0:0:0:0:
108,307,105198,6,0,P|158:292|193:291,1,79.5199959958498,2|0,1:2|0:0,0:0:0:0:
295,338,105452,2,0,P|345:353|380:354,1,79.5199959958498,2|0,0:0|1:0,0:0:0:0:
505,258,105706,1,10,0:0:0:0:
352,273,105833,2,0,L|346:182,1,79.5199959958498,2|0,0:0|0:0,0:0:0:0:
425,38,106088,1,10,0:0:0:0:
348,95,106215,2,0,L|253:79,1,79.5199959958498,0|0,1:0|0:0,0:0:0:0:
149,126,106469,2,0,L|70:139,1,79.5199959958498,8|0,0:0|0:0,0:0:0:0:
172,47,106723,1,2,1:2:0:0:
128,207,106850,1,8,0:0:0:0:
128,207,107232,38,0,L|159:203,1,29.1199998222656,4|0,1:2|0:0,0:0:0:0:
270,243,107486,2,0,L|232:238,1,34.7199986225587,0|0,1:0|0:0,0:0:0:0:
107,182,107740,102,0,L|156:175,1,40.320000984375,0|0,1:0|0:0,0:0:0:0:
294,214,107994,2,0,L|245:206,1,45.9200007006836,0|0,1:0|0:0,0:0:0:0:
86,152,108249,6,0,L|147:143,1,51.5199982705079,0|0,1:0|0:0,0:0:0:0:
310,185,108503,2,0,L|245:175,1,57.1200003486328,0|0,1:0|0:0,0:0:0:0:
181,49,108757,102,0,P|199:81|209:108,1,62.720000765625,0|0,1:0|0:0,0:0:0:0:
225,238,109011,2,0,P|244:199|254:172,1,68.3199971853029,0|0,1:0|0:0,0:0:0:0:
271,32,109266,6,0,P|280:67|282:106,1,73.9199997744141,8|0,0:0|0:0,0:0:0:0:
240,269,109520,2,0,P|268:236|292:200,1,79.5199959958498,8|0,0:0|0:0,0:0:0:0:
358,64,109774,102,0,P|357:113|349:151,1,85.1199989609375,0|0,1:0|0:0,0:0:0:0:
258,297,110028,2,0,P|293:272|334:234,1,90.7200022148438,8|0,0:0|0:0,0:0:0:0:
444,134,110283,6,0,P|393:135|345:150,1,96.3200014697266,0|0,1:0|0:0,0:0:0:0:
149,197,110537,2,0,P|200:198|248:213,1,96.3200014697266,8|0,0:0|0:0,0:0:0:0:
376,66,110791,102,0,P|326:80|284:107,1,96.3200014697266,8|0,0:2|0:2,0:2:0:0:
102,241,111045,2,0,P|151:228|201:230,1,96.3200014697266,8|0,0:2|0:2,0:2:0:0:
230,15,111300,6,0,L|206:124,1,101.920003421387,12|0,0:2|0:2,0:2:0:0:
293,296,111554,2,0,L|271:196,1,101.920003421387,8|0,0:2|0:2,0:2:0:0:
85,67,111808,102,0,L|145:161,1,101.920003421387,8|0,0:2|0:2,0:2:0:0:
414,202,112062,2,0,L|328:147,1,101.920003421387,8|0,0:2|0:2,0:2:0:0:
16,205,112317,6,0,L|141:235,1,107.520002625,12|0,0:2|0:2,0:2:0:0:
408,50,112571,2,0,L|297:75,1,107.520002625,8|0,0:2|0:2,0:2:0:0:
95,366,112825,102,0,P|150:337|204:298,1,107.520002625,12|0,0:2|0:2,0:2:0:0:
249,0,113079,2,0,P|214:43|188:96,1,107.520002625,8|0,0:2|0:2,0:2:0:0:
216,150,119830,118,0,L|211:106,2,36.959999887207,0|8|8,1:0|0:0|0:0,0:0:0:0:
245,319,120084,1,8,0:0:0:0:
190,226,120211,2,0,P|230:233|264:215,1,73.9199997744141,0|0,1:0|0:0,0:0:0:0:
472,116,120465,86,0,P|418:105|379:102,1,85.1199989609375,4|0,1:0|0:0,0:0:0:0:
216,150,120719,1,8,0:0:0:0:
35,66,120846,102,0,P|86:45|187:62,1,127.679998441406,0|0,1:0|0:0,0:0:0:0:
158,70,121101,2,0,P|95:65|36:88,1,127.679998441406,0|0,1:0|0:0,0:0:0:0:
22,126,121355,2,0,P|88:97|202:110,1,170.239997921875,4|8,1:0|0:0,0:0:0:0:
319,202,121736,6,0,P|265:198|231:204,1,85.1199989609375,0|0,1:0|1:0,0:0:0:0:
45,263,121991,2,0,P|99:259|133:265,1,85.1199989609375,8|8,0:0|0:0,0:0:0:0:
278,278,122244,21,8,0:0:0:0:
84,337,122372,1,8,0:0:0:0:
384,343,122498,102,0,P|388:271|417:175,1,147.839999548828,4|0,0:0|0:0,0:0:0:0:
450,116,122880,1,0,1:0:0:0:
255,167,123007,2,0,P|299:187|334:195,1,73.9199997744141,8|0,0:0|0:0,0:0:0:0:
322,106,123261,1,2,1:2:0:0:
241,321,123388,2,0,L|271:238,1,73.9199997744141,2|0,0:0|1:0,0:0:0:0:
109,154,123643,2,0,B|148:165|200:154|200:154|263:169,1,147.839999548828,8|0,0:0|1:0,0:0:0:0:
389,48,124024,2,0,P|345:31|312:29,1,73.9199997744141,10|0,0:0|0:0,0:0:0:0:
84,75,124278,2,0,B|131:73|163:84,1,73.9199997744141,2|0,1:2|0:0,0:0:0:0:
399,166,124532,6,0,B|333:188|326:136|241:171,1,147.839999548828,2|0,1:2|0:0,0:0:0:0:
176,225,124914,1,0,1:0:0:0:
325,317,125041,2,0,P|316:278|303:246,1,73.9199997744141,8|0,0:0|0:0,0:0:0:0:
100,279,125295,1,2,1:2:0:0:
252,365,125422,2,0,L|231:295,1,73.9199997744141,2|0,0:2|1:0,0:0:0:0:
197,91,125677,2,0,B|216:155|216:155|168:237,1,147.839999548828,8|0,0:0|1:0,0:0:0:0:
295,166,126058,1,8,0:0:0:0:
295,166,126185,1,8,0:0:0:0:
130,155,126312,2,0,P|81:160|35:170,1,73.9199997744141,2|2,1:2|0:0,0:0:0:0:
299,256,126566,102,0,B|354:235|354:235|376:210|383:134,1,147.839999548828,2|0,1:2|0:0,0:0:0:0:
375,59,126948,1,0,1:0:0:0:
454,247,127075,2,0,P|468:196|472:148,1,73.9199997744141,8|0,0:0|0:0,0:0:0:0:
459,89,127329,1,2,1:2:0:0:
390,304,127456,2,0,P|376:253|372:205,1,73.9199997744141,2|0,0:0|1:0,0:0:0:0:
207,355,127710,2,0,P|219:293|224:184,1,147.839999548828,8|0,0:0|1:0,0:0:0:0:
137,289,128092,1,8,0:0:0:0:
301,301,128219,1,8,0:0:0:0:
224,208,128346,2,0,L|308:197,1,73.9199997744141,4|8,3:0|3:0,0:0:0:0:
160,144,128600,6,0,P|80:144|37:88,1,147.839999548828,6|8,1:2|0:0,0:0:0:0:
120,72,128981,1,0,0:0:0:0:
240,124,129109,2,0,L|328:104,1,73.9199997744141,2|0,1:2|1:0,0:0:0:0:
224,208,129363,2,0,L|234:298,1,73.9199997744141,8|8,0:0|0:0,0:0:0:0:
351,218,129617,1,6,1:2:0:0:
142,256,129744,2,0,P|86:245|64:226,1,73.9199997744141,8|2,0:0|0:0,0:0:0:0:
134,162,129998,1,0,1:0:0:0:
346,306,130126,2,0,P|402:295|424:276,1,73.9199997744141,10|10,0:0|0:0,0:0:0:0:
298,146,130380,1,8,0:0:0:0:
142,256,130507,1,8,0:0:0:0:
290,233,130634,6,0,P|317:230|367:219,1,73.9199997744141,6|0,1:2|0:0,0:0:0:0:
142,173,130888,1,2,0:0:0:0:
243,301,131015,2,0,P|263:310|324:314,1,73.9199997744141,2|8,1:2|0:0,0:0:0:0:
461,115,131269,2,0,L|381:123,1,73.9199997744141,2|0,0:0|1:0,0:0:0:0:
111,86,131524,2,0,L|191:94,1,73.9199997744141,2|0,0:0|1:0,0:0:0:0:
363,221,131778,2,0,P|369:146|320:77,1,147.839999548828,10|0,0:0|1:0,0:0:0:0:
197,194,132159,2,0,P|244:186|278:169,1,73.9199997744141,10|0,0:0|0:0,0:0:0:0:
349,12,132414,2,0,P|302:20|268:37,1,73.9199997744141,2|0,0:0|0:0,0:0:0:0:
428,215,132668,2,0,L|440:134,1,73.9199997744141,2|0,1:2|0:0,0:0:0:0:
332,86,132922,1,2,0:0:0:0:
376,286,133049,2,0,L|471:307,1,73.9199997744141,2|8,1:2|0:0,0:0:0:0:
197,194,133303,2,0,L|106:201,1,73.9199997744141,2|0,0:0|1:0,0:0:0:0:
439,142,133558,2,0,L|530:149,1,73.9199997744141,2|0,0:0|1:0,0:0:0:0:
297,327,133812,2,0,P|299:258|288:178,1,147.839999548828,8|0,0:0|1:0,0:0:0:0:
369,28,134193,2,0,P|360:68|359:115,1,73.9199997744141,8|0,0:0|0:0,0:0:0:0:
218,230,134447,2,0,P|212:193|200:155,1,73.9199997744141,0|0,1:0|0:0,0:0:0:0:
428,217,134702,6,0,B|351:220|361:169|273:181,1,147.839999548828,2|2,1:2|0:0,0:0:0:0:
98,267,135083,2,0,P|147:293|178:307,1,73.9199997744141,2|8,1:2|0:0,0:0:0:0:
370,306,135337,2,0,P|322:287|291:266,1,73.9199997744141,2|0,0:0|1:0,0:0:0:0:
216,114,135591,2,0,P|212:163|199:207,1,73.9199997744141,2|0,0:0|1:0,0:0:0:0:
118,36,135846,2,0,P|174:28|284:29,1,147.839999548828,10|0,0:0|1:0,0:0:0:0:
447,65,136227,2,0,P|383:47|350:48,1,73.9199997744141,10|0,0:2|0:0,0:0:0:0:
216,114,136481,2,0,P|281:118|314:134,1,73.9199997744141,2|0,1:2|0:0,0:0:0:0:
413,312,136736,2,0,P|446:270|466:232,1,73.9199997744141,2|0,1:2|0:0,0:0:0:0:
469,165,136990,1,2,0:0:0:0:
273,241,137117,2,0,L|369:252,1,73.9199997744141,2|8,1:2|0:0,0:0:0:0:
483,338,137371,2,0,L|392:305,1,73.9199997744141,2|0,0:0|1:0,0:0:0:0:
226,343,137626,2,0,P|274:338|305:317,1,73.9199997744141,2|0,0:0|1:0,0:0:0:0:
323,105,137880,2,0,P|286:165|274:253,1,147.839999548828,8|0,0:0|1:0,0:0:0:0:
361,193,138261,1,2,1:2:0:0:
211,88,138388,1,8,0:0:0:0:
108,196,138515,2,0,L|187:177,1,73.9199997744141,4|4,3:0|3:0,0:0:0:0:
37,289,138770,102,0,L|201:311,1,147.839999548828,2|2,1:2|0:0,0:0:0:0:
346,228,139152,2,0,P|288:235|257:245,1,73.9199997744141,2|8,1:2|0:0,0:0:0:0:
452,344,139406,2,0,L|464:244,1,73.9199997744141,2|0,0:0|1:0,0:0:0:0:
330,155,139660,2,0,L|346:228,1,73.9199997744141,2|0,0:0|1:0,0:0:0:0:
488,72,139914,2,0,B|433:85|433:85|328:48,1,147.839999548828,8|0,0:0|1:0,0:0:0:0:
148,156,140295,2,0,B|193:171|193:171|235:168,1,73.9199997744141,10|0,0:0|0:0,0:0:0:0:
418,238,140549,2,0,B|382:228|382:228|331:226,1,73.9199997744141,2|0,0:0|1:0,0:0:0:0:
140,244,140803,6,0,P|194:247|251:328,1,147.839999548828,2|2,1:2|0:0,0:0:0:0:
60,272,141186,2,0,L|50:184,1,73.9199997744141,2|8,1:2|0:0,0:0:0:0:
227,95,141440,2,0,L|219:169,1,73.9199997744141,2|0,0:0|0:0,0:0:0:0:
161,313,141693,2,0,P|140:252|140:212,1,73.9199997744141,2|0,0:0|1:0,0:0:0:0:
361,125,141947,2,0,P|297:133|216:81,1,147.839999548828,8|0,0:0|1:0,0:0:0:0:
432,80,142329,2,0,P|450:127|451:164,1,73.9199997744141,8|0,0:0|0:0,0:0:0:0:
331,315,142583,1,2,1:2:0:0:
288,156,142710,1,2,0:0:0:0:
508,216,142837,102,0,B|444:256|428:196|341:252,1,147.839999548828,6|0,1:2|0:0,0:0:0:0:
276,238,143219,1,0,1:0:0:0:
127,351,143346,2,0,L|216:354,1,73.9199997744141,8|0,0:0|0:0,0:0:0:0:
192,200,143600,1,2,0:0:0:0:
317,317,143727,2,0,L|423:332,1,73.9199997744141,2|0,0:0|1:0,0:0:0:0:
192,200,143981,2,0,P|181:150|208:32,1,147.839999548828,8|0,0:0|1:0,0:0:0:0:
109,191,144363,2,0,P|56:198|21:198,1,73.9199997744141,8|0,0:0|0:0,0:0:0:0:
258,107,144617,2,0,P|311:114|346:114,1,73.9199997744141,2|0,1:2|0:0,0:0:0:0:
73,119,144871,6,0,P|36:110|0:108,1,73.9199997744141,2|0,1:2|3:0,0:0:0:0:
295,189,145126,2,0,P|331:197|367:199,1,73.9199997744141,0|0,3:0|1:0,0:0:0:0:
193,38,145380,2,0,P|175:94|180:134,1,73.9199997744141,10|0,0:2|3:0,0:0:0:0:
199,311,145634,2,0,P|217:255|212:215,1,73.9199997744141,0|0,1:0|3:0,0:0:0:0:
66,45,145888,2,0,L|75:141,1,73.9199997744141,6|0,1:2|0:0,0:0:0:0:
133,257,146142,1,8,0:0:0:0:
175,108,146270,1,8,0:0:0:0:
199,311,146397,1,8,0:0:0:0:
174,99,146524,1,8,0:0:0:0:
120,339,146651,2,0,P|145:378|177:389,1,73.9199997744141,4|8,3:0|3:0,0:0:0:0:
342,305,146905,102,0,B|292:286|292:344|179:305,1,147.839999548828,6|0,1:2|0:0,0:0:0:0:
250,237,147287,1,0,1:0:0:0:
419,342,147414,2,0,P|424:291|417:256,1,73.9199997744141,8|0,0:0|0:0,0:0:0:0:
283,93,147668,2,0,L|298:180,1,73.9199997744141,2|8,3:0|0:0,0:0:0:0:
369,101,147922,1,0,1:0:0:0:
207,146,148049,2,0,L|48:117,1,147.839999548828,8|0,0:0|1:0,0:0:0:0:
166,243,148431,2,0,L|175:341,1,73.9199997744141,8|0,0:0|0:0,0:0:0:0:
295,165,148685,2,0,L|286:263,1,73.9199997744141,2|0,3:0|0:0,0:0:0:0:
406,88,148939,5,0,1:0:0:0:
406,301,149066,2,0,P|389:245|456:170,1,147.839999548828,8|0,0:0|1:0,0:0:0:0:
332,350,149433,2,0,L|229:330,1,73.9199997744141,12|0,0:0|0:0,0:0:0:0:
100,330,149687,2,0,L|203:310,1,73.9199997744141,0|0,1:0|0:0,0:0:0:0:
301,262,149941,1,0,1:0:0:0:
128,243,150068,1,8,0:0:0:0:
359,176,150195,2,0,P|292:183|263:190,1,73.9199997744141,8|8,0:0|0:0,0:0:0:0:
84,156,150449,2,0,P|151:163|180:170,1,73.9199997744141,8|8,3:0|3:0,0:0:0:0:
255,46,150704,2,0,P|236:90|230:111,1,57.1200003486328,4|0,3:0|0:0,0:0:0:0:
292,278,150958,102,0,P|320:233|310:115,1,147.839999548828,6|0,1:2|0:0,0:0:0:0:
247,193,151339,1,0,1:0:0:0:
409,231,151466,2,0,P|416:175|406:144,1,73.9199997744141,10|0,2:0|0:0,0:0:0:0:
392,73,151721,1,0,1:0:0:0:
334,195,151848,1,0,0:0:0:0:
485,170,151975,6,0,L|388:154,1,73.9199997744141,6|0,1:2|0:0,0:0:0:0:
257,277,152229,2,0,L|185:265,1,73.9199997744141,0|0,0:0|1:0,0:0:0:0:
273,66,152483,2,0,P|327:141|332:205,1,147.839999548828,10|0,0:2|1:0,0:0:0:0:
245,155,152865,1,0,1:0:0:0:
380,71,152992,101,6,1:2:0:0:
438,154,153119,2,0,L|411:311,1,147.839999548828,8|0,0:0|0:0,0:0:0:0:
132,229,153500,2,0,B|167:214|203:229|203:229|239:256|294:227,1,147.839999548828,14|0,0:2|1:0,0:0:0:0:
245,155,153882,1,0,1:0:0:0:
165,300,154009,5,6,1:2:0:0:
165,139,154136,1,8,0:0:0:0:
252,321,154263,2,0,L|341:302,1,73.9199997744141,10|8,2:0|0:0,0:0:0:0:
132,229,154517,2,0,L|43:210,1,73.9199997744141,8|10,0:0|0:2,0:0:0:0:
274,235,154772,1,4,3:0:0:0:
274,235,154899,1,8,3:0:0:0:
165,139,155026,85,4,1:2:0:0:
350,174,155153,2,0,L|362:269,1,85.1199989609375,8|0,0:0|0:0,0:0:0:0:
198,273,155407,1,0,1:0:0:0:
258,94,155534,2,0,L|353:95,1,85.1199989609375,8|0,0:0|0:0,0:0:0:0:
436,226,155788,1,0,1:0:0:0:
249,197,155916,2,0,P|180:192|101:266,1,170.239997921875,8|0,0:0|1:0,0:0:0:0:
317,266,156297,2,0,P|341:214|339:178,1,85.1199989609375,8|0,0:0|0:0,0:0:0:0:
266,115,156551,1,0,0:0:0:0:
194,269,156678,2,0,L|202:360,2,85.1199989609375,0|8|8,1:0|0:0|0:0,0:0:0:0:
134,122,157060,101,4,1:0:0:0:
81,305,157187,2,0,L|67:200,1,85.1199989609375,8|0,0:0|0:0,0:0:0:0:
239,143,157441,1,0,1:0:0:0:
292,326,157568,2,0,L|306:221,1,85.1199989609375,8|0,0:0|0:0,0:0:0:0:
162,197,157822,1,0,1:0:0:0:
379,295,157949,2,0,B|426:288|426:288|501:184,1,170.239997921875,8|0,0:0|1:0,0:0:0:0:
350,57,158331,2,0,P|355:118|382:175,1,85.1199989609375,8|0,0:0|0:0,0:0:0:0:
450,81,158585,1,0,1:0:0:0:
261,112,158712,2,0,L|166:94,2,85.1199989609375,0|8|8,1:0|0:0|0:0,0:0:0:0:
409,221,159094,5,4,1:0:0:0:
198,184,159221,2,0,L|180:281,1,85.1199989609375,8|0,0:0|0:0,0:0:0:0:
338,165,159475,1,0,1:0:0:0:
129,120,159602,2,0,L|111:217,1,85.1199989609375,8|0,0:0|0:0,0:0:0:0:
243,331,159856,1,0,1:0:0:0:
284,75,159983,2,0,P|316:130|299:250,1,170.239997921875,8|0,0:0|1:0,0:0:0:0:
369,66,160365,2,0,P|390:122|396:163,1,85.1199989609375,8|0,0:0|0:0,0:0:0:0:
240,160,160619,1,0,1:0:0:0:
458,96,160746,2,0,P|476:152|466:194,2,85.1199989609375,0|8|8,1:0|0:0|0:0,0:0:0:0:
203,49,161127,101,4,1:0:0:0:
42,255,161255,2,0,B|111:229|132:291|234:255,1,170.239997921875,8|0,0:0|1:0,0:0:0:0:
377,41,161636,2,0,P|315:89|320:199,1,170.239997921875,8|0,0:0|1:0,0:0:0:0:
449,349,162017,2,8,B|465:305|465:305|449:246|449:246|471:175,1,170.239997921875,0|0,0:0|1:0,0:0:0:0:
296,349,162399,2,0,L|195:336,1,85.1199989609375,8|0,0:0|0:0,0:0:0:0:
161,87,162653,2,0,P|194:148|192:187,1,85.1199989609375,0|0,1:0|0:0,0:0:0:0:
118,345,162907,1,8,0:0:0:0:
110,159,163034,1,8,0:0:0:0:
293,237,163185,5,4,1:0:0:0:
65,258,163312,2,0,L|163:238,1,90.7200022148438,12|0,0:0|0:0,0:0:0:0:
387,236,163566,101,4,1:0:0:0:
218,80,163693,2,0,L|298:139,1,90.7200022148438,12|0,0:0|0:0,0:0:0:0:
472,236,163947,5,12,0:0:0:0:
343,62,164074,102,0,B|390:96|403:162|353:221|289:242|289:242|252:205|203:188|187:209|134:235|132:279|137:311|210:356|221:277|221:277|229:276|243:288|258:329|306:317|349:288,1,669.75999591211,4|0,1:0|0:0,0:0:0:0:
415,311,167125,1,0,0:0:0:0:
495,331,167315,70,0,B|503:272|474:284|487:199,2,116.479999289063,2|2|2,0:0|0:0|0:0,0:0:0:0:
204,249,168880,1,2,0:0:0:0:
162,326,169141,2,0,P|134:300|271:197,1,291.199998222656,2|0,0:0|0:0,0:0:0:0:
469,262,171228,2,0,L|465:217,1,29.1199998222656,2|0,0:0|0:0,0:0:0:0:
429,154,171482,6,0,P|399:160|358:161,2,58.2399996445313,2|2|2,0:0|0:0|0:0,0:0:0:0:
389,79,172419,1,2,0:0:0:0:
249,144,172746,102,0,L|242:61,2,58.2399996445313,2|2|2,0:0|0:0|0:0,0:0:0:0:
169,288,173768,1,2,0:0:0:0:
169,288,174110,6,0,L|238:282,1,58.2399996445313,2|0,0:0|0:0,0:0:0:0:
306,322,174860,2,0,L|372:328,1,58.2399996445313,2|0,0:0|0:0,0:0:0:0:
423,257,175606,102,0,P|415:223|422:188,1,58.2399996445313,2|0,0:0|0:0,0:0:0:0:
455,124,176395,1,2,0:0:0:0:
309,61,176790,2,0,L|263:71,2,29.1199998222656,2|2|2,0:0|0:0|0:0,0:0:0:0:
256,192,177283,12,0,180737,0:0:0:0:
256,192,180836,12,0,186165,0:0:0:0:
