osu file format v14

[General]
AudioFilename: audio.mp3
AudioLeadIn: 0
PreviewTime: 114287
Countdown: 0
SampleSet: Soft
StackLeniency: 0.7
Mode: 0
LetterboxInBreaks: 0
EpilepsyWarning: 1
WidescreenStoryboard: 1

[Editor]
DistanceSpacing: 2
BeatDivisor: 4
GridSize: 4
TimelineZoom: 1.800001

[Metadata]
Title:Outside of Melancholy ~Yuuutsu no Mukougawa~
TitleUnicode:Outside of Melancholy 〜憂鬱の向こう側〜
Artist:fhana
ArtistUnicode:fhána
Creator:Sotarks
Version:Insane
Source:
Tags:lantis Junichi Sato yuxuki waga kevin mitsunaga towana zerss
BeatmapID:1216309
BeatmapSetID:568455

[Difficulty]
HPDrainRate:6
CircleSize:3.8
OverallDifficulty:7.8
ApproachRate:9
SliderMultiplier:2.24
SliderTickRate:1

[Events]
//Background and Video events
0,0,"melancholy.jpg",0,0
//Break Periods
2,114350,119230
//Storyboard Layer 0 (Background)
//Storyboard Layer 1 (Fail)
//Storyboard Layer 2 (Pass)
//Storyboard Layer 3 (Foreground)
Sprite,Foreground,Centre,"SB\highlight.png",213,239 F,2,107182,107232,0,1 C,0,107232,,108,244,255 M,0,107232,107295,213,239,227.0576,235.2596 F,2,107232,108359,1,0 P,0,107232,108359,A M,0,107295,107359,227.0576,235.2596,241.3376,232.5104 S,18,107359,108359,1,0.2
Sprite,Foreground,Centre,"SB\highlight.png",326,258 F,2,107436,107486,0,1 C,0,107486,,108,244,255 M,0,107486,107549,326,258,342.979,254.3831 F,2,107486,108613,1,0 P,0,107486,108613,A M,0,107549,107613,342.979,254.3831,359.9715,250.8302 S,18,107613,108613,1,0.2
Sprite,Foreground,Centre,"SB\highlight.png",411,174 F,2,107690,107740,0,1 C,0,107740,,108,244,255 M,0,107740,107803,411,174,425.9155,187.4862 F,2,107740,108867,1,0 P,0,107740,108867,A M,0,107803,107867,425.9155,187.4862,438.1711,203.4029 S,18,107867,108867,1,0.2
Sprite,Foreground,Centre,"SB\highlight.png",512,280 F,2,107944,107994,0,1 C,0,107994,,108,244,255 M,0,107994,108057,512,280,516.2782,257.4421 F,2,107994,109121,1,0 P,0,107994,109121,A M,0,108057,108121,516.2782,257.4421,520.5564,234.8842 S,18,108121,109121,1,0.2
Sprite,Foreground,Centre,"SB\highlight.png",495,137 F,2,108199,108249,0,1 C,0,108249,,157,217,104 M,0,108249,108312,495,137,489.6025,111.8118 F,2,108249,109376,1,0 P,0,108249,109376,A M,0,108312,108376,489.6025,111.8118,484.205,86.62363 S,18,108376,109376,1,0.2
Sprite,Foreground,Centre,"SB\highlight.png",333,89 F,2,108453,108503,0,1 C,0,108503,,157,217,104 M,0,108503,108566,333,89,327.4806,117.0216 F,2,108503,109630,1,0 P,0,108503,109630,A M,0,108566,108630,327.4806,117.0216,321.9612,145.0432 S,18,108630,109630,1,0.2
Sprite,Foreground,Centre,"SB\highlight.png",423,235 F,2,108707,108757,0,1 C,0,108757,,157,217,104 M,0,108757,108820,423,235,416.5857,204.303 F,2,108757,109884,1,0 P,0,108757,109884,A M,0,108820,108884,416.5857,204.303,410.1714,173.606 S,18,108884,109884,1,0.2
Sprite,Foreground,Centre,"SB\highlight.png",240,165 F,2,108961,109011,0,1 C,0,109011,,157,217,104 M,0,109011,109074,240,165,232.8729,198.4082 F,2,109011,110138,1,0 P,0,109011,110138,A M,0,109074,109138,232.8729,198.4082,225.7458,231.8165 S,18,109138,110138,1,0.2
Sprite,Foreground,Centre,"SB\highlight.png",155,339 F,2,109216,109266,0,1 C,0,109266,,199,199,199 M,0,109266,109329,155,339,187.2316,356.2686 F,2,109266,110393,1,0 P,0,109266,110393,A M,0,109329,109393,187.2316,356.2686,223.7776,357.1942 S,18,109393,110393,1,0.2
Sprite,Foreground,Centre,"SB\highlight.png",389,332 F,2,109470,109520,0,1 C,0,109520,,199,199,199 M,0,109520,109583,389,332,353.7537,314.5689 F,2,109520,110647,1,0 P,0,109520,110647,A M,0,109583,109647,353.7537,314.5689,314.4861,314.0608 S,18,109647,110647,1,0.2
Sprite,Foreground,Centre,"SB\highlight.png",260,433 F,2,109724,109774,0,1 C,0,109774,,163,129,129 M,0,109774,109837,260,433,300.048,419.8916 F,2,109774,110901,1,0 P,0,109774,110901,A M,0,109837,109901,300.048,419.8916,330.3136,390.5779 S,18,109901,110901,1,0.2
Sprite,Foreground,Centre,"SB\highlight.png",433,258 F,2,109978,110028,0,1 C,0,110028,,163,129,129 M,0,110028,110091,433,258,390.2204,271.1829 F,2,110028,111155,1,0 P,0,110028,111155,A M,0,110091,110155,390.2204,271.1829,359.2368,303.5004 S,18,110155,111155,1,0.2
Sprite,Foreground,Centre,"SB\highlight.png",406,430 F,2,110233,110283,0,1 C,0,110283,,108,244,255 M,0,110283,110346,406,430,427.7353,387.6193 F,2,110283,111410,1,0 P,0,110283,111410,A M,0,110346,110410,427.7353,387.6193,428.2067,339.9983 S,18,110410,111410,1,0.2
Sprite,Foreground,Centre,"SB\highlight.png",410,168 F,2,110487,110537,0,1 C,0,110537,,108,244,255 M,0,110537,110600,410,168,385.7102,208.6561 F,2,110537,111664,1,0 P,0,110537,111664,A M,0,110600,110664,385.7102,208.6561,387.2071,255.9772 S,18,110664,111664,1,0.2
Sprite,Foreground,Centre,"SB\highlight.png",513,315 F,2,110741,110791,0,1 C,0,110791,,157,217,104 M,0,110791,110854,513,315,495.4815,270.5622 F,2,110791,111918,1,0 P,0,110791,111918,A M,0,110854,110918,495.4815,270.5622,462.0816,236.4262 S,18,110918,111918,1,0.2
Sprite,Foreground,Centre,"SB\highlight.png",322,132 F,2,110995,111045,0,1 C,0,111045,,157,217,104 M,0,111045,111108,322,132,338.7464,176.5933 F,2,111045,112172,1,0 P,0,111045,112172,A M,0,111108,111172,338.7464,176.5933,373.7509,208.7871 S,18,111172,112172,1,0.2
Sprite,Foreground,Centre,"SB\highlight.png",511,109 F,2,111250,111300,0,1 C,0,111300,,199,199,199 M,0,111300,111363,511,109,460.7578,117.5232 F,2,111300,112427,1,0 P,0,111300,112427,A M,0,111363,111427,460.7578,117.5232,410.5156,126.0465 S,18,111427,112427,1,0.2
Sprite,Foreground,Centre,"SB\highlight.png",215,207 F,2,111504,111554,0,1 C,0,111554,,199,199,199 M,0,111554,111617,215,207,265.2422,215.5232 F,2,111554,112681,1,0 P,0,111554,112681,A M,0,111617,111681,265.2422,215.5232,315.4844,224.0464 S,18,111681,112681,1,0.2
Sprite,Foreground,Centre,"SB\highlight.png",530,194 F,2,111758,111808,0,1 C,0,111808,,163,129,129 M,0,111808,111871,530,194,479.7578,202.5232 F,2,111808,112935,1,0 P,0,111808,112935,A M,0,111871,111935,479.7578,202.5232,429.5156,211.0464 S,18,111935,112935,1,0.2
Sprite,Foreground,Centre,"SB\highlight.png",234,292 F,2,112012,112062,0,1 C,0,112062,,163,129,129 M,0,112062,112125,234,292,284.2422,300.5232 F,2,112062,113189,1,0 P,0,112062,113189,A M,0,112125,112189,284.2422,300.5232,334.4844,309.0464 S,18,112189,113189,1,0.2
Sprite,Foreground,Centre,"SB\highlight.png",470,401 F,2,112267,112317,0,1 C,0,112317,,108,244,255 M,0,112317,112380,470,401,449.4771,351.4981 F,2,112317,113444,1,0 P,0,112317,113444,A M,0,112380,112444,449.4771,351.4981,442.6999,298.3587 S,18,112444,113444,1,0.2
Sprite,Foreground,Centre,"SB\highlight.png",557,91 F,2,112521,112571,0,1 C,0,112571,,108,244,255 M,0,112571,112634,557,91,549.8359,144.09 F,2,112571,113698,1,0 P,0,112571,113698,A M,0,112634,112698,549.8359,144.09,529,193 S,18,112698,113698,1,0.2
Sprite,Foreground,Centre,"SB\highlight.png",191,329 F,2,112775,112825,0,1 C,0,112825,,157,217,104 M,0,112825,112888,191,329,211.0348,279.3173 F,2,112825,113952,1,0 P,0,112825,113952,A M,0,112888,112952,211.0348,279.3173,243.6172,236.8122 S,18,112952,113952,1,0.2
Sprite,Foreground,Centre,"SB\highlight.png",469,126 F,2,113029,113079,0,1 C,0,113079,,157,217,104 M,0,113079,113142,469,126,425.9131,157.9175 F,2,113079,114206,1,0 P,0,113079,114206,A M,0,113142,113206,425.9131,157.9175,377,179 S,18,113206,114206,1,0.2
Sprite,Foreground,Centre,"SB\highlight.png",190,374 F,2,119780,119830,0,1 C,0,119830,,199,199,199 M,0,119830,119893,190,374,226.8759,371.5084 F,2,119830,120957,1,0 P,0,119830,120957,A M,0,119893,119957,226.8759,371.5084,263.7518,369.0168 S,18,119957,120957,1,0.2
Sprite,Foreground,Centre,"SB\highlight.png",429,317 F,2,120034,120084,0,1 C,0,120084,,199,199,199 M,0,120084,120147,429,317,392.3718,320.7923 F,2,120084,121338,1,0 P,0,120084,121338,A M,0,120147,120211,392.3718,320.7923,355.9903,315.1626 M,0,120211,120274,355.9903,315.1626,322.4467,299.9984 M,0,120274,120338,322.4467,299.9984,293.9272,276.7427 S,18,120338,121338,1,0.2
Sprite,Foreground,Centre,"SB\highlight.png",377,76 F,2,120415,120465,0,1 C,0,120465,,163,129,129 M,0,120465,120528,377,76,396.8807,113.6313 F,2,120465,121719,1,0 P,0,120465,121719,A M,0,120528,120592,396.8807,113.6313,399.9782,153.6725 M,0,120592,120655,399.9782,153.6725,391.4896,195.3773 M,0,120655,120719,391.4896,195.3773,383.001,237.0822 S,18,120719,121719,1,0.2
Sprite,Foreground,Centre,"SB\highlight.png",479,168 F,2,120796,120846,0,1 C,0,120846,,163,129,129 M,0,120846,120909,479,168,521.3749,164.114 F,2,120846,121973,1,0 P,0,120846,121973,A M,0,120909,120973,521.3749,164.114,563.9083,162.8616 S,18,120973,121973,1,0.2
Sprite,Foreground,Centre,"SB\highlight.png",322,139 F,2,121050,121100,0,1 C,0,121100,,163,129,129 M,0,121100,121163,322,139,279.6251,135.114 F,2,121100,122227,1,0 P,0,121100,122227,A M,0,121163,121227,279.6251,135.114,237.0917,133.8616 S,18,121227,122227,1,0.2
Sprite,Foreground,Centre,"SB\highlight.png",487,251 F,2,121304,121354,0,1 C,0,121354,,163,129,129 M,0,121354,121417,487,251,512.9001,284.2132 F,2,121354,122608,1,0 P,0,121354,122608,A M,0,121417,121481,512.9001,284.2132,520.351,325.6275 M,0,121481,121544,520.351,325.6275,507.6722,365.716 M,0,121544,121608,507.6722,365.716,477.8053,395.2705 S,18,121608,122608,1,0.2
Sprite,Foreground,Centre,"SB\highlight.png",345,309 F,2,121686,121736,0,1 C,0,121736,,163,129,129 M,0,121736,121799,345,309,387.2863,306.6868 F,2,121736,122863,1,0 P,0,121736,122863,A M,0,121799,121863,387.2863,306.6868,428.0842,317.9337 S,18,121863,122863,1,0.2
Sprite,Foreground,Centre,"SB\highlight.png",265,237 F,2,121940,121990,0,1 C,0,121990,,163,129,129 M,0,121990,122053,265,237,305.2515,223.8162 F,2,121990,123117,1,0 P,0,121990,123117,A M,0,122053,122117,305.2515,223.8162,347.5776,223.89 S,18,122117,123117,1,0.2
Sprite,Foreground,Centre,"SB\highlight.png",159,189 F,2,122194,122244,0,1 C,0,122244,,163,129,129 M,0,122244,122307,159,189,194.441,165.8517 F,2,122244,123371,1,0 P,0,122244,123371,A M,0,122307,122371,194.441,165.8517,235.2713,154.8526 S,18,122371,123371,1,0.2
//Storyboard Sound Samples

[TimingPoints]
935,521.739130434783,4,2,2,32,1,0
935,-192.307692307692,4,2,2,32,0,0
13456,555.555555555556,4,2,2,32,1,0
13456,-192.307692307692,4,2,2,32,0,0
15708,681.818181818182,4,2,2,32,1,0
15708,-192.307692307692,4,2,2,32,0,0
16389,-192.307692307693,4,2,2,32,0,0
17044,750,4,2,2,32,1,0
17044,-192.307692307692,4,2,2,32,0,0
18708,508.474576271186,4,2,22,82,1,0
18708,-65.7894736842105,4,2,22,82,0,0
18771,-65.7894736842105,4,2,2,62,0,0
22780,508.474576271186,4,2,2,72,1,0
22780,-61.7283950617284,4,2,2,72,0,0
23669,-192.307692307692,4,2,2,62,0,0
25195,-138.888888888889,4,2,2,42,0,0
25322,-121.951219512195,4,2,2,42,0,0
25830,508.474576271186,4,2,2,52,1,0
25830,-98.0392156862745,4,2,2,52,0,0
56338,-75.7575757575758,4,2,69,62,0,1
56402,-75.7575757575758,4,2,2,62,0,1
70575,-75.7575757575758,4,2,2,62,0,0
72609,-75.7575757575758,4,2,69,62,0,1
72674,-75.7575757575758,4,2,2,62,0,1
84813,-75.7575757575758,4,2,2,62,0,0
86855,508.474576271186,4,2,2,62,1,0
86855,-75.7575757575758,4,2,2,62,0,0
88913,508.474576271186,4,2,69,62,1,1
88913,-65.7894736842105,4,2,69,62,0,1
88976,-65.7894736842105,4,2,2,62,0,1
92995,508.474576271186,4,2,2,62,1,1
92995,-65.7894736842105,4,2,2,62,0,1
95028,-75.7575757575758,4,2,2,62,0,0
103164,-70.4225352112676,4,2,2,62,0,0
107232,-192.307692307692,4,2,69,42,0,0
107295,-192.307692307692,4,2,2,32,0,0
107359,-192.307692307692,4,2,2,12,0,0
107486,-161.290322580645,4,2,2,32,0,0
107613,-161.290322580645,4,2,2,12,0,0
107740,-138.888888888889,4,2,2,42,0,0
107867,-138.888888888889,4,2,2,12,0,0
107994,-121.951219512195,4,2,2,42,0,0
108122,-121.951219512195,4,2,2,12,0,0
108249,-108.695652173913,4,2,2,42,0,0
108376,-108.695652173913,4,2,2,12,0,0
108503,-98.0392156862745,4,2,2,42,0,0
108630,-98.0392156862745,4,2,2,12,0,0
108757,-89.2857142857143,4,2,2,52,0,0
108884,-89.2857142857143,4,2,2,12,0,0
109011,-81.9672131147541,4,2,2,52,0,0
109139,-81.9672131147541,4,2,2,12,0,0
109266,-75.7575757575758,4,2,2,52,0,0
109393,-75.7575757575758,4,2,2,12,0,0
109520,-70.4225352112676,4,2,2,52,0,0
109647,-70.4225352112676,4,2,2,12,0,0
109774,-65.7894736842105,4,2,2,62,0,0
109901,-65.7894736842105,4,2,2,12,0,0
110028,-61.7283950617284,4,2,2,62,0,0
110156,-61.7283950617284,4,2,2,12,0,0
110283,-58.1395348837209,4,2,2,62,0,0
110410,-58.1395348837209,4,2,2,12,0,0
110537,-58.1395348837209,4,2,2,62,0,0
110664,-58.1395348837209,4,2,2,12,0,0
110791,-58.1395348837209,4,2,2,72,0,0
110918,-58.1395348837209,4,2,2,12,0,0
111045,-58.1395348837209,4,2,2,72,0,0
111172,-58.1395348837209,4,2,2,12,0,0
111300,-54.9450549450549,4,2,2,72,0,0
111427,-54.9450549450549,4,2,2,12,0,0
111554,-54.9450549450549,4,2,2,72,0,0
111681,-54.9450549450549,4,2,2,12,0,0
111808,-54.9450549450549,4,2,2,72,0,0
111935,-54.9450549450549,4,2,2,12,0,0
112062,-54.9450549450549,4,2,2,72,0,0
112189,-54.9450549450549,4,2,2,12,0,0
112317,-52.0833333333333,4,2,2,82,0,0
112444,-52.0833333333333,4,2,2,12,0,0
112571,-52.0833333333333,4,2,2,82,0,0
112698,-52.0833333333333,4,2,2,12,0,0
112825,-52.0833333333333,4,2,2,92,0,0
112952,-52.0833333333333,4,2,2,12,0,0
113079,-52.0833333333333,4,2,2,92,0,0
113206,-52.0833333333333,4,2,2,12,0,0
119830,508.474576271186,4,2,2,52,1,0
119830,-75.7575757575758,4,2,2,52,0,0
120465,508.474576271186,4,2,2,52,1,0
120465,-65.7894736842105,4,2,2,52,0,0
122498,-75.7575757575758,4,2,69,72,0,1
122562,-75.7575757575758,4,2,2,62,0,1
126566,-75.7575757575758,4,2,2,62,0,0
130634,-75.7575757575758,4,2,69,62,0,1
130698,-75.7575757575758,4,2,2,62,0,1
146905,-75.7575757575758,4,2,2,62,0,0
149433,508.474576271186,4,2,2,62,1,0
149433,-75.7575757575758,4,2,2,62,0,0
150704,-98.0392156862745,4,2,2,62,0,0
150958,508.474576271186,4,2,2,62,1,0
150958,-75.7575757575758,4,2,2,62,0,0
155025,-65.7894736842105,4,2,69,62,0,1
155089,-65.7894736842105,4,2,2,62,0,1
163185,508.474576271186,4,2,2,72,1,0
163185,-61.7283950617284,4,2,2,72,0,0
164074,-192.307692307692,4,2,2,72,0,0
167315,521.739130434783,4,2,2,32,1,0
167315,-192.307692307692,4,2,2,32,0,0
171482,625,4,2,2,32,1,0
171482,-192.307692307692,4,2,2,32,0,0
172746,681.818181818182,4,2,2,32,1,0
172746,-192.307692307692,4,2,2,32,0,0
174110,750,4,2,2,32,1,0
174110,-192.307692307692,4,2,2,32,0,0
175606,789.473684210526,4,2,2,32,1,0
175606,-192.307692307692,4,2,2,32,0,0
180737,-100,4,2,2,22,0,0
186165,-100,4,2,2,5,0,0

[Colours]
Combo1 : 163,129,129
Combo2 : 108,244,255
Combo3 : 157,217,104
Combo4 : 199,199,199

[HitObjects]
124,124,935,6,0,P|168:128|234:94,2,116.479999289063,2|2|2,0:0|0:0|0:0,0:0:0:0:
291,249,2500,1,0,0:0:0:0:
383,164,2761,2,0,B|323:183|314:154|266:167,1,116.479999289063,2|0,0:0|0:0,0:0:0:0:
233,257,3543,2,0,P|293:248|303:244,1,58.2399996445313,2|0,0:0|0:0,0:0:0:0:
175,188,4065,2,0,P|156:211|148:244,1,58.2399996445313,2|0,0:0|0:0,0:0:0:0:
174,338,4587,1,2,0:0:0:0:
66,290,4848,1,0,0:0:0:0:
62,140,5108,6,0,L|54:79,2,58.2399996445313,2|0|2,0:0|0:0|0:0,0:0:0:0:
182,79,5891,1,0,0:0:0:0:
301,137,6152,2,0,L|309:77,2,58.2399996445313,2|0|2,0:0|0:0|0:0,0:0:0:0:
181,169,6935,1,0,0:0:0:0:
366,218,7195,2,0,P|326:226|251:209,1,116.479999289063,2|0,0:0|0:0,0:0:0:0:
339,96,7978,2,0,L|382:94,1,29.1199998222656,0|0,0:0|0:0,0:0:0:0:
434,168,8239,2,0,P|446:193|422:281,1,116.479999289063,2|0,0:0|0:0,0:0:0:0:
320,334,9021,2,0,P|288:330|283:329,1,29.1199998222656,0|0,0:0|0:0,0:0:0:0:
200,352,9282,6,0,P|200:326|173:238,1,116.479999289063,2|0,0:0|0:0,0:0:0:0:
94,175,10065,1,0,0:0:0:0:
237,186,10326,2,0,L|340:194,2,87.3599994667969,2|2|2,0:0|0:0|0:0,0:0:0:0:
34,95,11369,2,0,P|89:87|124:88,1,87.3599994667969,2|0,0:0|0:0,0:0:0:0:
210,111,11891,2,0,P|248:110|299:102,1,87.3599994667969,2|0,0:0|0:0,0:0:0:0:
368,42,12413,2,0,L|379:137,1,87.3599994667969,2|0,0:0|0:0,0:0:0:0:
376,217,12935,1,2,0:0:0:0:
328,330,13195,1,0,0:0:0:0:
159,282,13456,6,0,L|222:271,1,58.2399996445313,2|0,0:0|0:0,0:0:0:0:
75,341,14011,1,0,0:0:0:0:
75,341,14150,2,0,P|65:308|69:273,1,58.2399996445313,2|0,0:0|0:0,0:0:0:0:
109,216,14567,2,0,P|109:181|80:101,1,116.479999289063,2|0,0:0|0:0,0:0:0:0:
250,39,15708,6,0,L|257:119,1,58.2399996445313,2|0,0:0|0:0,0:0:0:0:
386,119,16389,6,0,L|383:177,1,58.2399996445313,2|0,0:0|0:0,0:0:0:0:
256,232,17044,6,0,L|260:336,2,87.3599994667969,2|0|2,0:0|0:0|0:0,0:0:0:0:
94,106,18708,5,4,1:0:0:0:
94,106,18835,2,0,B|176:74|175:150|280:110,1,170.239997921875,8|0,0:0|1:0,0:0:0:0:
444,92,19216,2,0,P|389:103|354:121,1,85.1199989609375,8|0,0:0|0:0,0:0:0:0:
302,213,19470,1,0,1:0:0:0:
258,116,19597,2,0,P|215:157|223:284,1,170.239997921875,12|0,0:0|1:0,0:0:0:0:
333,343,19979,2,0,L|240:342,1,85.1199989609375,8|0,0:0|0:0,0:0:0:0:
124,263,20233,2,0,L|217:262,1,85.1199989609375,8|0,0:0|1:0,0:0:0:0:
387,213,20487,2,0,L|294:212,1,85.1199989609375,8|8,0:0|0:0,0:0:0:0:
151,167,20741,5,4,1:0:0:0:
151,167,20869,2,0,B|110:155|110:155|253:134,1,170.239997921875,8|0,0:0|1:0,0:0:0:0:
390,105,21250,2,0,P|313:88|284:78,1,85.1199989609375,8|0,0:0|0:0,0:0:0:0:
158,65,21504,1,0,1:0:0:0:
248,152,21631,2,0,P|270:234|225:308,1,170.239997921875,12|0,0:0|1:0,0:0:0:0:
50,341,22013,2,0,P|100:329|144:337,1,85.1199989609375,8|0,0:0|1:0,0:0:0:0:
313,313,22267,2,0,P|272:301|230:305,1,85.1199989609375,8|0,0:0|1:0,0:0:0:0:
47,261,22521,2,0,P|97:249|141:257,1,85.1199989609375,8|8,0:0|0:0,0:0:0:0:
252,376,22780,5,4,1:0:0:0:
376,296,22907,2,0,B|315:312|315:312|263:290|263:290|195:301,1,181.440004429688,8|0,0:0|1:0,0:0:0:0:
50,171,23288,2,0,P|109:186|187:104,1,181.440004429688,12|0,0:0|1:0,0:0:0:0:
26,37,23669,6,0,B|82:25|82:25|136:46|136:46|244:-9|269:104|367:23,1,349.439997867188,12|0,0:0|3:0,0:0:0:0:
411,106,25322,2,0,P|414:152|415:171,1,45.9200007006836,0|0,3:0|3:0,0:0:0:0:
344,201,25576,2,0,L|343:224|342:247,1,45.9200007006836,0|0,3:0|0:0,0:0:0:0:
151,73,25830,6,0,B|153:115|153:115|143:148|143:148|147:204,1,114.240000697266,6|0,1:2|3:0,0:0:0:0:
227,323,26339,1,10,0:0:0:0:
160,273,26466,2,0,P|189:249|219:240,2,57.1200003486328,0|0|8,1:0|0:0|0:0,0:0:0:0:
41,343,26847,2,0,P|50:294|20:214,1,114.240000697266,2|0,1:2|3:0,0:0:0:0:
67,76,27356,2,0,L|137:65,1,57.1200003486328,10|0,0:0|0:0,0:0:0:0:
206,112,27610,2,0,L|262:120,1,57.1200003486328,2|0,0:0|1:0,0:0:0:0:
359,62,27864,6,0,P|347:107|375:179,2,114.240000697266,0|0|8,1:0|3:0|0:0,0:0:0:0:
446,110,28500,2,0,P|462:151|467:185,1,57.1200003486328,0|0,1:0|0:0,0:0:0:0:
430,259,28754,1,8,0:0:0:0:
367,169,28881,2,0,B|239:183,1,114.240000697266,0|0,1:0|3:0,0:0:0:0:
97,264,29390,2,0,B|225:278,1,114.240000697266,8|0,0:0|3:0,0:0:0:0:
284,333,29771,1,0,1:0:0:0:
290,239,29898,6,0,L|282:175,1,57.1200003486328,2|0,1:2|0:0,0:0:0:0:
200,129,30152,2,0,L|208:65,1,57.1200003486328,2|0,3:2|0:0,0:0:0:0:
295,99,30407,2,0,P|351:108|424:70,1,114.240000697266,10|2,0:0|3:2,0:0:0:0:
339,21,30788,1,8,0:0:0:0:
395,181,30915,2,0,L|402:243,1,57.1200003486328,2|0,1:2|0:0,0:0:0:0:
290,239,31169,2,0,L|283:301,1,57.1200003486328,2|0,3:2|0:0,0:0:0:0:
170,339,31424,2,0,P|131:337|98:330,1,57.1200003486328,10|0,0:2|1:0,0:0:0:0:
32,256,31678,2,0,P|71:254|104:247,1,57.1200003486328,2|0,0:0|1:0,0:0:0:0:
173,184,31932,5,2,1:2:0:0:
88,100,32059,2,0,P|142:104|206:64,1,114.240000697266,8|0,0:0|1:0,0:0:0:0:
310,16,32441,2,0,P|346:21|382:34,1,57.1200003486328,8|0,0:0|0:0,0:0:0:0:
447,105,32695,2,0,P|411:110|375:123,1,57.1200003486328,2|2,0:0|0:0,0:0:0:0:
339,201,32949,1,2,1:2:0:0:
420,288,33076,2,0,P|360:282|297:310,1,114.240000697266,8|0,0:0|0:0,0:0:0:0:
207,365,33457,2,0,P|173:358|140:346,1,57.1200003486328,8|8,0:0|0:0,0:0:0:0:
82,278,33712,1,4,3:0:0:0:
82,278,33839,1,8,3:0:0:0:
189,269,33966,6,0,P|193:182|198:146,2,114.240000697266,2|0|8,1:2|3:0|0:0,0:0:0:0:
318,207,34602,2,0,P|281:220|259:248,1,57.1200003486328,0|2,1:0|0:0,0:0:0:0:
338,302,34856,1,8,0:0:0:0:
396,168,34983,2,0,P|364:131|291:124,1,114.240000697266,2|0,1:2|3:0,0:0:0:0:
114,54,35491,2,0,L|242:28,1,114.240000697266,8|2,0:0|1:2,0:0:0:0:
312,34,35873,1,0,0:0:0:0:
282,129,36000,6,0,P|247:161|245:238,1,114.240000697266,6|0,1:2|0:0,0:0:0:0:
75,336,36508,2,0,P|67:232|63:203,1,114.240000697266,8|0,0:0|3:0,0:0:0:0:
32,139,36890,1,8,0:0:0:0:
124,138,37017,1,2,1:2:0:0:
124,138,37144,2,0,L|255:110,1,114.240000697266,8|0,0:0|1:0,0:0:0:0:
373,239,37525,2,0,L|251:214,1,114.240000697266,8|0,0:0|3:0,0:0:0:0:
468,176,38034,6,0,P|477:226|480:248,1,57.1200003486328,2|0,1:2|0:0,0:0:0:0:
363,295,38288,2,0,P|367:266|372:238,1,57.1200003486328,2|0,3:2|0:0,0:0:0:0:
355,144,38542,1,10,1:2:0:0:
289,249,38669,2,0,L|155:229,1,114.240000697266,2|0,1:2|1:0,0:0:0:0:
72,232,39051,1,2,1:2:0:0:
127,145,39178,2,0,P|125:99|98:27,1,114.240000697266,8|0,0:0|1:0,0:0:0:0:
220,76,39559,2,0,L|349:54,1,114.240000697266,8|0,0:0|3:0,0:0:0:0:
429,81,39941,1,8,0:0:0:0:
355,144,40068,5,2,1:2:0:0:
445,170,40195,2,0,L|453:290,1,114.240000697266,8|0,0:0|3:0,0:0:0:0:
353,352,40576,2,0,P|367:299|371:278,1,57.1200003486328,10|0,0:2|0:0,0:0:0:0:
277,233,40830,2,0,P|279:276|285:309,1,57.1200003486328,2|0,1:2|0:0,0:0:0:0:
238,363,41085,1,0,1:0:0:0:
176,299,41212,2,0,P|232:275|297:303,1,114.240000697266,8|2,0:0|1:2,0:0:0:0:
353,352,41593,2,0,P|397:345|419:329,1,57.1200003486328,8|8,0:0|0:0,0:0:0:0:
431,249,41847,1,4,3:0:0:0:
431,249,42102,6,0,L|426:170,1,57.1200003486328,6|0,1:2|0:0,0:0:0:0:
355,81,42356,2,0,L|351:138,1,57.1200003486328,2|0,0:2|1:0,0:0:0:0:
277,233,42610,2,0,P|229:223|206:213,1,57.1200003486328,10|0,0:2|0:0,0:0:0:0:
143,324,42864,2,0,P|191:314|214:304,1,57.1200003486328,2|0,1:2|0:0,0:0:0:0:
76,245,43118,2,0,P|62:210|53:168,1,57.1200003486328,2|8,1:2|0:0,0:0:0:0:
172,124,43373,2,0,P|164:151|153:177,1,57.1200003486328,2|0,0:2|1:0,0:0:0:0:
123,51,43627,2,0,P|165:39|242:68,1,114.240000697266,10|2,0:2|1:2,0:0:0:0:
366,227,44135,6,0,P|370:172|387:110,1,114.240000697266,0|2,1:0|0:2,0:0:0:0:
451,191,44517,1,2,1:2:0:0:
396,307,44644,2,0,P|354:314|330:308,1,57.1200003486328,8|2,0:0|0:2,0:0:0:0:
227,246,44898,2,0,P|269:239|293:245,1,57.1200003486328,0|2,1:0|0:2,0:0:0:0:
261,336,45152,1,0,1:0:0:0:
177,307,45279,2,0,P|176:255|160:188,1,114.240000697266,8|0,0:0|1:0,0:0:0:0:
71,131,45661,2,0,P|60:96|59:70,1,57.1200003486328,8|0,0:0|0:0,0:0:0:0:
128,7,45915,1,0,1:0:0:0:
128,7,46169,6,0,L|199:10,1,57.1200003486328,2|0,1:2|0:0,0:0:0:0:
294,81,46424,2,0,L|351:78,1,57.1200003486328,2|0,0:2|1:0,0:0:0:0:
458,15,46678,2,0,P|453:56|460:92,1,57.1200003486328,10|0,0:2|0:0,0:0:0:0:
505,184,46932,2,0,P|509:212|508:240,1,57.1200003486328,2|0,1:2|0:0,0:0:0:0:
420,330,47186,2,0,P|384:319|289:343,1,114.240000697266,2|2,1:2|0:2,0:0:0:0:
144,308,47695,1,10,0:2:0:0:
72,253,47822,2,0,P|108:229|197:234,1,114.240000697266,2|0,0:2|0:0,0:0:0:0:
291,252,48203,6,0,B|282:213|282:213|291:183|291:183|280:123,1,114.240000697266,2|0,1:2|0:0,0:0:0:0:
213,81,48585,1,0,1:0:0:0:
318,63,48712,2,0,L|382:46,1,57.1200003486328,8|0,0:0|0:0,0:0:0:0:
418,154,48966,2,0,L|354:137,1,57.1200003486328,2|0,1:2|0:0,0:0:0:0:
450,73,49220,1,6,1:2:0:0:
501,168,49347,2,0,L|492:238,2,57.1200003486328,8|2|2,0:0|1:2|0:2,0:0:0:0:
412,236,49729,2,0,P|413:278|416:311,1,57.1200003486328,8|2,0:0|0:2,0:0:0:0:
503,304,49983,2,0,P|502:332|500:361,1,57.1200003486328,0|2,3:0|0:2,0:0:0:0:
413,330,50237,6,0,L|286:316,1,114.240000697266,2|2,1:2|0:2,0:0:0:0:
211,352,50618,1,0,1:0:0:0:
137,291,50746,2,0,P|97:287|33:331,1,114.240000697266,8|0,0:0|1:0,0:0:0:0:
241,204,51254,1,8,0:0:0:0:
144,199,51381,2,0,L|77:178,1,57.1200003486328,10|0,0:2|0:0,0:0:0:0:
15,116,51635,2,0,L|82:95,1,57.1200003486328,2|10,0:2|0:2,0:0:0:0:
167,113,51890,2,0,P|207:108|237:95,1,57.1200003486328,2|0,0:2|3:0,0:0:0:0:
287,26,52144,6,0,P|316:69|315:139,1,114.240000697266,6|0,1:2|0:0,0:0:0:0:
367,259,52525,2,0,P|380:221|396:196,1,57.1200003486328,2|0,1:2|0:0,0:0:0:0:
474,96,52779,2,0,L|483:236,1,114.240000697266,10|2,0:2|3:0,0:0:0:0:
241,204,53288,1,0,1:0:0:0:
306,134,53415,2,0,P|335:181|322:259,1,114.240000697266,8|0,0:0|1:0,0:0:0:0:
234,296,53796,2,0,P|185:277|171:261,1,57.1200003486328,8|0,0:0|0:0,0:0:0:0:
158,165,54051,2,0,P|176:136|201:122,1,57.1200003486328,2|0,3:0|0:0,0:0:0:0:
260,40,54305,6,0,B|196:31|196:31|132:44,1,114.240000697266,6|0,1:2|0:0,0:0:0:0:
42,241,54813,2,0,P|89:232|150:274,1,114.240000697266,10|0,0:2|0:0,0:0:0:0:
341,170,55322,2,0,L|267:178,1,57.1200003486328,2|8,1:2|0:0,0:0:0:0:
143,264,55576,2,0,L|217:272,1,57.1200003486328,10|8,0:2|0:0,0:0:0:0:
177,111,55830,2,0,P|158:163|159:189,1,57.1200003486328,4|4,3:0|3:0,0:0:0:0:
307,309,56085,2,0,P|301:281|287:255,1,57.1200003486328,4|4,3:0|3:0,0:0:0:0:
77,331,56339,6,0,P|157:352|220:315,1,147.839999548828,6|2,1:2|0:0,0:0:0:0:
135,190,56720,2,0,P|151:287|155:296,1,73.9199997744141,2|8,1:2|0:0,0:0:0:0:
246,133,56974,2,0,P|204:116|160:109,1,73.9199997744141,2|0,0:0|1:0,0:0:0:0:
226,234,57229,2,0,P|262:225|295:211,1,73.9199997744141,2|0,0:0|1:0,0:0:0:0:
309,8,57483,2,0,B|266:41|266:41|245:135,1,147.839999548828,10|0,0:0|1:0,0:0:0:0:
410,80,57864,2,0,P|362:79|330:98,1,73.9199997744141,10|0,0:0|0:0,0:0:0:0:
376,237,58118,2,0,P|390:196|388:165,1,73.9199997744141,2|0,0:0|0:0,0:0:0:0:
226,234,58373,6,0,L|228:332,1,73.9199997744141,2|0,1:2|0:0,0:0:0:0:
337,324,58627,1,2,0:0:0:0:
297,167,58754,2,0,L|221:133,1,73.9199997744141,2|8,1:2|0:0,0:0:0:0:
158,264,59008,2,0,L|234:230,1,73.9199997744141,2|0,0:0|1:0,0:0:0:0:
107,174,59263,2,0,P|71:212|58:254,1,73.9199997744141,2|0,0:0|1:0,0:0:0:0:
216,367,59517,2,0,P|244:323|215:223,1,147.839999548828,8|0,0:0|1:0,0:0:0:0:
57,343,59898,2,0,P|111:348|140:337,1,73.9199997744141,8|0,0:0|0:0,0:0:0:0:
107,174,60152,2,0,P|71:212|58:254,1,73.9199997744141,0|0,1:0|0:0,0:0:0:0:
195,112,60407,6,0,P|155:88|109:73,1,73.9199997744141,2|0,1:2|0:0,0:0:0:0:
107,174,60661,1,2,0:0:0:0:
207,204,60788,2,0,P|251:194|280:161,1,73.9199997744141,2|8,1:2|0:0,0:0:0:0:
213,40,61042,2,0,L|190:131,1,73.9199997744141,2|0,0:0|1:0,0:0:0:0:
354,101,61296,2,0,P|302:89|273:98,1,73.9199997744141,2|0,0:0|1:0,0:0:0:0:
360,284,61551,2,0,P|365:216|286:174,1,147.839999548828,10|0,0:0|1:0,0:0:0:0:
284,333,61932,2,0,P|315:364|350:369,1,73.9199997744141,10|0,0:0|0:0,0:0:0:0:
453,235,62186,2,0,P|435:175|416:149,1,73.9199997744141,2|0,1:2|0:0,0:0:0:0:
240,114,62441,6,0,P|217:183|218:213,1,73.9199997744141,2|0,1:2|0:0,0:0:0:0:
305,173,62695,1,2,0:0:0:0:
139,156,62822,2,0,P|146:227|165:251,1,73.9199997744141,2|8,1:2|0:0,0:0:0:0:
294,253,63076,2,0,L|374:240,1,73.9199997744141,2|0,0:0|1:0,0:0:0:0:
352,79,63330,2,0,P|325:127|314:158,1,73.9199997744141,2|0,0:0|1:0,0:0:0:0:
458,276,63585,2,0,P|462:218|389:147,1,147.839999548828,8|0,0:0|1:0,0:0:0:0:
222,192,63966,2,0,P|200:239|193:279,1,73.9199997744141,10|0,0:0|0:0,0:0:0:0:
320,321,64220,2,0,P|310:285|293:252,1,73.9199997744141,2|0,0:0|0:0,0:0:0:0:
109,246,64474,6,0,P|117:310|193:348,1,147.839999548828,2|2,1:2|0:0,0:0:0:0:
222,192,64856,2,0,P|200:239|193:279,1,73.9199997744141,2|8,1:2|0:0,0:0:0:0:
311,172,65110,2,0,P|281:122|248:99,1,73.9199997744141,2|0,0:0|1:0,0:0:0:0:
104,172,65364,2,0,L|109:263,1,73.9199997744141,2|0,0:0|1:0,0:0:0:0:
170,98,65618,2,0,B|126:83|126:83|18:112,1,147.839999548828,10|0,0:0|1:0,0:0:0:0:
17,241,66000,2,0,L|38:321,1,73.9199997744141,10|0,0:0|0:0,0:0:0:0:
203,263,66254,2,0,L|221:191,1,73.9199997744141,2|0,0:0|1:0,0:0:0:0:
115,268,66508,6,0,P|133:317|162:343,1,73.9199997744141,2|0,1:2|0:0,0:0:0:0:
252,338,66763,1,2,0:0:0:0:
221,191,66890,2,0,L|203:263,1,73.9199997744141,2|8,1:2|0:0,0:0:0:0:
315,212,67144,2,0,P|306:149|297:130,1,73.9199997744141,2|0,0:0|0:0,0:0:0:0:
233,29,67398,2,0,P|221:64|220:100,1,73.9199997744141,2|0,0:0|1:0,0:0:0:0:
402,160,67652,2,0,P|379:99|287:62,1,147.839999548828,10|0,0:0|1:0,0:0:0:0:
315,212,68034,2,0,P|360:254|393:261,1,73.9199997744141,8|0,0:0|0:0,0:0:0:0:
402,160,68288,1,2,1:2:0:0:
402,160,68415,1,2,0:0:0:0:
238,148,68542,6,0,B|220:190|220:190|229:243|229:243|215:299,1,147.839999548828,6|0,1:2|0:0,0:0:0:0:
315,212,68924,1,0,1:0:0:0:
215,67,69051,2,0,P|175:89|157:127,1,73.9199997744141,8|0,0:0|0:0,0:0:0:0:
149,243,69305,1,2,0:0:0:0:
308,299,69432,2,0,P|354:292|378:275,1,73.9199997744141,2|0,0:0|1:0,0:0:0:0:
359,80,69686,2,0,P|324:120|316:217,1,147.839999548828,8|0,0:0|1:0,0:0:0:0:
472,146,70068,2,0,P|409:155|385:174,1,73.9199997744141,8|0,0:0|0:0,0:0:0:0:
453,305,70322,2,0,P|461:243|456:221,1,73.9199997744141,0|0,0:0|0:0,0:0:0:0:
307,298,70576,6,0,P|245:314|163:265,1,147.839999548828,6|0,1:2|0:0,0:0:0:0:
126,201,70957,1,0,1:0:0:0:
247,228,71085,2,0,L|263:75,1,147.839999548828,10|0,0:0|0:0,0:0:0:0:
335,152,71466,1,8,0:0:0:0:
177,125,71593,6,0,P|137:119|97:111,1,73.9199997744141,6|0,1:2|0:0,0:0:0:0:
263,67,71847,2,0,P|303:61|343:53,1,73.9199997744141,10|0,3:0|0:0,0:0:0:0:
181,37,72102,1,0,1:0:0:0:
181,37,72229,1,8,0:0:0:0:
247,228,72356,2,0,L|256:150,1,73.9199997744141,4|0,3:0|0:0,0:0:0:0:
341,239,72610,6,0,P|318:295|224:318,1,147.839999548828,6|2,1:2|0:0,0:0:0:0:
174,224,72991,2,0,P|227:222|264:236,1,73.9199997744141,2|8,1:2|0:0,0:0:0:0:
134,313,73246,2,0,P|94:276|84:240,1,73.9199997744141,2|0,0:0|1:0,0:0:0:0:
168,150,73500,2,0,L|176:252,1,73.9199997744141,2|0,0:0|1:0,0:0:0:0:
76,152,73754,2,0,B|84:108|84:108|113:56|182:51,1,147.839999548828,10|0,0:0|1:0,0:0:0:0:
240,139,74135,2,0,P|189:148|155:150,1,73.9199997744141,10|0,0:0|0:0,0:0:0:0:
252,49,74390,2,0,P|298:75|321:101,1,73.9199997744141,2|0,1:2|0:0,0:0:0:0:
332,243,74644,6,0,B|323:208|323:208|322:151,1,73.9199997744141,2|0,1:2|0:0,0:0:0:0:
411,203,74898,1,2,0:0:0:0:
398,309,75025,2,0,P|356:333|314:335,1,73.9199997744141,2|8,1:2|0:0,0:0:0:0:
259,252,75279,2,0,P|314:242|350:246,1,73.9199997744141,2|0,0:0|1:0,0:0:0:0:
208,331,75534,2,0,B|182:308|182:308|170:260,1,73.9199997744141,2|2,0:0|1:2,0:0:0:0:
204,119,75788,2,0,B|238:156|238:156|262:267,1,147.839999548828,8|0,0:0|1:0,0:0:0:0:
96,212,76169,2,0,P|149:197|174:194,1,73.9199997744141,8|0,0:0|0:0,0:0:0:0:
82,302,76424,2,0,P|38:276|14:243,1,73.9199997744141,0|0,1:0|0:0,0:0:0:0:
86,139,76678,6,0,P|96:189|91:239,1,73.9199997744141,2|0,1:2|0:0,0:0:0:0:
9,181,76932,1,2,0:0:0:0:
16,74,77059,2,0,L|96:51,1,73.9199997744141,2|8,1:2|0:0,0:0:0:0:
157,159,77313,2,0,L|77:136,1,73.9199997744141,2|0,0:0|1:0,0:0:0:0:
214,90,77568,2,0,P|244:134|247:174,1,73.9199997744141,2|0,0:0|1:0,0:0:0:0:
195,307,77822,2,0,P|205:271|331:246,1,147.839999548828,10|0,0:0|1:0,0:0:0:0:
345,352,78203,2,0,P|298:333|279:307,1,73.9199997744141,10|0,0:0|0:0,0:0:0:0:
366,181,78457,2,0,P|384:237|377:277,1,73.9199997744141,2|0,1:2|0:0,0:0:0:0:
302,113,78712,6,0,B|339:95|339:95|385:96,1,73.9199997744141,2|0,1:2|0:0,0:0:0:0:
449,157,78966,1,2,0:0:0:0:
385,267,79093,2,0,B|303:254|303:254,1,73.9199997744141,2|8,1:2|0:0,0:0:0:0:
187,199,79347,2,0,P|240:184|272:186,1,73.9199997744141,2|0,0:0|1:0,0:0:0:0:
191,287,79602,2,0,P|138:272|112:243,1,73.9199997744141,10|2,0:0|1:2,0:0:0:0:
170,64,79856,2,0,P|199:108|185:200,1,147.839999548828,8|0,0:0|1:0,0:0:0:0:
59,165,80237,2,0,P|112:137|143:136,1,73.9199997744141,10|8,0:0|0:0,0:0:0:0:
287,165,80491,1,4,3:0:0:0:
287,165,80618,1,8,3:0:0:0:
191,287,80746,6,0,P|141:274|206:231,1,147.839999548828,6|0,1:2|0:0,0:0:0:0:
274,249,81127,1,0,1:0:0:0:
248,352,81254,2,0,P|202:371|176:374,1,73.9199997744141,8|0,0:0|0:0,0:0:0:0:
93,343,81508,1,2,1:2:0:0:
180,214,81635,2,0,P|189:270|191:305,1,73.9199997744141,2|0,0:0|1:0,0:0:0:0:
78,233,81890,2,0,L|97:80,1,147.839999548828,8|0,0:0|1:0,0:0:0:0:
193,41,82271,2,0,P|184:99|174:143,1,73.9199997744141,10|0,0:0|0:0,0:0:0:0:
24,104,82525,2,0,P|77:89|117:84,1,73.9199997744141,2|0,1:2|0:0,0:0:0:0:
237,193,82779,6,0,P|176:208|85:142,1,147.839999548828,2|0,1:2|0:0,0:0:0:0:
180,113,83161,1,0,1:0:0:0:
286,118,83288,2,0,P|318:156|321:206,1,73.9199997744141,8|0,0:0|0:0,0:0:0:0:
292,268,83542,1,2,1:2:0:0:
396,137,83669,2,0,P|402:204|388:233,1,73.9199997744141,2|0,0:0|1:0,0:0:0:0:
292,268,83924,2,0,P|352:277|390:352,1,147.839999548828,8|0,0:0|1:0,0:0:0:0:
235,340,84305,2,0,P|203:297|203:259,1,73.9199997744141,8|8,0:0|0:0,0:0:0:0:
298,194,84559,2,0,L|290:285,1,73.9199997744141,2|2,1:2|0:0,0:0:0:0:
219,143,84813,6,0,L|383:136,1,147.839999548828,2|0,1:2|0:0,0:0:0:0:
454,180,85195,1,0,1:0:0:0:
395,289,85322,2,0,P|379:238|378:212,1,73.9199997744141,8|0,0:0|0:0,0:0:0:0:
479,262,85576,1,2,1:2:0:0:
449,357,85703,2,0,P|408:374|373:374,1,73.9199997744141,2|0,0:0|1:0,0:0:0:0:
249,281,85957,2,0,P|314:274|399:290,1,147.839999548828,8|0,0:0|1:0,0:0:0:0:
207,356,86339,2,0,L|113:328,1,73.9199997744141,8|8,0:0|0:0,0:0:0:0:
97,248,86593,1,4,3:0:0:0:
97,248,86720,1,8,3:0:0:0:
20,305,86855,6,0,P|0:260|46:168,1,147.839999548828,4|8,1:0|0:0,0:0:0:0:
131,164,87236,1,8,0:0:0:0:
191,241,87363,2,0,L|347:210,1,147.839999548828,0|8,1:0|0:0,0:0:0:0:
398,140,87744,1,8,0:0:0:0:
444,224,87871,1,4,1:0:0:0:
482,105,87999,2,0,P|356:94|319:76,1,147.839999548828,8|0,0:0|1:0,0:0:0:0:
217,55,88380,2,0,P|154:51|128:57,1,73.9199997744141,8|8,0:0|0:0,0:0:0:0:
46,120,88634,2,0,L|39:199,1,73.9199997744141,8|8,3:0|3:0,0:0:0:0:
118,276,88913,5,4,1:2:0:0:
200,191,89040,2,0,P|148:171|27:201,1,170.239997921875,8|0,0:0|1:0,0:0:0:0:
216,285,89421,2,0,P|264:262|284:230,1,85.1199989609375,8|0,0:0|0:0,0:0:0:0:
266,105,89675,1,0,1:0:0:0:
364,212,89802,2,0,B|311:222|311:222|174:183,1,170.239997921875,8|0,0:0|1:0,0:0:0:0:
387,124,90184,2,0,P|431:154|449:201,1,85.1199989609375,8|0,0:0|0:0,0:0:0:0:
371,296,90438,2,0,L|361:187,1,85.1199989609375,8|0,0:0|1:0,0:0:0:0:
255,83,90692,2,0,L|247:167,1,85.1199989609375,8|8,0:0|0:0,0:0:0:0:
161,223,90946,5,4,1:0:0:0:
96,145,91074,2,0,P|185:126|253:176,1,170.239997921875,8|0,0:0|1:0,0:0:0:0:
315,274,91455,2,0,P|366:277|411:248,1,85.1199989609375,8|0,0:0|0:0,0:0:0:0:
343,175,91709,1,0,1:0:0:0:
224,285,91836,2,0,L|48:255,1,170.239997921875,8|0,0:0|1:0,0:0:0:0:
172,112,92218,2,0,P|197:167|190:210,1,85.1199989609375,8|0,0:0|0:0,0:0:0:0:
200,363,92472,2,0,P|202:320|223:284,1,85.1199989609375,8|0,0:0|1:0,0:0:0:0:
253,87,92726,2,0,P|275:148|273:190,1,85.1199989609375,8|8,0:0|0:0,0:0:0:0:
290,343,92995,5,4,1:0:0:0:
338,234,93122,2,0,B|283:248|283:248|228:233|228:233|147:241,1,170.239997921875,8|0,0:0|1:0,0:0:0:0:
17,354,93503,2,0,B|48:272|-15:276|20:167,1,170.239997921875,8|0,0:0|1:0,0:0:0:0:
139,21,93884,2,0,P|161:72|102:196,1,170.239997921875,12|8,0:0|0:0,0:0:0:0:
240,109,94266,2,0,P|284:98|331:97,1,85.1199989609375,0|0,1:0|0:0,0:0:0:0:
84,90,94520,2,0,P|26:77|-21:76,1,85.1199989609375,8|8,0:0|0:0,0:0:0:0:
127,176,94774,1,8,0:0:0:0:
127,176,94901,1,8,0:0:0:0:
337,27,95028,6,0,L|350:199,1,147.839999548828,4|0,1:0|0:0,0:0:0:0:
278,342,95410,2,0,P|265:291|266:257,1,73.9199997744141,8|4,0:0|3:0,0:0:0:0:
264,188,95664,1,8,3:0:0:0:
416,291,95791,2,0,P|367:296|332:291,1,73.9199997744141,4|0,1:0|0:0,0:0:0:0:
200,272,96045,2,0,P|284:272|366:308,1,147.839999548828,0|0,0:0|1:0,0:0:0:0:
336,186,96427,2,0,P|267:186|245:197,1,73.9199997744141,0|8,0:0|0:0,0:0:0:0:
156,66,96681,2,0,P|178:145|136:228,1,147.839999548828,0|0,0:0|0:0,0:0:0:0:
95,138,97062,6,0,B|184:117|151:165|266:126,1,147.839999548828,4|0,1:0|0:0,0:0:0:0:
431,79,97444,2,0,P|371:86|349:97,1,73.9199997744141,8|4,0:0|3:0,0:0:0:0:
272,148,97698,1,8,3:0:0:0:
352,296,97825,1,4,1:0:0:0:
267,245,97952,2,0,L|113:237,1,147.839999548828,0|0,0:0|0:0,0:0:0:0:
3,329,98333,2,0,L|92:320,1,73.9199997744141,0|0,1:0|1:0,0:0:0:0:
172,348,98588,1,8,0:0:0:0:
45,188,98715,2,0,P|38:257|99:336,1,147.839999548828,8|0,0:0|0:0,0:0:0:0:
230,134,99096,6,0,P|191:176|123:108,1,147.839999548828,4|0,1:0|0:0,0:0:0:0:
290,60,99478,2,0,P|323:104|326:142,1,73.9199997744141,8|4,0:0|3:0,0:0:0:0:
286,206,99732,1,8,3:0:0:0:
412,84,99859,2,0,P|409:134|387:170,1,73.9199997744141,4|0,1:0|0:0,0:0:0:0:
193,247,100113,2,0,L|356:241,1,147.839999548828,0|0,0:0|0:0,0:0:0:0:
448,329,100495,2,0,P|389:325|358:321,1,73.9199997744141,0|8,1:0|0:0,0:0:0:0:
208,338,100749,2,0,P|287:361|362:311,1,147.839999548828,0|0,0:0|0:0,0:0:0:0:
283,125,101130,6,0,L|274:286,1,147.839999548828,4|8,1:0|0:0,0:0:0:0:
378,175,101511,2,0,L|371:92,1,73.9199997744141,0|4,1:0|3:0,0:0:0:0:
300,38,101766,1,8,3:0:0:0:
153,136,101893,1,4,1:0:0:0:
153,136,102020,2,0,P|191:158|291:108,1,147.839999548828,0|0,0:0|1:0,0:0:0:0:
93,61,102401,2,0,P|69:108|58:146,1,73.9199997744141,0|0,1:0|0:0,0:0:0:0:
131,266,102656,2,0,P|118:231|100:199,1,73.9199997744141,8|8,0:0|0:0,0:0:0:0:
34,271,102910,1,8,0:0:0:0:
34,271,103037,1,8,0:0:0:0:
89,344,103164,6,0,B|177:376|170:310|263:349,1,159.0399919917,4|0,1:0|0:0,0:0:0:0:
332,367,103545,1,0,1:0:0:0:
270,261,103672,2,0,L|284:171,1,79.5199959958498,8|0,0:0|0:0,0:0:0:0:
366,79,103927,2,0,L|378:157,1,79.5199959958498,2|2,1:2|0:0,0:0:0:0:
157,126,104181,2,0,P|227:120|283:186,1,159.0399919917,2|2,1:2|0:0,0:0:0:0:
91,193,104562,2,0,P|64:136|71:99,1,79.5199959958498,2|8,1:2|0:0,0:0:0:0:
197,199,104817,2,0,L|179:360,1,159.0399919917,2|0,0:0|0:0,0:0:0:0:
29,300,105198,6,0,P|76:285|111:283,1,79.5199959958498,2|0,1:2|0:0,0:0:0:0:
260,341,105452,2,0,P|307:356|342:358,1,79.5199959958498,2|0,0:0|1:0,0:0:0:0:
426,321,105706,1,10,0:0:0:0:
321,190,105833,2,0,L|313:274,1,79.5199959958498,2|0,0:0|0:0,0:0:0:0:
413,230,106088,1,10,0:0:0:0:
368,113,106215,2,0,P|312:101|274:107,1,79.5199959958498,0|0,1:0|0:0,0:0:0:0:
149,183,106469,2,0,P|205:171|243:177,1,79.5199959958498,8|0,0:0|0:0,0:0:0:0:
197,268,106723,1,2,1:2:0:0:
73,135,106850,2,0,P|56:193|118:272,1,159.0399919917,8|0,0:0|0:0,0:0:0:0:
149,183,107232,6,0,P|179:176|187:175,1,29.1199998222656,4|0,1:2|0:0,0:0:0:0:
262,202,107486,2,0,P|276:199|300:194,1,34.7199986225587,0|0,1:0|0:0,0:0:0:0:
347,118,107740,2,0,P|367:137|380:157,1,40.320000984375,0|0,1:0|0:0,0:0:0:0:
448,224,107994,2,0,L|459:166,1,45.9200007006836,0|0,1:0|0:0,0:0:0:0:
431,81,108249,6,0,L|419:25,1,51.5199982705079,0|0,1:0|0:0,0:0:0:0:
269,33,108503,2,0,L|256:99,1,57.1200003486328,0|0,1:0|0:0,0:0:0:0:
359,179,108757,2,0,L|345:112,1,62.720000765625,0|0,1:0|0:0,0:0:0:0:
176,109,109011,2,0,L|160:184,1,68.3199971853029,0|0,1:0|0:0,0:0:0:0:
91,283,109266,6,0,P|140:303|165:300,1,73.9199997744141,8|0,0:0|0:0,0:0:0:0:
325,276,109520,2,0,P|276:256|237:262,1,79.5199959958498,8|0,0:0|0:0,0:0:0:0:
196,377,109774,6,0,P|252:352|268:332,1,85.1199989609375,0|0,1:0|0:0,0:0:0:0:
369,202,110028,2,0,P|315:223|292:254,1,90.7200022148438,8|0,0:0|0:0,0:0:0:0:
342,374,110283,6,0,P|367:308|364:283,1,96.3200014697266,0|0,1:0|0:0,0:0:0:0:
346,112,110537,2,0,P|319:166|325:205,1,96.3200014697266,8|0,0:0|0:0,0:0:0:0:
449,259,110791,6,0,P|416:195|396:179,1,96.3200014697266,8|0,0:2|0:2,0:0:0:0:
258,76,111045,2,0,P|279:127|325:160,1,96.3200014697266,8|0,0:2|0:2,0:0:0:0:
447,53,111300,6,0,L|335:72,1,101.920003421387,12|0,0:2|0:2,0:0:0:0:
151,151,111554,2,0,L|263:170,1,101.920003421387,8|0,0:2|0:2,0:0:0:0:
466,138,111808,6,0,L|354:157,1,101.920003421387,8|0,0:2|0:2,0:0:0:0:
170,236,112062,2,0,L|282:255,1,101.920003421387,8|0,0:2|0:2,0:0:0:0:
406,345,112317,6,0,P|384:290|379:230,1,107.520002625,12|0,0:2|0:2,0:0:0:0:
493,35,112571,2,0,P|486:88|465:137,1,107.520002625,8|0,0:2|0:2,0:0:0:0:
127,273,112825,6,0,P|150:218|189:172,1,107.520002625,12|0,0:2|0:2,0:0:0:0:
405,70,113079,2,0,P|362:102|313:123,1,107.520002625,8|0,0:2|0:2,0:0:0:0:
126,318,119830,6,0,L|200:313,1,73.9199997744141,0|8,1:0|0:0,0:0:0:0:
365,261,120084,2,0,P|308:263|217:205,1,147.839999548828,8|0,0:0|0:0,0:0:0:0:
313,20,120465,6,0,B|341:73|341:73|318:186,1,170.239997921875,4|8,1:0|0:0,0:0:0:0:
415,112,120846,2,0,P|484:107|514:107,1,85.1199989609375,0|0,1:0|0:0,0:0:0:0:
258,83,121100,2,0,P|189:78|159:78,1,85.1199989609375,0|0,1:0|0:0,0:0:0:0:
423,195,121354,2,0,P|455:247|395:348,1,170.239997921875,4|8,1:0|0:0,0:0:0:0:
281,253,121736,2,0,P|346:255|381:271,1,85.1199989609375,0|0,1:0|1:0,0:0:0:0:
201,181,121990,2,0,P|264:166|302:172,1,85.1199989609375,8|8,0:0|0:0,0:0:0:0:
95,133,122244,2,0,P|152:102|190:98,1,85.1199989609375,8|8,0:0|0:0,0:0:0:0:
122,284,122498,6,0,P|75:275|136:257,1,147.839999548828,4|0,0:0|0:0,0:0:0:0:
213,321,122880,1,0,1:0:0:0:
354,251,123007,2,0,P|294:250|262:257,1,73.9199997744141,8|0,0:0|0:0,0:0:0:0:
302,356,123261,1,2,1:2:0:0:
427,317,123388,2,0,L|444:239,1,73.9199997744141,2|0,0:0|1:0,0:0:0:0:
319,113,123642,2,0,P|355:182|348:269,1,147.839999548828,8|0,0:0|1:0,0:0:0:0:
457,93,124024,2,0,B|433:173|433:197,1,73.9199997744141,10|0,0:0|0:0,0:0:0:0:
299,41,124278,2,0,B|323:121|323:145,1,73.9199997744141,2|0,1:2|0:0,0:0:0:0:
132,45,124532,6,0,P|164:91|196:194,1,147.839999548828,2|0,1:2|0:0,0:0:0:0:
115,282,124914,1,0,1:0:0:0:
25,213,125041,2,0,L|112:188,1,73.9199997744141,8|0,0:0|0:0,0:0:0:0:
206,266,125295,1,2,1:2:0:0:
267,184,125422,2,0,L|179:175,1,73.9199997744141,2|0,0:2|1:0,0:0:0:0:
176,351,125676,2,0,L|339:327,1,147.839999548828,8|0,0:0|1:0,0:0:0:0:
449,268,126058,2,0,P|388:255|358:250,1,73.9199997744141,8|8,0:0|0:0,0:0:0:0:
267,184,126312,2,0,P|328:171|358:166,1,73.9199997744141,2|2,1:2|0:0,0:0:0:0:
461,121,126566,6,0,P|404:106|343:37,1,147.839999548828,2|0,1:2|0:0,0:0:0:0:
438,30,126948,1,0,1:0:0:0:
290,102,127075,2,0,L|129:74,1,147.839999548828,8|2,0:0|1:2,0:0:0:0:
18,150,127456,2,0,P|73:144|102:145,1,73.9199997744141,2|0,0:0|1:0,0:0:0:0:
264,223,127710,2,0,P|191:241|108:202,1,147.839999548828,8|0,0:0|1:0,0:0:0:0:
204,145,128092,2,0,P|258:132|301:134,1,73.9199997744141,8|8,0:0|0:0,0:0:0:0:
336,236,128346,2,0,P|282:223|239:225,1,73.9199997744141,4|8,3:0|3:0,0:0:0:0:
137,342,128600,6,0,P|200:305|303:329,1,147.839999548828,6|8,1:2|0:0,0:0:0:0:
364,358,128981,1,0,0:0:0:0:
490,167,129109,2,0,B|444:199|444:199|395:310,1,147.839999548828,2|8,1:2|0:0,0:0:0:0:
502,262,129490,1,8,0:0:0:0:
336,236,129617,2,0,L|250:240,1,73.9199997744141,6|8,1:2|0:0,0:0:0:0:
92,168,129871,2,0,L|178:172,1,73.9199997744141,2|0,0:0|1:0,0:0:0:0:
291,150,130126,1,10,0:0:0:0:
144,254,130253,1,10,0:0:0:0:
176,75,130380,2,0,P|189:129|196:178,1,73.9199997744141,8|8,0:0|0:0,0:0:0:0:
249,311,130634,6,0,P|245:222|283:165,1,147.839999548828,6|2,1:2|0:0,0:0:0:0:
418,251,131015,2,0,P|365:269|314:263,1,73.9199997744141,2|8,1:2|0:0,0:0:0:0:
339,114,131270,2,0,P|356:168|359:197,1,73.9199997744141,2|0,0:0|1:0,0:0:0:0:
205,201,131524,2,0,P|266:175|292:171,1,73.9199997744141,2|0,0:0|1:0,0:0:0:0:
249,310,131778,2,0,P|187:310|104:256,1,147.839999548828,10|0,0:0|1:0,0:0:0:0:
169,136,132159,2,0,P|201:190|212:231,1,73.9199997744141,10|0,0:0|0:0,0:0:0:0:
76,104,132414,2,0,P|119:59|162:49,1,73.9199997744141,2|0,0:0|0:0,0:0:0:0:
242,133,132668,6,0,L|142:137,1,73.9199997744141,2|0,1:2|0:0,0:0:0:0:
222,39,132922,1,2,0:0:0:0:
315,79,133049,2,0,P|327:132|321:171,1,73.9199997744141,2|8,1:2|0:0,0:0:0:0:
248,277,133303,2,0,P|255:233|275:203,1,73.9199997744141,2|0,0:0|1:0,0:0:0:0:
320,328,133558,2,0,P|278:359|253:361,1,73.9199997744141,2|0,0:0|1:0,0:0:0:0:
105,256,133812,2,0,P|167:251|274:295,1,147.839999548828,8|0,0:0|1:0,0:0:0:0:
105,344,134193,2,0,L|24:322,1,73.9199997744141,8|0,0:0|0:0,0:0:0:0:
53,176,134448,2,0,L|134:154,1,73.9199997744141,0|0,1:0|0:0,0:0:0:0:
247,276,134702,6,0,P|224:203|263:121,1,147.839999548828,2|2,1:2|0:0,0:0:0:0:
413,156,135083,2,0,P|347:198|331:204,1,73.9199997744141,2|8,1:2|0:0,0:0:0:0:
391,62,135337,2,0,P|454:76|482:89,1,73.9199997744141,2|0,0:0|1:0,0:0:0:0:
464,238,135592,2,0,L|415:321,1,73.9199997744141,2|0,0:0|1:0,0:0:0:0:
204,194,135846,2,0,P|268:183|348:226,1,147.839999548828,10|0,0:0|1:0,0:0:0:0:
261,350,136227,2,0,P|210:335|185:319,1,73.9199997744141,10|0,0:2|0:0,0:0:0:0:
113,199,136481,2,0,P|121:150|145:118,1,73.9199997744141,2|0,1:2|0:0,0:0:0:0:
274,130,136736,6,0,P|291:163|295:200,1,73.9199997744141,2|0,1:2|0:0,0:0:0:0:
204,194,136990,1,2,0:0:0:0:
217,60,137117,2,0,P|279:44|313:54,1,73.9199997744141,2|8,1:2|0:0,0:0:0:0:
345,145,137371,2,0,P|308:144|274:130,1,73.9199997744141,2|0,0:0|1:0,0:0:0:0:
367,62,137626,2,0,P|415:90|431:132,1,73.9199997744141,2|0,0:0|1:0,0:0:0:0:
352,277,137880,2,0,P|321:216|355:134,1,147.839999548828,8|0,0:0|1:0,0:0:0:0:
415,212,138261,1,2,1:2:0:0:
415,212,138388,1,8,0:0:0:0:
240,245,138515,2,0,L|144:222,1,73.9199997744141,4|4,3:0|3:0,0:0:0:0:
39,325,138770,6,0,P|123:306|201:318,1,147.839999548828,2|2,1:2|0:0,0:0:0:0:
335,354,139151,2,0,P|289:348|255:336,1,73.9199997744141,2|8,1:2|0:0,0:0:0:0:
168,227,139405,2,0,P|229:241|263:253,1,73.9199997744141,2|0,0:0|1:0,0:0:0:0:
405,263,139659,2,0,B|347:273|314:276,1,73.9199997744141,2|0,0:0|1:0,0:0:0:0:
103,160,139914,2,0,P|176:144|259:187,1,147.839999548828,8|0,0:0|1:0,0:0:0:0:
332,274,140295,2,0,P|327:203|331:174,1,73.9199997744141,10|0,0:0|0:0,0:0:0:0:
367,47,140549,2,0,P|367:83|362:120,1,73.9199997744141,2|0,0:0|1:0,0:0:0:0:
245,317,140803,6,0,P|237:249|245:152,1,147.839999548828,2|2,1:2|0:0,0:0:0:0:
182,41,141185,2,0,P|182:92|176:136,1,73.9199997744141,2|8,1:2|0:0,0:0:0:0:
158,266,141439,2,0,P|156:208|160:172,1,73.9199997744141,2|0,0:0|0:0,0:0:0:0:
103,53,141693,2,0,P|103:104|97:148,1,73.9199997744141,2|0,0:0|1:0,0:0:0:0:
28,216,141948,2,0,P|83:177|174:208,1,147.839999548828,8|0,0:0|1:0,0:0:0:0:
242,291,142329,2,0,P|296:287|320:273,1,73.9199997744141,8|0,0:0|0:0,0:0:0:0:
389,184,142583,1,2,1:2:0:0:
389,184,142710,1,2,0:0:0:0:
287,63,142837,6,0,P|273:189|272:228,1,147.839999548828,6|0,1:2|0:0,0:0:0:0:
203,124,143219,1,0,1:0:0:0:
186,275,143346,2,0,P|194:223|195:195,1,73.9199997744141,8|0,0:0|0:0,0:0:0:0:
266,283,143600,1,2,0:0:0:0:
296,126,143727,2,0,P|283:183|281:223,1,73.9199997744141,2|0,0:0|1:0,0:0:0:0:
355,324,143981,2,0,P|371:260|364:164,1,147.839999548828,8|0,0:0|1:0,0:0:0:0:
446,296,144363,2,0,P|451:236|450:206,1,73.9199997744141,8|0,0:0|0:0,0:0:0:0:
388,100,144617,2,0,P|385:111|389:185,1,73.9199997744141,2|0,1:2|0:0,0:0:0:0:
481,28,144871,6,0,P|428:18|307:34,1,147.839999548828,2|0,1:2|3:0,0:0:0:0:
242,59,145253,1,0,1:0:0:0:
74,122,145380,2,0,B|132:115|132:115|240:165,1,147.839999548828,10|0,0:2|1:0,0:0:0:0:
322,209,145761,1,0,3:0:0:0:
388,100,145888,2,0,L|291:113,1,73.9199997744141,6|0,1:2|0:0,0:0:0:0:
163,226,146142,2,0,L|260:239,1,73.9199997744141,8|8,0:0|0:0,0:0:0:0:
242,59,146397,2,0,P|229:117|230:159,1,73.9199997744141,8|8,0:0|0:0,0:0:0:0:
335,281,146651,2,0,P|331:244|321:208,1,73.9199997744141,4|8,3:0|3:0,0:0:0:0:
264,334,146905,6,0,P|322:370|415:330,1,147.839999548828,6|0,1:2|0:0,0:0:0:0:
249,252,147287,1,0,1:0:0:0:
168,356,147414,2,0,P|114:357|80:337,1,73.9199997744141,8|0,0:0|0:0,0:0:0:0:
139,191,147668,2,0,P|146:257|144:296,1,73.9199997744141,2|8,3:0|0:0,0:0:0:0:
61,233,147922,1,0,1:0:0:0:
217,147,148049,2,0,P|227:224|228:323,1,147.839999548828,8|0,0:0|1:0,0:0:0:0:
304,156,148431,2,0,P|311:223|314:261,1,73.9199997744141,8|0,0:0|0:0,0:0:0:0:
392,170,148685,2,0,P|399:237|402:275,1,73.9199997744141,2|0,3:0|0:0,0:0:0:0:
483,187,148939,5,0,1:0:0:0:
425,328,149066,2,0,L|262:303,1,147.839999548828,8|0,0:0|1:0,0:0:0:0:
67,343,149433,2,0,L|173:325,1,73.9199997744141,12|0,0:0|0:0,0:0:0:0:
280,336,149687,1,0,1:0:0:0:
124,248,149814,2,0,P|188:264|208:276,1,73.9199997744141,0|0,0:0|1:0,0:0:0:0:
280,364,150068,1,8,0:0:0:0:
255,164,150195,2,0,P|268:233|271:253,1,73.9199997744141,8|8,0:0|0:0,0:0:0:0:
180,340,150449,2,0,P|186:303|193:267,1,73.9199997744141,8|8,3:0|3:0,0:0:0:0:
354,214,150704,2,0,L|364:292,1,57.1200003486328,4|0,3:0|0:0,0:0:0:0:
187,146,150958,6,0,P|287:134|363:131,1,147.839999548828,6|0,1:2|0:0,0:0:0:0:
462,155,151339,1,0,1:0:0:0:
330,53,151466,2,0,L|164:49,1,147.839999548828,10|0,2:0|1:0,0:0:0:0:
99,97,151848,1,0,0:0:0:0:
279,130,151975,6,0,P|271:188|173:238,1,147.839999548828,6|0,1:2|0:0,0:0:0:0:
187,146,152356,1,0,1:0:0:0:
313,282,152483,2,0,P|471:254|485:250,1,147.839999548828,10|0,0:2|1:0,0:0:0:0:
204,257,152992,5,6,1:2:0:0:
255,356,153119,2,0,L|107:332,1,147.839999548828,8|0,0:0|0:0,0:0:0:0:
136,99,153500,2,0,P|185:168|185:254,1,147.839999548828,14|0,0:2|1:0,0:0:0:0:
99,189,153882,1,0,1:0:0:0:
254,111,154009,6,0,L|347:103,1,73.9199997744141,6|8,1:2|0:0,0:0:0:0:
449,200,154263,2,0,L|356:192,1,73.9199997744141,10|8,2:0|0:0,0:0:0:0:
190,229,154517,2,0,L|283:221,1,73.9199997744141,8|10,0:0|0:2,0:0:0:0:
385,318,154771,2,0,L|292:310,1,73.9199997744141,4|8,3:0|3:0,0:0:0:0:
173,350,155026,5,4,1:2:0:0:
81,310,155153,2,0,P|152:314|235:248,1,170.239997921875,8|0,0:0|1:0,0:0:0:0:
140,64,155534,2,0,B|115:125|115:125|140:232,1,170.239997921875,8|0,0:0|1:0,0:0:0:0:
379,135,155916,2,0,B|291:98|297:180|194:131,1,170.239997921875,8|0,0:0|1:0,0:0:0:0:
337,209,156297,2,0,P|347:261|349:302,1,85.1199989609375,8|0,0:0|0:0,0:0:0:0:
466,112,156551,2,0,P|461:164|451:204,1,85.1199989609375,0|0,0:0|1:0,0:0:0:0:
367,50,156805,2,0,P|371:102|381:142,1,85.1199989609375,8|8,0:0|0:0,0:0:0:0:
431,273,157060,5,4,1:0:0:0:
336,231,157187,2,0,P|429:230|503:192,1,170.239997921875,8|0,0:0|1:0,0:0:0:0:
267,161,157568,2,0,P|233:221|291:315,1,170.239997921875,8|0,0:0|1:0,0:0:0:0:
106,285,157949,2,0,B|45:290|45:290|142:234,1,170.239997921875,8|0,0:0|1:0,0:0:0:0:
267,161,158331,2,0,P|186:153|164:149,1,85.1199989609375,8|0,0:0|0:0,0:0:0:0:
55,85,158585,2,0,P|136:77|158:73,1,85.1199989609375,0|0,1:0|1:0,0:0:0:0:
314,81,158839,2,0,P|233:73|211:69,1,85.1199989609375,8|8,0:0|0:0,0:0:0:0:
100,162,159094,5,4,1:0:0:0:
100,162,159221,2,0,P|167:196|186:211,1,85.1199989609375,8|0,0:0|0:0,0:0:0:0:
364,208,159475,1,0,1:0:0:0:
364,208,159602,2,0,P|297:242|278:257,1,85.1199989609375,8|0,0:0|0:0,0:0:0:0:
156,352,159856,1,0,1:0:0:0:
80,308,159983,2,0,P|140:272|248:324,1,170.239997921875,8|0,0:0|1:0,0:0:0:0:
388,352,160365,2,0,P|424:316|436:280,1,85.1199989609375,8|0,0:0|0:0,0:0:0:0:
292,156,160619,2,0,P|276:224|292:260,1,85.1199989609375,0|0,1:0|1:0,0:0:0:0:
452,148,160873,2,0,P|416:132|364:116,1,85.1199989609375,8|8,0:0|0:0,0:0:0:0:
203,159,161127,5,4,1:0:0:0:
292,156,161255,2,0,P|277:102|165:80,1,170.239997921875,8|0,0:0|1:0,0:0:0:0:
167,244,161636,2,0,P|221:250|256:229,1,85.1199989609375,8|0,0:0|0:0,0:0:0:0:
119,172,161890,1,0,1:0:0:0:
82,264,162017,2,0,P|112:316|233:305,1,170.239997921875,0|0,0:0|1:0,0:0:0:0:
241,204,162399,2,0,P|173:238|149:263,1,85.1199989609375,8|0,0:0|0:0,0:0:0:0:
321,249,162653,2,0,P|330:205|324:163,1,85.1199989609375,0|0,1:0|0:0,0:0:0:0:
239,108,162907,1,8,0:0:0:0:
241,204,163034,1,8,0:0:0:0:
324,165,163185,5,4,1:0:0:0:
239,108,163312,2,0,P|312:115|409:68,1,181.440004429688,12|4,0:0|1:0,0:0:0:0:
162,44,163693,2,0,B|142:105|142:105|161:161|161:161|145:232,1,181.440004429688,12|12,0:0|0:0,0:0:0:0:
280,308,164074,6,0,B|254:244|201:241|170:287|156:327|170:369|230:375|235:364|259:322|321:242|382:395|463:336|463:336|384:216|492:216|430:114,1,669.75999591211,4|0,1:0|0:0,0:0:0:0:
373,172,167125,1,0,0:0:0:0:
302,136,167315,6,0,L|158:126,2,116.479999289063,2|2|2,0:0|0:0|0:0,0:0:0:0:
105,63,168880,1,2,0:0:0:0:
105,63,169141,2,0,B|59:159|150:158|75:251|75:251|118:234|169:239,1,291.199998222656,2|0,0:0|0:0,0:0:0:0:
348,245,171228,2,0,L|360:204,1,29.1199998222656,2|0,0:0|0:0,0:0:0:0:
393,162,171482,6,0,P|347:161|312:148,1,58.2399996445313,2|2,0:0|0:0,0:0:0:0:
244,102,172107,2,0,P|216:91|183:92,1,58.2399996445313,2|2,0:0|0:0,0:0:0:0:
101,155,172746,6,0,L|82:232,1,58.2399996445313,2|2,0:0|0:0,0:0:0:0:
187,261,173427,2,0,L|201:332,1,58.2399996445313,2|2,0:0|0:0,0:0:0:0:
331,350,174110,6,0,P|335:318|352:280,1,58.2399996445313,2|0,0:0|0:0,0:0:0:0:
406,224,174860,2,0,P|402:192|387:150,1,58.2399996445313,2|0,0:0|0:0,0:0:0:0:
318,105,175606,2,0,L|321:28,2,58.2399996445313,2|0|2,0:0|0:0|0:0,0:0:0:0:
219,167,176790,2,0,L|179:158,2,29.1199998222656,2|2|2,0:0|0:0|0:0,0:0:0:0:
256,192,177283,12,0,180737,0:0:0:0:
256,192,180836,12,0,186165,0:0:0:0:
