osu file format v14

[General]
AudioFilename: audio.mp3
AudioLeadIn: 0
PreviewTime: 114287
Countdown: 0
SampleSet: Soft
StackLeniency: 0.7
Mode: 0
LetterboxInBreaks: 0
EpilepsyWarning: 1
WidescreenStoryboard: 1

[Editor]
DistanceSpacing: 1.8
BeatDivisor: 8
GridSize: 4
TimelineZoom: 3.699999

[Metadata]
Title:Outside of Melancholy ~Yuuutsu no Mukougawa~
TitleUnicode:Outside of Melancholy 〜憂鬱の向こう側〜
Artist:fhana
ArtistUnicode:fhána
Creator:Sotarks
Version:Hard
Source:
Tags:lantis Junichi Sato yuxuki waga kevin mitsunaga towana zerss
BeatmapID:1216308
BeatmapSetID:568455

[Difficulty]
HPDrainRate:5
CircleSize:3.2
OverallDifficulty:6
ApproachRate:7.5
SliderMultiplier:2.04
SliderTickRate:1

[Events]
//Background and Video events
0,0,"melancholy.jpg",0,0
//Break Periods
2,114350,119005
//Storyboard Layer 0 (Background)
//Storyboard Layer 1 (Fail)
//Storyboard Layer 2 (Pass)
//Storyboard Layer 3 (Foreground)
Sprite,Foreground,Centre,"SB\highlight.png",443,218 F,2,107182,107232,0,1 C,0,107232,,108,244,255 M,0,107232,107359,443,218,440.1373,186.5099 F,2,107232,108994,1,0 P,0,107232,108994,A M,0,107359,107486,440.1373,186.5099,437.2745,155.0197 M,0,107486,107613,437.2745,155.0197,440.1373,186.5099 M,0,107613,107740,440.1373,186.5099,443,218 M,0,107740,107867,443,218,440.1373,186.5099 M,0,107867,107994,440.1373,186.5099,437.2745,155.0197 S,18,107994,108994,1,0.2
Sprite,Foreground,Centre,"SB\highlight.png",345,179 F,2,108199,108249,0,1 C,0,108249,,108,244,255 M,0,108249,108376,345,179,347.1906,147.456 F,2,108249,110011,1,0 P,0,108249,110011,A M,0,108376,108503,347.1906,147.456,349.3811,115.9119 M,0,108503,108630,349.3811,115.9119,347.1906,147.456 M,0,108630,108757,347.1906,147.456,345,179 M,0,108757,108884,345,179,347.1906,147.456 M,0,108884,109011,347.1906,147.456,349.3811,115.9119 S,18,109011,110011,1,0.2
Sprite,Foreground,Centre,"SB\highlight.png",210,257 F,2,109216,109266,0,1 C,0,109266,,157,217,104 M,0,109266,109393,210,257,214.5546,293.4365 F,2,109266,111028,1,0 P,0,109266,111028,A M,0,109393,109520,214.5546,293.4365,219,329 M,0,109520,109647,219,329,214.5546,293.4365 M,0,109647,109774,214.5546,293.4365,210,257 M,0,109774,109901,210,257,214.5546,293.4364 M,0,109901,110028,214.5546,293.4364,219,329 S,18,110028,111028,1,0.2
Sprite,Foreground,Centre,"SB\highlight.png",315,312 F,2,110233,110283,0,1 C,0,110283,,157,217,104 M,0,110283,110410,315,312,312.5022,348.6349 F,2,110283,112045,1,0 P,0,110283,112045,A M,0,110410,110537,312.5022,348.6349,310.0043,385.2699 M,0,110537,110664,310.0043,385.2699,312.5022,348.6349 M,0,110664,110791,312.5022,348.6349,315,312 M,0,110791,110918,315,312,312.5022,348.6349 M,0,110918,111045,312.5022,348.6349,310.0043,385.2699 S,18,111045,112045,1,0.2
Sprite,Foreground,Centre,"SB\highlight.png",432,320 F,2,111250,111300,0,1 C,0,111300,,199,199,199 M,0,111300,111427,432,320,450.6305,271.8043 F,2,111300,112554,1,0 P,0,111300,112554,A M,0,111427,111554,450.6305,271.8043,449.4716,220.152 S,18,111554,112554,1,0.2
Sprite,Foreground,Centre,"SB\highlight.png",388,144 F,2,111758,111808,0,1 C,0,111808,,199,199,199 M,0,111808,111935,388,144,337.1414,134.3596 F,2,111808,113062,1,0 P,0,111808,113062,A M,0,111935,112062,337.1414,134.3596,285.9442,141.9701 S,18,112062,113062,1,0.2
Sprite,Foreground,Centre,"SB\highlight.png",197,226 F,2,112267,112317,0,1 C,0,112317,,163,129,129 M,0,112317,112444,197,226,140.1234,221.1798 F,2,112317,113444,1,0 P,0,112317,113444,A S,18,112444,113444,1,0.2
Sprite,Foreground,Centre,"SB\highlight.png",132,311 F,2,112521,112571,0,1 C,0,112571,,163,129,129 M,0,112571,112698,132,311,188.6023,316.6787 F,2,112571,113698,1,0 P,0,112571,113698,A S,18,112698,113698,1,0.2
Sprite,Foreground,Centre,"SB\highlight.png",328,288 F,2,112775,112825,0,1 C,0,112825,,108,244,255 M,0,112825,112952,328,288,271.3571,281.8446 F,2,112825,113952,1,0 P,0,112825,113952,A S,18,112952,113952,1,0.2
Sprite,Foreground,Centre,"SB\highlight.png",260,374 F,2,113029,113079,0,1 C,0,113079,,108,244,255 M,0,113079,113206,260,374,316.6496,380.1548 F,2,113079,114206,1,0 P,0,113079,114206,A S,18,113206,114206,1,0.2
Sprite,Foreground,Centre,"SB\highlight.png",252,173 F,2,119780,119830,0,1 C,0,119830,,157,217,104 M,0,119830,119957,252,173,314.0461,193.7164 F,2,119830,121084,1,0 P,0,119830,121084,A M,0,119957,120084,314.0461,193.7164,252,173 S,18,120084,121084,1,0.2
Sprite,Foreground,Centre,"SB\highlight.png",315,102 F,2,120161,120211,0,1 C,0,120211,,157,217,104 F,2,120211,121211,1,0 S,18,120211,121211,1,0.2 P,0,120211,121211,A
Sprite,Foreground,Centre,"SB\highlight.png",318,318 F,2,120415,120465,0,1 C,0,120465,,199,199,199 M,0,120465,120592,318,318,393.8507,322.9051 F,2,120465,121719,1,0 P,0,120465,121719,A M,0,120592,120719,393.8507,322.9051,470.1618,323.1393 S,18,120719,121719,1,0.2
Sprite,Foreground,Centre,"SB\highlight.png",547,399 F,2,120796,120846,0,1 C,0,120846,,199,199,199 F,2,120846,121846,1,0 S,18,120846,121846,1,0.2 P,0,120846,121846,A
Sprite,Foreground,Centre,"SB\highlight.png",553,182 F,2,121050,121100,0,1 C,0,121100,,199,199,199 F,2,121100,122100,1,0 S,18,121100,122100,1,0.2 P,0,121100,122100,A
Sprite,Foreground,Centre,"SB\highlight.png",339,217 F,2,121304,121354,0,1 C,0,121354,,163,129,129 M,0,121354,121481,339,217,263.2307,219.5704 F,2,121354,122608,1,0 P,0,121354,122608,A M,0,121481,121608,263.2307,219.5704,187.3327,217.952 S,18,121608,122608,1,0.2
Sprite,Foreground,Centre,"SB\highlight.png",113,148 F,2,121686,121736,0,1 C,0,121736,,163,129,129 M,0,121736,121863,113,148,88.14106,219.525 F,2,121736,122863,1,0 P,0,121736,122863,A S,18,121863,122863,1,0.2
Sprite,Foreground,Centre,"SB\highlight.png",141,304 F,2,121940,121990,0,1 C,0,121990,,163,129,129 M,0,121990,122117,141,304,166,375 F,2,121990,123244,1,0 P,0,121990,123244,A M,0,122117,122244,166,375,141,304 S,18,122244,123244,1,0.2
Sprite,Foreground,Centre,"SB\highlight.png",74,368 F,2,122321,122371,0,1 C,0,122371,,163,129,129 F,2,122371,123371,1,0 S,18,122371,123371,1,0.2 P,0,122371,123371,A
//Storyboard Sound Samples

[TimingPoints]
935,521.739130434783,4,2,2,32,1,0
935,-200,4,2,2,32,0,0
13456,555.555555555556,4,2,2,32,1,0
13456,-200,4,2,2,32,0,0
15708,681.818181818182,4,2,2,32,1,0
15708,-200,4,2,2,32,0,0
16389,-200,4,2,2,32,0,0
17044,750,4,2,2,32,1,0
17044,-200,4,2,2,32,0,0
18708,508.474576271186,4,2,22,82,1,0
18708,-65.7894736842105,4,2,22,82,0,0
18771,-65.7894736842105,4,2,2,62,0,0
22780,508.474576271186,4,2,2,72,1,0
22780,-61.7283950617284,4,2,2,72,0,0
23669,-192.307692307692,4,2,2,62,0,0
25830,508.474576271186,4,2,2,52,1,0
25830,-98.0392156862745,4,2,2,52,0,0
56338,-75.7575757575758,4,2,69,62,0,1
56402,-75.7575757575758,4,2,2,62,0,1
70575,-75.7575757575758,4,2,2,62,0,0
72609,-75.7575757575758,4,2,69,62,0,1
72674,-75.7575757575758,4,2,2,62,0,1
84813,-75.7575757575758,4,2,2,62,0,0
86855,508.474576271186,4,2,2,62,1,0
86855,-75.7575757575758,4,2,2,62,0,0
88913,508.474576271186,4,2,69,62,1,1
88913,-65.7894736842105,4,2,69,62,0,1
88976,-65.7894736842105,4,2,2,62,0,1
92995,508.474576271186,4,2,2,62,1,1
92995,-65.7894736842105,4,2,2,62,0,1
95028,-75.7575757575758,4,2,2,62,0,0
103164,-70.4225352112676,4,2,2,62,0,0
107232,-161.290322580645,4,2,69,42,0,0
107295,-192.307692307692,4,2,2,32,0,0
107486,-161.290322580645,4,2,2,32,0,0
107740,-138.888888888889,4,2,2,42,0,0
107994,-121.951219512195,4,2,2,42,0,0
108249,-161.290322580645,4,2,2,42,0,0
108503,-98.0392156862745,4,2,2,42,0,0
108757,-89.2857142857143,4,2,2,52,0,0
109011,-81.9672131147541,4,2,2,52,0,0
109266,-138.888888888889,4,2,2,52,0,0
109520,-70.4225352112676,4,2,2,52,0,0
109774,-65.7894736842105,4,2,2,62,0,0
110028,-61.7283950617284,4,2,2,62,0,0
110283,-138.888888888889,4,2,2,62,0,0
110537,-58.1395348837209,4,2,2,62,0,0
110791,-58.1395348837209,4,2,2,72,0,0
111045,-58.1395348837209,4,2,2,72,0,0
111300,-98.0392156862745,4,2,2,72,0,0
111808,-98.0392156862745,4,2,2,72,0,0
112317,-89.2857142857143,4,2,2,82,0,0
112444,-89.2857142857143,4,2,2,12,0,0
112571,-89.2857142857143,4,2,2,82,0,0
112698,-89.2857142857143,4,2,2,12,0,0
112825,-89.2857142857143,4,2,2,92,0,0
112952,-89.2857142857143,4,2,2,12,0,0
113079,-89.2857142857143,4,2,2,92,0,0
113206,-89.2857142857143,4,2,2,12,0,0
119830,508.474576271186,4,2,2,52,1,0
119830,-75.7575757575758,4,2,2,52,0,0
120465,508.474576271186,4,2,2,52,1,0
120465,-65.7894736842105,4,2,2,52,0,0
122498,-75.7575757575758,4,2,69,72,0,1
122562,-75.7575757575758,4,2,2,62,0,1
126566,-75.7575757575758,4,2,2,62,0,0
130634,-75.7575757575758,4,2,69,62,0,1
130698,-75.7575757575758,4,2,2,62,0,1
146905,-75.7575757575758,4,2,2,62,0,0
149433,508.474576271186,4,2,2,62,1,0
149433,-75.7575757575758,4,2,2,62,0,0
150958,508.474576271186,4,2,2,62,1,0
150958,-75.7575757575758,4,2,2,62,0,0
151021,-75.7575757575758,4,2,2,62,0,0
155025,-65.7894736842105,4,2,69,62,0,1
155089,-65.7894736842105,4,2,2,62,0,1
163185,508.474576271186,4,2,2,72,1,0
163185,-61.7283950617284,4,2,2,72,0,0
167315,521.739130434783,4,2,2,32,1,0
167836,-192.307692307692,4,2,2,32,0,0
171482,625,4,2,2,32,1,0
171482,-192.307692307692,4,2,2,32,0,0
172746,681.818181818182,4,2,2,32,1,0
172746,-192.307692307692,4,2,2,32,0,0
174110,750,4,2,2,32,1,0
174110,-192.307692307692,4,2,2,32,0,0
175606,789.473684210526,4,2,2,32,1,0
175606,-192.307692307692,4,2,2,32,0,0
180737,-100,4,2,2,22,0,0
186165,-100,4,2,2,5,0,0

[Colours]
Combo1 : 163,129,129
Combo2 : 108,244,255
Combo3 : 157,217,104
Combo4 : 199,199,199

[HitObjects]
380,148,935,6,0,P|431:136|496:136,2,102,2|2|2,0:0|0:0|0:0,0:0:0:0:
277,305,2500,1,0,0:0:0:0:
277,305,2761,2,0,L|156:290,1,102,2|0,0:0|0:0,0:0:0:0:
92,332,3543,2,0,P|85:291|84:264,1,51,2|0,0:0|0:0,0:0:0:0:
148,212,4065,2,0,P|155:171|156:140,1,51,2|0,0:0|0:0,0:0:0:0:
91,96,4587,2,0,L|159:69,1,51,2|0,0:0|0:0,0:0:0:0:
224,107,5108,5,2,0:0:0:0:
307,64,5369,2,0,P|311:26|317:3,2,51,0|2|0,0:0|0:0|0:0,0:0:0:0:
366,130,6152,1,2,0:0:0:0:
441,75,6413,2,0,P|448:33|454:10,2,51,0|2|0,0:0|0:0|0:0,0:0:0:0:
460,171,7195,6,0,P|433:209|374:222,1,102,2|0,0:0|0:0,0:0:0:0:
292,200,7978,2,0,P|258:203|246:204,1,25.5,0|0,0:0|0:0,0:0:0:0:
232,231,8239,2,0,L|125:220,1,102,2|0,0:0|0:0,0:0:0:0:
70,298,9021,2,0,L|114:292,1,25.5,0|0,0:0|0:0,0:0:0:0:
135,313,9282,6,0,L|237:327,1,102,2|0,0:0|0:0,0:0:0:0:
325,299,10065,1,0,0:0:0:0:
404,350,10326,2,0,P|422:312|416:263,2,76.5,2|2|2,0:0|0:0|0:0,0:0:0:0:
325,299,11369,5,2,0:0:0:0:
315,111,11891,1,2,0:0:0:0:
121,112,12413,2,0,P|156:143|175:204,1,102,2|0,0:0|0:0,0:0:0:0:
141,272,13195,1,0,0:0:0:0:
228,261,13456,6,0,P|272:256|293:248,2,51,2|0|0,0:0|0:0|0:0,0:0:0:0:
256,297,14150,2,0,B|298:293|348:277,1,76.5,2|2,0:0|0:0,0:0:0:0:
476,170,15122,1,0,0:0:0:0:
88,160,15708,6,0,L|162:144,1,51,2|0,0:0|0:0,0:0:0:0:
230,146,16389,6,0,L|298:134,1,51,2|0,0:0|0:0,0:0:0:0:
365,141,17044,6,0,L|459:126,2,76.5,2|0|2,0:0|0:0|0:0,0:0:0:0:
424,332,18708,5,4,1:0:0:0:
424,332,18835,2,0,P|358:354|275:301,1,155.039998107422,8|0,0:0|1:0,0:0:0:0:
256,212,19216,2,0,P|213:230|174:327,1,155.039998107422,8|0,0:0|1:0,0:0:0:0:
88,257,19597,6,0,L|69:90,1,155.039998107422,12|0,0:0|1:0,0:0:0:0:
147,25,19979,2,0,L|153:112,1,77.5199990537109,8|0,0:0|0:0,0:0:0:0:
245,46,20233,2,0,L|248:153,1,77.5199990537109,8|0,0:0|1:0,0:0:0:0:
343,74,20487,2,0,L|342:178,1,77.5199990537109,8|8,0:0|0:0,0:0:0:0:
419,221,20741,5,4,1:0:0:0:
419,221,20869,2,0,P|369:254|267:221,1,155.039998107422,8|0,0:0|1:0,0:0:0:0:
191,173,21250,2,0,B|112:160|112:160|47:236,1,155.039998107422,8|0,0:0|1:0,0:0:0:0:
89,322,21631,6,0,B|168:286|173:354|268:309,1,155.039998107422,12|0,0:0|1:0,0:0:0:0:
313,238,22013,2,0,P|376:222|402:223,1,77.5199990537109,8|0,0:0|1:0,0:0:0:0:
473,288,22267,2,0,P|485:225|485:199,1,77.5199990537109,8|0,0:0|1:0,0:0:0:0:
421,124,22521,2,0,P|409:61|409:35,1,77.5199990537109,8|8,0:0|0:0,0:0:0:0:
296,91,22780,5,4,1:0:0:0:
207,47,22907,2,0,L|28:69,1,165.24000403418,8|0,0:0|1:0,0:0:0:0:
45,166,23288,2,0,L|224:188,1,165.24000403418,12|0,0:0|1:0,0:0:0:0:
296,128,23669,5,12,0:0:0:0:
256,192,23733,12,0,25576,3:0:0:0:
62,113,25830,6,0,B|114:131|187:113,1,104.04000063501,6|0,1:2|3:0,0:0:0:0:
332,33,26339,1,10,0:0:0:0:
292,117,26466,2,0,P|275:164|296:233,1,104.04000063501,0|8,1:0|0:0,0:0:0:0:
344,288,26847,6,0,L|235:300,1,104.04000063501,2|0,1:2|3:0,0:0:0:0:
58,343,27356,1,10,0:0:0:0:
103,166,27610,2,0,L|128:112,1,52.0200003175049,2|0,0:0|1:0,0:0:0:0:
224,72,27864,6,0,L|339:58,1,104.04000063501,0|0,1:0|3:0,0:0:0:0:
467,180,28373,1,8,0:0:0:0:
399,115,28500,2,0,P|375:171|387:228,1,104.04000063501,0|8,1:0|0:0,0:0:0:0:
434,288,28881,6,0,L|320:295,1,104.04000063501,0|0,1:0|3:0,0:0:0:0:
145,327,29390,2,0,L|259:334,1,104.04000063501,8|0,0:0|3:0,0:0:0:0:
198,153,29898,6,0,P|157:158|127:165,1,52.0200003175049,2|0,1:2|0:0,0:0:0:0:
161,67,30152,2,0,P|215:56|268:86,1,104.04000063501,2|10,3:2|0:0,0:0:0:0:
443,47,30661,2,0,P|437:91|438:116,1,52.0200003175049,2|8,3:2|0:0,0:0:0:0:
462,188,30915,6,0,P|421:192|375:244,1,104.04000063501,2|2,1:2|3:2,0:0:0:0:
217,333,31424,1,10,0:2:0:0:
157,253,31551,2,0,L|279:237,1,104.04000063501,0|0,1:0|1:0,0:0:0:0:
329,302,31932,5,2,1:2:0:0:
352,211,32059,2,0,P|329:169|256:148,1,104.04000063501,8|0,0:0|1:0,0:0:0:0:
214,78,32441,2,0,L|320:61,1,104.04000063501,8|2,0:0|0:0,0:0:0:0:
409,70,32822,6,0,L|460:118,1,52.0200003175049,2|2,0:0|1:2,0:0:0:0:
450,199,33076,2,0,P|400:192|338:222,1,104.04000063501,8|0,0:0|0:0,0:0:0:0:
272,261,33457,2,0,P|232:254|207:245,1,52.0200003175049,8|8,0:0|0:0,0:0:0:0:
145,194,33712,2,0,P|92:202|80:207,1,52.0200003175049,4|8,3:0|3:0,0:0:0:0:
37,275,33966,6,0,P|33:197|2:166,2,104.04000063501,2|0|8,1:2|3:0|0:0,0:0:0:0:
198,370,34729,2,0,L|263:368,1,52.0200003175049,2|8,0:0|0:0,0:0:0:0:
344,330,34983,6,0,P|305:308|265:240,1,104.04000063501,2|0,1:2|3:0,0:0:0:0:
295,170,35364,1,0,0:0:0:0:
324,80,35491,2,0,L|208:64,1,104.04000063501,8|2,0:0|1:2,0:0:0:0:
132,96,35873,1,0,0:0:0:0:
62,33,36000,6,0,P|46:69|142:189,2,208.08000127002,6|8|2,1:2|0:0|1:2,0:0:0:0:
132,96,37144,2,0,L|251:81,1,104.04000063501,8|0,0:0|1:0,0:0:0:0:
327,70,37525,1,8,0:0:0:0:
450,330,38034,6,0,L|380:322,1,52.0200003175049,2|0,1:2|0:0,0:0:0:0:
306,341,38288,2,0,L|254:346,1,52.0200003175049,2|0,3:2|0:0,0:0:0:0:
162,329,38542,1,10,1:2:0:0:
72,303,38669,2,0,P|98:259|151:239,1,104.04000063501,2|0,1:2|1:0,0:0:0:0:
239,248,39051,5,2,1:2:0:0:
331,258,39178,2,0,L|343:138,1,104.04000063501,8|0,0:0|1:0,0:0:0:0:
405,87,39559,2,0,P|361:72|314:64,1,52.0200003175049,8|0,0:0|0:0,0:0:0:0:
265,92,39813,2,0,P|221:107|174:115,1,52.0200003175049,0|8,3:0|0:0,0:0:0:0:
118,101,40068,5,2,1:2:0:0:
33,60,40195,2,0,P|27:90|52:158,1,104.04000063501,8|0,0:0|3:0,0:0:0:0:
138,190,40576,2,0,P|160:236|159:288,1,104.04000063501,10|2,0:2|1:2,0:0:0:0:
216,109,41085,5,0,1:0:0:0:
275,181,41212,2,0,L|396:160,1,104.04000063501,8|2,0:0|1:2,0:0:0:0:
469,144,41593,2,0,P|479:120|493:97,2,52.0200003175049,8|8|4,0:0|0:0|3:0,0:0:0:0:
469,144,42102,6,0,L|475:211,1,52.0200003175049,6|0,1:2|0:0,0:0:0:0:
402,256,42356,2,0,L|397:307,1,52.0200003175049,2|0,0:2|1:0,0:0:0:0:
306,284,42610,2,0,P|264:285|193:310,1,104.04000063501,10|2,0:2|1:2,0:0:0:0:
24,352,43118,6,0,L|33:296,1,52.0200003175049,2|8,1:2|0:0,0:0:0:0:
104,239,43373,2,0,L|95:187,1,52.0200003175049,2|0,0:2|1:0,0:0:0:0:
38,113,43627,2,0,L|152:95,1,104.04000063501,10|2,0:2|1:2,0:0:0:0:
308,179,44135,6,0,P|355:168|398:105,1,104.04000063501,0|2,1:0|0:2,0:0:0:0:
432,43,44517,2,0,P|461:65|484:141,1,104.04000063501,2|2,1:2|0:2,0:0:0:0:
450,213,44898,1,0,1:0:0:0:
406,296,45025,6,0,L|411:358,1,52.0200003175049,2|0,0:2|1:0,0:0:0:0:
320,319,45279,2,0,L|202:314,1,104.04000063501,8|0,0:0|1:0,0:0:0:0:
124,290,45661,2,0,L|-3:301,1,104.04000063501,8|0,0:0|1:0,0:0:0:0:
20,298,46169,6,0,L|15:240,1,52.0200003175049,2|0,1:2|0:0,0:0:0:0:
44,156,46424,2,0,L|49:98,1,52.0200003175049,2|0,0:2|1:0,0:0:0:0:
137,150,46678,2,0,P|181:153|250:135,1,104.04000063501,10|2,0:2|1:2,0:0:0:0:
400,45,47186,6,0,P|417:82|417:101,1,52.0200003175049,2|8,1:2|0:0,0:0:0:0:
354,156,47441,2,0,P|340:178|336:203,1,52.0200003175049,2|0,0:2|1:0,0:0:0:0:
396,275,47695,1,10,0:2:0:0:
453,201,47822,2,0,P|483:241|486:308,1,104.04000063501,2|0,0:2|0:0,0:0:0:0:
427,363,48203,5,2,1:2:0:0:
257,283,48457,2,0,L|193:290,1,52.0200003175049,0|0,0:0|1:0,0:0:0:0:
119,327,48712,2,0,L|111:212,1,104.04000063501,8|2,0:0|1:2,0:0:0:0:
36,52,49220,5,6,1:2:0:0:
102,117,49347,2,0,P|151:122|209:93,1,104.04000063501,8|2,0:0|0:2,0:0:0:0:
258,26,49729,1,8,0:0:0:0:
294,112,49856,2,0,L|297:178,2,52.0200003175049,2|0|2,0:2|3:0|0:2,0:0:0:0:
349,36,50237,5,2,1:2:0:0:
419,209,50491,2,0,P|422:259|417:279,1,52.0200003175049,2|0,0:2|1:0,0:0:0:0:
357,329,50746,2,0,P|291:331|258:309,1,104.04000063501,8|0,0:0|1:0,0:0:0:0:
155,157,51254,5,8,0:0:0:0:
123,245,51381,2,0,L|250:233,1,104.04000063501,2|2,0:2|0:2,0:0:0:0:
312,196,51763,2,0,P|322:238|317:266,2,52.0200003175049,10|2|0,0:2|0:2|3:0,0:0:0:0:
344,86,52144,6,0,P|296:68|230:90,1,104.04000063501,6|0,1:2|0:0,0:0:0:0:
173,138,52525,2,0,P|138:132|106:116,1,52.0200003175049,2|0,1:2|0:0,0:0:0:0:
44,75,52779,2,0,L|36:186,1,104.04000063501,10|2,0:2|3:0,0:0:0:0:
141,334,53288,5,0,1:0:0:0:
69,273,53415,2,0,B|101:246|101:246|177:242,1,104.04000063501,8|0,0:0|1:0,0:0:0:0:
230,307,53796,2,0,P|233:343|227:365,2,52.0200003175049,8|0|2,0:0|0:0|3:0,0:0:0:0:
118,155,54305,6,0,B|216:119|215:206|338:157,1,208.08000127002,6|10,1:2|0:2,0:0:0:0:
459,37,55068,2,0,L|465:94,1,52.0200003175049,0|0,0:0|0:0,0:0:0:0:
423,172,55322,6,0,L|428:242,2,52.0200003175049,2|8|10,1:2|0:0|0:2,0:0:0:0:
339,214,55703,1,8,0:0:0:0:
296,297,55830,2,0,P|256:300|234:296,1,52.0200003175049,4|4,3:0|3:0,0:0:0:0:
177,230,56085,2,0,P|137:227|115:231,1,52.0200003175049,4|4,3:0|3:0,0:0:0:0:
32,305,56339,6,0,P|38:252|9:171,1,134.639999589111,6|2,1:2|0:0,0:0:0:0:
67,91,56720,2,0,L|156:77,1,67.3199997945557,2|8,1:2|0:0,0:0:0:0:
222,128,56974,2,0,L|361:150,1,134.639999589111,2|2,0:0|0:0,0:0:0:0:
440,93,57356,5,0,1:0:0:0:
436,193,57483,2,0,P|439:260|486:317,1,134.639999589111,10|0,0:0|1:0,0:0:0:0:
379,327,57864,2,0,L|304:321,1,67.3199997945557,10|0,0:0|0:0,0:0:0:0:
215,350,58118,1,2,0:0:0:0:
215,350,58373,6,0,B|204:248|204:248|185:216,1,134.639999589111,2|2,1:2|0:0,0:0:0:0:
97,174,58754,2,0,L|88:80,1,67.3199997945557,2|8,1:2|0:0,0:0:0:0:
169,44,59008,2,0,P|215:67|308:27,1,134.639999589111,2|2,0:0|0:0,0:0:0:0:
390,19,59390,5,0,1:0:0:0:
352,112,59517,2,0,L|375:259,1,134.639999589111,8|0,0:0|1:0,0:0:0:0:
468,277,59898,2,0,L|462:359,2,67.3199997945557,8|0|0,0:0|0:0|1:0,0:0:0:0:
468,277,60407,6,0,B|383:257|422:306|306:276,1,134.639999589111,2|2,1:2|0:0,0:0:0:0:
257,219,60788,2,0,P|215:214|173:233,1,67.3199997945557,2|8,1:2|0:0,0:0:0:0:
139,307,61042,2,0,P|135:230|82:194,1,134.639999589111,2|2,0:0|0:0,0:0:0:0:
2,151,61424,5,0,1:0:0:0:
92,105,61551,2,0,L|245:96,1,134.639999589111,10|0,0:0|1:0,0:0:0:0:
319,134,61932,2,0,L|403:127,1,67.3199997945557,10|0,0:0|0:0,0:0:0:0:
478,87,62186,1,2,1:2:0:0:
478,87,62441,6,0,P|447:132|488:218,1,134.639999589111,2|2,1:2|0:0,0:0:0:0:
501,299,62822,2,0,L|424:288,1,67.3199997945557,2|8,1:2|0:0,0:0:0:0:
348,344,63076,2,0,B|298:351|298:351|259:341|259:341|199:349,1,134.639999589111,2|2,0:0|0:0,0:0:0:0:
115,357,63457,5,0,1:0:0:0:
149,261,63585,2,0,B|139:221|139:221|69:143,1,134.639999589111,8|0,0:0|1:0,0:0:0:0:
20,67,63966,2,0,P|75:50|155:85,1,134.639999589111,10|2,0:0|0:0,0:0:0:0:
305,197,64474,6,0,B|319:150|319:150|306:99|306:51,1,134.639999589111,2|2,1:2|0:0,0:0:0:0:
406,50,64856,2,0,P|415:110|419:132,1,67.3199997945557,2|8,1:2|0:0,0:0:0:0:
455,209,65110,2,0,P|450:242|444:275,1,67.3199997945557,2|0,0:0|1:0,0:0:0:0:
370,343,65364,6,0,P|307:342|280:343,1,67.3199997945557,2|0,0:0|1:0,0:0:0:0:
203,362,65618,2,0,P|203:316|166:223,1,134.639999589111,10|0,0:0|1:0,0:0:0:0:
101,161,66000,2,0,P|96:121|102:81,1,67.3199997945557,10|0,0:0|0:0,0:0:0:0:
191,53,66254,2,0,P|193:86|188:119,1,67.3199997945557,2|0,0:0|1:0,0:0:0:0:
280,78,66508,6,0,L|422:75,1,134.639999589111,2|2,1:2|0:0,0:0:0:0:
462,164,66890,2,0,L|381:168,1,67.3199997945557,2|8,1:2|0:0,0:0:0:0:
295,185,67144,2,0,L|227:181,1,67.3199997945557,2|0,0:0|0:0,0:0:0:0:
151,247,67398,6,0,P|115:259|66:252,1,67.3199997945557,2|0,0:0|1:0,0:0:0:0:
101,161,67652,2,0,B|102:119|82:81|82:81|119:29,1,134.639999589111,10|0,0:0|1:0,0:0:0:0:
191,102,68034,2,0,P|199:142|201:177,1,67.3199997945557,8|0,0:0|0:0,0:0:0:0:
285,118,68288,2,0,P|293:158|295:193,1,67.3199997945557,2|2,1:2|0:0,0:0:0:0:
392,156,68542,6,0,P|392:208|268:280,1,201.959999383667,6|0,1:2|1:0,0:0:0:0:
181,248,69051,2,0,P|124:254|93:270,1,67.3199997945557,8|0,0:0|0:0,0:0:0:0:
29,310,69305,1,2,0:0:0:0:
30,209,69432,6,0,L|18:131,1,67.3199997945557,2|0,0:0|1:0,0:0:0:0:
120,151,69686,2,0,L|266:121,1,134.639999589111,8|0,0:0|1:0,0:0:0:0:
344,166,70068,2,0,P|389:176|479:123,1,134.639999589111,8|0,0:0|0:0,0:0:0:0:
466,140,70576,6,0,B|478:221|478:221|462:271|462:271|483:341,1,201.959999383667,6|0,1:2|1:0,0:0:0:0:
383,307,71085,2,0,B|340:279|295:301|295:301|239:333|188:305,1,201.959999383667,10|8,0:0|0:0,0:0:0:0:
236,216,71593,6,0,P|230:173|192:75,1,134.639999589111,6|10,1:2|3:0,0:0:0:0:
393,31,72102,2,0,P|376:74|367:106,1,67.3199997945557,0|8,1:0|0:0,0:0:0:0:
448,157,72356,2,0,P|465:200|474:232,1,67.3199997945557,4|0,3:0|0:0,0:0:0:0:
477,320,72610,6,0,P|471:267|500:186,1,134.639999589111,6|2,1:2|0:0,0:0:0:0:
495,90,72991,2,0,L|406:76,1,67.3199997945557,2|8,1:2|0:0,0:0:0:0:
338,125,73245,2,0,P|273:157|199:147,1,134.639999589111,2|2,0:0|0:0,0:0:0:0:
124,101,73627,5,0,1:0:0:0:
88,195,73754,2,0,B|85:263|85:263|38:319,1,134.639999589111,10|0,0:0|1:0,0:0:0:0:
140,337,74135,2,0,L|215:331,1,67.3199997945557,10|0,0:0|0:0,0:0:0:0:
301,368,74389,1,2,1:2:0:0:
301,368,74644,6,0,B|278:294|317:234,1,134.639999589111,2|2,1:2|0:0,0:0:0:0:
412,189,75025,2,0,P|422:150|421:95,1,67.3199997945557,2|8,1:2|0:0,0:0:0:0:
344,60,75279,2,0,L|205:43,1,134.639999589111,2|2,0:0|0:0,0:0:0:0:
108,40,75661,5,2,1:2:0:0:
156,128,75788,2,0,P|164:200|133:275,1,134.639999589111,8|0,0:0|1:0,0:0:0:0:
52,296,76169,2,0,L|58:378,2,67.3199997945557,8|0|0,0:0|0:0|1:0,0:0:0:0:
52,296,76678,6,0,B|137:276|98:325|214:295,1,134.639999589111,2|2,1:2|0:0,0:0:0:0:
236,215,77059,2,0,P|278:210|320:229,1,67.3199997945557,2|8,1:2|0:0,0:0:0:0:
384,272,77313,2,0,P|385:197|417:139,1,134.639999589111,2|2,0:0|0:0,0:0:0:0:
490,80,77695,5,0,1:0:0:0:
393,51,77822,2,0,L|240:42,1,134.639999589111,10|0,0:0|1:0,0:0:0:0:
195,122,78203,2,0,L|111:115,1,67.3199997945557,10|0,0:0|0:0,0:0:0:0:
46,56,78457,1,2,1:2:0:0:
46,56,78712,6,0,B|75:101|75:101|49:197,1,134.639999589111,2|2,1:2|0:0,0:0:0:0:
11,270,79093,2,0,L|100:259,1,67.3199997945557,2|8,1:2|0:0,0:0:0:0:
152,329,79347,2,0,B|202:336|202:336|242:320|301:334,1,134.639999589111,2|10,0:0|0:0,0:0:0:0:
390,348,79728,5,0,0:0:0:0:
356,252,79856,2,0,P|366:182|436:134,1,134.639999589111,8|0,0:0|1:0,0:0:0:0:
485,72,80237,2,0,P|447:51|407:47,1,67.3199997945557,10|8,0:0|0:0,0:0:0:0:
327,77,80491,2,0,P|294:69|265:51,1,67.3199997945557,4|8,3:0|3:0,0:0:0:0:
170,15,80746,6,0,B|160:112|160:112|194:156|199:212,1,201.959999383667,6|0,1:2|1:0,0:0:0:0:
145,293,81254,2,0,P|190:307|213:309,1,67.3199997945557,8|0,0:0|0:0,0:0:0:0:
297,258,81508,1,2,1:2:0:0:
377,318,81635,6,0,P|395:277|395:246,1,67.3199997945557,2|0,0:0|1:0,0:0:0:0:
344,170,81890,2,0,P|278:159|212:204,1,134.639999589111,8|0,0:0|1:0,0:0:0:0:
201,92,82271,2,0,P|288:62|345:73,1,134.639999589111,10|2,0:0|1:2,0:0:0:0:
420,108,82652,1,0,0:0:0:0:
344,170,82779,6,0,P|278:159|198:279,1,201.959999383667,2|0,1:2|1:0,0:0:0:0:
297,258,83288,2,0,P|307:303|309:345,1,67.3199997945557,8|0,0:0|0:0,0:0:0:0:
209,341,83542,1,2,1:2:0:0:
119,293,83669,6,0,L|41:305,1,67.3199997945557,2|0,0:0|1:0,0:0:0:0:
80,205,83924,2,0,P|76:136|26:92,1,134.639999589111,8|0,0:0|1:0,0:0:0:0:
118,45,84305,2,0,L|195:37,1,67.3199997945557,8|8,0:0|0:0,0:0:0:0:
188,138,84559,2,0,L|254:144,1,67.3199997945557,2|2,1:2|0:0,0:0:0:0:
333,81,84813,6,0,B|391:186|295:186|356:294,1,201.959999383667,2|0,1:2|1:0,0:0:0:0:
430,218,85322,2,0,P|447:273|447:298,1,67.3199997945557,8|0,0:0|0:0,0:0:0:0:
386,362,85576,1,2,1:2:0:0:
346,275,85703,6,0,L|256:287,1,67.3199997945557,2|0,0:0|1:0,0:0:0:0:
208,355,85957,2,0,P|224:298|167:233,1,134.639999589111,8|0,0:0|1:0,0:0:0:0:
86,209,86339,2,0,P|57:169|57:138,1,67.3199997945557,8|8,0:0|0:0,0:0:0:0:
86,56,86593,2,0,P|119:27|169:27,1,67.3199997945557,4|8,3:0|3:0,0:0:0:0:
231,79,86855,6,0,P|289:92|367:61,1,134.639999589111,4|8,1:0|0:0,0:0:0:0:
440,8,87236,1,8,0:0:0:0:
451,108,87363,2,0,L|438:254,1,134.639999589111,0|8,1:0|0:0,0:0:0:0:
375,320,87744,1,8,0:0:0:0:
298,254,87871,2,0,P|249:235|218:236,2,67.3199997945557,4|8|0,1:0|0:0|0:0,0:0:0:0:
116,343,88380,2,0,P|96:289|97:269,1,67.3199997945557,8|8,0:0|0:0,0:0:0:0:
101,182,88634,2,0,P|96:145|73:98,1,67.3199997945557,8|8,3:0|3:0,0:0:0:0:
14,58,88913,5,4,1:2:0:0:
14,58,89040,2,0,P|82:28|177:80,1,155.039998107422,8|0,0:0|1:0,0:0:0:0:
228,132,89421,2,0,L|391:151,1,155.039998107422,8|0,0:0|1:0,0:0:0:0:
440,58,89802,6,0,P|481:104|473:207,1,155.039998107422,8|0,0:0|1:0,0:0:0:0:
429,289,90184,2,0,L|336:280,1,77.5199990537109,8|0,0:0|0:0,0:0:0:0:
263,238,90438,1,8,0:0:0:0:
263,238,90565,2,0,P|253:286|262:322,2,77.5199990537109,0|8|8,1:0|0:0|0:0,0:0:0:0:
178,169,90946,5,4,1:0:0:0:
178,169,91074,2,0,P|170:119|82:59,1,155.039998107422,8|0,0:0|1:0,0:0:0:0:
198,55,91455,2,0,B|245:67|245:67|292:55|292:55|353:66,1,155.039998107422,8|0,0:0|1:0,0:0:0:0:
444,116,91836,6,0,B|455:224|455:224|437:272,1,155.039998107422,8|0,0:0|1:0,0:0:0:0:
336,309,92218,2,0,L|240:296,1,77.5199990537109,8|0,0:0|0:0,0:0:0:0:
159,265,92472,1,8,0:0:0:0:
159,265,92599,2,0,L|152:355,2,77.5199990537109,0|8|8,1:0|0:0|0:0,0:0:0:0:
128,179,92995,5,4,1:0:0:0:
128,179,93122,2,0,B|202:153|201:221|315:181,1,155.039998107422,8|0,0:0|1:0,0:0:0:0:
387,181,93503,2,0,P|313:169|277:88,1,155.039998107422,8|0,0:0|1:0,0:0:0:0:
381,74,93884,6,0,B|431:88|431:88|470:119|483:182,1,155.039998107422,12|8,0:0|0:0,0:0:0:0:
452,280,94266,2,0,P|409:291|362:292,1,77.5199990537109,0|0,1:0|0:0,0:0:0:0:
268,278,94520,2,0,P|218:284|180:296,1,77.5199990537109,8|8,0:0|0:0,0:0:0:0:
113,367,94774,2,0,P|91:320|86:276,1,77.5199990537109,8|8,0:0|0:0,0:0:0:0:
119,207,95028,5,4,1:0:0:0:
395,169,95410,2,0,P|433:163|470:135,2,67.3199997945557,8|4|8,0:0|3:0|3:0,0:0:0:0:
319,112,95791,6,0,B|258:143|190:114|190:114|110:80|38:135,1,269.279999178223,4|0,1:0|1:0,0:0:0:0:
119,207,96427,1,0,0:0:0:0:
48,281,96554,2,0,P|82:304|217:232,1,201.959999383667,0|0,0:0|0:0,0:0:0:0:
200,146,97062,5,4,1:0:0:0:
449,280,97444,2,0,P|452:330|449:365,2,67.3199997945557,8|4|8,0:0|3:0|3:0,0:0:0:0:
410,194,97825,6,0,B|378:119|378:119|355:320,1,269.279999178223,4|0,1:0|1:0,0:0:0:0:
171,341,98588,1,8,0:0:0:0:
87,297,98715,2,0,P|127:260|223:263,1,134.639999589111,8|0,0:0|0:0,0:0:0:0:
262,328,99096,5,4,1:0:0:0:
351,59,99478,2,0,L|429:47,2,67.3199997945557,8|4|8,0:0|3:0|3:0,0:0:0:0:
269,106,99859,6,0,B|219:113|219:113|174:92|174:92|113:106|51:94|51:94|76:155,1,269.279999178223,4|0,1:0|0:0,0:0:0:0:
130,207,100495,2,0,P|131:254|126:293,1,67.3199997945557,0|8,1:0|0:0,0:0:0:0:
221,257,100749,2,0,P|282:266|364:242,1,134.639999589111,0|0,0:0|0:0,0:0:0:0:
413,177,101130,5,4,1:0:0:0:
136,120,101511,2,0,P|92:127|68:142,2,67.3199997945557,0|4|8,1:0|3:0|3:0,0:0:0:0:
213,65,101893,6,0,B|251:119|212:192|212:192|183:257|231:336,1,269.279999178223,4|0,1:0|1:0,0:0:0:0:
404,270,102656,2,0,L|329:261,1,67.3199997945557,8|8,0:0|0:0,0:0:0:0:
378,177,102910,2,0,L|453:168,1,67.3199997945557,8|8,0:0|0:0,0:0:0:0:
395,80,103164,6,0,B|345:72|307:99|307:99|259:77|259:77|187:110|103:72,1,289.679985413453,4|8,1:0|0:0,0:0:0:0:
29,261,103927,2,0,P|89:260|118:248,1,72.4199963533632,2|2,1:2|0:0,0:0:0:0:
179,192,104181,2,0,P|203:247|166:336,1,144.839992706726,2|2,1:2|0:0,0:0:0:0:
278,314,104562,2,0,L|358:310,1,72.4199963533632,2|8,1:2|0:0,0:0:0:0:
443,269,104817,2,0,P|364:254|327:197,1,144.839992706726,2|0,0:0|0:0,0:0:0:0:
390,123,105198,6,0,L|238:106,1,144.839992706726,2|2,1:2|0:0,0:0:0:0:
54,49,105706,1,10,0:0:0:0:
11,140,105833,2,0,L|33:299,1,144.839992706726,2|10,0:0|0:0,0:0:0:0:
113,222,106215,6,0,P|174:205|260:243,1,144.839992706726,0|8,1:0|0:0,0:0:0:0:
423,334,106723,2,0,L|433:245,2,72.4199963533632,2|8|0,1:2|0:0|0:0,0:0:0:0:
379,162,107232,6,0,L|373:96,3,63.239997491089,4|0|0|0,1:2|1:0|1:0|1:0,0:0:0:0:
281,123,108249,2,0,L|286:51,3,63.239997491089,0|0|0|0,1:0|1:0|1:0|1:0,0:0:0:0:
146,201,109266,6,0,L|155:273,3,73.4400017929688,8|8|0|8,0:0|0:0|1:0|0:0,0:0:0:0:
251,256,110283,2,0,L|245:344,3,73.4400017929688,0|8|8|8,1:0|0:0|0:2|0:2,0:0:0:0:
368,264,111300,6,0,P|387:214|384:158,1,104.04000063501,12|8,0:2|0:2,0:0:0:0:
324,88,111808,2,0,P|285:79|216:88,1,104.04000063501,8|8,0:2|0:2,0:0:0:0:
133,170,112317,6,0,P|99:168|68:164,1,57.1200006972656,12|0,0:2|0:2,0:0:0:0:
68,255,112571,2,0,P|112:261|136:260,1,57.1200006972656,8|0,0:2|0:2,0:0:0:0:
264,232,112825,6,0,P|230:230|200:224,1,57.1200006972656,12|0,0:2|0:2,0:0:0:0:
196,318,113079,2,0,P|240:324|264:324,1,57.1200006972656,8|0,0:2|0:2,0:0:0:0:
188,117,119830,6,0,P|249:138|299:117,2,67.3199997945557,0|8|8,1:0|0:0|0:0,0:0:0:0:
251,46,120211,1,0,1:0:0:0:
254,262,120465,6,0,B|311:259|311:259|342:272|342:272|408:267,1,155.039998107422,4|8,1:0|0:0,0:0:0:0:
483,343,120846,1,0,1:0:0:0:
489,126,121100,1,0,1:0:0:0:
275,161,121354,6,0,B|177:138|224:195|100:155,1,155.039998107422,4|8,1:0|0:0,0:0:0:0:
49,92,121736,2,0,P|27:135|25:176,1,77.5199990537109,0|0,1:0|1:0,0:0:0:0:
77,248,121990,2,0,P|96:281|102:319,2,77.5199990537109,8|8|8,0:0|0:0|0:0,0:0:0:0:
10,312,122371,1,8,0:0:0:0:
106,361,122498,6,0,B|240:353|240:353|299:309,1,201.959999383667,4|0,0:0|1:0,0:0:0:0:
233,243,123007,2,0,L|221:149,2,67.3199997945557,8|0|2,0:0|0:0|1:2,0:0:0:0:
316,197,123388,6,0,L|316:114,1,67.3199997945557,2|0,0:0|1:0,0:0:0:0:
405,99,123642,2,0,P|373:55|298:39,1,134.639999589111,8|0,0:0|1:0,0:0:0:0:
221,96,124024,2,0,L|65:82,1,134.639999589111,10|2,0:0|1:2,0:0:0:0:
62,270,124532,6,0,B|111:244|161:271|161:271|205:294|271:270,1,201.959999383667,2|0,1:2|1:0,0:0:0:0:
316,197,125041,2,0,P|361:190|391:195,1,67.3199997945557,8|0,0:0|0:0,0:0:0:0:
452,255,125295,1,2,1:2:0:0:
470,162,125422,6,0,L|460:95,1,67.3199997945557,2|0,0:2|1:0,0:0:0:0:
367,102,125676,2,0,P|276:97|227:51,1,134.639999589111,8|0,0:0|1:0,0:0:0:0:
172,9,126058,1,8,0:0:0:0:
81,173,126312,2,0,L|92:248,1,67.3199997945557,2|2,1:2|0:0,0:0:0:0:
31,312,126566,6,0,P|84:332|186:237,1,201.959999383667,2|0,1:2|1:0,0:0:0:0:
236,167,127075,2,0,P|270:199|282:223,2,67.3199997945557,8|0|2,0:0|0:0|1:2,0:0:0:0:
159,112,127456,6,0,P|148:65|148:36,1,67.3199997945557,2|0,0:0|1:0,0:0:0:0:
239,65,127710,2,0,L|382:58,1,134.639999589111,8|0,0:0|1:0,0:0:0:0:
444,121,128092,2,0,L|301:114,1,134.639999589111,8|4,0:0|3:0,0:0:0:0:
232,286,128600,6,0,P|257:309|309:206,1,201.959999383667,6|0,1:2|0:0,0:0:0:0:
227,185,129109,2,0,P|166:207|93:189,1,134.639999589111,2|8,1:2|0:0,0:0:0:0:
159,112,129490,1,8,0:0:0:0:
251,92,129617,6,0,P|300:114|317:205,1,134.639999589111,6|2,1:2|0:0,0:0:0:0:
430,342,130126,2,0,L|419:268,1,67.3199997945557,10|10,0:0|0:0,0:0:0:0:
466,193,130380,2,0,L|475:96,1,67.3199997945557,8|8,0:0|0:0,0:0:0:0:
387,52,130634,6,0,L|373:195,1,134.639999589111,6|2,1:2|0:0,0:0:0:0:
420,275,131015,2,0,L|331:289,1,67.3199997945557,2|8,1:2|0:0,0:0:0:0:
267,232,131269,2,0,P|195:214|124:247,1,134.639999589111,2|2,0:0|0:0,0:0:0:0:
56,291,131651,5,0,1:0:0:0:
64,190,131778,2,0,L|33:44,1,134.639999589111,10|0,0:0|1:0,0:0:0:0:
135,74,132159,2,0,P|176:78|212:68,1,67.3199997945557,10|0,0:0|0:0,0:0:0:0:
297,34,132413,1,2,0:0:0:0:
297,34,132668,6,0,B|280:81|280:81|283:139|329:170,1,134.639999589111,2|2,1:2|0:0,0:0:0:0:
401,204,133049,2,0,L|410:298,1,67.3199997945557,2|8,1:2|0:0,0:0:0:0:
342,348,133303,2,0,B|293:325|293:325|197:351,1,134.639999589111,2|2,0:0|0:0,0:0:0:0:
115,366,133685,5,0,1:0:0:0:
149,271,133812,2,0,P|147:209|99:129,1,134.639999589111,8|0,0:0|1:0,0:0:0:0:
27,94,134193,2,0,L|33:12,2,67.3199997945557,8|0|0,0:0|0:0|1:0,0:0:0:0:
27,94,134702,6,0,B|112:114|73:65|189:95,1,134.639999589111,2|2,1:2|0:0,0:0:0:0:
235,154,135083,2,0,P|277:159|319:140,1,67.3199997945557,2|8,1:2|0:0,0:0:0:0:
355,67,135337,2,0,B|349:132|349:132|412:180,1,134.639999589111,2|2,0:0|0:0,0:0:0:0:
493,223,135719,5,0,1:0:0:0:
406,274,135846,2,0,P|336:300|259:279,1,134.639999589111,10|0,0:0|1:0,0:0:0:0:
189,242,136227,2,0,P|149:238|105:249,1,67.3199997945557,10|0,0:2|0:0,0:0:0:0:
33,290,136481,1,2,1:2:0:0:
33,290,136736,6,0,P|64:245|23:159,1,134.639999589111,2|2,1:2|0:0,0:0:0:0:
5,78,137117,2,0,L|94:89,1,67.3199997945557,2|8,1:2|0:0,0:0:0:0:
156,32,137371,2,0,B|217:8|224:63|305:27,1,134.639999589111,2|2,0:0|0:0,0:0:0:0:
387,24,137752,5,0,0:0:0:0:
357,121,137880,2,0,P|366:186|437:239,1,134.639999589111,8|0,0:0|1:0,0:0:0:0:
476,311,138261,2,0,P|414:332|341:293,1,134.639999589111,2|4,1:2|3:0,0:0:0:0:
198,175,138770,6,0,B|181:268|223:217|197:321,1,134.639999589111,2|2,1:2|0:0,0:0:0:0:
103,337,139152,2,0,B|89:303|89:303|90:255,1,67.3199997945557,2|8,1:2|0:0,0:0:0:0:
98,171,139406,2,0,B|110:140|110:140|109:105,1,67.3199997945557,2|0,0:0|1:0,0:0:0:0:
165,22,139660,6,0,P|213:30|255:22,1,67.3199997945557,2|0,0:0|1:0,0:0:0:0:
331,22,139914,2,0,B|328:71|328:71|368:161,1,134.639999589111,8|0,0:0|1:0,0:0:0:0:
424,230,140296,2,0,B|429:270|429:270|423:310,1,67.3199997945557,10|0,0:0|0:0,0:0:0:0:
331,334,140550,2,0,B|329:301|329:301|334:268,1,67.3199997945557,2|0,0:0|1:0,0:0:0:0:
239,301,140804,6,0,P|171:317|97:304,1,134.639999589111,2|2,1:2|0:0,0:0:0:0:
48,219,141186,2,0,L|129:215,1,67.3199997945557,2|8,1:2|0:0,0:0:0:0:
214,197,141440,2,0,L|282:201,1,67.3199997945557,2|0,0:0|0:0,0:0:0:0:
361,137,141694,6,0,P|397:125|446:132,1,67.3199997945557,2|0,0:0|1:0,0:0:0:0:
411,223,141948,2,0,B|410:265|430:303|430:303|393:355,1,134.639999589111,8|0,0:0|1:0,0:0:0:0:
321,282,142330,2,0,P|313:242|311:207,1,67.3199997945557,8|0,0:0|0:0,0:0:0:0:
223,263,142584,2,0,P|215:223|213:188,1,67.3199997945557,2|0,1:2|0:0,0:0:0:0:
116,224,142837,6,0,B|116:172|116:172|143:93|240:100,1,201.959999383667,6|0,1:2|1:0,0:0:0:0:
327,132,143346,2,0,P|384:126|415:110,1,67.3199997945557,8|0,0:0|0:0,0:0:0:0:
479,70,143600,1,2,0:0:0:0:
478,171,143727,2,0,L|490:249,1,67.3199997945557,2|0,0:0|1:0,0:0:0:0:
388,229,143981,6,0,L|242:259,1,134.639999589111,8|0,0:0|1:0,0:0:0:0:
164,214,144363,2,0,P|119:204|29:257,1,134.639999589111,8|2,0:0|1:2,0:0:0:0:
112,50,144871,6,0,B|161:41|161:41|200:55|200:55|258:36|332:44,1,201.959999383667,2|0,1:2|1:0,0:0:0:0:
353,133,145380,2,0,P|267:128|204:147,1,134.639999589111,10|0,0:2|1:0,0:0:0:0:
290,212,145761,1,0,3:0:0:0:
358,286,145888,6,0,L|364:363,2,67.3199997945557,6|0|8,1:2|0:0|0:0,0:0:0:0:
256,295,146270,1,8,0:0:0:0:
256,295,146397,2,0,L|262:372,2,67.3199997945557,8|8|4,0:0|0:0|3:0,0:0:0:0:
155,304,146778,1,8,3:0:0:0:
155,304,146905,6,0,P|47:277|31:187,1,201.959999383667,6|0,1:2|1:0,0:0:0:0:
119,217,147414,2,0,L|121:144,1,67.3199997945557,8|0,0:0|0:0,0:0:0:0:
38,91,147668,6,0,P|106:98|191:70,1,134.639999589111,2|0,3:0|1:0,0:0:0:0:
252,23,148049,2,0,L|267:170,1,134.639999589111,8|0,0:0|1:0,0:0:0:0:
341,224,148431,2,0,L|352:305,1,67.3199997945557,8|0,0:0|0:0,0:0:0:0:
425,350,148685,6,0,P|363:336|281:360,1,134.639999589111,2|0,3:0|1:0,0:0:0:0:
195,366,149066,2,0,L|172:220,1,134.639999589111,8|0,0:0|1:0,0:0:0:0:
68,201,149433,6,0,B|123:213|123:213|266:162,1,201.959999383667,12|0,0:0|0:0,0:0:0:0:
296,69,149941,2,0,P|338:98|355:124,1,67.3199997945557,0|8,1:0|0:0,0:0:0:0:
370,208,150195,2,0,L|362:280,1,67.3199997945557,8|8,0:0|0:0,0:0:0:0:
459,266,150449,2,0,L|468:180,1,67.3199997945557,8|8,3:0|3:0,0:0:0:0:
452,106,150704,1,4,3:0:0:0:
452,106,150958,6,0,B|350:149|352:58|212:111,1,201.959999383667,6|0,1:2|1:0,0:0:0:0:
185,160,151466,2,0,P|94:136|74:79,1,134.639999589111,10|0,2:0|1:0,0:0:0:0:
165,72,151848,1,0,0:0:0:0:
256,98,151975,6,0,B|282:152|282:152|250:300,1,201.959999383667,6|0,1:2|1:0,0:0:0:0:
172,341,152483,2,0,P|226:330|303:357,1,134.639999589111,10|0,0:2|1:0,0:0:0:0:
399,358,152864,1,0,1:0:0:0:
482,299,152991,6,0,B|465:257|484:220|484:220|457:175|457:175|472:134|457:88,1,201.959999383667,6|0,1:2|0:0,0:0:0:0:
373,135,153500,2,0,P|330:143|248:82,1,134.639999589111,14|0,0:2|1:0,0:0:0:0:
85,181,154008,6,0,L|169:180,1,67.3199997945557,6|8,1:2|0:0,0:0:0:0:
194,264,154262,2,0,L|110:263,1,67.3199997945557,10|8,2:0|0:0,0:0:0:0:
32,261,154516,2,0,P|-6:220|-11:203,1,67.3199997945557,8|10,0:0|0:2,0:0:0:0:
0,115,154771,1,4,3:0:0:0:
214,50,155026,5,4,1:2:0:0:
214,50,155153,2,0,B|195:96|195:96|262:199,1,155.039998107422,8|0,0:0|1:0,0:0:0:0:
337,117,155534,2,0,P|357:166|322:268,1,155.039998107422,8|0,0:0|1:0,0:0:0:0:
259,344,155916,6,0,L|85:317,1,155.039998107422,8|0,0:0|1:0,0:0:0:0:
19,253,156297,2,0,L|104:236,1,77.5199990537109,8|0,0:0|0:0,0:0:0:0:
153,146,156551,1,0,0:0:0:0:
153,146,156678,2,0,P|145:100|159:60,2,77.5199990537109,0|8|8,1:0|0:0|0:0,0:0:0:0:
243,106,157060,5,4,1:0:0:0:
243,106,157187,2,0,B|314:75|324:142|410:107,1,155.039998107422,8|0,0:0|1:0,0:0:0:0:
470,47,157568,2,0,P|442:114|486:192,1,155.039998107422,8|0,0:0|1:0,0:0:0:0:
508,287,157949,6,0,L|352:263,1,155.039998107422,8|0,0:0|1:0,0:0:0:0:
266,327,158331,2,0,L|167:336,1,77.5199990537109,8|0,0:0|0:0,0:0:0:0:
80,336,158585,1,0,1:0:0:0:
80,336,158712,2,0,L|67:241,2,77.5199990537109,0|8|8,1:0|0:0|0:0,0:0:0:0:
155,256,159094,5,4,1:0:0:0:
155,256,159221,2,0,L|166:96,1,155.039998107422,8|0,0:0|1:0,0:0:0:0:
262,51,159602,2,0,P|251:128|307:196,1,155.039998107422,8|0,0:0|1:0,0:0:0:0:
370,264,159983,6,0,L|379:86,1,155.039998107422,8|0,0:0|1:0,0:0:0:0:
466,45,160365,2,0,L|476:139,1,77.5199990537109,8|0,0:0|0:0,0:0:0:0:
475,230,160619,1,0,1:0:0:0:
475,230,160746,2,0,L|486:322,2,77.5199990537109,0|8|8,1:0|0:0|0:0,0:0:0:0:
370,264,161127,5,4,1:0:0:0:
370,264,161255,2,0,L|185:246,1,155.039998107422,8|0,0:0|1:0,0:0:0:0:
146,332,161636,2,0,P|171:275|119:184,1,155.039998107422,8|0,0:0|1:0,0:0:0:0:
47,131,162017,6,0,P|33:82|136:59,1,155.039998107422,0|0,0:0|1:0,0:0:0:0:
200,102,162399,2,0,P|251:104|288:83,1,77.5199990537109,8|0,0:0|0:0,0:0:0:0:
353,19,162653,2,0,P|403:22|433:37,1,77.5199990537109,0|0,1:0|0:0,0:0:0:0:
422,141,162907,2,0,L|433:223,1,77.5199990537109,8|8,0:0|0:0,0:0:0:0:
387,347,163185,5,4,1:0:0:0:
302,295,163312,2,0,L|199:301,1,82.6200020170899,12|0,0:0|0:0,0:0:0:0:
131,341,163566,1,4,1:0:0:0:
134,245,163693,2,0,P|129:161|48:106,1,165.24000403418,12|12,0:0|0:0,0:0:0:0:
47,205,164074,5,4,1:0:0:0:
256,192,164138,12,2,167315,0:0:0:0:
256,192,167836,6,0,P|305:179|366:184,2,106.079999352539,2|2|2,0:0|0:0|0:0,0:0:0:0:
202,276,169141,2,0,P|170:139|264:92,1,265.199998381348,2|0,0:0|0:0,0:0:0:0:
407,264,171482,6,0,L|347:266,1,53.0399996762695,2|0,0:0|0:0,0:0:0:0:
265,306,172107,2,0,L|203:300,1,53.0399996762695,2|2,0:0|0:0,0:0:0:0:
151,239,172746,2,0,P|145:197|138:178,2,53.0399996762695,2|2|2,0:0|0:0|0:0,0:0:0:0:
43,97,174110,6,0,P|84:84|103:79,1,53.0399996762695,2|0,0:0|0:0,0:0:0:0:
189,80,174860,2,0,P|213:85|247:101,1,53.0399996762695,2|0,0:0|0:0,0:0:0:0:
292,177,175606,6,0,L|355:172,2,53.0399996762695,2|0|2,0:0|0:0|0:0,0:0:0:0:
197,170,176790,2,0,L|153:161,2,26.5199998381348,2|2|2,0:0|0:0|0:0,0:0:0:0:
256,192,177382,12,0,180737,0:0:0:0:
256,192,180836,12,0,186165,0:0:0:0:
