osu file format v14

[General]
AudioFilename: audio.mp3
AudioLeadIn: 0
PreviewTime: 114287
Countdown: 0
SampleSet: Soft
StackLeniency: 0.7
Mode: 0
LetterboxInBreaks: 0
EpilepsyWarning: 1
WidescreenStoryboard: 1

[Editor]
Bookmarks: 7195,42610
DistanceSpacing: 1.3
BeatDivisor: 2
GridSize: 4
TimelineZoom: 0.8000004

[Metadata]
Title:Outside of Melancholy ~Yuuutsu no Mukougawa~
TitleUnicode:Outside of Melancholy 〜憂鬱の向こう側〜
Artist:fhana
ArtistUnicode:fhána
Creator:Sotarks
Version:Easy
Source:
Tags:lantis Junichi Sato yuxuki waga kevin mitsunaga towana zerss
BeatmapID:1217000
BeatmapSetID:568455

[Difficulty]
HPDrainRate:2
CircleSize:3
OverallDifficulty:2
ApproachRate:3
SliderMultiplier:1.84
SliderTickRate:1

[Events]
//Background and Video events
0,0,"melancholy.jpg",0,0
//Break Periods
2,18908,24390
2,89113,93588
2,114350,119025
2,155225,161872
//Storyboard Layer 0 (Background)
//Storyboard Layer 1 (Fail)
//Storyboard Layer 2 (Pass)
//Storyboard Layer 3 (Foreground)
Sprite,Foreground,Centre,"SB\highlight.png",289,98 F,2,107182,107232,0,1 C,0,107232,,199,199,199 M,0,107232,107295,289,98,266.1117,95.73632 F,2,107232,109248,1,0 P,0,107232,109248,A M,0,107295,107359,266.1117,95.73632,243.2233,93.47264 M,0,107359,107422,243.2233,93.47264,220.335,91.20895 M,0,107422,107486,220.335,91.20895,197.9464,89.55344 M,0,107486,107549,197.9464,89.55344,195.731,112.4465 M,0,107549,107613,195.731,112.4465,193.5155,135.3395 M,0,107613,107676,193.5155,135.3395,191.3001,158.2326 M,0,107676,107740,191.3001,158.2326,189.0846,181.1256 M,0,107740,107804,189.0846,181.1256,204.6759,197.5942 M,0,107804,107867,204.6759,197.5942,218.9722,215.5911 M,0,107867,107931,218.9722,215.5911,230.6828,235.3632 M,0,107931,107994,230.6828,235.3632,239.2914,256.666 M,0,107994,108058,239.2914,256.666,244.3436,279.0763 M,0,108058,108121,244.3436,279.0763,245.3654,302.0195 M,0,108121,108185,245.3654,302.0195,241.6346,324.6621 M,0,108185,108248,241.6346,324.6621,231.872,345.3705 S,18,108248,109248,1,0.2
Sprite,Foreground,Centre,"SB\highlight.png",69,310 F,2,108707,108757,0,1 C,0,108757,,199,199,199 F,2,108757,109757,1,0 S,18,108757,109757,1,0.2 P,0,108757,109757,A
Sprite,Foreground,Centre,"SB\highlight.png",231,345 F,2,109216,109266,0,1 C,0,109266,,199,199,199 M,0,109266,109329,231,345,253.9512,343.5032 F,2,109266,111028,1,0 P,0,109266,111028,A M,0,109329,109393,253.9512,343.5032,276.9025,342.0063 M,0,109393,109456,276.9025,342.0063,299.8537,340.5096 M,0,109456,109520,299.8537,340.5096,322.805,339.0127 M,0,109520,109583,322.805,339.0127,332.998,318.504 M,0,109583,109647,332.998,318.504,343.0818,297.8323 M,0,109647,109710,343.0818,297.8323,353.1656,277.1606 M,0,109710,109774,353.1656,277.1606,363.5685,256.9876 M,0,109774,109838,363.5685,256.9876,386.563,256.4878 M,0,109838,109901,386.563,256.4878,409.5576,255.9879 M,0,109901,109965,409.5576,255.9879,432.5522,255.488 M,0,109965,110028,432.5522,255.488,455,255 S,18,110028,111028,1,0.2
Sprite,Foreground,Centre,"SB\highlight.png",445,337 F,2,110233,110283,0,1 C,0,110283,,199,199,199 M,0,110283,110346,445,337,467.8708,336.6613 F,2,110283,112045,1,0 P,0,110283,112045,A M,0,110346,110410,467.8708,336.6613,489.8312,330.4559 M,0,110410,110473,489.8312,330.4559,509.2597,318.4703 M,0,110473,110537,509.2597,318.4703,524.6713,301.6142 M,0,110537,110600,524.6713,301.6142,534.8848,281.1682 M,0,110600,110664,534.8848,281.1682,539.1118,258.6879 M,0,110664,110727,539.1118,258.6879,537.0179,235.8866 M,0,110727,110791,537.0179,235.8866,528.3952,214.7068 M,0,110791,110855,528.3952,214.7068,514.574,196.5523 M,0,110855,110918,514.574,196.5523,496.3062,182.8733 M,0,110918,110982,496.3062,182.8733,474.9832,174.7162 M,0,110982,111045,474.9832,174.7162,452.2292,172.7089 S,18,111045,112045,1,0.2
Sprite,Foreground,Centre,"SB\highlight.png",369,167 F,2,111250,111300,0,1 C,0,111300,,163,129,129 F,2,111300,112300,1,0 S,18,111300,112300,1,0.2 P,0,111300,112300,A
Sprite,Foreground,Centre,"SB\highlight.png",315,246 F,2,120415,120465,0,1 C,0,120465,,108,244,255 F,2,120465,121465,1,0 S,18,120465,121465,1,0.2 P,0,120465,121465,A
Sprite,Foreground,Centre,"SB\highlight.png",257,356 F,2,120796,120846,0,1 C,0,120846,,108,244,255 M,0,120846,120909,257,356,277.1749,366.8228 F,2,120846,122354,1,0 P,0,120846,122354,A M,0,120909,120973,277.1749,366.8228,299.2367,372.8334 M,0,120973,121036,299.2367,372.8334,322.1408,373.3512 M,0,121036,121100,322.1408,373.3512,344.3461,367.799 M,0,121100,121163,344.3461,367.799,322.1408,373.3512 M,0,121163,121227,322.1408,373.3512,299.2367,372.8334 M,0,121227,121290,299.2367,372.8334,277.1749,366.8228 M,0,121290,121354,277.1749,366.8228,257,356 S,18,121354,122354,1,0.2
Sprite,Foreground,Centre,"SB\highlight.png",289,151 F,2,121940,121990,0,1 C,0,121990,,108,244,255 M,0,121990,122053,289,151,311.5388,147.0055 F,2,121990,123244,1,0 P,0,121990,123244,A M,0,122053,122117,311.5388,147.0055,334.3698,148.2418 M,0,122117,122180,334.3698,148.2418,356.2578,155.0429 M,0,122180,122244,356.2578,155.0429,375.4397,167.5318 S,18,122244,123244,1,0.2
//Storyboard Sound Samples

[TimingPoints]
935,521.739130434783,4,2,2,32,1,0
935,-200,4,2,2,32,0,0
13456,555.555555555556,4,2,2,32,1,0
13456,-200,4,2,2,32,0,0
15708,681.818181818182,4,2,2,32,1,0
15708,-200,4,2,2,32,0,0
17044,750,4,2,2,32,1,0
18708,508.474576271186,4,2,22,82,1,0
22780,508.474576271186,4,2,2,72,1,0
25830,508.474576271186,4,2,2,52,1,0
25830,-100,4,2,2,52,0,0
56338,-100,4,2,69,62,0,1
56402,-100,4,2,2,62,0,1
70575,-100,4,2,2,62,0,0
72609,-100,4,2,69,62,0,1
72674,-100,4,2,2,62,0,1
86855,508.474576271186,4,2,2,62,1,0
88913,508.474576271186,4,2,69,62,1,0
92995,508.474576271186,4,2,2,62,1,0
95028,-100,4,2,2,62,0,0
107232,-100,4,2,69,42,0,0
107295,-100,4,2,2,32,0,0
107359,-100,4,2,2,12,0,0
107486,-100,4,2,2,32,0,0
107613,-100,4,2,2,12,0,0
107740,-100,4,2,2,42,0,0
107867,-100,4,2,2,12,0,0
107994,-100,4,2,2,42,0,0
108122,-100,4,2,2,12,0,0
108249,-100,4,2,2,42,0,0
108376,-100,4,2,2,12,0,0
108503,-100,4,2,2,42,0,0
108630,-100,4,2,2,12,0,0
108757,-100,4,2,2,52,0,0
108884,-100,4,2,2,12,0,0
109011,-100,4,2,2,52,0,0
109139,-100,4,2,2,12,0,0
109266,-100,4,2,2,52,0,0
109393,-100,4,2,2,12,0,0
109520,-100,4,2,2,52,0,0
109647,-100,4,2,2,12,0,0
109774,-100,4,2,2,62,0,0
109901,-100,4,2,2,12,0,0
110028,-100,4,2,2,62,0,0
110156,-100,4,2,2,12,0,0
110283,-100,4,2,2,62,0,0
110410,-100,4,2,2,12,0,0
110537,-100,4,2,2,62,0,0
110664,-100,4,2,2,12,0,0
110791,-100,4,2,2,72,0,0
110918,-100,4,2,2,12,0,0
111045,-100,4,2,2,72,0,0
111300,-100,4,2,2,72,0,0
111427,-100,4,2,2,12,0,0
111554,-100,4,2,2,72,0,0
111681,-100,4,2,2,12,0,0
111808,-100,4,2,2,72,0,0
111935,-100,4,2,2,12,0,0
112062,-100,4,2,2,72,0,0
112189,-100,4,2,2,12,0,0
112317,-100,4,2,2,82,0,0
112444,-100,4,2,2,12,0,0
112571,-100,4,2,2,82,0,0
112698,-100,4,2,2,12,0,0
112825,-100,4,2,2,92,0,0
112952,-100,4,2,2,12,0,0
113079,-100,4,2,2,92,0,0
119830,508.474576271186,4,2,2,52,1,0
119830,-100,4,2,2,52,0,0
120465,508.474576271186,4,2,2,52,1,0
120465,-100,4,2,2,52,0,0
122498,-100,4,2,69,72,0,1
122562,-100,4,2,2,62,0,1
126566,-100,4,2,2,62,0,0
130634,-100,4,2,69,62,0,1
130698,-100,4,2,2,62,0,1
146905,-100,4,2,2,62,0,0
149433,508.474576271186,4,2,2,62,1,0
150958,508.474576271186,4,2,2,62,1,0
150958,-100,4,2,2,62,0,0
155026,-100,4,2,69,62,0,0
163185,508.474576271186,4,2,2,72,1,0
167315,521.739130434783,4,2,2,32,1,0
167315,-200,4,2,2,32,0,0
171482,625,4,2,2,32,1,0
171482,-200,4,2,2,32,0,0
172746,681.818181818182,4,2,2,32,1,0
172746,-200,4,2,2,32,0,0
174110,750,4,2,2,32,1,0
174110,-200,4,2,2,32,0,0
175606,789.473684210526,4,2,2,32,1,0
175606,-200,4,2,2,32,0,0
180737,-100,4,2,2,22,0,0
186165,-100,4,2,2,5,0,0

[Colours]
Combo1 : 163,129,129
Combo2 : 108,244,255
Combo3 : 157,217,104
Combo4 : 199,199,199

[HitObjects]
399,107,935,6,0,B|311:81|311:81|211:102,1,184,2|2,0:0|0:0,0:0:0:0:
182,218,2761,2,0,B|253:242|256:194|331:214,1,138,2|2,0:0|0:0,0:0:0:0:
398,225,4065,2,0,L|404:133,1,92,2|2,0:0|0:0,0:0:0:0:
361,62,5108,6,0,B|304:68|304:68|256:56,1,92,2|2,0:0|0:0,0:0:0:0:
187,60,6152,2,0,B|197:114|172:165,1,92,2|2,0:0|0:0,0:0:0:0:
110,197,7195,2,0,B|100:251|125:302,1,92,2|0,0:0|0:0,0:0:0:0:
194,323,8239,2,0,P|245:308|297:317,1,92,2|0,0:0|0:0,0:0:0:0:
314,235,9282,6,0,P|247:225|211:231,1,92,2|0,0:0|0:0,0:0:0:0:
144,256,10326,2,0,P|96:264|53:249,1,92,2|0,0:0|0:0,0:0:0:0:
104,184,11369,2,0,P|108:136|96:88,2,92,2|2|2,0:0|0:0|0:0,0:0:0:0:
236,264,13456,6,0,P|259:244|288:183,2,92,2|0|2,0:0|0:0|0:0,0:0:0:0:
184,136,15708,6,0,B|183:86|192:45|192:45|219:36|248:40,1,138,2|0,0:0|0:0,0:0:0:0:
256,192,17044,12,4,18708,1:0:0:0:
175,73,25830,6,0,P|234:51|360:87,2,184,6|10|2,1:2|0:0|1:2,0:0:0:0:
258,217,27356,1,10,0:0:0:0:
217,288,27610,2,0,B|133:273|135:350|44:324|27:296,1,184,2|0,0:0|3:0,0:0:0:0:
85,238,28373,2,0,P|91:194|140:164,1,92,8|0,0:0|0:0,0:0:0:0:
190,113,28881,2,0,B|251:130|251:130|304:113|304:113|374:128,1,184,0|8,1:0|0:0,0:0:0:0:
409,286,29898,6,0,P|363:266|227:300,1,184,2|10,1:2|0:0,0:0:0:0:
72,272,30915,2,0,L|56:80,1,184,2|10,1:2|0:2,0:0:0:0:
220,64,31932,2,0,P|252:81|389:28,1,184,2|8,1:2|0:0,0:0:0:0:
460,72,32695,1,2,0:0:0:0:
404,133,32949,2,0,L|424:325,1,184,2|8,1:2|0:0,0:0:0:0:
345,345,33712,1,4,3:0:0:0:
267,317,33966,6,0,B|180:289|180:289|89:320,1,184,2|8,1:2|0:0,0:0:0:0:
61,242,34729,1,2,0:0:0:0:
32,164,34982,2,0,L|42:22,2,138,2|0|2,1:2|0:0|1:2,0:0:0:0:
114,173,35999,2,0,B|196:141|200:217|305:179,2,184,6|8|2,1:2|0:0|1:2,0:0:0:0:
426,62,38033,6,0,B|449:153|449:153|387:232,1,184,2|10,1:2|1:2,0:0:0:0:
316,77,39050,2,0,B|175:54|175:54|135:73,1,184,2|8,1:2|0:0,0:0:0:0:
54,215,40067,2,0,P|31:253|41:312,2,92,2|2|10,1:2|3:2|0:2,0:0:0:0:
111,274,40829,1,2,1:2:0:0:
171,217,41084,2,0,P|191:258|158:341,2,138,0|2|4,1:0|1:2|3:0,0:0:0:0:
112,158,42101,6,0,P|152:136|213:144,1,92,6|2,1:2|0:2,0:0:0:0:
267,181,42609,2,0,P|312:182|352:160,1,92,10|2,0:2|1:2,0:0:0:0:
389,89,43117,2,0,P|420:117|372:240,1,184,2|10,1:2|0:2,0:0:0:0:
272,360,44134,2,0,L|176:352,1,92,0|2,1:0|0:2,0:0:0:0:
135,282,44643,2,0,P|146:238|128:182,2,92,8|0|0,0:0|1:0|1:0,0:0:0:0:
1,183,45660,1,8,0:0:0:0:
115,64,46168,6,0,L|208:44,1,92,2|2,1:2|0:2,0:0:0:0:
224,125,46677,2,0,L|313:144,1,92,10|2,0:2|1:2,0:0:0:0:
384,101,47185,2,0,B|419:185|419:185|395:278,1,184,2|10,1:2|0:2,0:0:0:0:
234,236,48202,2,0,P|123:220|88:280,1,184,2|8,1:2|0:0,0:0:0:0:
169,291,48965,1,2,1:2:0:0:
246,320,49219,6,0,L|399:322,2,138,6|2|0,1:2|0:2|3:0,0:0:0:0:
234,236,50236,2,0,L|231:137,2,92,2|2|8,1:2|0:2|0:0,0:0:0:0:
368,139,51253,2,0,P|414:103|490:118,1,138,0|2,1:0|0:2,0:0:0:0:
437,183,51889,1,2,0:2:0:0:
367,228,52143,6,0,B|321:222|321:222|278:240|278:240|223:234,1,138,6|2,1:2|1:2,0:0:0:0:
170,288,52778,2,0,P|149:254|158:195,1,92,10|2,0:2|3:0,0:0:0:0:
219,153,53287,2,0,P|220:89|120:50,1,184,0|8,1:0|0:0,0:0:0:0:
286,42,54304,6,0,B|326:62|326:62|373:43|417:64|417:64|464:38,2,184,6|10|2,1:2|0:2|1:2,0:0:0:0:
225,98,55575,2,0,P|209:141|238:235,1,138,10|4,0:2|3:0,0:0:0:0:
330,151,56338,6,0,P|371:138|433:157,1,92,6|2,1:2|0:0,0:0:0:0:
468,212,56846,2,0,P|495:169|460:79,1,138,8|2,0:0|0:0,0:0:0:0:
398,53,57481,1,10,0:0:0:0:
276,79,57863,2,0,L|169:65,1,92,10|2,0:0|0:0,0:0:0:0:
106,40,58372,2,0,B|60:122|60:122|71:177,1,138,2|2,1:2|1:2,0:0:0:0:
232,192,59262,2,0,B|286:161|339:194|339:194|391:221|452:184,1,230,2|8,0:0|0:0,0:0:0:0:
332,68,60406,6,0,P|256:61|185:92,1,138,2|2,1:2|1:2,0:0:0:0:
128,124,61041,2,0,L|120:227,1,92,2|2,0:0|0:0,0:0:0:0:
116,300,61550,2,0,B|205:278|205:278|260:297,1,138,10|10,0:0|0:0,0:0:0:0:
412,324,62440,2,0,L|428:176,1,138,2|2,1:2|1:2,0:0:0:0:
300,80,63329,2,0,P|235:100|167:67,1,138,2|0,0:0|0:0,0:0:0:0:
124,4,63965,2,0,P|98:32|91:89,1,92,10|2,0:0|0:0,0:0:0:0:
140,148,64473,6,0,B|160:237|160:237|138:289,1,138,2|2,1:2|1:2,0:0:0:0:
100,352,65109,2,0,B|75:333|75:333|53:264,2,92,2|2|10,0:0|0:0|0:0,0:0:0:0:
226,337,65999,2,0,P|275:347|329:319,1,92,10|2,0:0|0:0,0:0:0:0:
267,264,66507,2,0,B|256:172|256:172|284:114,1,138,2|2,1:2|1:2,0:0:0:0:
316,58,67143,2,0,P|351:92|359:143,2,92,2|2|10,0:0|0:0|0:0,0:0:0:0:
127,65,68287,5,2,1:2:0:0:
61,115,68541,2,0,P|37:149|102:270,1,184,6|8,1:2|0:0,0:0:0:0:
184,188,69431,2,0,B|266:148|266:148|289:192|332:216|395:197,1,230,2|8,0:0|0:0,0:0:0:0:
469,58,70575,2,0,B|418:136|517:155|468:245,2,184,6|10|6,1:2|0:0|1:2,0:0:0:0:
389,34,71846,2,0,P|345:23|249:57,1,138,10|8,3:0|0:0,0:0:0:0:
191,154,72609,6,0,P|150:167|87:146,1,92,6|2,1:2|0:0,0:0:0:0:
52,92,73117,2,0,P|25:135|58:227,1,138,8|2,0:0|0:0,0:0:0:0:
108,268,73753,1,10,0:0:0:0:
230,248,74134,2,0,L|337:262,1,92,10|2,0:0|1:2,0:0:0:0:
388,308,74643,2,0,B|434:226|434:226|423:171,1,138,2|2,1:2|1:2,0:0:0:0:
272,116,75533,2,0,B|204:136|204:136|122:103|122:103|52:124,1,230,2|8,0:0|0:0,0:0:0:0:
176,236,76677,6,0,B|251:244|251:244|324:216,1,138,2|2,1:2|1:2,0:0:0:0:
388,196,77312,2,0,P|402:155|396:93,1,92,2|2,0:0|0:0,0:0:0:0:
376,28,77821,2,0,B|287:50|287:50|232:31,1,138,10|10,0:0|0:0,0:0:0:0:
80,16,78711,2,0,P|60:89|75:163,1,138,2|2,1:2|1:2,0:0:0:0:
208,240,79600,2,0,P|273:220|341:253,1,138,10|0,0:0|0:0,0:0:0:0:
384,312,80236,2,0,P|410:284|417:227,1,92,10|4,0:0|3:0,0:0:0:0:
368,168,80745,6,0,B|287:125|287:125|179:133,1,184,6|8,1:2|0:0,0:0:0:0:
92,60,81634,2,0,P|114:103|82:203,1,138,2|0,0:0|0:0,0:0:0:0:
35,245,82270,2,0,P|9:301|19:348,1,92,10|2,0:0|1:2,0:0:0:0:
91,307,82778,2,0,B|145:304|145:304|206:328|206:328|277:322,1,184,2|8,1:2|0:0,0:0:0:0:
388,361,83668,2,0,P|349:263|403:158,1,230,2|8,0:0|0:0,0:0:0:0:
469,109,84558,1,2,1:2:0:0:
395,72,84812,6,0,B|306:49|310:124|207:87,1,184,2|8,1:2|0:0,0:0:0:0:
107,32,85702,2,0,B|133:82|133:82|106:168,1,138,2|0,0:0|0:0,0:0:0:0:
49,217,86338,2,0,P|90:241|135:237,1,92,8|4,0:0|3:0,0:0:0:0:
198,183,86855,2,0,B|261:159|382:196,2,184,4|0|4,1:0|1:0|1:0,0:0:0:0:
282,325,88380,1,8,0:0:0:0:
447,271,88913,5,4,1:2:0:0:
59,92,95028,6,0,L|208:81,1,138,4|8,1:0|0:0,0:0:0:0:
308,28,95791,2,0,B|356:88|316:152|316:152|272:216|328:300,1,276,4|8,1:0|0:0,0:0:0:0:
156,304,97062,2,0,P|108:312|36:212,1,184,4|4,1:0|3:0,0:0:0:0:
44,132,97825,2,0,L|231:112,1,184,4|0,1:0|1:0,0:0:0:0:
308,104,98588,1,8,0:0:0:0:
460,36,99096,6,0,B|468:96|468:96|444:144|444:144|460:232,1,184,4|4,1:0|3:0,0:0:0:0:
444,296,99859,2,0,B|400:336|400:336|308:364|296:284|184:336,1,276,4|8,1:0|0:0,0:0:0:0:
28,372,101130,2,0,B|20:312|20:312|32:268|32:268|20:232|20:192,1,184,4|4,1:0|3:0,0:0:0:0:
60,120,101893,2,0,B|100:132|100:132|228:56,1,184,4|0,1:0|1:0,0:0:0:0:
292,12,102656,1,8,0:0:0:0:
416,120,103164,6,0,B|384:220|460:208|424:316,1,184,4|8,1:0|0:0,0:0:0:0:
352,264,103927,1,2,1:2:0:0:
288,316,104181,2,0,B|212:320|212:320|112:252,1,184,2|8,1:2|0:0,0:0:0:0:
32,120,105198,2,0,B|76:96|120:124|120:124|160:96|216:120,1,184,2|10,1:2|0:0,0:0:0:0:
336,219,106215,2,0,B|397:219|397:219|415:136|371:83,1,184,0|8,1:0|0:0,0:0:0:0:
230,44,107232,6,0,B|139:35|139:35|130:128|130:128|179:172|196:221|193:277|164:301,1,368,4|0,1:2|1:0,0:0:0:0:
10,257,108757,1,0,1:0:0:0:
172,291,109266,2,0,B|264:285|264:285|304:203|304:203|396:201,1,276,8|8,0:0|0:0,0:0:0:0:
386,283,110283,2,0,P|467:156|381:120,1,276,0|8,1:0|0:2,0:0:0:0:
310,113,111300,5,12,0:2:0:0:
256,192,111363,12,8,113079,0:2:0:0:
251,190,120465,5,4,1:0:0:0:
193,300,120846,2,0,P|229:316|290:308,2,92,0|0|4,1:0|1:0|1:0,0:0:0:0:
225,95,121990,2,0,P|275:93|320:119,1,92,8|8,0:0|0:0,0:0:0:0:
393,99,122498,6,0,B|330:166|330:166|305:276,1,184,4|8,0:0|0:0,0:0:0:0:
281,376,123388,2,0,P|259:332|171:295,1,138,2|0,0:0|0:0,0:0:0:0:
108,335,124023,2,0,P|47:323|15:287,1,92,10|2,0:0|1:2,0:0:0:0:
87,248,124532,2,0,B|123:208|123:208|139:144|139:144|176:88,1,184,2|8,1:2|0:0,0:0:0:0:
87,1,125422,2,0,P|175:71|283:45,1,230,2|8,0:2|0:0,0:0:0:0:
354,8,126311,1,2,1:2:0:0:
415,63,126566,6,0,B|448:148|373:153|422:251,1,184,2|8,1:2|0:0,0:0:0:0:
374,357,127455,2,0,B|312:289|312:289|263:277,1,138,2|0,0:0|0:0,0:0:0:0:
185,291,128091,2,0,P|189:243|219:209,1,92,8|4,0:0|3:0,0:0:0:0:
295,185,128600,2,0,B|250:193|250:193|174:170|174:170|102:183,2,184,6|2|6,1:2|1:2|1:2,0:0:0:0:
262,108,129871,2,0,B|301:91|350:118|350:118|382:164,1,138,2|10,0:0|0:0,0:0:0:0:
342,275,130634,6,0,P|301:288|238:267,1,92,6|2,1:2|0:0,0:0:0:0:
203,213,131142,2,0,P|176:256|209:348,1,138,8|2,0:0|0:0,0:0:0:0:
268,377,131778,1,10,0:0:0:0:
342,275,132159,2,0,L|449:289,1,92,10|2,0:0|0:0,0:0:0:0:
502,333,132668,2,0,B|525:246|525:246|500:199,1,138,2|2,1:2|1:2,0:0:0:0:
348,140,133558,2,0,B|294:171|232:137|232:137|178:111|128:148,1,230,2|8,0:0|0:0,0:0:0:0:
141,313,134702,6,0,P|65:320|-6:289,1,138,2|2,1:2|1:2,0:0:0:0:
26,218,135337,2,0,L|34:115,1,92,2|2,0:0|0:0,0:0:0:0:
72,52,135846,2,0,B|161:74|161:74|216:55,1,138,10|10,0:0|0:2,0:0:0:0:
358,127,136736,2,0,L|363:274,1,138,2|2,1:2|1:2,0:0:0:0:
376,346,137371,1,2,0:0:0:0:
442,295,137626,2,0,L|437:157,1,138,2|0,0:0|0:0,0:0:0:0:
358,127,138261,2,0,P|312:114|267:132,1,92,2|4,1:2|3:0,0:0:0:0:
208,182,138769,6,0,B|129:228|129:228|73:223,1,138,2|2,1:2|1:2,0:0:0:0:
106,144,139405,2,0,B|192:93,2,92,2|2|8,0:0|0:0|0:0,0:0:0:0:
2,212,140295,2,0,P|7:261|50:304,1,92,10|2,0:0|0:0,0:0:0:0:
103,336,140803,2,0,B|187:297|187:297|250:305,1,138,2|2,1:2|1:2,0:0:0:0:
314,307,141439,2,0,P|352:283|371:241,2,92,2|2|8,0:0|0:0|0:0,0:0:0:0:
188,142,142583,5,2,1:2:0:0:
247,84,142837,2,0,P|151:69|106:139,1,184,6|8,1:2|0:0,0:0:0:0:
128,254,143727,2,0,B|236:300|237:206|364:259,1,230,2|8,0:0|0:0,0:0:0:0:
508,196,144871,2,0,B|498:154|498:154|508:107|508:107|491:13,2,184,2|10|6,1:2|0:2|1:2,0:0:0:0:
428,344,146397,1,8,0:0:0:0:
256,192,146905,12,0,149941,1:0:0:0:
173,113,150958,6,0,B|255:71|255:71|355:121,1,184,6|10,1:2|2:0,0:0:0:0:
338,277,151975,2,0,B|255:318|255:318|173:276,1,184,6|10,1:2|0:2,0:0:0:0:
33,187,152992,2,0,L|226:189,1,184,6|14,1:2|0:2,0:0:0:0:
369,123,154009,2,0,L|261:122,1,92,6|10,1:2|2:0,0:0:0:0:
208,76,154517,2,0,P|122:53|41:112,1,184,8|4,0:0|1:2,0:0:0:0:
241,56,163312,6,0,L|257:206,2,138,12|12|4,0:0|0:0|1:0,0:0:0:0:
256,192,164138,12,0,166235,0:0:0:0:
261,208,167315,5,2,0:0:0:0:
207,146,167836,2,0,P|252:127|309:141,2,92,2|2|2,0:0|0:0|0:0,0:0:0:0:
177,176,169141,2,0,P|144:200|67:80,1,230,2|0,0:0|0:0,0:0:0:0:
194,47,171482,6,0,L|293:62,1,92,2|2,0:0|0:0,0:0:0:0:
307,163,172746,2,0,L|216:149,1,92,2|2,0:0|0:0,0:0:0:0:
123,119,174110,6,0,P|119:176|147:215,1,92,2|2,0:0|0:0,0:0:0:0:
205,269,175606,2,0,L|314:258,1,92,2|0,0:0|0:0,0:0:0:0:
256,192,177184,12,0,186165,0:0:0:0:
