osu file format v14

[General]
AudioFilename: audio.mp3
AudioLeadIn: 0
PreviewTime: 47006
Countdown: 0
SampleSet: Soft
StackLeniency: 0.5
Mode: 0
LetterboxInBreaks: 0
WidescreenStoryboard: 1

[Editor]
Bookmarks: 6518,56762,64567,72372
DistanceSpacing: 1
BeatDivisor: 8
GridSize: 4
TimelineZoom: 2.2

[Metadata]
Title:Niji o Ametara (TV Size)
TitleUnicode:虹を編めたら (TV Size)
Artist:fhana
ArtistUnicode:fhána
Creator:Sotarks
Version:apple's Extreme
Source:ハルチカ〜ハルタとチカは青春する〜
Tags:haruchika haruta to chika wa seishun suru opening op tv size kawaiwkyik rizia pentori meg image-- appleeaterx kalibe akitoshi corinn chromoxx shini -sh1n1-
BeatmapID:1322680
BeatmapSetID:625429

[Difficulty]
HPDrainRate:6
CircleSize:4.1
OverallDifficulty:9
ApproachRate:9.6
SliderMultiplier:3.59999990463257
SliderTickRate:1

[Events]
//Background and Video events
0,0,"BG.jpg",0,0
Video,0,"op.flv"
//Break Periods
//Storyboard Layer 0 (Background)
//Storyboard Layer 1 (Fail)
//Storyboard Layer 2 (Pass)
//Storyboard Layer 3 (Foreground)
//Storyboard Sound Samples

[TimingPoints]
177,487.80487804878,4,2,22,72,1,0
177,-133.333333333333,4,2,22,72,0,0
2981,-117.647058823529,4,2,22,72,0,0
13835,-125,4,2,22,72,0,0
39201,-111.111111111111,4,2,22,72,0,0
41152,-125,4,2,22,72,0,0
45055,-111.111111111111,4,2,22,72,0,0
47189,-111.111111111111,4,2,22,5,0,0
47250,-111.111111111111,4,2,22,72,0,0
48042,-111.111111111111,4,2,22,5,0,0
48103,-111.111111111111,4,2,22,72,0,0
48957,-100,4,2,22,72,0,1
56640,-100,4,2,22,72,0,0
56762,-100,4,2,22,72,0,1
64445,-100,4,2,22,72,0,0
64567,-100,4,2,22,72,0,1
72372,-100,4,2,22,72,0,0
76274,-117.647058823529,4,2,22,72,0,0
84079,-100,4,2,22,72,0,0
84262,-100,4,2,22,5,0,0
84323,-100,4,2,22,72,0,0
86030,-133.333333333333,4,2,22,72,0,0
87981,-400,4,2,22,72,0,0
88042,-400,4,2,22,35,0,0
89445,-400,4,2,22,5,0,0

[Colours]
Combo1 : 200,227,43
Combo2 : 66,62,104
Combo3 : 148,77,52
Combo4 : 21,81,33
Combo5 : 140,126,115
Combo6 : 231,58,54

[HitObjects]
100,336,177,5,8,0:0:0:0:
143,129,298,2,0,P|153:195|161:277,1,135.000001573563,4|0,3:2|0:0,0:0:0:0:
57,251,664,2,0,P|50:205|47:170,1,67.5000007867814,2|0,0:0|0:0,0:0:0:0:
261,67,908,5,8,0:0:0:0:
349,190,1030,2,0,P|345:157|340:123,1,67.5000007867814,4|0,3:2|0:0,0:0:0:0:
272,350,1274,5,8,0:0:0:0:
260,306,1335,1,0,0:0:0:0:
264,262,1396,1,8,3:2:0:0:
441,107,1518,1,8,3:2:0:0:
365,308,1640,1,10,0:0:0:0:
232,160,1762,1,8,0:0:0:0:
472,202,1884,2,0,P|462:252|458:276,1,67.5000007867814,8|4,0:3|0:3,0:0:0:0:
160,369,2128,5,8,0:0:0:0:
130,167,2250,2,0,P|112:232|95:298,1,135.000001573563,4|0,3:2|0:0,0:0:0:0:
21,178,2616,2,0,P|2:235|-2:248,1,67.5000007867814,2|0,0:0|0:0,0:0:0:0:
2,345,2859,1,8,0:0:0:0:
112,74,2981,6,0,P|146:114|263:124,1,152.999998865128,4|0,3:2|3:0,0:0:0:0:
481,86,3347,1,8,0:0:0:0:
358,161,3469,1,0,3:0:0:0:
362,112,3529,1,0,0:0:0:0:
341,69,3591,1,8,0:0:0:0:
201,264,3713,1,8,0:0:0:0:
241,132,3835,1,8,0:0:0:0:
361,356,3957,1,8,0:0:0:0:
66,288,4079,6,0,P|124:234|214:241,1,152.999998865128,6|0,3:2|3:0,0:0:0:0:
194,232,4445,1,0,3:0:0:0:
36,166,4567,2,0,P|52:118|73:91,1,76.4999994325638,8|0,0:0|0:0,0:0:0:0:
66,288,4811,2,0,P|86:319|96:356,1,76.4999994325638,0|0,3:0|0:0,0:0:0:0:
166,127,5055,6,0,P|246:113|325:71,1,152.999998865128,2|0,3:2|0:0,0:0:0:0:
485,157,5420,2,0,P|445:133|391:112,1,76.4999994325638,2|8,0:0|0:0,0:0:0:0:
208,21,5664,1,0,0:0:0:0:
390,27,5786,6,0,P|362:99|325:274,1,229.499998297691,6|0,3:2|0:0,0:0:0:0:
329,364,6274,2,0,P|383:351|419:347,1,76.4999994325638,0|0,3:0|3:0,0:0:0:0:
243,176,6518,2,0,P|205:181|168:191,1,76.4999994325638,8|0,0:0|0:0,0:0:0:0:
328,246,6762,1,0,3:0:0:0:
299,34,6884,1,8,0:0:0:0:
114,97,7006,6,0,P|66:153|63:239,1,152.999998865128,2|0,3:2|3:0,0:0:0:0:
157,366,7372,2,0,P|151:321|137:287,1,76.4999994325638,2|8,0:0|0:0,0:0:0:0:
356,139,7616,1,0,0:0:0:0:
168,190,7737,6,0,B|312:178|228:271|380:257,1,229.499998297691,6|0,3:2|0:0,0:0:0:0:
454,187,8225,2,0,P|468:137|467:100,1,76.4999994325638,0|0,3:0|3:0,0:0:0:0:
289,4,8469,2,0,P|275:54|276:91,1,76.4999994325638,8|0,0:0|0:0,0:0:0:0:
282,320,8713,1,0,0:0:0:0:
137,151,8835,1,8,0:0:0:0:
374,257,8957,6,0,P|317:212|221:224,1,152.999998865128,2|0,3:2|3:0,0:0:0:0:
239,214,9323,1,0,3:0:0:0:
5,163,9445,1,8,0:0:0:0:
137,151,9567,1,0,3:0:0:0:
114,191,9627,1,0,3:0:0:0:
114,238,9689,1,10,0:0:0:0:
245,82,9811,1,8,0:0:0:0:
155,339,9933,6,0,P|80:342|19:297,1,152.999998865128,6|2,3:2|3:2,0:0:0:0:
226,243,10298,1,8,0:0:0:0:
332,284,10420,2,0,P|354:341|356:364,1,76.4999994325638,2|0,3:2|0:0,0:0:0:0:
187,141,10664,6,0,P|200:51|250:10,1,152.999998865128,6|0,3:2|0:0,0:0:0:0:
425,97,11030,1,8,0:0:0:0:
358,176,11152,2,0,P|309:162|271:154,1,76.4999994325638,0|8,3:0|0:0,0:0:0:0:
70,305,11396,1,8,0:0:0:0:
226,243,11518,1,8,0:0:0:0:
88,345,11640,1,2,3:2:0:0:
32,152,11762,1,2,3:2:0:0:
203,359,11884,6,0,L|357:329,1,152.999998865128,6|0,3:2|0:0,0:0:0:0:
450,371,12250,1,0,3:0:0:0:
226,243,12372,2,0,L|318:222,1,76.4999994325638,14|0,0:0|0:0,0:0:0:0:
454,98,12616,1,0,0:0:0:0:
346,43,12737,1,0,3:0:0:0:
346,43,12798,1,0,0:0:0:0:
346,43,12859,6,0,L|325:125,1,76.4999994325638,10|0,3:2|0:0,0:0:0:0:
300,225,13103,1,8,3:0:0:0:
454,98,13225,1,0,3:0:0:0:
220,48,13347,1,10,3:2:0:0:
300,225,13469,2,0,P|373:220|430:159,1,152.999998865128,0|0,3:0|3:0,0:0:0:0:
216,167,13835,6,0,P|192:234|185:321,1,143.999996185303,6|2,3:2|0:0,0:0:0:0:
184,306,14201,1,0,3:0:0:0:
95,140,14323,2,0,P|88:94|80:64,1,71.9999980926514,10|0,0:0|0:0,0:0:0:0:
3,17,14567,1,2,3:0:0:0:
8,198,14689,6,0,P|69:237|162:224,1,143.999996185303,2|2,3:2|3:2,0:0:0:0:
273,257,15055,2,0,P|287:304|288:338,1,71.9999980926514,6|0,0:0|0:0,0:0:0:0:
216,167,15298,2,0,P|219:131|231:97,1,71.9999980926514,10|2,0:0|0:0,0:0:0:0:
461,187,15542,1,2,0:0:0:0:
317,42,15664,1,2,0:0:0:0:
461,187,15786,6,0,P|392:164|291:143,1,143.999996185303,2|2,3:2|0:0,0:0:0:0:
322,148,16152,1,2,3:2:0:0:
486,91,16274,2,0,P|440:76|401:66,1,71.9999980926514,8|2,0:0|0:0,0:0:0:0:
317,42,16518,1,2,3:0:0:0:
460,186,16640,6,0,P|437:254|417:324,1,143.999996185303,2|0,0:0|0:0,0:0:0:0:
251,359,17006,2,0,P|196:341|166:335,1,71.9999980926514,6|0,0:0|0:0,0:0:0:0:
268,232,17250,2,0,P|323:250|353:256,1,71.9999980926514,10|0,0:0|0:0,0:0:0:0:
177,170,17494,2,0,P|159:224|152:262,1,71.9999980926514,2|0,3:2|3:0,0:0:0:0:
160,71,17737,6,0,B|74:83|119:116|27:125,1,143.999996185303,2|0,3:2|0:0,0:0:0:0:
177,170,18103,1,2,3:2:0:0:
242,3,18225,2,0,P|262:58|264:85,1,71.9999980926514,8|0,0:0|0:0,0:0:0:0:
402,235,18469,6,0,P|353:183|274:176,1,143.999996185303,2|0,3:0|0:0,0:0:0:0:
268,338,18835,2,0,P|300:282|305:253,1,71.9999980926514,0|0,3:2|0:0,0:0:0:0:
263,71,19079,1,0,3:0:0:0:
177,170,19201,2,0,P|111:212|44:207,1,143.999996185303,8|0,0:0|3:0,0:0:0:0:
283,173,19567,1,8,0:0:0:0:
92,113,19689,6,0,L|107:38,1,71.9999980926514,0|8,3:0|0:0,0:0:0:0:
190,206,19933,2,0,L|204:276,1,71.9999980926514,2|0,3:2|3:0,0:0:0:0:
45,309,20176,2,0,L|59:238,1,71.9999980926514,10|0,0:0|0:0,0:0:0:0:
210,101,20420,1,2,3:2:0:0:
293,317,20542,6,0,P|255:362|161:366,1,143.999996185303,0|8,0:2|0:2,0:0:0:0:
311,209,20908,2,0,P|350:218|397:235,1,71.9999980926514,6|2,3:2|3:2,0:0:0:0:
210,94,21152,1,10,0:0:0:0:
325,63,21274,1,8,0:0:0:0:
190,206,21396,1,2,3:2:0:0:
132,9,21518,1,8,0:0:0:0:
299,167,21640,6,0,P|371:162|423:100,1,143.999996185303,4|2,3:2|0:0,0:0:0:0:
190,206,22006,1,0,0:0:0:0:
255,340,22128,2,0,P|273:290|279:259,1,71.9999980926514,10|0,0:0|0:0,0:0:0:0:
134,65,22372,1,2,3:0:0:0:
134,65,22494,6,0,P|100:139|82:227,1,143.999996185303,2|2,3:2|0:0,0:0:0:0:
299,167,22859,1,6,0:0:0:0:
246,66,22981,1,0,0:0:0:0:
403,131,23103,2,0,P|455:114|487:107,1,71.9999980926514,8|0,0:0|0:0,0:0:0:0:
346,20,23347,2,0,P|294:37|262:44,1,71.9999980926514,0|0,3:0|0:0,0:0:0:0:
172,233,23591,6,0,B|259:235|210:267|307:275,1,143.999996185303,0|2,3:0|3:2,0:0:0:0:
169,333,23957,2,0,P|128:365|98:372,1,71.9999980926514,2|8,3:2|0:0,0:0:0:0:
31,294,24201,1,2,0:0:0:0:
163,142,24323,1,2,3:0:0:0:
21,37,24445,6,0,P|49:114|63:193,1,143.999996185303,2|8,3:2|0:0,0:0:0:0:
178,72,24811,2,0,P|165:119|162:148,1,71.9999980926514,6|0,0:0|0:0,0:0:0:0:
293,116,25055,2,0,P|303:150|308:185,1,71.9999980926514,10|0,0:0|0:0,0:0:0:0:
435,71,25298,2,0,P|424:105|419:140,1,71.9999980926514,2|8,3:2|0:0,0:0:0:0:
330,370,25542,6,0,P|279:326|188:322,1,143.999996185303,2|0,3:2|0:0,0:0:0:0:
72,240,25908,2,0,P|21:259|-8:263,1,71.9999980926514,2|8,3:2|0:0,0:0:0:0:
171,228,26152,1,0,0:0:0:0:
226,142,26274,2,0,P|234:88|264:-13,1,143.999996185303,2|0,3:0|0:0,0:0:0:0:
344,64,26640,5,0,0:0:0:0:
344,64,26762,2,0,P|400:49|429:41,1,71.9999980926514,4|0,3:2|3:0,0:0:0:0:
479,165,27006,2,0,P|404:180|332:200,1,143.999996185303,8|0,0:0|3:0,0:0:0:0:
170,261,27372,1,8,0:0:0:0:
170,261,27433,1,8,0:0:0:0:
170,261,27494,5,0,3:0:0:0:
227,138,27616,1,8,0:0:0:0:
288,291,27737,2,0,L|272:366,1,71.9999980926514,2|0,3:2|3:0,0:0:0:0:
128,158,27981,2,0,L|112:87,1,71.9999980926514,14|2,0:0|0:0,0:0:0:0:
170,261,28225,1,0,0:0:0:0:
315,155,28347,6,0,P|276:167|236:183,1,71.9999980926514,2|8,3:2|0:0,0:0:0:0:
46,246,28591,2,0,P|55:280|61:316,1,71.9999980926514,10|0,0:2|3:0,0:0:0:0:
13,128,28835,1,10,0:0:0:0:
170,261,28957,1,10,0:0:0:0:
204,64,29079,1,8,0:0:0:0:
347,183,29201,1,2,3:2:0:0:
128,158,29323,1,0,0:0:0:0:
219,371,29445,6,0,P|289:321|427:322,1,215.999994277954,6|0,3:2|3:0,0:0:0:0:
370,115,29933,2,0,P|349:169|345:197,1,71.9999980926514,8|0,0:0|0:0,0:0:0:0:
439,292,30176,2,0,P|453:259|462:224,1,71.9999980926514,2|0,3:2|0:0,0:0:0:0:
424,36,30420,6,0,P|355:71|277:72,1,143.999996185303,10|0,0:2|3:0,0:0:0:0:
138,121,30786,2,0,P|118:167|112:193,1,71.9999980926514,2|8,0:0|0:0,0:0:0:0:
188,21,31030,1,0,0:0:0:0:
60,285,31152,6,0,B|196:311|138:234|276:266,1,215.999994277954,6|0,3:2|0:0,0:0:0:0:
420,334,31640,2,0,L|330:351,1,71.9999980926514,0|0,3:0|0:0,0:0:0:0:
466,105,31884,1,8,0:0:0:0:
505,228,32006,1,0,0:0:0:0:
378,184,32128,2,0,L|360:265,1,71.9999980926514,0|0,3:0|0:0,0:0:0:0:
271,155,32372,6,0,P|264:77|309:2,1,143.999996185303,2|0,0:0|3:0,0:0:0:0:
291,19,32737,1,8,0:0:0:0:
109,86,32859,2,0,P|119:138|117:178,1,71.9999980926514,8|8,0:0|3:2,0:0:0:0:
40,368,33103,1,8,0:3:0:0:
200,216,33225,1,4,0:3:0:0:
16,260,33347,6,0,P|88:261|152:313,1,143.999996185303,6|2,3:2|0:0,0:0:0:0:
228,376,33713,2,0,L|392:347,1,143.999996185303,10|0,0:0|3:0,0:0:0:0:
320,264,34079,2,0,L|230:283,1,71.9999980926514,6|0,3:2|0:0,0:0:0:0:
428,272,34323,6,0,L|447:198,1,71.9999980926514,2|0,3:2|0:0,0:0:0:0:
388,19,34567,1,2,0:0:0:0:
388,19,34689,1,2,0:0:0:0:
378,115,34811,2,0,P|414:112|460:89,1,71.9999980926514,4|0,3:0|0:0,0:0:0:0:
291,57,35055,2,0,P|255:60|209:83,1,71.9999980926514,2|0,0:0|0:0,0:0:0:0:
54,211,35298,6,0,B|141:211|93:246|200:250,1,143.999996185303,2|2,3:2|0:0,0:0:0:0:
316,206,35664,2,0,P|281:272|295:342,1,143.999996185303,10|0,0:0|3:0,0:0:0:0:
450,297,36030,2,0,L|369:281,1,71.9999980926514,6|0,3:2|0:0,0:0:0:0:
221,152,36274,6,0,P|213:87|212:-6,1,143.999996185303,2|2,0:0|3:2,0:0:0:0:
311,39,36640,1,2,3:2:0:0:
311,39,36762,2,0,P|317:89|319:122,1,71.9999980926514,4|0,3:0|0:0,0:0:0:0:
421,137,37006,2,0,P|415:87|413:54,1,71.9999980926514,2|8,3:2|0:0,0:0:0:0:
450,297,37250,6,0,P|395:253|314:252,1,143.999996185303,2|2,3:2|3:2,0:0:0:0:
183,322,37616,2,0,P|127:366|56:370,1,143.999996185303,10|0,0:0|3:0,0:0:0:0:
219,221,37981,2,0,P|229:158|252:60,1,143.999996185303,4|0,3:2|3:0,0:0:0:0:
71,56,38347,5,8,0:0:0:0:
71,56,38469,2,0,P|87:106|92:131,1,71.9999980926514,0|2,3:0|0:0,0:0:0:0:
69,360,38713,1,10,0:0:0:0:
272,295,38835,1,10,0:0:0:0:
25,230,38957,1,2,3:2:0:0:
243,166,39079,1,2,3:2:0:0:
181,375,39201,6,0,P|169:327|141:208,1,161.999990764618,6|0,3:2|0:0,0:0:0:0:
143,217,39567,1,0,3:0:0:0:
429,257,39689,2,0,P|350:275|271:294,1,161.999990764618,14|0,0:0|0:0,0:0:0:0:
271,293,40055,1,0,3:0:0:0:
232,4,40176,6,0,P|244:52|272:171,1,161.999990764618,14|0,0:0|3:0,0:0:0:0:
30,225,40542,1,8,0:0:0:0:
31,183,40603,1,8,0:0:0:0:
57,149,40664,1,10,0:0:0:0:
237,321,40786,1,8,0:0:0:0:
44,355,40908,1,8,0:0:0:0:
167,130,41030,1,8,0:0:0:0:
140,263,41152,6,0,P|208:220|293:223,1,143.999996185303,6|2,3:2|3:2,0:0:0:0:
356,135,41518,2,0,P|369:207|376:284,1,143.999996185303,10|0,0:0|3:0,0:0:0:0:
256,124,41884,2,0,P|252:70|254:32,1,71.9999980926514,0|0,3:0|0:0,0:0:0:0:
346,22,42128,5,0,3:0:0:0:
269,216,42250,2,0,P|226:225|191:228,1,71.9999980926514,8|2,0:0|3:2,0:0:0:0:
97,157,42494,1,0,3:0:0:0:
16,288,42616,1,4,0:3:0:0:
0,176,42737,1,2,0:0:0:0:
114,276,42859,2,0,L|131:352,1,71.9999980926514,2|8,3:2|0:0,0:0:0:0:
269,216,43103,6,0,P|260:163|241:65,1,143.999996185303,2|2,3:2|3:2,0:0:0:0:
419,127,43469,2,0,P|428:180|447:278,1,143.999996185303,10|0,0:0|3:0,0:0:0:0:
354,364,43835,2,0,P|345:324|335:284,1,71.9999980926514,0|0,3:0|0:0,0:0:0:0:
179,259,44079,6,0,P|188:299|198:339,1,71.9999980926514,2|8,3:2|0:0,0:0:0:0:
46,247,44323,1,0,0:0:0:0:
135,161,44445,1,2,3:2:0:0:
26,140,44567,2,0,P|17:100|7:60,1,71.9999980926514,4|0,0:3|0:0,0:0:0:0:
262,167,44811,1,2,3:2:0:0:
46,247,44933,1,8,0:0:0:0:
269,60,45055,6,0,B|376:64|310:104|426:111,1,161.999990764618,6|2,3:2|0:0,0:0:0:0:
262,167,45420,2,0,P|219:246|238:328,1,161.999990764618,10|0,0:0|3:0,0:0:0:0:
488,293,45786,6,0,P|420:261|319:255,1,161.999990764618,4|0,3:2|0:0,0:0:0:0:
148,172,46152,2,0,P|159:124|173:89,1,80.9999953823091,8|0,0:0|3:0,0:0:0:0:
262,167,46396,1,0,3:0:0:0:
132,296,46518,1,8,0:0:0:0:
334,253,46640,1,8,0:0:0:0:
148,172,46762,1,4,3:0:0:0:
256,352,46884,1,4,0:3:0:0:
481,186,47006,6,0,P|466:261|452:337,1,121.499993073464,4|0,3:2|0:0,0:0:0:0:
463,337,47250,2,0,P|407:364|368:362,1,80.9999953823091,14|0,0:0|0:0,0:0:0:0:
179,188,47494,2,0,P|235:161|274:163,1,80.9999953823091,14|0,0:0|0:0,0:0:0:0:
463,337,47737,1,2,3:2:0:0:
316,71,47859,6,0,P|356:130|357:199,1,121.499993073464,14|0,0:0|0:0,0:0:0:0:
344,203,48103,2,0,P|326:250|320:295,1,80.9999953823091,14|0,0:0|0:0,0:0:0:0:
270,381,48347,1,4,0:3:0:0:
33,146,48469,5,4,3:0:0:0:
73,311,48591,1,0,3:0:0:0:
252,160,48713,5,10,2:0:0:0:
168,379,48835,1,10,2:0:0:0:
9,232,48957,6,0,B|121:230|73:178|186:189,1,179.999995231629,4|0,3:2|3:0,0:0:0:0:
179,188,49323,1,0,3:0:0:0:
334,90,49445,2,0,P|321:40|292:2,1,89.9999976158143,8|2,0:0|0:0,0:0:0:0:
289,188,49689,1,0,3:0:0:0:
496,347,49811,6,0,P|442:286|321:281,1,179.999995231629,2|10,3:2|0:0,0:0:0:0:
139,329,50176,2,0,P|73:357|40:352,1,89.9999976158143,0|2,3:0|0:0,0:0:0:0:
223,241,50420,1,8,0:0:0:0:
264,352,50542,1,0,0:0:0:0:
78,253,50664,1,0,3:0:0:0:
265,383,50786,1,8,0:0:0:0:
264,121,50908,5,0,3:0:0:0:
36,146,51030,2,0,P|109:142|182:216,1,179.999995231629,8|0,0:0|3:0,0:0:0:0:
400,380,51396,2,0,L|421:287,1,89.9999976158143,10|2,0:0|0:0,0:0:0:0:
264,121,51640,1,0,3:0:0:0:
429,176,51762,6,0,B|315:190|386:232|261:247,1,179.999995231629,10|10,0:0|0:0,0:0:0:0:
121,95,52128,2,0,P|132:21|134:-4,1,89.9999976158143,0|2,3:0|3:2,0:0:0:0:
150,215,52372,2,0,P|139:289|137:314,1,89.9999976158143,8|8,0:0|0:0,0:0:0:0:
12,189,52616,1,0,3:0:0:0:
264,121,52738,1,0,3:0:0:0:
75,384,52859,6,0,P|146:338|248:352,1,179.999995231629,4|2,3:2|3:2,0:0:0:0:
237,346,53225,1,0,3:0:0:0:
395,242,53347,2,0,L|498:223,1,89.9999976158143,8|2,0:0|3:2,0:0:0:0:
367,359,53591,1,0,3:0:0:0:
275,232,53713,6,0,L|235:36,1,179.999995231629,2|8,3:2|0:0,0:0:0:0:
62,191,54079,2,0,L|35:291,1,89.9999976158143,2|0,3:2|3:0,0:0:0:0:
375,151,54323,2,0,L|351:64,1,89.9999976158143,10|0,0:0|3:0,0:0:0:0:
275,232,54567,1,2,3:2:0:0:
503,163,54689,1,8,0:0:0:0:
239,55,54811,5,4,3:2:0:0:
220,319,54933,2,0,P|310:326|375:242,1,179.999995231629,8|0,0:0|0:0,0:0:0:0:
58,242,55298,2,0,P|16:293|8:332,1,89.9999976158143,10|0,3:2|0:0,0:0:0:0:
4,144,55542,5,4,0:0:0:0:
170,213,55664,2,0,P|155:127|75:75,1,179.999995231629,8|8,0:0|0:0,0:0:0:0:
120,343,56030,1,2,0:0:0:0:
286,151,56152,1,8,0:0:0:0:
302,192,56213,1,8,0:0:0:0:
299,236,56274,1,10,0:0:0:0:
82,76,56396,1,8,0:0:0:0:
170,213,56518,1,2,3:2:0:0:
334,6,56640,1,4,0:3:0:0:
170,213,56762,6,0,P|89:219|21:140,1,179.999995231629,4|2,3:2|3:2,0:0:0:0:
24,152,57128,1,0,3:0:0:0:
182,26,57250,2,0,P|207:85|207:123,1,89.9999976158143,10|2,0:0|3:2,0:0:0:0:
67,31,57494,1,2,3:0:0:0:
278,195,57616,6,0,B|387:204|313:251|440:258,1,179.999995231629,2|10,3:2|0:0,0:0:0:0:
441,69,57981,2,0,L|419:164,1,89.9999976158143,0|2,3:0|3:2,0:0:0:0:
300,382,58225,2,0,L|279:294,1,89.9999976158143,8|0,0:0|0:0,0:0:0:0:
254,79,58469,1,0,3:0:0:0:
148,296,58591,1,8,0:0:0:0:
15,118,58713,6,0,P|68:165|172:156,1,179.999995231629,4|2,3:2|3:2,0:0:0:0:
171,156,59079,1,0,0:0:0:0:
30,292,59201,2,0,P|4:359|5:388,1,89.9999976158143,8|2,0:0|0:0,0:0:0:0:
68,196,59445,1,0,3:0:0:0:
125,361,59567,6,0,P|187:346|227:338,1,89.9999976158143,2|0,3:2|0:0,0:0:0:0:
348,221,59811,2,0,P|286:236|246:244,1,89.9999976158143,10|0,0:0|3:0,0:0:0:0:
430,143,60055,1,2,3:2:0:0:
341,332,60176,1,8,0:0:0:0:
296,127,60298,1,8,0:0:0:0:
454,249,60420,2,0,P|477:313|472:353,1,89.9999976158143,8|8,0:0|0:0,0:0:0:0:
180,146,60664,6,0,P|211:49|294:9,1,179.999995231629,4|2,3:2|3:2,0:0:0:0:
296,127,61030,1,0,3:0:0:0:
83,211,61152,2,0,P|66:157|73:116,1,89.9999976158143,10|2,0:0|3:2,0:0:0:0:
241,362,61396,1,0,3:0:0:0:
243,257,61518,6,0,B|126:269|203:308|69:323,1,179.999995231629,2|0,3:2|3:0,0:0:0:0:
348,325,61884,2,0,L|369:226,1,89.9999976158143,2|0,3:2|0:0,0:0:0:0:
216,66,62128,2,0,L|195:165,1,89.9999976158143,10|8,0:0|0:3,0:0:0:0:
366,236,62372,1,2,3:2:0:0:
354,25,62494,1,4,0:3:0:0:
464,199,62616,6,0,P|399:144|300:163,1,179.999995231629,6|0,3:2|0:0,0:0:0:0:
310,155,62981,1,2,3:2:0:0:
100,110,63103,2,0,L|124:12,1,89.9999976158143,8|0,0:0|0:0,0:0:0:0:
228,273,63347,6,0,P|169:337|81:333,1,179.999995231629,6|0,3:2|0:0,0:0:0:0:
370,295,63713,2,0,L|390:390,1,89.9999976158143,8|2,0:0|3:2,0:0:0:0:
207,151,63957,1,8,0:0:0:0:
206,104,64018,1,0,0:0:0:0:
238,70,64079,1,10,0:0:0:0:
476,203,64201,1,8,0:0:0:0:
373,33,64323,1,8,3:0:0:0:
228,273,64445,1,4,3:0:0:0:
338,141,64567,6,0,P|224:114|128:104,1,179.999995231629,4|2,3:2|3:2,0:0:0:0:
142,3,64933,1,0,3:0:0:0:
25,129,65055,2,0,P|33:76|50:17,1,89.9999976158143,10|2,0:0|3:2,0:0:0:0:
146,305,65298,1,0,3:0:0:0:
0,233,65420,6,0,B|115:249|62:188|187:208,1,179.999995231629,2|10,3:2|0:0,0:0:0:0:
375,263,65786,2,0,P|385:324|384:353,1,89.9999976158143,0|2,3:0|3:2,0:0:0:0:
226,116,66030,2,0,P|226:71|235:27,1,89.9999976158143,8|0,0:0|0:0,0:0:0:0:
493,114,66274,2,0,P|501:158|501:202,1,89.9999976158143,0|8,3:0|0:0,0:0:0:0:
267,249,66518,6,0,P|331:172|425:176,1,179.999995231629,4|2,3:2|3:2,0:0:0:0:
405,168,66884,1,0,3:0:0:0:
250,355,67006,2,0,P|192:383|153:379,1,89.9999976158143,10|2,0:0|3:2,0:0:0:0:
179,169,67250,1,0,0:0:0:0:
13,221,67372,6,0,B|130:219|61:269|177:281,1,179.999995231629,2|10,3:2|0:0,0:0:0:0:
167,79,67737,2,0,L|180:181,1,89.9999976158143,0|2,3:0|3:2,0:0:0:0:
250,355,67981,1,8,0:0:0:0:
479,304,68103,1,8,0:0:0:0:
321,137,68225,1,0,3:0:0:0:
376,373,68347,1,0,3:0:0:0:
264,229,68469,6,0,P|346:237|425:163,1,179.999995231629,4|2,3:2|3:2,0:0:0:0:
321,137,68835,1,0,3:0:0:0:
175,280,68957,2,0,P|162:235|162:170,1,89.9999976158143,8|2,0:0|0:0,0:0:0:0:
274,30,69201,1,0,3:0:0:0:
175,89,69323,6,0,B|64:96|118:140|8:151,1,179.999995231629,2|8,3:2|0:0,0:0:0:0:
274,30,69689,2,0,P|289:71|293:155,1,89.9999976158143,2|0,3:2|3:0,0:0:0:0:
92,351,69933,2,0,P|77:310|73:226,1,89.9999976158143,10|0,0:0|3:0,0:0:0:0:
397,35,70176,2,0,P|412:76|416:160,1,89.9999976158143,2|8,3:2|0:0,0:0:0:0:
175,285,70420,6,0,P|261:281|332:364,1,179.999995231629,6|0,3:2|3:0,0:0:0:0:
325,342,70786,1,2,3:2:0:0:
273,186,70908,2,0,P|282:141|302:84,1,89.9999976158143,8|0,0:0|0:0,0:0:0:0:
65,356,71152,6,0,P|60:276|35:161,1,179.999995231629,6|0,3:2|0:0,0:0:0:0:
148,35,71518,2,0,P|150:89|158:140,1,89.9999976158143,8|0,0:0|3:0,0:0:0:0:
429,209,71762,1,0,3:0:0:0:
434,164,71823,1,8,0:0:0:0:
419,122,71884,1,8,0:0:0:0:
160,279,72006,1,8,0:0:0:0:
270,89,72128,1,10,3:2:0:0:
423,345,72250,1,10,0:0:0:0:
321,187,72372,6,0,P|400:166|498:147,1,179.999995231629,6|0,3:2|3:0,0:0:0:0:
270,89,72737,1,0,3:0:0:0:
307,297,72859,2,0,P|363:279|416:267,1,89.9999976158143,8|0,0:0|0:0,0:0:0:0:
167,140,73103,2,0,P|156:86|153:43,1,89.9999976158143,0|0,3:0|3:0,0:0:0:0:
198,239,73347,6,0,P|109:255|22:278,1,179.999995231629,0|2,0:0|3:2,0:0:0:0:
22,277,73713,1,0,3:0:0:0:
167,140,73835,1,10,0:0:0:0:
207,344,73957,1,0,3:0:0:0:
167,140,74079,2,0,P|112:154|71:163,1,89.9999976158143,2|8,3:2|0:0,0:0:0:0:
337,20,74323,5,2,3:2:0:0:
169,40,74445,2,0,B|282:62|214:97|332:126,1,179.999995231629,8|0,0:0|3:0,0:0:0:0:
69,75,74811,2,0,P|43:143|43:172,1,89.9999976158143,14|0,0:0|0:0,0:0:0:0:
167,140,75055,1,0,3:0:0:0:
207,344,75177,5,8,0:0:0:0:
227,303,75238,1,0,0:0:0:0:
233,259,75298,2,0,L|340:238,1,89.9999976158143,8|8,0:0|0:0,0:0:0:0:
431,109,75542,2,0,L|323:129,1,89.9999976158143,8|8,0:0|0:0,0:0:0:0:
31,217,75786,1,8,0:0:0:0:
157,48,75908,1,8,0:0:0:0:
233,259,76030,1,8,0:0:0:0:
18,75,76152,1,8,0:0:0:0:
244,115,76274,6,0,P|183:158|109:151,1,152.999998865128,4|0,3:2|3:0,0:0:0:0:
310,29,76640,1,0,3:0:0:0:
334,205,76762,2,0,P|345:155|353:118,1,76.4999994325638,8|0,0:0|0:0,0:0:0:0:
483,79,77006,2,0,P|472:129|464:166,1,76.4999994325638,2|0,3:2|3:0,0:0:0:0:
341,375,77250,6,0,P|297:323|210:306,1,152.999998865128,6|0,3:2|3:0,0:0:0:0:
121,163,77616,2,0,P|132:117|145:84,1,76.4999994325638,2|8,3:2|0:0,0:0:0:0:
123,262,77859,1,0,0:0:0:0:
229,142,77981,6,0,B|323:144|260:187|380:187,2,152.999998865128,6|0|0,3:2|0:0|3:0,0:0:0:0:
364,90,78591,1,0,0:0:0:0:
364,90,78713,2,0,L|381:9,1,76.4999994325638,8|0,0:0|0:0,0:0:0:0:
224,238,78957,2,0,L|207:319,1,76.4999994325638,2|8,3:2|0:0,0:0:0:0:
128,95,79201,6,0,P|193:98|263:37,1,152.999998865128,6|0,3:2|0:0,0:0:0:0:
32,152,79567,2,0,L|13:235,1,76.4999994325638,2|8,3:2|0:0,0:0:0:0:
32,48,79811,1,0,0:0:0:0:
130,201,79933,6,0,L|94:371,2,152.999998865128,6|0|0,3:2|0:0|3:0,0:0:0:0:
130,201,80542,1,0,3:0:0:0:
307,122,80664,2,0,P|381:122|439:183,1,152.999998865128,8|2,0:0|3:2,0:0:0:0:
344,216,81030,1,8,0:0:0:0:
205,124,81152,6,0,P|195:80|202:42,1,76.4999994325638,2|0,3:2|0:0,0:0:0:0:
344,216,81396,2,0,P|354:260|347:298,1,76.4999994325638,2|2,3:2|3:2,0:0:0:0:
137,378,81640,1,8,0:0:0:0:
232,224,81762,1,8,0:0:0:0:
68,104,81884,1,10,0:0:0:0:
214,270,82006,1,8,0:0:0:0:
378,88,82128,6,0,P|300:88|235:147,1,152.999998865128,6|2,3:2|3:2,0:0:0:0:
439,167,82494,1,10,0:0:0:0:
345,221,82616,2,0,P|324:275|324:296,1,76.4999994325638,0|0,3:0|3:0,0:0:0:0:
193,381,82859,6,0,P|112:301|1:327,1,229.499998297691,4|8,3:2|0:0,0:0:0:0:
35,183,83347,2,0,L|27:98,1,76.4999994325638,0|0,3:0|3:0,0:0:0:0:
206,305,83591,2,0,L|193:380,1,76.4999994325638,8|8,0:0|3:2,0:0:0:0:
158,172,83835,1,8,0:3:0:0:
22,339,83957,1,4,0:3:0:0:
158,172,84079,6,0,P|219:132|302:146,1,134.999996423721,4|0,3:2|0:0,0:0:0:0:
293,156,84323,2,0,P|344:179|401:182,1,89.9999976158143,14|0,0:0|0:0,0:0:0:0:
512,78,84567,1,14,0:0:0:0:
333,298,84689,1,10,0:0:0:0:
377,45,84811,1,0,0:0:0:0:
473,311,84933,6,0,P|392:319|318:394,1,179.999995231629,14|8,0:0|0:0,0:0:0:0:
157,258,85298,2,0,P|98:278|56:288,1,89.9999976158143,10|8,0:0|0:0,0:0:0:0:
253,176,85542,1,10,0:0:0:0:
150,384,85664,1,2,3:2:0:0:
86,162,85786,2,0,P|77:99|77:68,1,89.9999976158143,8|4,3:0|3:0,0:0:0:0:
253,176,86030,5,14,0:0:0:0:
411,255,86152,2,0,P|345:267|280:284,1,135.000001573563,4|0,3:2|0:0,0:0:0:0:
253,176,86518,2,0,P|286:169|319:162,1,67.5000007867814,2|0,0:0|0:0,0:0:0:0:
412,143,86762,5,14,0:0:0:0:
121,136,86884,2,0,B|147:177|147:177|119:292,1,135.000001573563,4|8,3:2|0:0,0:0:0:0:
23,83,87250,1,2,0:0:0:0:
102,364,87372,5,8,0:0:0:0:
152,365,87433,1,0,0:0:0:0:
196,342,87494,1,8,3:2:0:0:
12,192,87616,1,8,0:0:0:0:
199,50,87737,1,8,0:0:0:0:
126,260,87859,1,8,0:0:0:0:
412,143,87981,6,0,B|347:182|374:295|374:295|355:217|290:219,1,270.000003147125,4|0,3:2|0:0,0:0:0:0:
