osu file format v14

[General]
AudioFilename: audio.mp3
AudioLeadIn: 0
PreviewTime: 47006
Countdown: 0
SampleSet: Soft
StackLeniency: 0.7
Mode: 0
LetterboxInBreaks: 0
WidescreenStoryboard: 0

[Editor]
Bookmarks: 177,48957,72372,89445
DistanceSpacing: 1
BeatDivisor: 8
GridSize: 32
TimelineZoom: 2.2

[Metadata]
Title:Niji o Ametara (TV Size)
TitleUnicode:虹を編めたら (TV Size)
Artist:fhana
ArtistUnicode:fhána
Creator:Sotarks
Version:Melancholy
Source:ハルチカ〜ハルタとチカは青春する〜
Tags:haruchika haruta to chika wa seishun suru opening op tv size kawaiwkyik rizia pentori meg image-- appleeaterx kalibe akitoshi corinn chromoxx shini -sh1n1-
BeatmapID:1317992
BeatmapSetID:625429

[Difficulty]
HPDrainRate:6.2
CircleSize:4.2
OverallDifficulty:9.2
ApproachRate:9.8
SliderMultiplier:3.51999990463257
SliderTickRate:1

[Events]
//Background and Video events
0,0,"BG.jpg",0,0
Video,0,"op.flv"
//Break Periods
//Storyboard Layer 0 (Background)
//Storyboard Layer 1 (Fail)
//Storyboard Layer 2 (Pass)
//Storyboard Layer 3 (Foreground)
//Storyboard Sound Samples

[TimingPoints]
177,487.80487804878,4,2,22,72,1,0
177,-121.951219512195,4,2,22,72,0,0
4079,-138.888888888889,4,2,22,62,0,0
13835,-161.290322580645,4,2,22,52,0,0
35298,-138.888888888889,4,2,22,52,0,0
37250,-121.951219512195,4,2,22,52,0,0
39201,-108.695652173913,4,2,22,62,0,0
41152,-161.290322580645,4,2,22,52,0,0
43103,-138.888888888889,4,2,22,52,0,0
45055,-121.951219512195,4,2,22,52,0,0
47006,-108.695652173913,4,2,22,62,0,0
47433,-108.695652173913,4,2,22,5,0,0
47494,-108.695652173913,4,2,22,62,0,0
47676,-108.695652173913,4,2,22,5,0,0
47737,-108.695652173913,4,2,22,62,0,0
48042,-108.695652173913,4,2,22,5,0,0
48103,-108.695652173913,4,2,22,62,0,0
48286,-108.695652173913,4,2,22,5,0,0
48347,-108.695652173913,4,2,22,62,0,0
48957,-89.2857142857144,4,2,22,72,0,1
72372,-98.0392156862745,4,2,22,72,0,0
77981,-108.695652173913,4,2,22,62,0,0
79933,-121.951219512195,4,2,22,52,0,0
82128,-138.888888888889,4,2,22,62,0,0
84079,-108.695652173913,4,2,22,62,0,0
84506,-108.695652173913,4,2,22,5,0,0
84567,-108.695652173913,4,2,22,62,0,0
84872,-108.695652173913,4,2,22,5,0,0
84933,-108.695652173913,4,2,22,62,0,0
85116,-108.695652173913,4,2,22,5,0,0
85176,-108.695652173913,4,2,22,62,0,0
86030,-121.951219512195,4,2,22,72,0,0
89445,-121.951219512195,4,2,22,5,0,0

[Colours]
Combo1 : 200,227,43
Combo2 : 66,62,104
Combo3 : 148,77,52
Combo4 : 21,81,33
Combo5 : 140,126,115
Combo6 : 231,58,54

[HitObjects]
216,51,177,5,8,0:0:0:0:
294,284,298,1,4,3:2:0:0:
324,116,420,2,0,P|245:133|238:137,1,72.1599991460419,0|0,0:0|0:0,0:0:0:0:
246,350,664,2,0,P|280:360|316:362,1,72.1599991460419,2|0,0:0|0:0,0:0:0:0:
134,166,908,5,8,0:0:0:0:
449,231,1030,1,4,3:2:0:0:
324,44,1152,2,0,P|327:133|332:149,1,72.1599991460419,0|8,0:0|0:0,0:0:0:0:
387,297,1396,1,0,3:0:0:0:
234,138,1518,1,0,3:0:0:0:
448,83,1640,1,10,0:0:0:0:
320,232,1762,1,8,0:0:0:0:
323,115,1884,1,8,0:3:0:0:
386,173,2006,1,4,0:3:0:0:
261,50,2128,5,8,0:0:0:0:
173,330,2250,1,4,3:2:0:0:
165,158,2372,2,0,P|247:136|262:136,1,72.1599991460419,0|0,0:0|0:0,0:0:0:0:
387,297,2616,2,0,P|305:319|290:319,1,72.1599991460419,2|0,0:0|0:0,0:0:0:0:
89,183,2859,5,8,0:0:0:0:
424,219,2981,2,0,B|334:193|346:268|265:227,1,144.319998292084,4|0,3:2|3:0,0:0:0:0:
160,72,3347,5,8,0:0:0:0:
301,160,3469,1,0,3:0:0:0:
79,104,3591,5,8,0:0:0:0:
320,83,3713,1,8,0:0:0:0:
0,135,3835,5,8,0:0:0:0:
339,8,3957,1,8,0:0:0:0:
221,291,4079,6,0,P|209:225|232:135,1,126.719999660523,6|0,3:2|3:0,0:0:0:0:
386,129,4445,1,0,3:0:0:0:
275,353,4567,2,0,P|199:365|167:339,1,63.3599998302613,8|0,0:0|0:0,0:0:0:0:
209,93,4811,2,0,P|240:94|268:109,1,63.3599998302613,0|0,3:0|0:0,0:0:0:0:
352,320,5055,1,2,3:2:0:0:
351,142,5176,2,0,P|336:75|318:56,1,63.3599998302613,8|0,0:0|0:0,0:0:0:0:
300,259,5420,1,2,0:0:0:0:
129,110,5542,2,0,P|144:43|162:24,1,63.3599998302613,8|0,0:0|0:0,0:0:0:0:
226,291,5786,6,0,B|202:230|247:230|226:153,1,126.719999660523,6|0,3:2|0:0,0:0:0:0:
270,362,6152,2,0,P|206:371|200:366,1,63.3599998302613,0|0,0:0|3:0,0:0:0:0:
152,189,6396,1,0,3:0:0:0:
74,371,6518,2,0,P|63:337|69:294,1,63.3599998302613,8|0,0:0|0:0,0:0:0:0:
77,158,6762,1,0,3:0:0:0:
141,332,6884,1,8,0:0:0:0:
152,75,7006,2,0,P|218:62|229:63,1,63.3599998302613,2|0,3:2|0:0,0:0:0:0:
26,225,7250,1,0,3:0:0:0:
234,135,7372,2,0,P|265:138|295:148,1,63.3599998302613,2|8,0:0|0:0,0:0:0:0:
82,276,7616,1,0,0:0:0:0:
315,229,7737,6,0,P|371:185|275:72,1,253.439999321045,6|0,3:2|3:0,0:0:0:0:
334,304,8347,1,0,3:0:0:0:
453,168,8469,2,0,P|448:107|440:90,1,63.3599998302613,8|0,0:0|0:0,0:0:0:0:
299,148,8713,1,0,0:0:0:0:
505,240,8835,1,8,0:0:0:0:
232,197,8957,2,0,P|219:130|221:123,1,63.3599998302613,2|8,3:2|0:0,0:0:0:0:
363,103,9201,2,0,P|376:170|374:177,1,63.3599998302613,0|0,3:0|3:0,0:0:0:0:
155,215,9445,1,8,0:0:0:0:
279,62,9567,1,0,3:0:0:0:
279,62,9628,1,0,3:0:0:0:
279,62,9689,1,10,0:0:0:0:
196,285,9811,1,8,0:0:0:0:
72,71,9933,6,0,B|113:62|113:62|152:77|152:77|243:56,1,126.719999660523,6|2,3:2|3:2,0:0:0:0:
36,201,10298,1,8,0:0:0:0:
104,144,10420,1,2,3:2:0:0:
143,222,10542,1,0,0:0:0:0:
257,16,10664,2,0,P|277:83|237:141,1,126.719999660523,6|0,3:2|0:0,0:0:0:0:
186,296,11030,1,8,0:0:0:0:
131,77,11152,2,0,P|202:67|206:67,1,63.3599998302613,0|8,3:0|0:0,0:0:0:0:
263,274,11396,1,8,0:0:0:0:
104,144,11518,1,8,0:0:0:0:
329,115,11640,1,2,3:2:0:0:
203,185,11762,1,2,3:2:0:0:
404,46,11884,6,0,L|416:191,1,126.719999660523,6|0,3:2|0:0,0:0:0:0:
414,172,12250,1,0,3:0:0:0:
109,119,12372,2,0,L|244:99,1,126.719999660523,14|0,0:0|0:0,0:0:0:0:
234,100,12737,1,0,3:0:0:0:
355,245,12859,2,0,L|267:238,1,63.3599998302613,10|0,3:2|0:0,0:0:0:0:
314,76,13103,1,8,3:0:0:0:
333,163,13225,1,0,3:0:0:0:
213,271,13347,1,10,3:2:0:0:
232,184,13469,1,0,3:0:0:0:
355,245,13591,2,0,L|369:314,1,63.3599998302613,0|0,3:0|3:0,0:0:0:0:
105,288,13835,6,0,P|175:272|216:271,1,109.119992714508,6|2,3:2|0:0,0:0:0:0:
286,335,14201,1,0,3:0:0:0:
49,349,14323,2,0,P|26:294|31:280,1,54.5599963572542,10|0,0:0|0:0,0:0:0:0:
85,136,14567,1,2,3:0:0:0:
108,234,14689,2,0,P|109:264|97:303,1,54.5599963572542,2|0,3:2|0:0,0:0:0:0:
171,169,14933,1,2,3:2:0:0:
183,308,15055,2,0,P|169:335|138:362,1,54.5599963572542,6|0,0:0|0:0,0:0:0:0:
253,131,15298,1,10,0:0:0:0:
267,287,15420,1,2,0:0:0:0:
330,96,15542,1,2,0:0:0:0:
344,313,15664,1,2,0:0:0:0:
404,62,15786,5,2,3:2:0:0:
404,62,16030,1,2,0:0:0:0:
454,209,16152,2,0,L|446:279,1,54.5599963572542,2|8,3:2|0:0,0:0:0:0:
330,96,16396,2,0,L|323:41,1,54.5599963572542,2|2,0:0|3:0,0:0:0:0:
350,258,16640,2,0,L|343:312,1,54.5599963572542,2|0,0:0|0:0,0:0:0:0:
345,178,16884,1,0,0:0:0:0:
260,340,17006,2,0,L|182:328,1,54.5599963572542,6|0,0:0|0:0,0:0:0:0:
205,121,17250,2,0,L|283:133,1,54.5599963572542,10|0,0:0|0:0,0:0:0:0:
243,352,17494,2,0,L|165:340,1,54.5599963572542,2|0,3:2|3:0,0:0:0:0:
135,75,17737,6,0,P|124:140|161:191,1,109.119992714508,2|0,3:2|0:0,0:0:0:0:
277,323,18103,1,2,3:2:0:0:
258,112,18225,2,0,L|180:124,1,54.5599963572542,8|0,0:0|0:0,0:0:0:0:
85,232,18469,1,2,3:0:0:0:
307,178,18591,2,0,P|334:138|337:117,1,54.5599963572542,0|0,3:0|0:0,0:0:0:0:
364,301,18835,1,0,3:2:0:0:
388,72,18957,2,0,P|328:53|319:57,1,54.5599963572542,0|0,0:0|3:0,0:0:0:0:
243,251,19201,1,8,0:0:0:0:
388,72,19323,1,8,0:0:0:0:
213,152,19445,1,0,3:0:0:0:
388,72,19567,1,8,0:0:0:0:
322,221,19689,5,0,3:0:0:0:
180,59,19811,1,8,0:0:0:0:
135,147,19933,2,0,P|148:200|156:206,1,54.5599963572542,2|0,3:2|3:0,0:0:0:0:
390,264,20176,2,0,P|402:240|400:213,1,54.5599963572542,10|0,0:0|0:0,0:0:0:0:
287,99,20420,1,2,3:2:0:0:
249,185,20542,2,0,P|246:240|254:261,1,54.5599963572542,0|0,0:2|0:0,0:0:0:0:
475,239,20786,2,0,P|477:211|471:185,1,54.5599963572542,8|6,0:2|3:2,0:0:0:0:
366,45,21030,1,2,3:2:0:0:
400,213,21152,1,10,0:0:0:0:
287,99,21274,1,8,0:0:0:0:
322,221,21396,1,2,3:2:0:0:
379,129,21518,1,8,0:0:0:0:
347,322,21640,6,0,L|222:308,1,109.119992714508,4|2,3:2|0:0,0:0:0:0:
170,252,22006,1,0,0:0:0:0:
37,349,22128,2,0,P|102:335|110:331,1,54.5599963572542,10|0,0:0|0:0,0:0:0:0:
97,140,22372,1,2,3:0:0:0:
57,218,22494,2,0,P|52:277|53:284,1,54.5599963572542,2|0,3:2|0:0,0:0:0:0:
201,134,22737,1,2,0:0:0:0:
241,212,22859,2,0,P|246:271|245:278,1,54.5599963572542,6|0,0:0|0:0,0:0:0:0:
57,218,23103,2,0,P|-2:215|-12:212,1,54.5599963572542,8|0,0:0|0:0,0:0:0:0:
241,212,23347,2,0,P|300:209|310:206,1,54.5599963572542,0|0,3:0|0:0,0:0:0:0:
147,66,23591,5,0,3:0:0:0:
147,66,23835,1,2,3:2:0:0:
183,278,23957,2,0,P|240:298|254:293,1,54.5599963572542,2|8,3:2|0:0,0:0:0:0:
307,87,24201,2,0,P|276:151|276:160,1,54.5599963572542,2|2,0:0|3:0,0:0:0:0:
443,249,24445,2,0,P|432:223|414:203,1,54.5599963572542,2|0,3:2|0:0,0:0:0:0:
214,102,24689,1,8,0:0:0:0:
106,249,24811,2,0,P|99:306|102:320,1,54.5599963572542,6|0,0:0|0:0,0:0:0:0:
336,253,25055,2,0,P|335:225|328:199,1,54.5599963572542,10|0,0:0|0:0,0:0:0:0:
219,287,25298,1,2,3:2:0:0:
307,87,25420,1,8,0:0:0:0:
269,344,25542,6,0,P|201:366|161:329,1,109.119992714508,2|0,3:2|0:0,0:0:0:0:
191,157,25908,1,2,3:2:0:0:
115,294,26030,2,0,P|96:353|99:382,1,54.5599963572542,8|0,0:0|0:0,0:0:0:0:
269,154,26274,2,0,P|262:127|250:103,1,54.5599963572542,2|0,3:0|0:0,0:0:0:0:
218,285,26518,1,0,0:0:0:0:
164,73,26640,1,0,0:0:0:0:
114,206,26762,2,0,P|101:230|95:256,1,54.5599963572542,4|0,3:2|3:0,0:0:0:0:
281,120,27006,2,0,P|274:93|262:69,1,54.5599963572542,8|0,0:0|0:0,0:0:0:0:
200,209,27250,1,0,3:0:0:0:
89,89,27372,1,8,0:0:0:0:
91,50,27433,1,8,0:0:0:0:
113,17,27494,5,0,3:0:0:0:
22,297,27616,1,8,0:0:0:0:
16,206,27737,2,0,L|32:147,1,54.5599963572542,2|0,3:2|3:0,0:0:0:0:
112,349,27981,1,14,0:0:0:0:
118,258,28103,2,0,L|103:205,1,54.5599963572542,2|0,0:0|0:0,0:0:0:0:
215,61,28347,2,0,P|185:122|183:135,1,54.5599963572542,2|8,3:2|0:0,0:0:0:0:
197,293,28591,2,0,P|207:268|223:245,1,54.5599963572542,10|0,0:2|3:0,0:0:0:0:
347,199,28835,1,10,0:0:0:0:
190,143,28957,1,10,0:0:0:0:
307,99,29079,1,8,0:0:0:0:
298,274,29201,1,2,3:2:0:0:
266,173,29323,1,0,0:0:0:0:
153,367,29445,6,0,L|40:343,1,109.119992714508,6|0,3:2|0:0,0:0:0:0:
46,344,29811,1,0,3:0:0:0:
114,109,29933,2,0,L|128:232,1,109.119992714508,8|2,0:0|3:2,0:0:0:0:
126,217,30298,1,0,0:0:0:0:
105,29,30420,1,10,0:2:0:0:
209,199,30542,2,0,L|200:285,1,54.5599963572542,8|0,0:0|3:0,0:0:0:0:
215,114,30786,1,2,0:0:0:0:
281,272,30908,2,0,L|290:358,1,54.5599963572542,8|0,0:0|0:0,0:0:0:0:
310,79,31152,6,0,P|362:43|419:127,1,163.679989071763,6|0,3:2|0:0,0:0:0:0:
359,281,31640,1,0,3:0:0:0:
166,49,31884,2,0,P|226:35|232:36,1,54.5599963572542,8|0,0:0|0:0,0:0:0:0:
319,165,32128,2,0,P|292:161|267:150,1,54.5599963572542,0|0,3:0|0:0,0:0:0:0:
495,91,32372,2,0,L|473:236,1,109.119992714508,2|0,0:0|3:0,0:0:0:0:
338,236,32737,1,8,0:0:0:0:
359,281,32798,1,0,0:0:0:0:
359,324,32859,1,8,0:0:0:0:
401,139,32981,1,8,3:2:0:0:
283,292,33103,1,8,0:3:0:0:
478,198,33225,1,4,0:3:0:0:
283,292,33347,6,0,P|224:302|172:272,1,109.119992714508,6|2,3:2|0:0,0:0:0:0:
139,70,33713,2,0,P|174:113|178:127,1,54.5599963572542,10|0,0:0|0:0,0:0:0:0:
235,224,33957,1,0,3:0:0:0:
317,21,34079,2,0,P|321:76|316:90,1,54.5599963572542,6|0,3:2|0:0,0:0:0:0:
285,293,34323,1,2,3:2:0:0:
247,93,34445,1,0,0:0:0:0:
358,265,34567,2,0,P|360:322|358:326,1,54.5599963572542,2|2,0:0|0:0,0:0:0:0:
394,106,34811,2,0,P|400:79|398:52,1,54.5599963572542,4|0,3:0|0:0,0:0:0:0:
285,293,35055,2,0,P|237:290|225:283,1,54.5599963572542,2|0,0:0|0:0,0:0:0:0:
193,62,35298,6,0,P|237:102|232:178,1,126.719999660523,2|2,3:2|0:0,0:0:0:0:
147,328,35664,2,0,P|137:289|151:254,1,63.3599998302613,10|0,0:0|0:0,0:0:0:0:
166,137,35908,1,0,3:0:0:0:
230,349,36030,2,0,P|234:293|227:273,1,63.3599998302613,6|0,3:2|0:0,0:0:0:0:
166,137,36274,2,0,P|164:164|173:203,1,63.3599998302613,2|0,0:0|0:0,0:0:0:0:
315,301,36518,1,2,3:2:0:0:
244,148,36640,1,2,3:2:0:0:
142,267,36762,2,0,L|55:259,1,63.3599998302613,4|0,3:0|0:0,0:0:0:0:
155,59,37006,1,2,3:2:0:0:
231,287,37128,1,8,0:0:0:0:
388,49,37250,6,0,B|318:87|317:27|249:53,1,144.319998292084,6|2,3:2|3:2,0:0:0:0:
261,201,37616,2,0,P|263:150|274:123,1,72.1599991460419,10|0,0:0|0:0,0:0:0:0:
402,275,37859,1,0,3:0:0:0:
451,8,37981,2,0,P|463:55|387:123,1,144.319998292084,4|0,3:2|3:0,0:0:0:0:
187,163,38347,1,8,0:0:0:0:
233,56,38469,1,0,3:0:0:0:
331,235,38591,1,2,0:0:0:0:
331,235,38713,1,10,0:0:0:0:
270,130,38835,1,10,0:0:0:0:
413,203,38957,1,2,3:2:0:0:
233,56,39079,1,2,3:2:0:0:
210,307,39201,6,0,B|171:325|130:325|130:325|99:301|71:245,1,161.919990177552,6|0,3:2|0:0,0:0:0:0:
81,264,39567,1,0,3:0:0:0:
171,43,39689,2,0,B|199:119|128:112|173:225,1,161.919990177552,14|0,0:0|0:0,0:0:0:0:
164,200,40055,1,0,3:0:0:0:
99,72,40176,1,14,0:0:0:0:
211,308,40298,1,0,0:0:0:0:
240,163,40420,1,0,3:0:0:0:
85,228,40542,1,8,0:0:0:0:
81,264,40603,1,8,0:0:0:0:
77,300,40664,1,14,0:0:0:0:
171,43,40786,1,8,0:0:0:0:
217,331,40908,1,8,0:0:0:0:
240,13,41030,1,8,0:0:0:0:
334,233,41152,6,0,B|281:223|279:267|209:240,1,109.119992714508,6|2,3:2|3:2,0:0:0:0:
386,92,41518,2,0,P|403:128|405:154,1,54.5599963572542,10|0,0:0|0:0,0:0:0:0:
320,314,41762,1,0,3:0:0:0:
305,94,41884,2,0,P|312:56|328:36,1,54.5599963572542,0|0,3:0|0:0,0:0:0:0:
334,233,42128,1,0,3:0:0:0:
240,35,42250,1,8,0:0:0:0:
227,246,42372,2,0,L|233:318,1,54.5599963572542,2|0,3:2|3:0,0:0:0:0:
197,103,42616,1,4,0:3:0:0:
148,258,42737,1,2,0:0:0:0:
272,165,42859,1,2,3:2:0:0:
348,344,42981,1,8,0:0:0:0:
429,115,43103,6,0,P|362:98|294:94,1,126.719999660523,2|2,3:2|3:2,0:0:0:0:
148,258,43469,2,0,P|213:249|228:242,1,63.3599998302613,10|0,0:0|0:0,0:0:0:0:
62,198,43713,1,0,3:0:0:0:
272,165,43835,2,0,P|337:174|352:181,1,63.3599998302613,0|0,3:0|0:0,0:0:0:0:
170,181,44079,1,2,3:2:0:0:
391,236,44201,1,8,0:0:0:0:
283,91,44323,2,0,P|235:95|211:106,1,63.3599998302613,0|2,0:0|3:2,0:0:0:0:
273,283,44567,1,4,0:3:0:0:
272,165,44689,1,0,0:0:0:0:
350,331,44811,1,2,3:2:0:0:
359,83,44933,1,8,0:0:0:0:
205,328,45055,6,0,B|92:317|92:317|72:274,1,144.319998292084,6|2,3:2|0:0,0:0:0:0:
161,38,45420,2,0,B|176:83|176:83|172:116,1,72.1599991460419,10|0,0:0|0:0,0:0:0:0:
147,242,45664,1,0,3:0:0:0:
21,53,45786,2,0,B|64:42|64:42|100:53|100:53|164:37,1,144.319998292084,4|0,3:2|0:0,0:0:0:0:
279,182,46152,1,8,0:0:0:0:
97,128,46274,2,0,B|66:119|66:119|28:129,1,72.1599991460419,0|0,3:0|3:0,0:0:0:0:
252,72,46518,1,8,0:0:0:0:
59,202,46640,1,8,0:0:0:0:
159,36,46762,1,4,3:0:0:0:
192,194,46884,1,4,0:3:0:0:
349,45,47006,5,4,3:2:0:0:
349,45,47250,2,0,P|360:95|364:183,1,121.439992633164,14|0,0:0|0:0,0:0:0:0:
384,237,47494,2,0,P|387:176|399:117,1,121.439992633164,14|0,0:0|0:0,0:0:0:0:
430,45,47737,1,2,3:2:0:0:
437,295,47859,2,0,P|387:317|320:286,1,121.439992633164,14|0,0:0|0:0,0:0:0:0:
274,236,48103,2,0,P|324:214|391:245,1,121.439992633164,14|0,0:0|0:0,0:0:0:0:
327,294,48347,1,4,0:3:0:0:
269,146,48469,1,4,3:0:0:0:
226,302,48591,1,0,3:0:0:0:
196,67,48713,1,10,2:0:0:0:
128,314,48835,1,10,2:0:0:0:
132,18,48957,6,0,P|116:71|142:121,1,98.5599985328369,4|0,3:2|0:0,0:0:0:0:
296,342,49201,2,0,P|311:296|295:250,1,98.5599985328369,0|0,3:0|3:0,0:0:0:0:
202,94,49445,1,8,0:0:0:0:
128,314,49567,2,0,L|227:305,1,98.5599985328369,2|0,0:0|3:0,0:0:0:0:
300,102,49811,2,0,L|201:93,1,98.5599985328369,2|0,3:2|0:0,0:0:0:0:
384,264,50055,1,10,0:0:0:0:
137,136,50176,2,0,P|74:150|46:184,1,98.5599985328369,0|2,3:0|0:0,0:0:0:0:
337,182,50420,1,8,0:0:0:0:
121,218,50542,1,0,0:0:0:0:
300,102,50664,1,0,3:0:0:0:
211,189,50786,1,8,0:0:0:0:
277,26,50908,5,0,3:0:0:0:
262,272,51030,1,8,0:0:0:0:
191,54,51152,2,0,P|122:44|78:43,1,98.5599985328369,2|0,3:2|3:0,0:0:0:0:
337,182,51396,1,10,0:0:0:0:
133,122,51518,2,0,P|83:124|35:133,1,98.5599985328369,2|0,0:0|3:0,0:0:0:0:
300,102,51762,2,0,P|349:104|397:113,1,98.5599985328369,10|0,0:0|0:0,0:0:0:0:
227,298,52006,1,10,0:0:0:0:
226,82,52128,2,0,P|265:33|308:29,1,98.5599985328369,0|2,3:0|3:2,0:0:0:0:
306,340,52372,1,8,0:0:0:0:
300,102,52494,1,8,0:0:0:0:
225,372,52616,1,0,3:0:0:0:
226,82,52737,1,0,3:0:0:0:
387,313,52859,5,4,3:2:0:0:
387,313,53103,2,0,B|400:265|400:265|395:208,1,98.5599985328369,2|0,3:2|3:0,0:0:0:0:
369,50,53347,1,8,0:0:0:0:
320,257,53469,2,0,L|208:247,1,98.5599985328369,2|0,3:2|3:0,0:0:0:0:
140,64,53713,1,2,3:2:0:0:
164,303,53835,1,0,0:0:0:0:
73,101,53957,1,8,0:0:0:0:
221,248,54079,2,0,P|245:301|224:349,1,98.5599985328369,2|0,3:2|3:0,0:0:0:0:
73,101,54323,2,0,P|62:53|85:11,1,98.5599985328369,10|0,0:0|3:0,0:0:0:0:
101,249,54567,1,2,3:2:0:0:
207,21,54689,1,8,0:0:0:0:
320,257,54811,5,4,3:2:0:0:
495,83,54933,2,0,P|461:36|415:16,1,98.5599985328369,8|0,0:0|3:0,0:0:0:0:
391,299,55176,1,0,0:0:0:0:
271,84,55298,2,0,P|305:37|351:17,1,98.5599985328369,10|0,3:2|0:0,0:0:0:0:
306,340,55542,1,4,0:0:0:0:
338,153,55664,2,0,P|359:88|393:173,1,197.119997065674,8|8,0:0|0:0,0:0:0:0:
241,256,56030,1,2,0:0:0:0:
433,230,56152,1,8,0:0:0:0:
467,214,56213,1,8,0:0:0:0:
484,181,56274,1,10,0:0:0:0:
391,299,56396,1,8,0:0:0:0:
484,67,56518,1,2,3:2:0:0:
502,306,56640,1,4,0:3:0:0:
414,157,56762,6,0,L|307:148,1,98.5599985328369,4|0,3:2|0:0,0:0:0:0:
141,296,57006,2,0,L|248:287,1,98.5599985328369,2|0,3:2|3:0,0:0:0:0:
316,74,57250,1,10,0:0:0:0:
313,285,57372,2,0,P|290:343|241:357,1,98.5599985328369,2|2,3:2|3:0,0:0:0:0:
244,74,57616,2,0,P|267:16|316:2,1,98.5599985328369,2|0,3:2|0:0,0:0:0:0:
195,217,57859,2,0,L|88:208,1,98.5599985328369,10|0,0:0|3:0,0:0:0:0:
316,74,58103,1,2,3:2:0:0:
396,273,58225,2,0,L|405:383,1,98.5599985328369,8|0,0:0|0:0,0:0:0:0:
405,117,58469,1,0,3:0:0:0:
239,287,58591,1,8,0:0:0:0:
45,139,58713,6,0,B|147:92|146:186|246:123,2,197.119997065674,4|2|8,3:2|3:2|0:0,0:0:0:0:
184,67,59323,1,2,0:0:0:0:
97,203,59445,1,0,3:0:0:0:
264,53,59567,2,0,L|371:48,1,98.5599985328369,2|0,3:2|0:0,0:0:0:0:
196,231,59811,2,0,L|89:226,1,98.5599985328369,10|0,0:0|3:0,0:0:0:0:
181,47,60055,1,2,3:2:0:0:
207,307,60176,1,8,0:0:0:0:
234,138,60298,1,8,0:0:0:0:
289,336,60420,1,8,0:0:0:0:
353,72,60542,1,8,0:0:0:0:
362,294,60664,6,0,P|369:363|342:395,1,98.5599985328369,4|0,3:2|0:0,0:0:0:0:
284,125,60908,2,0,P|264:80|276:34,1,98.5599985328369,2|0,3:2|3:0,0:0:0:0:
289,336,61152,1,10,0:0:0:0:
418,123,61274,2,0,P|437:78|425:32,1,98.5599985328369,2|0,3:2|3:0,0:0:0:0:
303,221,61518,2,0,L|181:201,1,98.5599985328369,2|0,3:2|0:0,0:0:0:0:
353,72,61762,1,0,3:0:0:0:
407,219,61884,2,0,L|529:199,1,98.5599985328369,2|0,3:2|0:0,0:0:0:0:
284,125,62128,1,10,0:0:0:0:
418,123,62250,1,8,0:3:0:0:
352,296,62372,1,2,3:2:0:0:
353,163,62494,1,4,0:3:0:0:
441,347,62616,6,0,B|375:327|375:327|312:345|312:345|223:307,1,197.119997065674,6|0,3:2|0:0,0:0:0:0:
238,79,62981,1,2,3:2:0:0:
188,279,63103,2,0,P|178:337|209:379,1,98.5599985328369,8|0,0:0|0:0,0:0:0:0:
339,63,63347,2,0,L|129:49,1,197.119997065674,6|0,3:2|0:0,0:0:0:0:
368,150,63713,1,8,0:0:0:0:
109,230,63835,1,2,3:2:0:0:
226,136,63957,1,8,0:0:0:0:
389,328,64079,1,10,0:0:0:0:
339,63,64201,1,8,0:0:0:0:
209,245,64323,1,8,3:0:0:0:
142,49,64445,1,4,3:0:0:0:
35,310,64567,6,0,B|58:260|7:261|40:184,1,98.5599985328369,4|0,3:2|0:0,0:0:0:0:
222,32,64811,2,0,B|245:82|194:81|227:158,1,98.5599985328369,2|0,3:2|3:0,0:0:0:0:
109,230,65055,1,10,0:0:0:0:
293,107,65176,2,0,B|334:107|334:107|356:95|356:95|388:97,1,98.5599985328369,2|0,3:2|3:0,0:0:0:0:
200,296,65420,2,0,B|159:296|159:296|137:308|137:308|105:306,1,98.5599985328369,2|0,3:2|0:0,0:0:0:0:
142,49,65664,2,0,P|125:102|172:164,1,98.5599985328369,10|0,0:0|3:0,0:0:0:0:
296,286,65908,1,2,3:2:0:0:
204,98,66030,1,8,0:0:0:0:
104,305,66152,1,0,0:0:0:0:
63,84,66274,1,0,3:0:0:0:
9,315,66396,1,8,0:0:0:0:
142,49,66518,5,4,3:2:0:0:
142,49,66762,2,0,P|194:21|241:29,1,98.5599985328369,2|0,3:2|3:0,0:0:0:0:
250,320,67006,1,10,0:0:0:0:
204,98,67128,1,2,3:2:0:0:
175,345,67250,1,0,0:0:0:0:
278,135,67372,2,0,L|386:121,1,98.5599985328369,2|0,3:2|0:0,0:0:0:0:
272,357,67616,2,0,L|164:343,1,98.5599985328369,10|0,0:0|3:0,0:0:0:0:
142,162,67859,1,2,3:2:0:0:
428,219,67981,1,8,0:0:0:0:
158,252,68103,1,8,0:0:0:0:
375,122,68225,1,0,3:0:0:0:
174,344,68347,1,0,3:0:0:0:
128,83,68469,5,4,3:2:0:0:
128,83,68713,2,0,B|177:64|177:64|249:65,1,98.5599985328369,2|0,3:2|3:0,0:0:0:0:
457,148,68957,1,8,0:0:0:0:
287,161,69079,2,0,B|240:161|240:161|191:142,1,98.5599985328369,2|0,0:0|3:0,0:0:0:0:
417,66,69323,2,0,B|463:65|463:65|512:84,1,98.5599985328369,2|0,3:2|0:0,0:0:0:0:
376,306,69567,1,8,0:0:0:0:
342,98,69689,2,0,P|339:38|372:1,1,98.5599985328369,2|0,3:2|3:0,0:0:0:0:
432,247,69933,2,0,P|457:288|450:336,1,98.5599985328369,10|0,0:0|3:0,0:0:0:0:
417,66,70176,1,2,3:2:0:0:
376,306,70298,1,8,0:0:0:0:
176,142,70420,6,0,B|229:113|279:146|279:146|314:196|392:164,1,197.119997065674,6|0,3:2|3:0,0:0:0:0:
225,48,70786,1,2,3:2:0:0:
86,278,70908,2,0,P|36:262|16:217,1,98.5599985328369,8|0,0:0|0:0,0:0:0:0:
84,25,71152,2,0,B|118:65|118:65|86:212,1,197.119997065674,6|0,3:2|0:0,0:0:0:0:
192,30,71518,1,8,0:0:0:0:
170,298,71640,1,0,3:0:0:0:
16,164,71762,1,0,3:0:0:0:
25,127,71823,1,8,0:0:0:0:
34,94,71884,1,8,0:0:0:0:
88,308,72006,1,8,0:0:0:0:
186,114,72128,1,10,3:2:0:0:
245,354,72250,1,10,0:0:0:0:
333,63,72372,5,6,3:2:0:0:
333,63,72616,1,0,3:0:0:0:
363,267,72737,1,0,3:0:0:0:
405,18,72859,2,0,P|417:68|396:119,1,89.7599981159821,8|0,0:0|0:0,0:0:0:0:
285,276,73103,1,0,3:0:0:0:
264,18,73225,2,0,P|251:60|262:103,1,89.7599981159821,0|0,3:0|0:0,0:0:0:0:
443,257,73469,1,0,3:0:0:0:
216,163,73591,2,0,L|110:184,1,89.7599981159821,2|0,3:2|3:0,0:0:0:0:
406,103,73835,2,0,L|512:124,1,89.7599981159821,10|0,0:0|3:0,0:0:0:0:
285,276,74079,1,2,3:2:0:0:
333,63,74201,1,8,0:0:0:0:
329,347,74323,5,2,3:2:0:0:
180,95,74445,2,0,P|233:86|272:118,1,89.7599981159821,8|0,0:0|0:0,0:0:0:0:
224,330,74689,1,0,3:0:0:0:
118,40,74811,2,0,B|59:128|152:127|98:236,1,179.519996231964,14|0,0:0|3:0,0:0:0:0:
180,95,75176,1,8,0:0:0:0:
189,129,75236,1,8,0:0:0:0:
193,165,75297,1,8,0:0:0:0:
244,21,75420,1,8,0:0:0:0:
199,253,75542,1,8,0:0:0:0:
118,40,75664,1,8,0:0:0:0:
109,275,75786,1,8,0:0:0:0:
285,147,75908,1,8,0:0:0:0:
37,168,76030,1,8,0:0:0:0:
189,129,76152,1,8,0:0:0:0:
196,335,76274,6,0,B|185:373|185:373|159:303|212:306|173:205,1,179.519996231964,4|0,3:2|3:0,0:0:0:0:
122,71,76640,1,0,3:0:0:0:
29,271,76762,2,0,P|77:290|118:262,1,89.7599981159821,8|0,0:0|0:0,0:0:0:0:
201,74,77006,2,0,P|153:55|112:83,1,89.7599981159821,2|0,3:2|3:0,0:0:0:0:
272,279,77250,2,0,B|416:285|416:285|353:255,1,179.519996231964,6|0,3:2|3:0,0:0:0:0:
192,151,77616,1,2,3:2:0:0:
459,228,77737,2,0,P|489:280|479:320,1,89.7599981159821,8|0,0:0|0:0,0:0:0:0:
490,72,77981,6,0,P|450:110|354:79,1,161.919990177552,6|0,3:2|0:0,0:0:0:0:
265,195,78347,2,0,P|329:187|350:156,1,80.9599950887758,0|0,3:0|3:0,0:0:0:0:
419,40,78591,1,0,0:0:0:0:
459,228,78713,2,0,L|448:327,1,80.9599950887758,8|0,0:0|0:0,0:0:0:0:
286,121,78957,1,2,3:2:0:0:
370,323,79079,1,8,0:0:0:0:
318,49,79201,2,0,B|233:22|243:99|140:59,1,161.919990177552,6|0,3:2|0:0,0:0:0:0:
230,306,79567,1,2,3:2:0:0:
355,158,79689,2,0,P|306:125|265:119,1,80.9599950887758,8|0,0:0|0:0,0:0:0:0:
126,289,79933,6,0,P|169:323|226:206,1,216.479997438126,6|0,3:2|3:0,0:0:0:0:
112,17,80420,2,0,P|88:73|98:104,1,72.1599991460419,0|0,3:0|3:0,0:0:0:0:
310,202,80664,2,0,P|280:155|252:146,1,72.1599991460419,8|0,0:0|0:0,0:0:0:0:
168,73,80908,1,2,3:2:0:0:
237,220,81030,1,8,0:0:0:0:
364,35,81152,2,0,P|363:81|352:116,1,72.1599991460419,2|8,3:2|0:0,0:0:0:0:
306,282,81396,1,2,3:2:0:0:
282,64,81518,1,2,3:2:0:0:
206,291,81640,1,8,0:0:0:0:
188,68,81762,1,8,0:0:0:0:
213,99,81823,1,8,0:0:0:0:
223,138,81884,1,10,0:0:0:0:
306,282,82006,1,8,0:0:0:0:
257,35,82128,6,0,L|113:30,1,126.719999660523,6|2,3:2|3:2,0:0:0:0:
79,264,82494,1,10,0:0:0:0:
111,111,82616,1,0,3:0:0:0:
7,220,82737,1,0,3:0:0:0:
221,355,82859,2,0,B|260:344|260:344|341:382|330:318|418:349,1,190.079999490784,4|8,3:2|0:0,0:0:0:0:
321,86,83347,1,0,3:0:0:0:
306,282,83469,1,0,3:0:0:0:
395,51,83591,1,8,0:0:0:0:
393,257,83713,1,8,3:2:0:0:
463,108,83835,1,8,0:3:0:0:
404,344,83957,1,4,0:3:0:0:
246,124,84079,5,4,3:2:0:0:
246,124,84323,2,0,P|194:117|112:110,1,121.439992633164,14|0,0:0|0:0,0:0:0:0:
53,125,84567,1,14,0:0:0:0:
304,174,84689,2,0,P|324:130|273:56,1,121.439992633164,10|0,0:0|0:0,0:0:0:0:
246,124,84933,2,0,L|256:256,1,121.439992633164,14|0,0:0|0:0,0:0:0:0:
261,316,85176,1,8,0:0:0:0:
406,77,85298,1,10,0:0:0:0:
378,344,85420,1,8,0:0:0:0:
146,208,85542,1,10,0:0:0:0:
401,182,85664,1,2,3:2:0:0:
255,245,85786,1,8,3:0:0:0:
324,98,85908,1,4,3:0:0:0:
427,352,86030,5,14,0:0:0:0:
176,292,86152,1,4,3:2:0:0:
415,125,86274,2,0,P|442:179|440:200,1,72.1599991460419,0|0,0:0|0:0,0:0:0:0:
345,351,86518,2,0,P|350:315|371:286,1,72.1599991460419,2|0,0:0|0:0,0:0:0:0:
236,64,86762,5,14,0:0:0:0:
261,316,86884,1,4,3:2:0:0:
261,316,87128,1,8,0:0:0:0:
290,143,87250,1,2,0:0:0:0:
50,244,87372,1,8,0:0:0:0:
386,304,87494,1,8,3:2:0:0:
147,60,87616,1,8,0:0:0:0:
393,200,87737,1,8,0:0:0:0:
95,322,87859,1,8,0:0:0:0:
233,72,87981,5,4,3:2:0:0:
256,192,88042,12,0,89445,0:0:0:0:
