osu file format v14

[General]
AudioFilename: audio.mp3
AudioLeadIn: 0
PreviewTime: 47006
Countdown: 0
SampleSet: Soft
StackLeniency: 0.4
Mode: 0
LetterboxInBreaks: 0
WidescreenStoryboard: 0

[Editor]
DistanceSpacing: 1.5
BeatDivisor: 4
GridSize: 8
TimelineZoom: 2.2

[Metadata]
Title:Niji o Ametara (TV Size)
TitleUnicode:虹を編めたら (TV Size)
Artist:fhana
ArtistUnicode:fhána
Creator:Sotarks
Version:Kalibe's Hard
Source:ハルチカ〜ハルタとチカは青春する〜
Tags:haruchika haruta to chika wa seishun suru opening op tv size kawaiwkyik rizia pentori meg image-- appleeaterx kalibe akitoshi corinn chromoxx shini -sh1n1-
BeatmapID:1327832
BeatmapSetID:625429

[Difficulty]
HPDrainRate:4.5
CircleSize:3.5
OverallDifficulty:6.5
ApproachRate:8
SliderMultiplier:2.6
SliderTickRate:2

[Events]
//Background and Video events
Video,0,"op.flv"
0,0,"BG.jpg",0,0
//Break Periods
//Storyboard Layer 0 (Background)
//Storyboard Layer 1 (Fail)
//Storyboard Layer 2 (Pass)
//Storyboard Layer 3 (Foreground)
//Storyboard Sound Samples

[TimingPoints]
177,487.80487804878,4,2,22,72,1,0
177,-133.333333333333,4,2,22,72,0,0
4079,-111.111111111111,4,2,22,62,0,0
13835,-133.333333333333,4,2,22,52,0,0
39201,-133.333333333333,4,2,22,62,0,0
41152,-133.333333333333,4,2,22,52,0,0
47006,-133.333333333333,4,2,22,62,0,0
47433,-133.333333333333,4,2,22,5,0,0
47494,-133.333333333333,4,2,22,62,0,0
47676,-133.333333333333,4,2,22,5,0,0
47737,-133.333333333333,4,2,22,62,0,0
48042,-133.333333333333,4,2,22,5,0,0
48103,-133.333333333333,4,2,22,62,0,0
48286,-133.333333333333,4,2,22,5,0,0
48347,-133.333333333333,4,2,22,62,0,0
48957,-100,4,2,22,72,0,1
63347,-100,4,2,22,72,0,1
63957,-100,4,2,22,72,0,1
64567,-100,4,2,22,72,0,1
71762,-100,4,2,22,72,0,1
72372,-100,4,2,22,72,0,0
75176,-100,4,2,22,72,0,0
76274,-111.111111111111,4,2,22,72,0,0
77981,-111.111111111111,4,2,22,62,0,0
79933,-111.111111111111,4,2,22,52,0,0
82128,-111.111111111111,4,2,22,62,0,0
86030,-111.111111111111,4,2,22,72,0,0
87981,-111.111111111111,4,2,22,72,0,0
88469,-200,4,2,22,72,0,0
88957,-200,4,2,22,72,0,0
89445,-200,4,2,22,5,0,0

[Colours]
Combo1 : 200,227,43
Combo2 : 66,62,104
Combo3 : 148,77,52
Combo4 : 21,81,33
Combo5 : 140,126,115
Combo6 : 231,58,54

[HitObjects]
32,336,177,6,0,L|95:328,1,48.750001859665,8|4,0:0|3:2,0:0:0:0:
319,208,908,2,0,L|256:216,1,48.750001859665,8|4,0:0|3:2,0:0:0:0:
134,126,1396,2,0,L|182:119,1,48.750001859665,0|0,3:0|3:0,0:0:0:0:
225,87,1640,2,0,P|266:103|318:91,1,97.50000371933,10|8,0:0|0:3,0:0:0:0:
362,61,2006,1,4,0:3:0:0:
362,61,2128,6,0,L|416:69,1,48.750001859665,8|4,0:0|3:2,0:0:0:0:
467,330,2859,1,8,0:0:0:0:
467,330,2981,2,0,L|344:307,1,97.50000371933,4|0,3:2|3:0,0:0:0:0:
326,282,3347,2,0,P|281:302|234:292,1,97.50000371933,8|8,0:0|0:0,0:0:0:0:
196,263,3713,1,8,0:0:0:0:
196,263,3835,2,0,L|180:327,1,48.750001859665,8|8,0:0|0:0,0:0:0:0:
80,384,4079,6,0,P|48:272|40:192,1,175.499994644165,6|0,3:2|3:0,0:0:0:0:
4,133,4567,2,0,P|60:173|159:131,1,175.499994644165,8|0,0:0|0:0,0:0:0:0:
204,67,5055,1,2,3:2:0:0:
204,67,5176,2,0,B|255:40|255:40|330:52,1,116.999996429443,8|2,0:0|0:0,0:0:0:0:
394,84,5542,1,8,0:0:0:0:
240,163,5786,6,0,B|348:137|303:202|413:174,1,175.499994644165,6|0,3:2|0:0,0:0:0:0:
409,174,6274,2,0,L|390:249,1,58.4999982147217,0|0,3:0|3:0,0:0:0:0:
439,314,6518,2,0,P|386:284|320:307,1,116.999996429443,8|0,0:0|3:0,0:0:0:0:
264,351,6884,1,8,0:0:0:0:
264,351,7006,2,0,P|202:343|136:336,1,116.999996429443,2|0,3:2|3:0,0:0:0:0:
180,255,7372,2,0,P|144:249|121:247,2,58.4999982147217,2|8|2,0:0|0:0|0:0,0:0:0:0:
268,216,7737,6,0,P|285:107|239:64,1,175.499994644165,6|0,3:2|0:0,0:0:0:0:
168,16,8225,2,0,L|71:37,1,58.4999982147217,0|0,3:0|3:0,0:0:0:0:
26,82,8469,2,0,P|83:76|140:101,1,116.999996429443,8|0,0:0|0:0,0:0:0:0:
209,150,8835,1,8,0:0:0:0:
209,150,8957,2,0,P|152:144|100:172,1,116.999996429443,2|0,3:2|3:0,0:0:0:0:
19,328,9445,2,0,P|66:356|127:349,1,116.999996429443,8|10,0:0|0:0,0:0:0:0:
186,283,9811,1,8,0:0:0:0:
88,269,9933,6,0,L|220:253,1,116.999996429443,6|2,3:2|3:2,0:0:0:0:
276,197,10298,1,8,0:0:0:0:
276,197,10420,2,0,L|351:206,1,58.4999982147217,2|0,3:2|0:0,0:0:0:0:
408,280,10664,2,0,P|378:172|429:100,1,175.499994644165,6|8,3:2|0:0,0:0:0:0:
405,120,11152,2,0,L|481:134,1,58.4999982147217,0|8,3:0|0:0,0:0:0:0:
413,35,11396,2,0,L|337:49,1,58.4999982147217,8|8,0:0|0:0,0:0:0:0:
268,88,11640,2,0,P|224:81|183:71,1,58.4999982147217,2|2,3:2|3:2,0:0:0:0:
117,40,11884,6,0,P|82:99|83:152,1,116.999996429443,6|0,3:2|0:0,0:0:0:0:
2,329,12372,2,0,P|50:297|107:293,1,116.999996429443,14|0,0:0|0:0,0:0:0:0:
174,367,12737,1,0,3:0:0:0:
174,367,12859,6,0,P|220:354|234:351,1,58.4999982147217,10|0,3:2|0:0,0:0:0:0:
288,280,13103,2,0,P|316:288|345:295,1,58.4999982147217,8|0,3:0|3:0,0:0:0:0:
415,360,13347,2,0,P|385:250|414:190,1,175.499994644165,10|0,3:2|3:0,0:0:0:0:
503,240,13835,6,0,P|452:236|403:206,1,97.50000371933,6|2,3:2|0:0,0:0:0:0:
260,142,14323,2,0,P|209:146|160:176,1,97.50000371933,8|2,3:2|0:0,0:0:0:0:
142,88,14689,2,0,P|95:97|51:78,1,97.50000371933,2|2,3:2|3:2,0:0:0:0:
104,13,15055,1,6,0:0:0:0:
169,168,15298,2,0,P|136:172|111:180,1,48.750001859665,10|2,0:0|0:0,0:0:0:0:
61,234,15542,2,0,P|38:242|14:247,1,48.750001859665,2|2,0:0|0:0,0:0:0:0:
8,336,15786,6,0,P|56:328|120:320,1,97.50000371933,2|2,3:2|0:0,0:0:0:0:
169,168,16274,2,0,P|217:176|281:184,1,97.50000371933,8|2,0:0|3:0,0:0:0:0:
333,230,16640,2,0,P|353:185|357:134,1,97.50000371933,2|0,0:0|0:0,0:0:0:0:
305,71,17006,1,6,0:0:0:0:
169,168,17250,2,0,L|186:284,1,97.50000371933,10|2,0:0|3:2,0:0:0:0:
311,369,17737,6,0,P|392:327|461:339,1,146.250005578995,2|2,3:2|3:2,0:0:0:0:
444,332,18225,2,0,L|428:264,1,48.750001859665,8|0,0:0|0:0,0:0:0:0:
363,224,18469,2,0,P|310:230|264:218,1,97.50000371933,2|0,3:0|0:0,0:0:0:0:
208,288,18835,2,0,P|155:282|109:294,1,97.50000371933,0|0,3:2|3:0,0:0:0:0:
48,360,19201,2,0,P|25:311|41:209,1,146.250005578995,8|8,0:0|0:0,0:0:0:0:
104,160,19689,5,0,3:0:0:0:
104,160,19811,2,0,P|91:111|77:51,1,97.50000371933,8|0,0:0|3:0,0:0:0:0:
152,15,20176,2,0,P|163:62|175:109,1,97.50000371933,10|2,0:0|3:2,0:0:0:0:
237,172,20542,2,0,P|281:150|347:147,2,97.50000371933,0|8|2,0:2|0:2|3:2,0:0:0:0:
186,244,21152,2,0,P|212:248|257:265,1,48.750001859665,10|8,0:0|0:0,0:0:0:0:
290,321,21396,2,0,P|316:317|361:300,1,48.750001859665,2|8,3:2|0:0,0:0:0:0:
421,339,21640,6,0,P|439:292|434:239,1,97.50000371933,4|2,3:2|0:0,0:0:0:0:
512,84,22128,2,0,P|466:101|418:99,1,97.50000371933,10|2,0:0|3:0,0:0:0:0:
352,40,22494,2,0,P|302:32|233:30,1,97.50000371933,2|2,3:2|0:0,0:0:0:0:
181,77,22859,1,6,0:0:0:0:
181,77,23103,2,0,P|130:95|79:79,1,97.50000371933,8|0,0:0|3:0,0:0:0:0:
8,241,23591,6,0,P|52:223|99:232,1,97.50000371933,0|2,3:0|3:2,0:0:0:0:
188,224,23957,1,2,3:2:0:0:
188,224,24079,2,0,L|171:291,1,48.750001859665,8|2,0:0|0:0,0:0:0:0:
147,355,24323,2,0,P|197:318|282:339,1,146.250005578995,2|8,3:0|0:0,0:0:0:0:
355,371,24811,1,6,0:0:0:0:
489,257,25055,1,10,0:0:0:0:
330,182,25298,2,0,L|314:98,1,48.750001859665,2|8,3:2|0:0,0:0:0:0:
432,96,25542,6,0,P|418:159|400:256,1,146.250005578995,2|2,3:2|3:2,0:0:0:0:
445,316,26030,2,0,L|514:298,1,48.750001859665,8|0,0:0|0:0,0:0:0:0:
383,374,26274,2,0,P|288:350|215:346,1,146.250005578995,2|0,3:0|0:0,0:0:0:0:
156,374,26762,1,4,3:2:0:0:
297,269,27006,1,8,0:0:0:0:
140,189,27250,2,0,L|72:203,1,48.750001859665,0|8,3:0|0:0,0:0:0:0:
19,249,27494,5,0,3:0:0:0:
19,249,27616,2,0,P|3:205|23:150,1,97.50000371933,8|0,0:0|3:0,0:0:0:0:
3,71,27981,2,0,B|61:80|97:96|97:96|160:60,1,146.250005578995,14|2,0:0|3:2,0:0:0:0:
216,28,28469,1,8,0:0:0:0:
216,28,28591,2,0,P|270:23|319:48,1,97.50000371933,10|10,0:2|0:0,0:0:0:0:
366,107,28957,2,0,L|413:95,1,48.750001859665,10|8,0:0|0:0,0:0:0:0:
371,193,29201,2,0,L|301:176,1,48.750001859665,2|0,3:2|0:0,0:0:0:0:
240,151,29445,6,0,B|222:212|257:234|236:298,1,146.250005578995,6|0,3:2|3:0,0:0:0:0:
182,365,29933,2,0,P|133:379|82:357,1,97.50000371933,8|2,0:0|3:2,0:0:0:0:
6,210,30420,1,10,0:2:0:0:
6,210,30542,2,0,P|51:195|97:209,1,97.50000371933,8|2,0:0|0:0,0:0:0:0:
137,288,30908,2,0,L|226:268,1,48.750001859665,8|0,0:0|0:0,0:0:0:0:
256,216,31152,6,0,B|344:262|358:175|451:217,1,195.00000743866,6|0,3:2|3:0,0:0:0:0:
443,213,31884,2,0,P|456:166|436:118,1,97.50000371933,8|0,0:0|3:0,0:0:0:0:
310,1,32372,2,0,L|288:116,1,97.50000371933,2|0,0:0|3:0,0:0:0:0:
300,184,32737,1,8,0:0:0:0:
300,184,32859,2,0,L|249:177,1,48.750001859665,8|8,0:0|3:2,0:0:0:0:
177,129,33103,2,0,L|113:138,1,48.750001859665,8|4,0:3|0:3,0:0:0:0:
55,186,33347,6,0,P|37:235|51:287,1,97.50000371933,6|2,3:2|0:0,0:0:0:0:
16,361,33713,2,0,P|69:313|149:321,1,146.250005578995,10|6,0:0|3:2,0:0:0:0:
288,222,34323,1,2,3:2:0:0:
358,382,34567,1,2,0:0:0:0:
500,279,34811,1,4,3:0:0:0:
500,279,35055,2,0,L|438:264,1,48.750001859665,2|0,0:0|0:0,0:0:0:0:
380,201,35298,6,0,P|331:200|287:221,1,97.50000371933,2|2,3:2|0:0,0:0:0:0:
216,288,35664,2,0,P|156:304|86:262,1,146.250005578995,10|6,0:0|3:2,0:0:0:0:
250,197,36274,1,2,0:0:0:0:
82,145,36518,1,2,3:2:0:0:
212,27,36762,1,4,3:0:0:0:
212,27,37006,2,0,L|282:40,1,48.750001859665,2|8,3:2|0:0,0:0:0:0:
336,104,37250,6,0,P|370:115|438:91,1,97.50000371933,2|2,3:2|3:2,0:0:0:0:
492,38,37616,2,0,P|467:131|450:227,1,146.250005578995,10|4,0:0|3:2,0:0:0:0:
512,346,38225,1,0,3:0:0:0:
512,346,38347,2,0,B|464:325|464:325|409:338,1,97.50000371933,8|2,0:0|0:0,0:0:0:0:
336,384,38713,2,0,L|241:368,1,48.750001859665,10|10,0:0|0:0,0:0:0:0:
216,320,38957,2,0,L|121:336,1,48.750001859665,2|2,3:2|3:2,0:0:0:0:
98,383,39201,6,0,P|77:340|93:286,1,97.50000371933,6|0,3:2|0:0,0:0:0:0:
242,210,39689,2,0,P|252:163|231:120,1,97.50000371933,14|0,0:0|0:0,0:0:0:0:
93,11,40176,1,14,0:0:0:0:
93,11,40298,2,0,L|79:118,1,97.50000371933,0|8,0:0|0:0,0:0:0:0:
168,48,40664,2,0,L|245:34,1,48.750001859665,10|8,0:0|0:0,0:0:0:0:
279,111,40908,2,0,L|232:120,1,48.750001859665,8|8,0:0|0:0,0:0:0:0:
163,175,41152,6,0,P|153:221|158:282,1,97.50000371933,6|2,3:2|3:2,0:0:0:0:
205,344,41518,2,0,B|286:320|268:371|354:342,1,146.250005578995,10|0,0:0|3:0,0:0:0:0:
503,259,42128,1,0,3:0:0:0:
503,259,42250,2,0,P|451:274|395:248,1,97.50000371933,8|0,0:0|3:0,0:0:0:0:
340,207,42616,2,0,L|282:218,2,48.750001859665,4|2|2,0:3|0:0|3:2,0:0:0:0:
414,159,42981,1,8,0:0:0:0:
414,159,43103,6,0,P|428:102|432:47,1,97.50000371933,2|2,3:2|3:2,0:0:0:0:
360,11,43469,2,0,P|298:44|226:14,1,146.250005578995,10|0,0:0|3:0,0:0:0:0:
70,93,44079,1,2,3:2:0:0:
70,93,44201,2,0,P|152:80|208:120,1,146.250005578995,8|4,0:0|0:3,0:0:0:0:
202,112,44811,2,0,L|192:163,1,48.750001859665,2|8,3:2|0:0,0:0:0:0:
174,246,45055,6,0,P|129:226|79:229,1,97.50000371933,6|2,3:2|0:0,0:0:0:0:
47,309,45420,2,0,P|110:346|181:331,1,146.250005578995,10|4,0:0|3:2,0:0:0:0:
325,221,46030,1,0,0:0:0:0:
325,221,46152,2,0,B|303:267|303:267|329:335,1,97.50000371933,8|0,0:0|3:0,0:0:0:0:
392,376,46518,2,0,L|475:365,1,48.750001859665,8|8,0:0|0:0,0:0:0:0:
488,280,46762,2,0,L|439:286,1,48.750001859665,4|4,3:0|0:3,0:0:0:0:
354,232,47006,5,4,3:2:0:0:
184,187,47250,1,14,0:0:0:0:
232,18,47494,1,14,0:0:0:0:
401,62,47737,1,2,3:2:0:0:
320,96,47859,6,0,P|268:102|218:111,1,97.50000371933,14|14,0:0|0:0,0:0:0:0:
99,234,48347,1,4,0:3:0:0:
184,187,48469,6,0,P|210:190|236:196,1,48.750001859665,4|0,3:0|3:0,0:0:0:0:
305,245,48713,2,0,P|331:241|357:236,1,48.750001859665,10|10,2:0|2:0,0:0:0:0:
419,164,48957,6,0,P|451:217|427:290,2,130,4|0|8,3:2|3:0|0:0,0:0:0:0:
465,92,49567,2,0,P|393:126|343:111,1,130,2|2,0:0|3:2,0:0:0:0:
281,177,49933,1,0,0:0:0:0:
281,177,50055,2,0,P|251:118|279:52,1,130,10|2,0:0|0:0,0:0:0:0:
353,24,50420,2,0,B|296:5|258:32|258:32|223:58|166:38,1,195,8|8,0:0|0:0,0:0:0:0:
78,13,50908,5,0,3:0:0:0:
78,13,51030,2,0,P|89:69|107:146,1,130,8|0,0:0|3:0,0:0:0:0:
168,206,51396,2,0,P|199:193|239:187,2,65,10|2|0,0:0|0:0|3:0,0:0:0:0:
226,276,51762,2,0,P|165:254|101:263,2,130,10|10|2,0:0|0:0|3:2,0:0:0:0:
304,334,52372,1,8,0:0:0:0:
304,334,52494,2,0,P|368:333|403:277,1,130,8|0,0:0|3:0,0:0:0:0:
382,193,52859,6,0,P|442:202|534:217,2,130,4|2|8,3:2|3:2|0:0,0:0:0:0:
424,104,53469,2,0,P|343:162|257:133,1,195,2|0,3:2|0:0,0:0:0:0:
273,37,53957,1,8,0:0:0:0:
273,37,54079,2,0,L|196:48,1,65,2|0,3:2|3:0,0:0:0:0:
130,106,54323,2,0,B|-8:91,1,130,10|0,0:0|0:0,0:0:0:0:
62,276,54811,6,0,P|123:223|239:249,1,195,4|0,3:2|0:0,0:0:0:0:
291,165,55298,1,10,3:2:0:0:
177,323,55542,1,4,0:0:0:0:
177,323,55664,2,0,B|245:308|236:346|307:328,1,130,8|8,0:0|0:0,0:0:0:0:
372,267,56030,2,0,P|432:286|471:229,1,130,2|10,0:0|0:0,0:0:0:0:
418,171,56396,1,8,0:0:0:0:
418,171,56518,2,0,L|347:186,1,65,2|4,3:2|0:3,0:0:0:0:
268,248,56762,6,0,P|198:274|148:259,2,130,4|2|10,3:2|3:2|0:0,0:0:0:0:
354,184,57372,2,0,B|374:121|374:121|341:58,1,130,2|2,3:2|3:2,0:0:0:0:
281,130,57737,1,0,0:0:0:0:
281,130,57859,2,0,P|201:125|150:107,1,130,10|2,0:0|3:2,0:0:0:0:
75,62,58225,2,0,P|131:157|94:240,1,195,8|8,0:0|0:0,0:0:0:0:
53,307,58713,6,0,P|110:272|178:283,1,130,4|2,3:2|3:2,0:0:0:0:
244,335,59079,1,0,0:0:0:0:
244,335,59201,2,0,L|261:272,2,65,8|2|0,0:0|0:0|3:0,0:0:0:0:
323,380,59567,2,0,L|355:242,1,130,2|10,3:2|0:0,0:0:0:0:
312,170,59933,2,0,P|345:169|378:157,1,65,0|2,3:0|3:2,0:0:0:0:
454,91,60176,2,0,P|337:44|269:79,1,195,8|8,0:0|0:0,0:0:0:0:
183,70,60664,5,4,3:2:0:0:
183,70,60786,2,0,P|186:147|206:214,1,130,0|0,0:0|3:0,0:0:0:0:
246,276,61152,2,0,P|186:238|112:261,1,130,10|0,0:0|3:0,0:0:0:0:
79,323,61518,2,0,B|92:258|92:258|62:200|62:200|75:127,1,195,2|2,3:2|3:2,0:0:0:0:
73,137,62128,2,0,L|173:116,1,65,10|8,0:0|0:3,0:0:0:0:
160,35,62372,2,0,L|227:44,1,65,2|4,3:2|0:3,0:0:0:0:
320,56,62616,6,0,P|430:48|473:126,1,195,6|2,3:2|3:2,0:0:0:0:
471,110,63103,2,0,L|454:178,1,65,8|0,0:0|0:0,0:0:0:0:
512,264,63347,2,0,B|426:231|414:312|321:264,1,195,6|8,3:2|0:0,0:0:0:0:
324,265,63835,2,0,P|308:290|290:353,1,65,2|8,3:2|0:0,0:0:0:0:
203,384,64079,2,0,P|185:356|174:326,1,65,10|8,0:0|0:0,0:0:0:0:
95,277,64323,1,8,3:0:0:0:
95,277,64445,1,4,3:0:0:0:
95,277,64567,6,0,P|159:285|215:229,2,130,4|2|10,3:2|3:2|0:0,0:0:0:0:
22,331,65176,2,0,P|-1:273|31:215,1,130,2|2,3:2|3:2,0:0:0:0:
99,158,65542,2,0,L|184:170,2,65,0|10|0,0:0|0:0|3:0,0:0:0:0:
51,79,65908,1,2,3:2:0:0:
51,78,66030,2,0,B|113:64|113:64|176:87|176:87|248:70,1,195,8|8,0:0|0:0,0:0:0:0:
316,24,66518,6,0,P|361:3|460:66,1,130,4|2,3:2|3:2,0:0:0:0:
495,94,66884,1,0,3:0:0:0:
495,94,67006,2,0,L|476:213,1,65,10|2,0:0|3:2,0:0:0:0:
399,213,67250,1,0,0:0:0:0:
399,213,67372,2,0,P|386:142|375:78,2,130,2|10|2,3:2|0:0|3:2,0:0:0:0:
472,280,67981,2,0,P|414:248|307:311,1,195,8|0,0:0|3:0,0:0:0:0:
262,382,68469,5,4,3:2:0:0:
262,382,68591,2,0,L|133:366,1,130,8|0,0:0|3:0,0:0:0:0:
62,307,68957,1,8,0:0:0:0:
62,307,69079,2,0,L|78:203,1,65,2|0,0:0|3:0,0:0:0:0:
149,190,69323,2,0,B|208:210|208:210|281:186,1,130,2|8,3:2|0:0,0:0:0:0:
349,138,69689,1,2,3:2:0:0:
349,138,69933,2,0,L|425:146,1,65,10|0,0:0|3:0,0:0:0:0:
422,54,70176,2,0,L|338:46,1,65,2|8,3:2|0:0,0:0:0:0:
275,89,70420,6,0,P|215:111|159:75,1,130,6|0,3:2|3:0,0:0:0:0:
93,17,70786,1,2,3:2:0:0:
93,17,70908,1,8,0:0:0:0:
35,189,71152,2,0,B|138:159|116:244|224:212,1,195,6|8,3:2|0:0,0:0:0:0:
302,172,71640,1,0,3:0:0:0:
302,172,71884,2,0,P|317:197|325:243,1,65,8|8,0:0|0:0,0:0:0:0:
383,302,72128,2,0,P|358:317|312:325,1,65,10|10,3:2|0:0,0:0:0:0:
248,377,72372,6,0,P|140:332|63:372,1,195,6|0,3:2|3:0,0:0:0:0:
74,360,72859,2,0,L|107:207,1,130,8|0,0:0|3:0,0:0:0:0:
151,57,73347,1,0,3:0:0:0:
151,57,73469,2,0,B|219:41|270:79|270:79|318:65|324:25,1,195,8|10,0:0|0:0,0:0:0:0:
488,111,74079,2,0,L|424:122,1,65,2|8,3:2|0:0,0:0:0:0:
341,161,74323,5,2,3:2:0:0:
341,161,74445,2,0,P|312:228|347:298,1,130,8|0,0:0|3:0,0:0:0:0:
394,343,74811,2,0,P|322:316|197:320,1,195,14|8,0:0|0:0,0:0:0:0:
135,376,75298,2,0,L|-1:361,1,130,8|8,0:0|0:0,0:0:0:0:
49,281,75664,2,0,L|132:292,2,65,8|8|8,0:0|0:0|0:0,0:0:0:0:
24,192,76030,2,0,L|106:203,1,65,8|8,0:0|0:0,0:0:0:0:
139,120,76274,6,0,P|221:151|289:93,1,175.499994644165,4|0,3:2|3:0,0:0:0:0:
358,42,76762,2,0,P|370:96|385:165,1,116.999996429443,8|2,0:0|3:2,0:0:0:0:
258,296,77250,1,6,3:2:0:0:
258,296,77372,2,0,P|245:241|231:173,1,116.999996429443,0|2,0:0|3:2,0:0:0:0:
285,102,77737,1,8,0:0:0:0:
285,102,77981,6,0,P|194:161|77:109,1,233.999992858887,6|0,3:2|3:0,0:0:0:0:
240,13,78713,1,8,0:0:0:0:
391,93,78957,1,2,3:2:0:0:
391,93,79079,2,0,P|449:68|504:81,2,116.999996429443,8|8|0,0:0|0:2|3:0,0:0:0:0:
324,150,79689,1,8,0:0:0:0:
402,308,79933,6,0,B|322:362|258:253|177:311,1,233.999992858887,6|0,3:2|3:0,0:0:0:0:
106,360,80542,1,0,3:0:0:0:
106,360,80664,2,0,P|87:306|113:251,1,116.999996429443,8|2,0:0|3:2,0:0:0:0:
189,203,81030,1,8,0:0:0:0:
189,203,81152,2,0,P|211:91|148:30,1,175.499994644165,2|2,3:2|3:2,0:0:0:0:
88,19,81640,2,0,P|56:27|18:34,1,58.4999982147217,8|8,0:0|0:0,0:0:0:0:
70,111,81884,2,0,P|41:116|13:124,1,58.4999982147217,10|8,0:0|0:0,0:0:0:0:
78,205,82128,6,0,B|130:223|130:223|196:200,1,116.999996429443,6|2,3:2|3:2,0:0:0:0:
278,172,82494,2,0,L|264:100,2,58.4999982147217,10|0|0,0:0|3:0|3:0,0:0:0:0:
339,244,82859,2,0,P|237:187|171:214,1,175.499994644165,4|8,3:2|0:0,0:0:0:0:
124,272,83347,1,0,3:0:0:0:
124,272,83591,2,0,P|130:300|141:342,1,58.4999982147217,8|8,0:0|3:2,0:0:0:0:
216,380,83835,2,0,P|244:373|272:366,1,58.4999982147217,8|4,0:3|0:3,0:0:0:0:
363,338,84079,5,4,3:2:0:0:
278,172,84323,1,14,0:0:0:0:
425,56,84567,2,0,P|433:28|436:0,1,58.4999982147217,14|10,0:0|0:0,0:0:0:0:
270,87,84933,2,0,P|217:63|162:78,1,116.999996429443,14|8,0:0|0:0,0:0:0:0:
86,23,85298,2,0,P|62:75|77:130,1,116.999996429443,10|10,0:0|0:0,0:0:0:0:
20,205,85664,2,0,P|72:228|127:213,1,116.999996429443,2|4,3:2|3:0,0:0:0:0:
200,272,86030,6,0,P|196:300|182:367,1,58.4999982147217,14|4,0:0|3:2,0:0:0:0:
493,218,86762,2,0,P|490:188|486:159,1,58.4999982147217,14|4,0:0|3:2,0:0:0:0:
375,93,87128,5,8,0:0:0:0:
375,93,87250,2,0,P|336:108|287:103,1,58.4999982147217,2|8,0:0|0:0,0:0:0:0:
242,163,87494,2,0,P|227:124|232:75,1,58.4999982147217,8|8,3:2|0:0,0:0:0:0:
171,31,87737,2,0,P|210:16|259:21,1,58.4999982147217,8|8,0:0|0:0,0:0:0:0:
323,17,87981,5,4,3:2:0:0:
256,192,88103,12,0,89445,0:0:0:0:
