osu file format v14

[General]
AudioFilename: audio.mp3
AudioLeadIn: 0
PreviewTime: 47006
Countdown: 0
SampleSet: Soft
StackLeniency: 0.7
Mode: 0
LetterboxInBreaks: 0
WidescreenStoryboard: 1

[Editor]
DistanceSpacing: 1
BeatDivisor: 4
GridSize: 32
TimelineZoom: 2.2

[Metadata]
Title:Niji o Ametara (TV Size)
TitleUnicode:虹を編めたら (TV Size)
Artist:fhana
ArtistUnicode:fhána
Creator:Sotarks
Version:Akitoshi's Normal
Source:ハルチカ〜ハルタとチカは青春する〜
Tags:haruchika haruta to chika wa seishun suru opening op tv size kawaiwkyik rizia pentori meg image-- appleeaterx kalibe akitoshi corinn chromoxx shini -sh1n1-
BeatmapID:1319541
BeatmapSetID:625429

[Difficulty]
HPDrainRate:4
CircleSize:3
OverallDifficulty:4
ApproachRate:5
SliderMultiplier:1.7
SliderTickRate:2

[Events]
//Background and Video events
Video,0,"op.flv"
0,0,"BG.jpg",0,0
//Break Periods
//Storyboard Layer 0 (Background)
//Storyboard Layer 1 (Fail)
//Storyboard Layer 2 (Pass)
//Storyboard Layer 3 (Foreground)
//Storyboard Sound Samples

[TimingPoints]
177,487.80487804878,4,2,22,60,1,0
177,-100,4,2,22,60,0,0
4079,-100,4,2,22,70,0,0
13835,-100,4,2,22,70,0,0
47006,-100,4,2,22,70,0,0
48957,-95.2380952380952,4,2,22,80,0,1
72372,-100,4,2,22,65,0,0
75176,-100,4,2,22,75,0,0
76274,-100,4,2,22,65,0,0
87981,-100,4,2,22,50,0,0
88469,-100,4,2,22,30,0,0
88957,-100,4,2,22,5,0,0

[Colours]
Combo1 : 200,227,43
Combo2 : 66,62,104
Combo3 : 148,77,52
Combo4 : 21,81,33
Combo5 : 140,126,115
Combo6 : 231,58,54

[HitObjects]
34,255,177,6,0,P|78:212|204:234,1,170,8|2,0:0|0:0,0:0:0:0:
239,277,908,2,0,L|430:259,1,170,8|0,0:0|3:0,0:0:0:0:
492,247,1640,1,10,0:0:0:0:
433,87,2128,6,0,B|373:81|373:81|324:106|324:106|243:99,1,170,8|2,0:0|0:0,0:0:0:0:
199,53,2859,2,0,P|131:45|54:139,1,170,8|8,0:0|0:0,0:0:0:0:
40,192,3591,2,0,L|60:305,1,84.9999999999999,8|8,0:0|0:0,0:0:0:0:
131,313,4079,6,0,P|199:321|276:227,1,170,6|8,3:2|0:0,0:0:0:0:
280,172,4811,1,0,3:0:0:0:
311,93,5055,2,0,P|374:87|443:126,1,127.5,2|2,3:2|0:0,0:0:0:0:
439,240,5786,6,0,L|253:258,1,170,6|0,3:2|3:0,0:0:0:0:
198,209,6518,2,0,P|178:174|170:116,1,85,8|0,0:0|3:0,0:0:0:0:
233,73,7006,2,0,P|176:45|99:81,1,127.5,2|2,3:2|0:0,0:0:0:0:
22,147,7737,6,0,L|48:319,1,170,6|0,3:2|3:0,0:0:0:0:
112,370,8469,2,0,P|159:371|219:351,1,85,8|0,0:0|0:0,0:0:0:0:
260,307,8957,2,0,L|286:135,1,170,2|8,3:2|0:0,0:0:0:0:
334,69,9689,1,10,0:0:0:0:
410,31,9933,6,0,P|444:22|510:50,2,85,6|2|2,3:2|3:2|3:2,0:0:0:0:
448,106,10664,2,0,B|468:168|468:168|444:281,1,170,6|0,3:2|3:0,0:0:0:0:
385,331,11396,2,0,L|287:338,1,85,8|2,0:0|3:2,0:0:0:0:
246,270,11884,6,0,P|209:252|140:249,1,85,6|0,3:2|0:0,0:0:0:0:
92,201,12372,2,0,P|110:164|113:95,1,85,14|0,0:0|0:0,0:0:0:0:
185,71,12859,2,0,P|222:89|291:92,1,85,10|8,3:2|3:0,0:0:0:0:
338,138,13347,2,0,P|320:175|317:244,1,85,10|0,3:2|3:0,0:0:0:0:
334,300,13835,6,0,L|454:295,1,85,6|2,3:2|0:0,0:0:0:0:
496,260,14323,2,0,P|510:195|468:135,2,127.5,10|2|6,0:0|3:2|0:0,0:0:0:0:
426,211,15298,2,0,P|400:175|398:120,1,85,10|2,0:0|0:0,0:0:0:0:
394,50,15786,6,0,L|295:45,1,85,2|2,3:2|0:0,0:0:0:0:
225,27,16274,2,0,L|79:34,2,127.5,8|2|6,0:0|0:0|0:0,0:0:0:0:
310,46,17250,2,0,P|318:89|304:140,1,85,10|2,0:0|3:2,0:0:0:0:
266,202,17737,6,0,P|178:181|91:222,1,170,2|8,3:2|0:0,0:0:0:0:
105,294,18469,2,0,P|193:315|280:274,1,170,2|0,3:0|0:0,0:0:0:0:
338,244,19201,2,0,L|429:248,1,85,8|0,0:0|3:0,0:0:0:0:
425,162,19689,6,0,L|334:158,1,85,0|2,3:0|3:2,0:0:0:0:
266,202,20176,2,0,P|200:192|153:146,2,127.5,10|0|6,0:0|0:2|3:2,0:0:0:0:
340,158,21152,1,10,0:0:0:0:
228,29,21640,6,0,P|186:19|145:25,1,85,4|2,3:2|0:0,0:0:0:0:
99,97,22128,2,0,L|85:256,2,127.5,10|2|6,0:0|3:2|0:0,0:0:0:0:
182,114,23103,2,0,L|174:209,1,85,8|0,0:0|3:0,0:0:0:0:
191,282,23591,6,0,P|242:299|303:288,1,85,0|2,3:0|3:2,0:0:0:0:
332,235,24079,2,0,L|488:254,2,127.5,8|2|6,0:0|3:2|0:0,0:0:0:0:
284,164,25055,2,0,P|271:116|277:72,1,85,10|2,0:0|3:2,0:0:0:0:
356,58,25542,6,0,P|306:77|179:32,1,170,2|8,3:2|0:0,0:0:0:0:
118,15,26274,2,0,P|76:48|52:181,1,170,2|4,3:0|3:2,0:0:0:0:
85,233,27006,2,0,L|188:237,1,85,8|0,0:0|3:0,0:0:0:0:
234,292,27494,6,0,L|337:288,1,85,0|2,3:0|3:2,0:0:0:0:
373,223,27981,2,0,P|404:283|373:356,2,127.5,14|2|0,0:0|3:2|3:0,0:0:0:0:
305,170,28957,1,10,0:0:0:0:
153,246,29445,6,0,P|77:235|12:139,1,170,6|8,3:2|0:0,0:0:0:0:
2,83,30176,1,2,3:2:0:0:
77,43,30420,2,0,P|153:54|218:150,1,170,10|8,0:2|0:0,0:0:0:0:
238,202,31152,6,0,L|425:183,1,170,6|0,3:2|3:0,0:0:0:0:
492,176,31884,2,0,P|509:219|511:268,1,85,8|0,0:0|3:0,0:0:0:0:
498,341,32372,2,0,P|455:358|406:360,1,85,2|0,0:0|3:0,0:0:0:0:
333,344,32859,1,8,0:0:0:0:
238,202,33347,6,0,L|224:52,1,127.5,6|10,3:2|0:0,0:0:0:0:
108,25,34079,2,0,P|53:36|4:131,1,170,6|2,3:2|0:0,0:0:0:0:
2,215,34811,1,4,3:0:0:0:
153,291,35298,6,0,L|302:275,1,127.5,2|10,3:2|0:0,0:0:0:0:
406,261,36030,2,0,B|429:181|429:181|396:91,1,170,6|2,3:2|3:2,0:0:0:0:
354,26,36762,1,4,3:0:0:0:
190,73,37250,6,0,L|204:219,1,127.5,2|10,3:2|0:0,0:0:0:0:
208,327,37981,2,0,P|128:355|35:316,1,170,4|0,3:2|3:0,0:0:0:0:
6,255,38713,1,10,0:0:0:0:
6,169,38957,1,2,3:2:0:0:
59,102,39201,6,0,B|138:75|138:75|233:93,1,170,6|14,3:2|0:0,0:0:0:0:
305,111,39933,1,0,0:0:0:0:
386,133,40176,2,0,B|413:212|413:212|395:307,1,170,14|10,0:0|0:0,0:0:0:0:
330,350,40908,1,8,0:0:0:0:
255,309,41152,6,0,P|197:290|121:301,1,127.5,6|10,3:2|0:0,0:0:0:0:
19,358,41884,2,0,L|10:177,1,170,0|2,3:0|3:2,0:0:0:0:
9,102,42616,1,4,0:3:0:0:
170,48,43103,6,0,P|232:69|323:52,1,127.5,2|10,3:2|0:0,0:0:0:0:
408,8,43835,2,0,L|418:205,1,170,0|0,3:0|0:0,0:0:0:0:
425,262,44567,1,4,0:3:0:0:
260,304,45055,6,0,P|226:247|230:175,1,127.5,6|10,3:2|0:0,0:0:0:0:
251,62,45786,2,0,P|178:45|68:99,1,170,4|0,3:2|3:0,0:0:0:0:
29,136,46518,1,8,0:0:0:0:
29,221,46762,1,4,3:0:0:0:
85,284,47006,6,0,P|125:293|178:283,1,85,4|14,3:2|0:0,0:0:0:0:
243,245,47494,2,0,P|273:299|269:379,2,127.5,14|14|0,0:0|0:0|0:0,0:0:0:0:
169,201,48469,2,0,L|182:99,1,85,4|10,3:0|2:0,0:0:0:0:
225,39,48957,6,0,P|272:33|320:47,1,89.2499972763062,4|0,3:2|3:0,0:0:0:0:
373,108,49445,2,0,L|509:99,2,133.874995914459,8|2|0,0:0|3:2|3:0,0:0:0:0:
301,161,50420,2,0,P|295:208|309:256,1,89.2499972763062,8|0,0:0|3:0,0:0:0:0:
372,307,50908,6,0,P|339:331|281:332,1,89.2499972763062,0|2,3:0|3:2,0:0:0:0:
202,323,51396,2,0,L|67:339,2,133.874995914459,10|10|0,0:0|0:0|3:0,0:0:0:0:
260,255,52372,2,0,L|270:148,1,89.2499972763062,8|0,0:0|3:0,0:0:0:0:
219,91,52859,6,0,P|173:73|129:73,1,89.2499972763062,4|2,3:2|3:2,0:0:0:0:
69,135,53347,2,0,P|43:74|66:13,2,133.874995914459,8|2|2,0:0|3:2|3:2,0:0:0:0:
147,178,54323,2,0,L|137:292,1,89.2499972763062,10|2,0:0|3:2,0:0:0:0:
63,314,54811,6,0,P|131:283|248:329,1,178.499994552612,4|10,3:2|3:2,0:0:0:0:
305,352,55542,2,0,P|370:293|383:207,1,178.499994552612,4|2,0:0|0:0,0:0:0:0:
359,120,56274,1,10,0:0:0:0:
280,77,56518,1,2,3:2:0:0:
192,96,56762,6,0,P|167:133|166:207,1,89.2499972763062,4|2,3:2|3:2,0:0:0:0:
165,265,57250,2,0,L|20:253,2,133.874995914459,10|2|0,0:0|3:2|3:0,0:0:0:0:
240,322,58225,2,0,L|343:313,1,89.2499972763062,8|0,0:0|3:0,0:0:0:0:
404,266,58713,6,0,P|415:219|407:171,1,89.2499972763062,4|2,3:2|3:2,0:0:0:0:
333,131,59201,2,0,P|376:95|470:112,2,133.874995914459,8|2|0,0:0|3:2|3:0,0:0:0:0:
272,196,60176,2,0,P|208:229|186:231,1,89.2499972763062,8|8,0:0|0:0,0:0:0:0:
103,214,60664,6,0,L|92:120,1,89.2499972763062,4|2,3:2|3:2,0:0:0:0:
139,49,61152,2,0,P|190:29|273:72,2,133.874995914459,10|2|2,0:0|3:2|3:2,0:0:0:0:
196,118,62128,2,0,P|228:140|298:136,1,89.2499972763062,10|2,0:0|3:2,0:0:0:0:
343,83,62616,6,0,L|318:289,1,178.499994552612,6|8,3:2|0:0,0:0:0:0:
291,344,63347,2,0,P|223:361|116:304,1,178.499994552612,6|2,3:2|3:2,0:0:0:0:
62,256,64079,1,10,0:0:0:0:
43,168,64323,1,8,3:0:0:0:
92,93,64567,6,0,P|125:79|196:82,1,89.2499972763062,4|2,3:2|3:2,0:0:0:0:
254,123,65055,2,0,L|393:112,2,133.874995914459,10|2|0,0:0|3:2|3:0,0:0:0:0:
183,178,66030,2,0,P|173:223|187:274,1,89.2499972763062,8|0,0:0|3:0,0:0:0:0:
231,339,66518,6,0,L|336:330,1,89.2499972763062,4|2,3:2|3:2,0:0:0:0:
382,268,67006,2,0,P|445:289|511:282,2,133.874995914459,10|2|0,0:0|3:2|3:0,0:0:0:0:
322,202,67981,2,0,L|312:110,1,89.2499972763062,8|0,0:0|3:0,0:0:0:0:
271,33,68469,6,0,P|214:25|176:35,1,89.2499972763062,4|2,3:2|3:2,0:0:0:0:
135,107,68957,2,0,L|1:94,2,133.874995914459,8|2|2,0:0|3:2|3:2,0:0:0:0:
215,145,69933,1,10,0:0:0:0:
257,223,70176,1,2,3:2:0:0:
223,305,70420,6,0,P|173:331|57:305,1,178.499994552612,6|8,3:2|0:0,0:0:0:0:
40,218,71152,2,0,L|60:40,1,178.499994552612,6|0,3:2|3:0,0:0:0:0:
146,19,71884,1,8,0:0:0:0:
230,49,72128,1,10,3:2:0:0:
275,126,72372,6,0,L|450:111,2,170,6|8|0,3:2|0:0|0:0,0:0:0:0:
220,191,73591,1,2,3:2:0:0:
282,248,73835,2,0,L|276:340,1,85,10|2,0:0|3:2,0:0:0:0:
195,358,74323,6,0,L|103:352,1,85,2|0,3:2|0:0,0:0:0:0:
25,341,74811,1,14,0:0:0:0:
20,171,75298,2,0,P|22:121|53:77,1,85,8|8,0:0|0:0,0:0:0:0:
114,52,75786,2,0,P|164:54|208:85,1,85,8|8,0:0|0:0,0:0:0:0:
256,128,76274,6,0,L|429:114,1,170,4|8,3:2|0:0,0:0:0:0:
495,163,77006,1,2,3:2:0:0:
474,245,77250,2,0,P|416:276|342:271,1,127.5,6|2,3:2|3:2,0:0:0:0:
237,226,77981,6,0,B|153:214|148:270|53:254,1,170,6|0,3:2|3:0,0:0:0:0:
26,184,78713,2,0,P|20:130|37:90,1,85,8|2,0:0|3:2,0:0:0:0:
84,36,79201,2,0,L|243:22,1,127.5,6|2,3:2|3:2,0:0:0:0:
292,123,79933,6,0,P|321:203|279:307,1,170,6|0,3:2|3:0,0:0:0:0:
237,341,80664,2,0,P|290:368|336:360,1,85,8|2,0:0|3:2,0:0:0:0:
379,312,81152,2,0,L|511:321,2,127.5,2|2|10,3:2|3:2|0:0,0:0:0:0:
299,282,82128,6,0,P|252:235|149:216,1,170,6|0,3:2|3:0,0:0:0:0:
71,240,82859,2,0,P|118:193|137:90,1,170,4|0,3:2|3:0,0:0:0:0:
211,51,83591,2,0,L|308:60,1,85,8|8,0:0|0:3,0:0:0:0:
375,89,84079,6,0,P|384:132|376:177,1,85,4|14,3:2|0:0,0:0:0:0:
310,224,84567,2,0,P|369:257|440:230,2,127.5,14|14|10,0:0|0:0|0:0,0:0:0:0:
245,168,85542,2,0,L|128:182,1,85,10|8,0:0|3:0,0:0:0:0:
76,194,86030,1,14,0:0:0:0:
256,192,86274,12,0,87981,0:0:0:0:
