osu file format v14

[General]
AudioFilename: audio.mp3
AudioLeadIn: 0
PreviewTime: 69952
Countdown: 0
SampleSet: Soft
StackLeniency: 0.6
Mode: 0
LetterboxInBreaks: 0
EpilepsyWarning: 1
WidescreenStoryboard: 1

[Editor]
Bookmarks: 113495,113538,113581,113624,113667,113710,113752,113795,113838,229381,229424,229467,229510,229552,229595,229638,229681,229724
DistanceSpacing: 2.2
BeatDivisor: 4
GridSize: 32
TimelineZoom: 2.1

[Metadata]
Title:Kimi to Iu Tokuiten [singular you]
TitleUnicode:君という特異点 [singular you]
Artist:fhana
ArtistUnicode:fhána
Creator:-Sh1n1-
Version:Singularity
Source:
Tags:佐藤 純一 林 英樹 Hayashi Hideki ケセラセラ Outside of Melancholy lantis Junichi Sato yuxuki waga kevin mitsunaga towana collab collaboration shini que sera the singularity known as you singular ascendance spectator cslm cslmvenezuela mir akitoshi
BeatmapID:1463192
BeatmapSetID:686526

[Difficulty]
HPDrainRate:7
CircleSize:4.2
OverallDifficulty:8.5
ApproachRate:9.1
SliderMultiplier:1.8
SliderTickRate:1

[Events]
//Background and Video events
0,0,"BG.jpg",0,0
//Break Periods
2,104267,112911
//Storyboard Layer 0 (Background)
//Storyboard Layer 1 (Fail)
//Storyboard Layer 2 (Pass)
//Storyboard Layer 3 (Foreground)
Sprite,Foreground,CentreRight,"sb\black.jpg",320,240 F,0,20410,,0.5 V,1,20410,21095,0.1,1.5,3.2,1.5 M,0,21095,21267,747,220
Sprite,Foreground,CentreLeft,"sb\black.jpg",320,240 M,0,21267,,586,220 F,0,21267,,0.5 V,1,21267,21610,3.2,1.5,0.1,1.5
Sprite,Foreground,CentreRight,"sb\black.jpg",320,240 F,0,20410,,0.5 V,1,20410,21095,0.1,1.5,2.3,1.5 M,0,21095,21267,747,300
Sprite,Foreground,CentreLeft,"sb\black.jpg",320,240 M,0,21267,,632,300 F,0,21267,,0.5 V,1,21267,21610,2.3,1.5,0.1,1.5
Sprite,Foreground,CentreRight,"sb\black.jpg",320,240 F,0,20410,,0.5 V,1,20410,21095,0.1,1.5,4.4,1.5 M,0,21095,21267,747,380
Sprite,Foreground,CentreLeft,"sb\black.jpg",320,240 M,0,21267,,526,380 F,0,21267,,0.5 V,1,21267,21610,4.4,1.5,0.1,1.5
Sprite,Foreground,Centre,"sb\names\cslm.png",320,240 F,0,20410,21095,0,1 M,0,21267,,671,220 S,0,21267,,0.6366452 F,0,21267,21610,1,0
Sprite,Foreground,BottomCentre,"sb\black.jpg",320,480 F,0,-332,,0.5 V,1,-332,10,3.2,0.1,3.2,1.5 F,0,103724,104067,0.5,0 V,1,103724,104067,3.2,1.5,3.2,0.1 F,0,113152,113495,0,0.5 V,1,113152,113495,2.3,0.1,2.3,1.5 F,0,227667,228010,0.5,0 V,1,227667,228010,2.3,0.1,2.3,1.5 F,0,229210,229552,0,0.5 V,1,229210,229552,4.4,0.1,4.4,1.5 F,0,311324,311666,0.5,0 V,1,311324,311666,4.4,1.5,4.4,0.1
Sprite,Foreground,Centre,"sb\names\cslm.png",324,440 F,0,-332,10,0,1 S,0,21267,,0.6366452 F,0,103724,104067,1,0
Sprite,Foreground,Centre,"sb\names\mir.png",320,240 F,0,20410,21095,0,1 M,0,21267,,691,300 S,0,21267,,0.6366453 F,0,21267,21610,1,0 M,0,113152,,320,440 F,0,113152,113495,0,1 F,0,227667,228010,1,0
Sprite,Foreground,Centre,"sb\names\akitoshi.png",320,240 F,0,20410,21095,0,1 M,0,21267,,634,380 S,0,21267,,0.6696774 F,0,21267,21610,1,0 M,0,229210,,315,440 F,0,229210,229552,0,1 F,0,311324,311666,1,0
//Storyboard Sound Samples

[TimingPoints]
10,342.857142857143,4,2,1,60,1,0
1210,-200,4,2,1,60,0,0
2324,-200,4,2,1,5,0,0
2410,-200,4,2,1,60,0,0
2667,-200,4,2,1,5,0,0
2752,-142.857142857143,4,2,1,60,0,0
5324,-100,4,2,1,60,0,0
16810,-83.3333333333333,4,2,1,60,0,0
19210,-90.9090909090909,4,2,1,60,0,0
21610,-83.3333333333333,4,2,1,60,0,0
23495,-90.9090909090909,4,2,1,60,0,0
24010,-100,4,2,1,60,0,0
24738,-100,4,2,1,5,0,0
24867,-100,4,2,1,60,0,0
24910,-100,4,2,1,5,0,0
25038,-100,4,2,1,60,0,0
25081,-100,4,2,1,5,0,0
25210,-83.3333333333333,4,2,1,60,0,0
25595,-83.3333333333333,4,2,1,5,0,0
25724,-83.3333333333333,4,2,1,60,0,0
25767,-83.3333333333333,4,2,1,5,0,0
25895,-83.3333333333333,4,2,1,60,0,0
27267,-200,4,2,1,60,0,0
36867,-100,4,2,1,60,0,0
37252,-100,4,2,1,5,0,0
37381,-100,4,2,1,60,0,0
37424,-100,4,2,1,5,0,0
37552,-100,4,2,1,60,0,0
38238,-111.111111111111,4,2,1,60,0,0
60181,-142.857142857143,4,2,1,60,0,0
65667,-125,4,2,1,60,0,0
68410,-111.111111111111,4,2,1,60,0,0
69095,-99.9999999999999,4,2,1,60,0,0
69952,-83.3333333333333,4,2,1,60,0,0
71152,-100,4,2,1,70,0,1
81952,-100,4,2,1,70,0,0
82124,-100,4,2,1,70,0,1
92924,-100,4,2,1,70,0,0
93095,-100,4,2,1,70,0,1
104067,-200,4,2,1,60,0,0
113495,-100,4,2,1,60,0,0
115295,-100,4,2,1,5,0,0
115381,-100,4,2,1,60,0,0
120781,-100,4,2,1,5,0,0
120867,-100,4,2,1,60,0,0
122152,-100,4,2,1,5,0,0
122238,-100,4,2,1,60,0,0
124895,-100,4,2,1,5,0,0
124981,-100,4,2,1,60,0,0
125581,-100,4,2,1,5,0,0
125667,-100,4,2,1,60,0,0
126267,-100,4,2,1,5,0,0
126353,-100,4,2,1,60,0,0
129010,-100,4,2,1,5,0,0
129096,-100,4,2,1,60,0,0
130381,-100,4,2,1,5,0,0
130467,-100,4,2,1,60,0,0
131752,-100,4,2,1,5,0,0
131838,-100,4,2,1,60,0,0
133124,-100,4,2,1,5,0,0
133210,-100,4,2,1,60,0,0
134495,-100,4,2,1,5,0,0
134581,-100,4,2,1,60,0,0
135867,-100,4,2,1,5,0,0
135953,-100,4,2,1,60,0,0
142724,-100,4,2,1,5,0,0
142810,-100,4,2,1,60,0,0
145467,-100,4,2,1,5,0,0
145553,-100,4,2,1,60,0,0
150952,-100,4,2,1,5,0,0
151038,-100,4,2,1,60,0,0
152324,-100,4,2,1,5,0,0
152410,-100,4,2,1,60,0,0
153695,-100,4,2,1,5,0,0
153781,-100,4,2,1,60,0,0
156438,-100,4,2,1,5,0,0
156524,-100,4,2,1,60,0,0
157124,-100,4,2,1,5,0,0
157210,-100,4,2,1,60,0,0
157638,-100,4,2,1,5,0,0
157724,-100,4,2,1,60,0,0
158924,-83.3333333333333,4,2,1,70,0,1
159181,-83.3333333333333,4,2,1,5,0,1
159267,-83.3333333333333,4,2,1,70,0,1
161924,-83.3333333333333,4,2,1,5,0,1
162010,-83.3333333333333,4,2,1,70,0,1
163295,-83.3333333333333,4,2,1,5,0,1
163381,-83.3333333333333,4,2,1,70,0,1
164667,-83.3333333333333,4,2,1,5,0,1
164753,-83.3333333333333,4,2,1,70,0,1
166038,-83.3333333333333,4,2,1,5,0,1
166124,-83.3333333333333,4,2,1,70,0,1
167410,-83.3333333333333,4,2,1,5,0,1
167496,-83.3333333333333,4,2,1,70,0,1
168781,-83.3333333333333,4,2,1,5,0,1
168867,-83.3333333333333,4,2,1,70,0,1
169724,-83.3333333333333,4,2,1,70,0,0
169895,-83.3333333333333,4,2,1,70,0,1
170152,-83.3333333333333,4,2,1,5,0,1
170238,-83.3333333333333,4,2,1,70,0,1
171524,-83.3333333333333,4,2,1,5,0,1
171610,-83.3333333333333,4,2,1,70,0,1
172895,-83.3333333333333,4,2,1,5,0,1
172981,-83.3333333333333,4,2,1,70,0,1
174267,-83.3333333333333,4,2,1,5,0,1
174353,-83.3333333333333,4,2,1,70,0,1
175638,-83.3333333333333,4,2,1,5,0,1
175724,-83.3333333333333,4,2,1,70,0,1
177010,-83.3333333333333,4,2,1,5,0,1
177096,-83.3333333333333,4,2,1,70,0,1
178381,-83.3333333333333,4,2,1,5,0,1
178467,-83.3333333333333,4,2,1,70,0,1
180695,-83.3333333333333,4,2,1,70,0,0
180867,-83.3333333333333,4,2,1,70,0,1
181124,-83.3333333333333,4,2,1,5,0,1
181210,-83.3333333333333,4,2,1,70,0,1
182495,-83.3333333333333,4,2,1,5,0,1
182581,-83.3333333333333,4,2,1,70,0,1
184038,-83.3333333333333,4,2,1,5,0,1
184124,-83.3333333333333,4,2,1,70,0,1
185238,-83.3333333333333,4,2,1,5,0,1
185324,-83.3333333333333,4,2,1,70,0,1
186610,-83.3333333333333,4,2,1,5,0,1
186696,-83.3333333333333,4,2,1,70,0,1
187981,-83.3333333333333,4,2,1,5,0,1
188067,-83.3333333333333,4,2,1,70,0,1
190038,-83.3333333333333,4,2,1,5,0,1
190124,-83.3333333333333,4,2,1,70,0,1
191838,-83.3333333333333,4,2,1,60,0,0
192095,-83.3333333333333,4,2,1,5,0,0
192181,-83.3333333333333,4,2,1,70,0,0
194838,-83.3333333333333,4,2,1,5,0,0
194924,-83.3333333333333,4,2,1,70,0,0
197581,-83.3333333333333,4,2,1,5,0,0
197667,-83.3333333333333,4,2,1,70,0,0
198952,-83.3333333333333,4,2,1,5,0,0
199038,-83.3333333333333,4,2,1,70,0,0
200324,-83.3333333333333,4,2,1,5,0,0
200410,-83.3333333333333,4,2,1,70,0,0
202381,-83.3333333333333,4,2,1,5,0,0
202467,-83.3333333333333,4,2,1,70,0,0
203067,-83.3333333333333,4,2,1,5,0,0
203153,-83.3333333333333,4,2,1,70,0,0
205810,-83.3333333333333,4,2,1,5,0,0
205896,-83.3333333333333,4,2,1,70,0,0
208552,-83.3333333333333,4,2,1,5,0,0
208638,-83.3333333333333,4,2,1,70,0,0
211295,-83.3333333333333,4,2,1,5,0,0
211381,-83.3333333333333,4,2,1,70,0,0
212667,-83.3333333333333,4,2,1,5,0,0
212753,-83.3333333333333,4,2,1,70,0,0
213781,-100,4,2,1,60,0,0
214038,-100,4,2,1,5,0,0
214124,-100,4,2,1,60,0,0
215410,-100,4,2,1,5,0,0
215496,-100,4,2,1,60,0,0
218152,-100,4,2,1,5,0,0
218238,-100,4,2,1,60,0,0
220895,-100,4,2,1,5,0,0
220981,-100,4,2,1,60,0,0
223638,-100,4,2,1,5,0,0
223724,-100,4,2,1,60,0,0
227067,-100,4,2,1,5,0,0
227153,-100,4,2,1,60,0,0
229552,-83.3333333333333,4,2,1,60,0,1
229724,342.857142857143,4,2,1,70,1,1
240352,-100,4,2,1,70,0,0
240524,-100,4,2,1,70,0,1
251324,-100,4,2,1,70,0,0
251495,-100,4,2,1,70,0,1
262466,-111.111111111111,4,2,1,60,0,0
281666,-100,4,2,1,60,0,1
300866,-142.857142857143,4,2,1,60,0,0
309095,-111.111111111111,4,2,1,60,0,0
310466,-100,4,2,1,60,0,0

[Colours]
Combo1 : 221,197,179
Combo2 : 153,153,204
Combo3 : 255,174,136
Combo4 : 171,224,187

[HitObjects]
225,108,10,5,2,0:0:0:0:
230,125,352,1,0,0:0:0:0:
235,142,695,1,0,0:0:0:0:
218,90,1038,1,2,0:0:0:0:
242,160,1210,2,0,L|332:153,1,90
218,90,1895,1,2,0:0:0:0:
242,160,2067,2,0,P|274:138|289:98,1,67.5
218,90,2410,2,0,P|196:60|184:23,1,67.5
120,0,2752,6,0,P|97:27|61:42,1,62.9999980773926,2|0,0:0|0:0,0:0:0:0:
34,132,3095,2,0,P|88:159|114:221,1,125.999996154785,0|2,0:0|0:0,0:0:0:0:
63,308,3610,1,0,0:0:0:0:
9,236,3781,1,0,0:0:0:0:
161,298,3952,2,0,B|257:291|257:291|235:311,1,125.999996154785,2|0,0:0|0:0,0:0:0:0:
234,311,4467,1,0,0:0:0:0:
193,187,4638,1,0,0:0:0:0:
342,253,4810,2,0,L|339:294,1,31.4999990386963,0|0,1:0|0:0,0:0:0:0:
421,186,4981,1,8,3:2:0:0:
412,155,5066,1,8,3:2:0:0:
403,125,5152,1,8,3:2:0:0:
394,95,5238,1,8,3:2:0:0:
385,64,5324,6,0,B|290:52|302:93|207:82,1,180,4|2,0:0|3:2,0:0:0:0:
52,13,5838,2,0,P|78:48|85:95,1,90,8|0,0:0|0:0,0:0:0:0:
36,253,6181,1,0,3:0:0:0:
176,71,6352,1,2,3:0:0:0:
217,261,6524,1,8,1:0:0:0:
85,92,6695,6,0,L|277:77,1,180,4|2,0:0|3:0,0:0:0:0:
378,216,7210,2,0,P|326:216|279:194,1,90,8|0,0:0|0:0,0:0:0:0:
278,188,7467,1,0,0:0:0:0:
267,173,7552,1,0,3:0:0:0:
461,183,7724,2,0,B|475:244|440:285|440:285|474:281,1,135,2|0,3:0|0:0,0:0:0:0:
437,369,8067,6,0,B|387:346|387:346|335:357|335:357|265:330,1,180,4|2,0:0|3:3,0:0:0:0:
182,234,8581,2,0,L|176:134,1,90,8|0,0:0|0:0,0:0:0:0:
281,19,8924,1,0,1:0:0:0:
445,186,9095,1,2,3:0:0:0:
204,250,9267,1,8,3:0:0:0:
304,7,9438,6,0,P|378:8|334:65,1,180,4|2,0:0|3:0,0:0:0:0:
176,144,9952,2,0,L|87:150,1,90,8|0,0:0|0:0,0:0:0:0:
71,160,10210,1,0,0:0:0:0:
55,169,10295,1,0,1:2:0:0:
123,316,10467,1,2,3:0:0:0:
188,31,10638,1,8,1:0:0:0:
322,277,10810,6,0,B|357:272|357:272|343:232|295:217|245:248|258:308,1,180,4|2,0:0|3:0,0:0:0:0:
441,363,11324,2,0,L|433:269,1,90,8|0,0:0|0:0,0:0:0:0:
414,2,11667,1,0,1:0:0:0:
290,198,11838,1,2,3:0:0:0:
512,115,12010,1,8,0:0:0:0:
255,61,12181,6,0,P|178:80|124:5,1,180,4|2,0:0|3:0,0:0:0:0:
131,134,12695,2,0,P|135:174|122:235,1,90,8|0,0:0|0:0,0:0:0:0:
118,239,12952,1,0,0:0:0:0:
107,253,13038,1,0,1:0:0:0:
0,358,13210,1,2,3:0:0:0:
126,222,13381,1,8,0:0:0:0:
303,307,13552,6,0,B|237:334|168:325|168:325|187:318|205:297,1,180,4|0,0:0|3:0,0:0:0:0:
266,181,14067,2,0,P|254:133|225:93,1,90,8|0,0:0|0:0,0:0:0:0:
171,42,14324,1,0,0:0:0:0:
171,42,14410,2,0,P|212:33|266:-5,1,90,0|2,3:0|3:0,0:0:0:0:
26,26,14752,1,8,1:0:0:0:
93,241,14924,6,0,L|281:210,1,180,2|0,0:0|3:0,0:0:0:0:
287,216,15352,1,0,3:0:0:0:
304,221,15438,1,8,3:0:0:0:
430,292,15610,1,0,3:0:0:0:
412,288,15695,1,0,3:0:0:0:
394,283,15781,1,8,3:0:0:0:
331,113,15952,1,8,3:0:0:0:
374,124,16037,1,8,3:0:0:0:
418,135,16123,1,8,3:0:0:0:
461,146,16209,1,8,3:0:0:0:
505,157,16295,6,0,B|479:252|536:229|511:333,1,180,4|0,0:0|0:0,0:0:0:0:
319,164,16810,2,0,P|370:134|417:134,1,107.999996704102,8|0,0:0|0:0,0:0:0:0:
269,318,17152,2,0,P|224:317|170:277,1,107.999996704102,8|0,0:0|3:0,0:0:0:0:
141,111,17495,1,8,0:0:0:0:
389,9,17667,6,0,B|402:80|402:80|378:147|378:147|391:222,1,215.999993408203,4|0,0:0|0:0,0:0:0:0:
225,71,18181,2,0,L|117:57,1,107.999996704102,8|0,0:0|0:0,0:0:0:0:
0,225,18524,2,0,L|108:211,1,107.999996704102,8|0,0:0|3:0,0:0:0:0:
238,370,18867,2,0,L|130:356,1,107.999996704102,8|0,0:0|0:0,0:0:0:0:
339,277,19210,6,0,P|366:317|374:371,1,99.0000030212403,4|0,0:0|0:0,0:0:0:0:
437,209,19552,2,0,P|451:169|492:128,1,99.0000030212403,8|0,0:0|0:0,0:0:0:0:
477,313,19895,1,2,3:0:0:0:
307,149,20067,2,0,L|208:144,1,99.0000030212403,0|8,3:0|0:0,0:0:0:0:
40,63,20410,6,0,B|152:56|118:14|227:8,1,198.000006042481,4|0,0:0|3:0,0:0:0:0:
369,237,20924,1,8,0:0:0:0:
240,198,21095,2,0,P|213:157|207:105,1,99.0000030212403,2|0,0:0|0:0,0:0:0:0:
338,107,21438,1,0,3:0:0:0:
262,312,21610,5,10,0:0:0:0:
262,312,21695,1,0,0:0:0:0:
262,312,21781,2,0,P|166:378|77:351,1,215.999993408203,4|0,0:0|0:0,0:0:0:0:
244,207,22295,2,0,L|352:191,1,107.999996704102,8|0,0:0|0:0,0:0:0:0:
179,66,22638,2,0,L|65:52,1,107.999996704102,0|0,1:0|0:0,0:0:0:0:
244,207,22981,1,8,0:0:0:0:
477,151,23152,6,0,P|479:97|477:42,1,107.999996704102,4|0,0:0|0:0,0:0:0:0:
323,3,23495,1,2,0:0:0:0:
244,207,23667,2,0,P|248:258|250:321,1,99.0000030212403,8|0,0:0|0:0,0:0:0:0:
119,129,24010,2,0,P|124:82|126:38,1,90,0|0,1:0|3:0,0:0:0:0:
41,262,24352,1,8,0:0:0:0:
244,207,24524,1,4,3:0:0:0:
97,84,24695,6,0,L|68:111,1,22.5,4|0,0:0|0:0,0:0:0:0:
141,340,24867,2,0,L|169:312,1,22.5,0|0,0:0|0:0,0:0:0:0:
97,84,25038,2,0,L|68:111,1,22.5,8|0,0:0|0:0,0:0:0:0:
141,340,25210,2,0,B|157:324|157:324|175:363|208:373|250:356|236:318,1,148.49999546814,4|0,0:0|0:0,0:0:0:0:
225,304,25552,2,0,P|215:290|209:277,1,26.9999991760254,0|0,1:0|0:0,0:0:0:0:
287,80,25724,2,0,P|297:94|303:107,1,26.9999991760254,8|0,0:0|0:0,0:0:0:0:
225,304,25895,1,0,1:0:0:0:
225,304,26238,5,0,1:0:0:0:
287,80,26410,1,0,1:0:0:0:
195,29,26752,5,0,1:0:0:0:
317,355,26924,1,0,1:0:0:0:
317,355,27267,6,0,B|414:341|397:377|495:363,1,180,4|0,0:0|0:0,0:0:0:0:
467,271,28124,2,0,L|476:221,1,45,0|0,0:0|0:0,0:0:0:0:
403,158,28467,2,0,L|394:108,1,45,2|0,0:0|0:0,0:0:0:0:
463,45,28810,6,0,P|417:44|381:20,1,90,0|2,0:0|0:0,0:0:0:0:
381,20,29324,1,0,0:0:0:0:
395,113,29495,1,2,0:0:0:0:
256,89,29667,2,0,P|285:80|303:80,1,45,0|0,3:0|2:0,0:0:0:0:
271,175,30010,6,0,P|226:171|189:145,1,90,4|0,0:0|0:0,0:0:0:0:
112,89,30524,2,0,L|61:85,1,45,2|0,0:0|0:0,0:0:0:0:
103,190,30867,2,0,L|54:198,1,45,0|0,0:0|0:0,0:0:0:0:
48,297,31210,2,0,L|102:301,1,45,2|0,0:0|0:0,0:0:0:0:
181,254,31552,5,2,0:0:0:0:
290,313,31724,2,0,L|279:356,2,45,0|0|2,0:0|0:0|0:0,0:0:0:0:
273,210,32238,1,0,0:0:0:0:
391,147,32410,1,2,0:0:0:0:
390,274,32581,1,0,0:0:0:0:
317,122,32752,6,0,B|365:117|358:136|408:132,1,90,4|0,0:0|0:0,0:0:0:0:
362,35,33267,2,0,L|309:40,1,45,2|0,0:0|0:0,0:0:0:0:
233,86,33610,1,0,0:0:0:0:
98,113,33781,2,0,L|149:118,1,45,2|0,0:0|0:0,0:0:0:0:
229,264,34124,6,0,P|219:221|218:171,1,90,4|0,2:0|0:0,0:0:0:0:
319,272,34638,2,0,P|314:307|310:324,1,45,2|0,0:0|0:0,0:0:0:0:
412,228,34981,2,0,P|410:206|405:181,2,45,0|2|0,0:0|2:0|0:0,0:0:0:0:
486,298,35495,1,0,0:0:0:0:
460,132,35667,6,0,P|421:111|370:117,1,90,4|2,0:0|0:0,0:0:0:0:
312,181,36181,1,0,0:0:0:0:
216,86,36352,2,0,L|225:138,1,45,2|0,0:0|0:0,0:0:0:0:
228,152,36610,1,0,0:0:0:0:
233,173,36695,1,2,0:0:0:0:
237,195,36781,1,0,0:0:0:0:
243,225,36867,6,0,B|167:218|183:253|110:248,1,135,4|0,0:0|0:0,0:0:0:0:
67,239,37210,2,0,L|72:207,1,22.5,8|0,2:0|0:0,0:0:0:0:
23,122,37381,2,0,L|28:90,1,22.5,8|0,2:0|0:0,0:0:0:0:
141,35,37552,2,0,B|131:120|131:120|150:106|182:104,1,135,4|0,1:2|0:0,0:0:0:0:
221,111,37895,1,0,1:0:0:0:
217,309,38067,1,0,1:0:0:0:
373,200,38238,6,0,P|435:213|465:302,1,161.999995056153,4|0,0:0|3:0,0:0:0:0:
454,315,38667,1,0,0:0:0:0:
438,327,38752,2,0,L|343:316,1,80.9999975280763,8|0,0:0|0:0,0:0:0:0:
241,207,39095,1,0,1:0:0:0:
142,287,39267,2,0,P|137:327|137:368,1,80.9999975280763,0|8,3:0|0:0,0:0:0:0:
77,113,39610,1,2,0:0:0:0:
55,317,39781,5,0,1:0:0:0:
103,100,39952,2,0,P|119:64|128:23,1,80.9999975280763,0|8,0:0|0:0,0:0:0:0:
203,247,40295,1,0,0:0:0:0:
251,109,40467,2,0,L|241:66,1,40.4999987640381
349,152,40638,1,0,1:0:0:0:
362,167,40724,1,0,0:0:0:0:
375,184,40810,2,0,L|365:229,1,40.4999987640381,8|0,0:0|0:0,0:0:0:0:
415,323,40981,6,0,B|419:355|419:355|453:226,1,161.999995056153,4|2,0:0|3:0,0:0:0:0:
491,50,41495,2,0,L|512:131,1,80.9999975280763,8|0,0:0|3:0,0:0:0:0:
406,94,41752,1,0,3:0:0:0:
406,94,41838,2,0,L|314:89,1,80.9999975280763,0|0,3:0|1:0,0:0:0:0:
257,238,42181,1,8,0:0:0:0:
24,164,42352,6,0,B|82:144|82:144|121:155|121:155|180:137,1,161.999995056153,4|2,0:0|3:0,0:0:0:0:
290,17,42867,1,8,0:0:0:0:
287,242,43038,1,0,3:0:0:0:
385,98,43210,1,0,3:0:0:0:
180,232,43381,1,0,1:0:0:0:
385,201,43552,1,8,3:0:0:0:
290,17,43724,6,0,B|262:8|262:8|205:33|125:9,1,161.999995056153,4|0,0:0|3:0,0:0:0:0:
25,95,44238,2,0,L|37:187,1,80.9999975280763,8|0,0:0|0:0,0:0:0:0:
122,311,44581,1,2,0:0:0:0:
308,208,44752,1,0,3:0:0:0:
143,109,44924,1,8,0:0:0:0:
254,319,45095,6,0,P|332:334|399:290,1,161.999995056153,4|0,0:0|3:0,0:0:0:0:
316,127,45610,2,0,L|307:213,1,80.9999975280763,8|0,0:0|0:0,0:0:0:0:
472,53,45952,1,2,2:0:0:0:
256,0,46124,1,0,3:0:0:0:
307,207,46295,1,8,0:0:0:0:
492,19,46467,6,0,L|327:32,1,161.999995056153,4|0,0:0|3:0,0:0:0:0:
173,134,46981,2,0,P|123:139|77:126,1,80.9999975280763,8|0,0:0|3:0,0:0:0:0:
253,89,47238,1,0,3:0:0:0:
253,89,47324,2,0,L|259:169,1,80.9999975280763,0|0,3:0|1:0,0:0:0:0:
168,352,47667,1,8,0:0:0:0:
351,320,47838,6,0,B|412:328|463:353|463:353|452:326|447:290,1,161.999995056153,4|0,0:0|0:0,0:0:0:0:
468,115,48352,1,8,0:0:0:0:
450,315,48524,1,0,0:0:0:0:
259,169,48695,1,8,0:0:0:0:
508,232,48867,1,0,0:0:0:0:
326,338,49038,1,8,0:0:0:0:
301,28,49210,6,0,B|243:22|243:22|203:37|203:37|140:29,1,161.999995056153,4|0,0:0|0:0,0:0:0:0:
58,163,49724,2,0,P|100:158|145:144,1,80.9999975280763,2|0,1:2|0:0,0:0:0:0:
288,292,50067,2,0,P|246:285|205:275,1,80.9999975280763,2|0,1:2|0:0,0:0:0:0:
60,326,50410,2,0,P|89:293|114:250,1,80.9999975280763,2|0,1:2|0:0,0:0:0:0:
213,79,50752,6,0,P|220:128|237:179,1,80.9999975280763,2|0,1:2|0:0,0:0:0:0:
391,293,51095,2,0,P|371:256|343:217,1,80.9999975280763,2|0,1:0|0:0,0:0:0:0:
149,207,51438,1,0,1:0:0:0:
332,64,51610,1,8,3:0:0:0:
301,301,51781,1,4,3:0:0:0:
177,98,51952,6,0,P|111:97|47:164,1,161.999995056153,4|0,0:0|3:0,0:0:0:0:
199,252,52467,2,0,B|241:240|241:240|272:215,1,80.9999975280763,2|0,1:0|0:0,0:0:0:0:
439,328,52810,2,0,B|397:323|397:323|361:303,1,80.9999975280763,2|0,1:0|0:0,0:0:0:0:
363,140,53152,2,0,B|401:123|401:123|444:120,1,80.9999975280763,2|0,1:0|0:0,0:0:0:0:
363,304,53495,5,2,1:0:0:0:
279,92,53667,1,0,0:0:0:0:
161,268,53838,2,0,L|176:359,1,80.9999975280763,2|0,1:0|0:0,0:0:0:0:
274,218,54181,1,0,1:0:0:0:
151,37,54352,1,8,3:0:0:0:
49,218,54524,1,4,3:0:0:0:
279,92,54695,6,0,B|362:96|353:64|438:69,1,161.999995056153,4|0,0:0|0:0,0:0:0:0:
451,252,55210,2,0,L|354:232,1,80.9999975280763,2|0,1:0|0:0,0:0:0:0:
211,311,55552,2,0,L|294:319,1,80.9999975280763,2|0,1:0|0:0,0:0:0:0:
226,143,55895,2,0,L|139:159,1,80.9999975280763,2|0,1:0|0:0,0:0:0:0:
22,318,56238,6,0,L|102:280,1,80.9999975280763,2|0,1:0|0:0,0:0:0:0:
17,104,56581,2,0,L|31:205,1,80.9999975280763,2|0,1:0|0:0,0:0:0:0:
212,310,56924,1,2,1:0:0:0:
187,103,57095,1,8,3:0:0:0:
95,283,57267,1,4,3:0:0:0:
352,288,57438,6,0,B|473:276|473:276|454:259|443:232,1,161.999995056153,4|0,0:0|0:0,0:0:0:0:
433,66,57952,2,0,P|436:108|430:159,1,80.9999975280763,2|0,1:0|2:0,0:0:0:0:
352,288,58295,2,0,P|331:252|313:203,1,80.9999975280763,2|0,1:0|2:0,0:0:0:0:
113,172,58638,2,0,P|155:194|189:223,1,80.9999975280763,2|0,1:0|2:0,0:0:0:0:
72,306,58981,5,0,1:0:0:0:
25,68,59152,1,8,3:0:0:0:
267,34,59324,1,8,3:0:0:0:
309,273,59495,1,8,3:0:0:0:
61,182,59667,1,4,3:3:0:0:
234,100,59838,1,4,3:3:0:0:
210,284,60010,1,4,3:3:0:0:
147,53,60181,6,0,B|186:38|186:38|228:47|228:47|268:33,1,125.999996154785,4|0,0:0|0:0,0:0:0:0:
368,79,60695,2,0,P|377:110|381:148,1,62.9999980773926,2|0,0:0|0:0,0:0:0:0:
212,298,61038,2,0,P|262:215|350:229,1,188.999994232178,8|4,0:0|3:0,0:0:0:0:
343,223,61724,5,2,0:0:0:0:
382,353,61895,1,0,0:0:0:0:
473,267,62067,1,0,0:0:0:0:
429,135,62238,1,0,0:0:0:0:
329,242,62410,1,8,0:0:0:0:
486,288,62581,1,8,3:0:0:0:
319,127,62752,1,4,3:0:0:0:
481,37,62924,6,0,B|501:26|501:26|442:32|391:10,1,125.999996154785,4|0,0:0|0:0,0:0:0:0:
265,17,63438,2,0,P|231:49|215:84,1,62.9999980773926,2|0,0:0|0:0,0:0:0:0:
248,200,63781,2,0,B|197:163|197:163|127:175,2,125.999996154785,8|0|2,3:0|3:0|0:0,0:0:0:0:
169,301,64638,5,0,0:0:0:0:
134,175,64810,1,0,0:0:0:0:
270,292,64981,1,0,0:0:0:0:
71,257,65152,1,8,0:0:0:0:
213,102,65324,1,8,0:0:0:0:
171,323,65495,1,4,3:0:0:0:
203,73,65667,6,0,B|170:59|170:59|150:74|150:74|110:52|52:58,1,144,4|0,0:0|0:0,0:0:0:0:
64,233,66181,1,8,0:0:0:0:
227,314,66352,1,8,0:0:0:0:
147,157,66524,1,8,0:0:0:0:
113,327,66695,1,8,0:0:0:0:
247,205,66867,1,8,0:0:0:0:
221,36,67038,1,8,0:0:0:0:
147,157,67210,5,8,0:0:0:0:
328,84,67381,1,8,0:0:0:0:
124,55,67552,1,8,0:0:0:0:
165,246,67724,1,8,0:0:0:0:
346,223,67895,1,8,0:0:0:0:
241,0,68067,1,8,0:0:0:0:
82,216,68238,1,8,0:0:0:0:
367,348,68410,6,0,B|312:337|312:337|269:357|269:357|211:350,1,161.999995056153,4|8,0:0|0:0,0:0:0:0:
96,292,68924,1,4,3:0:0:0:
357,134,69095,6,0,B|290:141|290:141|256:170|256:170|187:178,1,180,4|8,0:0|0:0,0:0:0:0:
40,95,69610,2,0,B|38:47|57:0|57:0|81:47,1,135,0|0,1:2|0:0,0:0:0:0:
121,114,69952,6,0,L|108:221,1,107.999996704102,0|8,1:0|3:0,0:0:0:0:
114,247,70210,1,8,3:0:0:0:
122,272,70295,1,8,3:0:0:0:
290,351,70467,2,0,P|321:285|459:274,1,215.999993408203,0|4,1:0|1:1,0:0:0:0:
397,271,70895,1,8,0:0:0:0:
348,249,70980,1,8,0:0:0:0:
315,207,71066,1,8,0:0:0:0:
304,154,71152,6,0,B|321:22|321:22|334:72,1,180,4|2,0:0|3:0,0:0:0:0:
197,157,71667,2,0,L|83:174,1,90,8|0,0:0|0:0,0:0:0:0:
408,145,72010,1,0,1:0:0:0:
132,50,72181,2,0,P|88:47|41:33,1,90,8|0,3:0|3:0,0:0:0:0:
270,122,72524,6,0,P|275:180|177:236,1,180,4|2,0:0|3:0,0:0:0:0:
19,219,73038,2,0,P|49:264|64:315,1,90,8|0,0:0|0:0,0:0:0:0:
205,371,73381,1,0,1:0:0:0:
282,141,73552,2,0,P|286:197|276:256,1,90,8|0,3:0|3:0,0:0:0:0:
238,45,73895,6,0,B|337:26|318:74|414:59,1,180,4|2,0:0|3:0,0:0:0:0:
452,32,74324,1,0,0:0:0:0:
452,32,74410,2,0,P|439:97|451:153,1,90,8|0,0:0|0:0,0:0:0:0:
510,235,74752,1,0,1:0:0:0:
326,208,74924,2,0,P|301:158|275:134,1,90,8|0,3:0|3:0,0:0:0:0:
74,244,75267,6,0,P|127:274|227:196,1,180,4|2,0:0|3:0,0:0:0:0:
34,42,75781,2,0,L|48:135,1,90,8|0,0:0|0:0,0:0:0:0:
311,178,76124,1,0,1:0:0:0:
166,31,76295,1,8,1:0:0:0:
161,301,76467,1,8,1:0:0:0:
301,50,76638,6,0,B|342:32|342:32|403:72|486:41,1,180,4|2,0:0|0:3,0:0:0:0:
344,164,77152,2,0,B|340:210|340:210|348:262,1,90,8|0,0:0|0:0,0:0:0:0:
450,331,77495,1,0,1:0:0:0:
235,278,77667,2,0,L|143:271,1,90,8|0,3:0|3:0,0:0:0:0:
251,124,78010,6,0,L|459:102,1,180,4|2,0:0|3:0,0:0:0:0:
121,52,78524,2,0,L|134:145,1,90,8|0,0:0|0:0,0:0:0:0:
252,264,78867,1,0,1:0:0:0:
41,215,79038,2,0,L|27:316,1,90,8|0,3:0|3:0,0:0:0:0:
283,350,79381,6,0,B|314:339|329:313|329:313|362:330|406:331|446:298,1,180,4|2,0:0|3:0,0:0:0:0:
382,122,79895,2,0,P|374:171|381:222,1,90,8|0,0:0|0:0,0:0:0:0:
472,303,80238,1,0,1:0:0:0:
260,213,80410,2,0,L|156:218,1,90,8|0,3:0|3:0,0:0:0:0:
41,79,80752,6,0,B|47:108|47:108|34:117|34:117|48:184|5:161|25:251,1,180,4|4,0:0|3:0,0:0:0:0:
230,375,81267,2,0,B|225:354|225:354|233:347|233:347|218:290,1,90,8|0,0:0|3:0,0:0:0:0:
396,18,81610,1,10,0:0:0:0:
390,62,81695,1,8,0:0:0:0:
385,107,81781,1,8,0:0:0:0:
380,152,81867,1,8,0:0:0:0:
375,196,81952,1,10,0:0:0:0:
370,241,82038,1,10,0:0:0:0:
365,286,82124,6,0,P|291:293|255:207,1,180,4|2,0:0|3:0,0:0:0:0:
422,50,82638,1,8,0:0:0:0:
365,286,82810,1,0,0:0:0:0:
501,162,82981,1,0,1:0:0:0:
285,89,83152,2,0,L|186:99,1,90,8|0,3:0|3:0,0:0:0:0:
79,275,83495,6,0,B|142:279|142:279|183:310|183:310|248:318,1,180,4|2,0:0|3:0,0:0:0:0:
402,266,84010,2,0,P|424:221|426:162,1,90,8|0,0:0|0:0,0:0:0:0:
350,355,84352,1,0,1:0:0:0:
331,121,84524,1,8,3:0:0:0:
441,355,84695,1,0,3:0:0:0:
211,132,84867,6,0,B|109:126|145:180|36:170,1,180,4|2,0:0|3:0,0:0:0:0:
198,258,85381,2,0,L|301:256,1,90,8|0,0:0|0:0,0:0:0:0:
438,102,85724,1,0,1:0:0:0:
494,322,85895,1,8,3:0:0:0:
287,256,86067,1,0,3:0:0:0:
499,157,86238,6,0,P|431:185|360:119,1,180,4|2,0:0|3:0,0:0:0:0:
213,40,86752,2,0,L|222:141,1,90,8|0,0:0|0:0,0:0:0:0:
218,152,87010,1,0,0:0:0:0:
215,175,87095,1,0,1:0:0:0:
331,253,87267,1,8,1:0:0:0:
132,350,87438,1,8,1:0:0:0:
415,373,87610,6,0,P|464:344|476:231,1,180,4|2,0:0|3:0,0:0:0:0:
371,65,88124,2,0,P|367:111|398:164,1,90,8|0,0:0|0:0,0:0:0:0:
475,230,88467,1,0,1:0:0:0:
266,168,88638,2,0,P|211:168|150:175,1,90,8|0,3:0|0:0,0:0:0:0:
11,328,88981,6,0,P|93:342|168:340,1,135,4|0,0:0|0:0,0:0:0:0:
189,335,89324,1,2,3:0:0:0:
356,198,89495,2,0,P|354:151|347:104,1,90,8|0,0:0|0:0,0:0:0:0:
112,58,89838,1,0,1:0:0:0:
146,249,90010,1,8,3:0:0:0:
259,11,90181,1,0,3:0:0:0:
57,148,90352,6,0,P|119:164|209:95,1,180,4|2,0:0|3:0,0:0:0:0:
304,217,90867,2,0,P|314:263|314:309,1,90,8|0,0:0|0:0,0:0:0:0:
235,374,91210,1,0,1:0:0:0:
416,253,91381,2,0,L|508:262,1,90,8|0,3:0|3:0,0:0:0:0:
397,90,91724,6,0,B|372:86|372:86|364:95|364:95|307:103,1,90,4|0,0:0|0:0,0:0:0:0:
231,264,92067,1,8,0:0:0:0:
191,285,92152,1,8,0:0:0:0:
147,290,92238,1,8,0:0:0:0:
79,118,92410,1,8,0:0:0:0:
119,136,92495,1,8,0:0:0:0:
153,166,92581,1,10,0:0:0:0:
254,329,92752,1,8,0:0:0:0:
249,284,92837,1,8,0:0:0:0:
262,241,92923,1,8,0:0:0:0:
291,208,93009,1,8,0:0:0:0:
331,188,93095,6,0,B|453:203|453:203|425:178|428:131,1,180,4|0,0:0|3:0,0:0:0:0:
512,0,93610,2,0,P|499:47|473:89,1,90,2|0,1:0|0:0,0:0:0:0:
407,308,93952,2,0,P|391:265|386:217,1,90,2|0,1:0|0:0,0:0:0:0:
370,21,94295,1,2,1:0:0:0:
259,193,94467,6,0,B|161:213|179:164|81:180,1,180,4|0,0:0|3:0,0:0:0:0:
107,358,94981,2,0,L|122:260,1,90,2|0,1:0|0:0,0:0:0:0:
14,9,95324,2,0,L|27:97,1,90,2|0,1:0|0:0,0:0:0:0:
38,117,95581,1,0,0:0:0:0:
49,136,95667,1,2,1:0:0:0:
222,74,95838,1,4,3:0:0:0:
225,293,96010,6,0,P|275:291|321:284,1,90,4|0,0:0|0:0,0:0:0:0:
460,208,96352,1,2,1:0:0:0:
343,384,96524,2,0,P|332:344|328:288,1,90,4|0,0:0|0:0,0:0:0:0:
361,123,96867,1,8,0:0:0:0:
435,323,97038,1,0,1:0:0:0:
294,65,97210,6,0,P|358:32|445:92,1,180,4|0,0:0|1:0,0:0:0:0:
265,209,97724,2,0,B|247:206|247:206|237:214|237:214|165:199,1,90,8|0,0:0|0:0,0:0:0:0:
100,92,98067,1,8,0:0:0:0:
56,312,98238,1,4,3:0:0:0:
1,47,98410,1,4,3:0:0:0:
208,308,98581,6,0,L|365:289,1,135,4|0,0:0|0:0,0:0:0:0:
386,284,98924,1,0,0:0:0:0:
431,130,99095,1,2,1:0:0:0:
272,86,99267,1,0,0:0:0:0:
230,253,99438,1,0,1:0:0:0:
426,214,99610,2,0,P|469:206|503:173,1,90,0|0,0:0|0:0,0:0:0:0:
335,60,99952,6,0,P|311:105|320:156,1,90,4|0,0:0|0:0,0:0:0:0:
426,214,100295,1,2,0:0:0:0:
330,376,100467,2,0,P|348:333|341:289,1,90,0|2,1:0|0:0,0:0:0:0:
139,241,100810,2,0,P|186:253|236:231,1,90,0|8,1:0|0:0,0:0:0:0:
48,151,101152,1,8,0:0:0:0:
23,188,101237,1,8,0:0:0:0:
13,232,101323,1,8,0:0:0:0:
17,276,101409,1,8,0:0:0:0:
36,317,101494,5,4,0:0:0:0:
394,186,101667,1,0,1:0:0:0:
238,376,101838,1,0,1:0:0:0:
238,108,102010,2,0,B|234:7|234:7|244:24|264:37,1,135,4|0,0:0|0:0,0:0:0:0:
295,53,102352,1,8,0:0:0:0:
426,288,102524,1,0,1:0:0:0:
176,343,102695,6,0,B|105:332|121:374|46:364,1,135,4|0,0:0|0:0,0:0:0:0:
3,348,103038,1,0,1:0:0:0:
361,220,103210,1,0,1:0:0:0:
426,288,103552,5,0,1:0:0:0:
70,137,103724,1,0,1:0:0:0:
70,137,104067,5,0,1:2:0:0:
101,76,113495,5,0,0:0:0:0:
190,211,113667,2,0,P|203:131|188:57,1,135,0|0,1:0|0:0,0:0:0:0:
184,43,114010,1,0,1:0:0:0:
90,177,114181,1,0,3:0:0:0:
301,142,114352,6,0,L|461:143,1,135,0|0,1:0|0:0,0:0:0:0:
461,141,114695,2,0,L|505:141,1,45,0|0,1:0|0:0,0:0:0:0:
460,58,114867,2,0,L|389:57,1,45,0|0,1:0|0:0,0:0:0:0:
184,43,115038,6,0,L|195:203,1,135,4|0,0:0|0:0,0:0:0:0:
217,204,115381,1,2,3:0:0:0:
140,286,115552,2,0,P|69:286|36:281,1,90,8|0,0:0|0:0,0:0:0:0:
26,184,115895,1,0,3:0:0:0:
26,184,116067,1,0,3:0:0:0:
100,369,116238,1,8,3:0:0:0:
227,293,116410,6,0,P|290:281|366:279,1,135,0|0,3:0|0:0,0:0:0:0:
393,293,116752,1,0,3:0:0:0:
381,85,116924,2,0,P|360:153|359:191,1,90,8|0,3:0|0:0,0:0:0:0:
450,223,117267,1,0,3:0:0:0:
450,223,117438,1,0,3:0:0:0:
470,55,117610,1,8,3:0:0:0:
246,177,117781,6,0,L|76:166,1,135,4|0,0:0|0:0,0:0:0:0:
75,167,118124,1,0,3:0:0:0:
242,0,118295,2,0,P|254:51|235:106,1,90,8|0,0:0|3:0,0:0:0:0:
245,86,118552,1,0,3:0:0:0:
246,86,118638,1,0,2:0:0:0:
145,59,118810,1,0,3:0:0:0:
344,61,118981,1,8,3:0:0:0:
189,249,119152,5,0,0:0:0:0:
233,104,119324,1,2,0:0:0:0:
301,243,119495,1,0,3:0:0:0:
134,168,119667,2,0,P|74:174|29:187,1,90,8|0,0:0|0:0,0:0:0:0:
45,181,119924,1,0,0:0:0:0:
45,181,120010,1,0,0:0:0:0:
112,263,120181,1,0,3:0:0:0:
92,84,120352,1,8,3:0:0:0:
56,335,120524,6,0,P|115:320|230:331,1,135,4|0,0:0|0:0,0:0:0:0:
220,337,120867,1,8,0:0:0:0:
364,320,121038,2,0,L|358:215,1,90,8|0,0:0|0:0,0:0:0:0:
358,230,121295,1,0,0:0:0:0:
358,230,121381,1,0,3:0:0:0:
249,312,121552,1,8,0:0:0:0:
444,284,121724,1,0,3:0:0:0:
204,98,121895,6,0,P|283:90|362:69,1,135,4|0,0:0|0:0,0:0:0:0:
370,63,122238,1,0,0:0:0:0:
234,190,122410,2,0,P|208:261|221:304,1,90,8|0,0:0|0:0,0:0:0:0:
294,347,122752,1,2,0:0:0:0:
294,347,122924,1,0,3:0:0:0:
480,305,123095,1,8,0:0:0:0:
395,374,123267,1,0,3:0:0:0:
483,214,123438,5,4,0:0:0:0:
378,229,123610,2,0,P|379:191|390:119,1,90,0|8,0:0|0:0,0:0:0:0:
196,123,123952,1,2,0:0:0:0:
196,123,124038,1,0,0:0:0:0:
196,123,124124,2,0,P|112:127|86:117,1,90,0|8,0:0|0:0,0:0:0:0:
23,40,124467,1,0,1:0:0:0:
274,54,124638,6,0,L|282:221,1,135,4|0,0:0|0:0,0:0:0:0:
284,224,124981,1,2,1:2:0:0:
151,49,125152,1,2,1:2:0:0:
375,171,125324,6,0,L|383:338,1,135,4|0,0:0|0:0,0:0:0:0:
384,341,125667,1,0,1:0:0:0:
465,244,125838,1,8,1:0:0:0:
231,349,126010,6,0,B|165:321|165:378|91:343,1,135,4|0,0:0|0:0,0:0:0:0:
66,334,126352,1,0,3:0:0:0:
128,162,126524,2,0,P|138:206|119:273,1,90,8|0,3:0|0:0,0:0:0:0:
19,152,126867,1,2,0:0:0:0:
19,152,127038,1,0,3:0:0:0:
118,62,127210,1,8,0:0:0:0:
235,197,127381,5,0,3:0:0:0:
285,73,127552,1,2,0:0:0:0:
128,162,127724,2,0,P|127:217|140:267,1,90,0|8,3:0|0:0,0:0:0:0:
304,367,128067,2,0,P|312:322|310:278,1,90,0|2,0:0|0:0,0:0:0:0:
235,197,128410,1,0,3:0:0:0:
166,348,128581,1,8,0:0:0:0:
397,269,128752,6,0,L|411:101,1,135,4|0,0:0|0:0,0:0:0:0:
413,98,129095,1,0,3:0:0:0:
508,208,129267,1,8,0:0:0:0:
284,189,129438,1,0,0:0:0:0:
284,189,129524,1,0,0:0:0:0:
284,189,129610,2,0,P|231:189|172:185,1,90,2|0,0:0|3:0,0:0:0:0:
82,83,129952,1,8,0:0:0:0:
184,352,130124,6,0,P|207:273|194:203,1,135,4|0,0:0|0:0,0:0:0:0:
194,186,130467,1,0,3:0:0:0:
95,291,130638,1,8,0:0:0:0:
320,195,130810,1,0,0:0:0:0:
320,195,130895,1,0,0:0:0:0:
320,195,130981,1,8,3:0:0:0:
405,261,131152,1,0,1:0:0:0:
334,62,131324,1,8,0:0:0:0:
448,338,131495,6,0,L|460:169,1,135,4|0,0:0|0:0,0:0:0:0:
459,167,131838,1,0,3:0:0:0:
320,195,132010,2,0,P|244:200|195:191,1,90,8|0,0:0|0:0,0:0:0:0:
140,122,132352,1,2,0:0:0:0:
140,122,132524,1,0,3:0:0:0:
327,179,132695,1,8,0:0:0:0:
210,359,132867,6,0,L|230:197,1,135,4|0,0:0|0:0,0:0:0:0:
230,198,133210,1,0,3:0:0:0:
371,295,133381,2,0,P|425:289|474:276,1,90,8|0,0:0|0:0,0:0:0:0:
368,165,133724,1,0,3:0:0:0:
355,319,133895,1,0,3:0:0:0:
485,201,134067,1,8,3:0:0:0:
286,73,134238,6,0,P|219:63|111:59,1,135,0|0,1:0|0:0,0:0:0:0:
125,63,134581,1,0,3:0:0:0:
175,249,134752,1,8,0:0:0:0:
13,161,134924,1,0,0:0:0:0:
13,161,135010,1,0,0:0:0:0:
13,161,135095,1,2,0:0:0:0:
54,251,135267,1,8,3:0:0:0:
125,63,135438,1,8,1:0:0:0:
340,239,135610,6,0,P|273:237|166:229,1,135,4|0,0:0|0:0,0:0:0:0:
185,214,135952,1,8,3:0:0:0:
261,318,136124,1,8,0:0:0:0:
295,160,136295,1,0,3:0:0:0:
295,160,136381,1,0,3:0:0:0:
295,160,136467,1,8,0:0:0:0:
445,313,136638,1,8,0:0:0:0:
185,214,136810,1,8,0:0:0:0:
436,44,136981,6,0,P|454:109|424:232,1,180,4|0,0:0|0:0,0:0:0:0:
361,284,137495,2,0,P|311:281|261:270,1,90,2|0,1:0|0:0,0:0:0:0:
170,259,137838,2,0,P|197:217|232:179,1,90,2|0,1:0|0:0,0:0:0:0:
282,86,138181,2,0,P|304:130|319:179,1,90,2|0,1:0|0:0,0:0:0:0:
170,259,138524,6,0,L|67:253,1,90,2|8,1:0|3:0,0:0:0:0:
123,162,138867,2,0,L|226:156,1,90,0|8,1:0|0:0,0:0:0:0:
168,36,139210,1,0,0:0:0:0:
316,168,139381,1,0,3:0:0:0:
123,162,139552,1,4,3:0:0:0:
307,69,139724,6,0,B|443:47|443:47|382:83,1,180,4|2,0:0|2:0,0:0:0:0:
352,170,140238,2,0,P|351:229|370:272,1,90,2|0,1:0|0:0,0:0:0:0:
512,243,140581,2,0,P|461:212|414:207,1,90,2|0,1:0|0:0,0:0:0:0:
369,354,140924,2,0,P|420:325|448:287,1,90,2|0,1:0|0:0,0:0:0:0:
246,301,141267,6,0,P|156:296|124:275,1,90,2|8,1:0|3:0,0:0:0:0:
53,217,141610,1,0,1:0:0:0:
148,114,141781,2,0,P|157:161|149:225,1,90,8|0,0:0|0:0,0:0:0:0:
53,217,142124,1,0,3:0:0:0:
120,91,142295,1,2,2:0:0:0:
338,203,142467,6,0,P|393:192|486:153,1,135,4|0,0:0|0:0,0:0:0:0:
476,138,142810,1,0,0:0:0:0:
483,246,142981,2,0,L|472:345,1,90,2|0,1:0|0:0,0:0:0:0:
398,274,143324,2,0,L|387:373,1,90,2|2,1:0|3:0,0:0:0:0:
315,290,143667,2,0,L|304:389,1,90,2|0,1:0|0:0,0:0:0:0:
154,234,144010,6,0,P|206:213|267:212,1,90,2|0,1:0|0:0,0:0:0:0:
370,141,144352,2,0,P|318:120|257:119,1,90,2|0,1:0|0:0,0:0:0:0:
166,112,144695,1,2,1:0:0:0:
241,209,144867,1,8,3:0:0:0:
231,31,145038,1,0,1:0:0:0:
459,96,145210,6,0,P|474:154|411:233,1,135,4|0,0:0|0:0,0:0:0:0:
419,234,145552,1,0,0:0:0:0:
482,375,145724,2,0,P|483:320|466:269,1,90,2|0,1:0|0:0,0:0:0:0:
343,273,146067,2,0,P|332:316|335:361,1,90,2|0,1:0|0:0,0:0:0:0:
203,356,146410,2,0,P|205:311|195:267,1,90,2|0,1:0|0:0,0:0:0:0:
108,141,146752,5,2,1:0:0:0:
111,295,146924,1,8,0:0:0:0:
205,186,147095,1,8,0:0:0:0:
24,186,147267,1,4,3:0:0:0:
26,93,147438,1,4,1:3:0:0:
28,3,147610,1,4,1:3:0:0:
108,141,147781,1,8,3:0:0:0:
274,53,147952,6,0,P|336:29|452:54,1,180,4|0,0:0|0:0,0:0:0:0:
485,135,148467,2,0,P|481:196|470:235,1,90,2|0,1:0|0:0,0:0:0:0:
336,261,148810,2,0,P|326:217|324:172,1,90,2|0,1:0|0:0,0:0:0:0:
419,295,149152,1,2,1:0:0:0:
419,294,149324,6,0,P|416:339|406:383,1,90,0|2,0:0|1:0,0:0:0:0:
263,320,149667,2,0,L|155:312,1,90,8|2,0:0|1:0,0:0:0:0:
55,358,150010,1,8,0:0:0:0:
120,166,150181,1,2,1:0:0:0:
89,263,150352,1,8,0:0:0:0:
55,358,150524,1,4,3:0:0:0:
120,166,150695,6,0,P|191:156|286:172,1,135,4|0,0:0|0:0,0:0:0:0:
279,171,151038,1,0,0:0:0:0:
395,225,151210,2,0,P|402:160|395:117,1,90,2|0,1:0|0:0,0:0:0:0:
307,0,151552,2,0,P|304:44|311:89,1,90,2|0,1:0|0:0,0:0:0:0:
420,136,151895,5,2,1:0:0:0:
330,281,152067,2,0,B|314:255|314:255|366:232|444:279,1,135
438,276,152410,2,0,P|448:328|443:368,1,90,0|2,0:0|1:0,0:0:0:0:
330,281,152752,1,8,0:0:0:0:
355,70,152924,1,2,1:0:0:0:
344,176,153095,1,8,0:0:0:0:
330,281,153267,1,4,3:0:0:0:
250,121,153438,6,0,P|191:115|98:126,1,135,4|0,0:0|0:0,0:0:0:0:
89,129,153781,1,2,3:0:0:0:
35,63,153952,1,8,0:0:0:0:
177,79,154124,1,8,0:0:0:0:
48,210,154295,1,8,0:0:0:0:
114,20,154467,1,8,0:0:0:0:
137,239,154638,1,8,0:0:0:0:
115,31,154810,5,8,0:0:0:0:
0,145,154981,1,8,0:0:0:0:
215,185,155152,1,8,0:0:0:0:
114,20,155324,1,8,0:0:0:0:
122,309,155495,1,8,0:0:0:0:
39,68,155667,1,8,0:0:0:0:
121,283,155838,1,8,0:0:0:0:
264,50,156010,1,8,0:0:0:0:
479,277,156181,6,0,P|372:277|309:258,1,135,4|0,0:0|0:0,0:0:0:0:
320,260,156524,1,8,0:0:0:0:
379,45,156695,1,4,3:0:0:0:
478,303,156867,6,0,P|371:303|308:284,1,135,4|0,0:0|0:0,0:0:0:0:
320,260,157210,1,0,3:0:0:0:
24,225,157381,6,0,P|131:225|194:206,1,135,8|0,0:0|3:0,0:0:0:0:
247,145,157724,6,0,L|241:263,1,90,0|2,1:0|1:0,0:0:0:0:
241,261,157981,1,0,0:0:0:0:
240,288,158067,1,8,0:0:0:0:
132,90,158238,2,0,L|210:72,1,45,4|0,1:3|0:0,0:0:0:0:
450,180,158581,2,0,L|372:162,1,45,4|0,1:0|0:0,0:0:0:0:
296,63,158752,1,8,3:0:0:0:
290,36,158838,1,8,3:0:0:0:
296,9,158924,6,0,P|311:114|292:212,1,161.999995056153,4|0,0:0|0:0,0:0:0:0:
298,200,159267,1,2,0:3:0:0:
215,317,159438,1,8,0:0:0:0:
182,164,159610,1,0,0:0:0:0:
350,275,159781,1,0,1:0:0:0:
164,152,159952,2,0,P|110:153|31:162,1,107.999996704102,8|0,3:0|3:0,0:0:0:0:
449,337,160295,6,0,L|432:144,1,161.999995056153,4|0,0:0|0:0,0:0:0:0:
430,135,160638,1,2,3:0:0:0:
221,248,160810,1,8,0:0:0:0:
328,362,160981,1,0,0:0:0:0:
328,362,161067,1,0,0:0:0:0:
328,362,161152,1,2,2:0:0:0:
430,135,161324,2,0,L|417:-12,1,107.999996704102,8|0,3:0|3:0,0:0:0:0:
199,273,161667,6,0,P|122:264|38:227,1,161.999995056153,4|0,0:0|0:0,0:0:0:0:
29,202,162010,1,2,3:0:0:0:
260,204,162181,1,8,0:0:0:0:
112,355,162352,1,0,0:0:0:0:
112,355,162438,1,0,0:0:0:0:
112,355,162524,1,0,1:0:0:0:
210,129,162695,1,8,3:0:0:0:
130,247,162867,1,0,3:0:0:0:
427,304,163038,6,0,B|410:223|470:232|417:113,1,161.999995056153,4|0,0:0|0:0,0:0:0:0:
419,114,163381,1,2,2:0:0:0:
511,273,163552,1,8,0:0:0:0:
260,207,163724,1,0,0:0:0:0:
260,207,163810,1,0,0:0:0:0:
260,207,163895,2,0,L|190:205,1,53.9999983520508,8|0,0:0|0:0,0:0:0:0:
365,115,164067,2,0,L|435:113,1,53.9999983520508,8|0,0:0|0:0,0:0:0:0:
248,35,164238,2,0,L|178:33,1,53.9999983520508,8|0,0:0|0:0,0:0:0:0:
216,361,164410,6,0,P|244:291|260:184,1,161.999995056153,4|0,0:0|0:0,0:0:0:0:
249,175,164752,1,2,3:0:0:0:
108,272,164924,2,0,P|40:270|-6:266,1,107.999996704102,8|0,0:0|3:0,0:0:0:0:
98,376,165267,1,0,1:0:0:0:
58,178,165438,2,0,L|52:55,1,107.999996704102,8|0,3:0|3:0,0:0:0:0:
499,156,165781,6,0,B|436:131|412:192|336:153,1,161.999995056153,4|0,0:0|0:0,0:0:0:0:
315,139,166124,1,2,3:0:0:0:
466,232,166295,2,0,P|469:293|461:351,1,107.999996704102,8|0,0:0|0:0,0:0:0:0:
383,80,166638,1,2,2:0:0:0:
314,237,166810,2,0,P|263:219|225:181,1,107.999996704102,8|0,0:0|1:0,0:0:0:0:
41,371,167152,6,0,P|90:320|93:205,1,161.999995056153,4|0,0:0|0:0,0:0:0:0:
91,201,167495,1,0,0:0:0:0:
205,325,167667,1,8,0:0:0:0:
149,119,167838,1,0,0:0:0:0:
149,119,167924,1,0,0:0:0:0:
149,119,168010,1,2,0:0:0:0:
100,307,168181,1,8,3:0:0:0:
16,208,168352,1,0,2:0:0:0:
425,114,168524,6,0,P|351:106|229:121,1,161.999995056153,4|0,0:0|0:0,0:0:0:0:
231,118,168867,2,0,L|223:52,1,53.9999983520508,2|0,3:0|0:0,0:0:0:0:
295,249,169038,2,0,L|303:183,1,53.9999983520508,8|0,0:0|0:0,0:0:0:0:
236,344,169210,1,0,0:0:0:0:
13,219,169381,5,8,0:0:0:0:
60,193,169467,1,8,0:0:0:0:
113,192,169552,1,8,0:0:0:0:
161,217,169638,1,8,0:0:0:0:
208,242,169724,1,8,0:0:0:0:
262,237,169810,1,8,0:0:0:0:
301,195,169895,6,0,L|320:17,1,161.999995056153,4|0,0:0|0:0,0:0:0:0:
282,9,170238,1,2,3:0:0:0:
443,111,170410,1,8,0:0:0:0:
217,161,170581,1,0,0:0:0:0:
471,110,170752,1,0,1:0:0:0:
443,272,170924,2,0,L|431:379,1,107.999996704102,8|0,3:0|3:0,0:0:0:0:
13,266,171267,6,0,B|95:231|100:307|193:257,1,161.999995056153,4|0,0:0|0:0,0:0:0:0:
209,248,171610,1,2,3:0:0:0:
52,346,171781,1,8,0:0:0:0:
114,165,171952,1,0,0:0:0:0:
114,165,172038,1,0,0:0:0:0:
114,165,172124,1,2,2:0:0:0:
311,271,172295,2,0,L|310:343,1,53.9999983520508,8|0,3:0|0:0,0:0:0:0:
228,175,172467,2,0,L|228:121,1,53.9999983520508,0|0,3:0|0:0,0:0:0:0:
512,191,172638,6,0,L|331:186,1,161.999995056153,4|0,0:0|0:0,0:0:0:0:
306,184,172981,1,0,0:0:0:0:
401,0,173152,2,0,P|414:61|414:110,1,107.999996704102,8|0,0:0|0:0,0:0:0:0:
359,263,173495,1,0,1:0:0:0:
322,65,173667,1,8,3:0:0:0:
322,65,173838,1,0,3:0:0:0:
149,122,174010,6,0,P|81:121|12:194,1,161.999995056153,4|0,0:0|0:0,0:0:0:0:
15,225,174352,1,2,3:0:0:0:
180,258,174524,1,8,0:0:0:0:
219,53,174695,1,0,0:0:0:0:
219,53,174781,1,0,0:0:0:0:
219,53,174867,2,0,L|239:128,1,53.9999983520508,2|0,2:0|0:0,0:0:0:0:
291,262,175038,2,0,L|304:209,1,53.9999983520508,2|0,2:0|0:0,0:0:0:0:
364,50,175210,2,0,L|377:102,1,53.9999983520508,2|0,2:0|0:0,0:0:0:0:
484,367,175381,6,0,P|494:285|470:168,1,161.999995056153,4|0,0:0|0:0,0:0:0:0:
468,166,175724,1,2,3:0:0:0:
198,213,175895,2,0,P|287:212|346:205,1,107.999996704102,8|0,0:0|0:0,0:0:0:0:
407,125,176238,1,0,1:0:0:0:
378,357,176410,1,8,3:0:0:0:
378,357,176581,1,0,3:0:0:0:
101,314,176752,6,0,L|120:139,1,161.999995056153,4|0,0:0|0:0,0:0:0:0:
124,110,177095,1,2,3:0:0:0:
0,233,177267,2,0,L|12:351,1,107.999996704102,8|0,0:0|0:0,0:0:0:0:
199,331,177610,1,2,0:0:0:0:
111,239,177781,1,8,3:0:0:0:
10,340,177952,1,0,3:0:0:0:
286,261,178124,6,0,P|343:257|459:268,1,161.999995056153,4|0,0:0|0:0,0:0:0:0:
468,303,178467,1,2,3:0:0:0:
332,178,178638,1,8,2:0:0:0:
446,57,178810,1,0,0:0:0:0:
446,57,178895,1,0,0:0:0:0:
446,57,178981,1,0,1:0:0:0:
430,184,179152,1,8,3:0:0:0:
273,57,179324,1,8,0:0:0:0:
164,199,179495,5,4,0:0:0:0:
164,199,179667,2,0,L|154:107,1,53.9999983520508,0|0,0:0|0:0,0:0:0:0:
50,129,179838,2,0,L|60:37,1,53.9999983520508,2|0,3:0|0:0,0:0:0:0:
65,265,180010,1,8,0:0:0:0:
221,69,180181,1,0,0:0:0:0:
273,57,180267,1,0,0:0:0:0:
325,69,180352,1,8,0:0:0:0:
195,243,180524,1,8,0:0:0:0:
164,199,180610,1,8,0:0:0:0:
158,145,180695,1,8,0:0:0:0:
175,97,180781,1,8,0:0:0:0:
221,69,180867,6,0,P|150:91|32:14,1,215.999993408203,4|0,0:0|0:0,0:0:0:0:
256,163,181381,1,2,1:0:0:0:
309,6,181552,1,0,0:0:0:0:
313,223,181724,1,2,1:0:0:0:
229,76,181895,1,0,0:0:0:0:
229,76,181981,1,0,0:0:0:0:
229,76,182067,1,2,1:0:0:0:
471,239,182238,6,0,P|385:245|292:212,1,161.999995056153,4|0,0:0|0:0,0:0:0:0:
274,204,182581,1,0,0:0:0:0:
435,141,182752,1,2,1:0:0:0:
320,315,182924,1,0,0:0:0:0:
347,77,183095,1,2,1:0:0:0:
389,269,183267,1,0,0:0:0:0:
456,113,183438,1,2,1:0:0:0:
243,274,183610,1,4,3:0:0:0:
469,251,183781,6,0,L|479:80,1,161.999995056153,4|0,0:0|0:0,0:0:0:0:
484,46,184124,1,8,0:0:0:0:
330,106,184295,2,0,P|241:108|208:92,1,107.999996704102,4|0,0:0|0:0,0:0:0:0:
46,21,184638,2,0,P|98:8|151:16,1,107.999996704102,8|4,0:0|3:0,0:0:0:0:
73,302,184981,6,0,B|108:232|37:217|90:123,1,161.999995056153,4|0,0:0|0:0,0:0:0:0:
102,107,185324,1,8,0:0:0:0:
265,108,185495,1,8,0:0:0:0:
102,107,185667,1,0,0:0:0:0:
265,108,185838,1,8,0:0:0:0:
149,254,186010,1,8,0:0:0:0:
201,26,186181,1,4,3:0:0:0:
285,319,186352,6,0,P|368:288|462:265,1,161.999995056153,4|0,0:0|0:0,0:0:0:0:
482,271,186695,1,4,3:0:0:0:
248,180,186867,1,8,0:0:0:0:
287,340,187038,1,0,0:0:0:0:
358,127,187210,1,2,0:0:0:0:
168,241,187381,1,0,1:0:0:0:
183,119,187552,1,8,0:0:0:0:
12,341,187724,6,0,P|37:265|41:167,1,161.999995056153,4|0,0:0|0:0,0:0:0:0:
0,66,188067,2,0,P|52:91|125:98,1,107.999996704102,0|8,3:0|0:0,0:0:0:0:
283,0,188410,2,0,P|229:9|181:32,1,107.999996704102,0|0,0:0|3:0,0:0:0:0:
145,188,188752,1,2,3:0:0:0:
332,111,188924,1,8,0:0:0:0:
374,101,189010,1,8,0:0:0:0:
416,104,189095,1,10,0:0:0:0:
457,116,189181,1,8,0:0:0:0:
491,142,189267,5,4,0:0:0:0:
397,201,189438,1,0,1:0:0:0:
257,70,189610,1,8,0:0:0:0:
218,349,189781,6,0,P|218:268|233:156,1,161.999995056153,4|0,0:0|0:0,0:0:0:0:
246,149,190124,1,0,1:0:0:0:
188,377,190295,1,8,0:0:0:0:
147,147,190467,1,0,1:0:0:0:
147,147,190810,5,0,1:0:0:0:
433,276,190981,1,0,1:0:0:0:
433,276,191324,5,0,1:0:0:0:
57,147,191495,1,0,1:0:0:0:
35,110,191581,1,0,3:0:0:0:
47,68,191667,1,8,3:0:0:0:
87,52,191752,1,8,3:0:0:0:
128,66,191838,6,0,P|240:68|300:43,1,161.999995056153,4|0,0:0|0:0,0:0:0:0:
323,29,192181,1,0,0:0:0:0:
383,204,192352,2,0,P|384:125|391:80,1,107.999996704102,0|0,1:0|0:0,0:0:0:0:
387,96,192610,1,0,0:0:0:0:
387,96,192695,1,2,0:0:0:0:
470,227,192867,1,0,0:0:0:0:
278,167,193038,1,0,1:0:0:0:
387,311,193210,6,0,P|386:232|379:187,1,107.999996704102,2|0,0:0|0:0,0:0:0:0:
244,242,193552,2,0,P|238:295|239:349,1,107.999996704102,2|0,0:0|1:0,0:0:0:0:
389,345,193895,1,2,0:0:0:0:
244,242,194067,2,0,L|128:240,1,107.999996704102,0|10,0:0|3:0,0:0:0:0:
72,314,194410,1,8,3:0:0:0:
278,167,194581,6,0,L|70:163,1,161.999995056153,4|0,0:0|0:0,0:0:0:0:
72,163,194924,1,0,0:0:0:0:
197,57,195095,2,0,P|285:50|326:44,1,107.999996704102,0|0,1:0|0:0,0:0:0:0:
304,47,195352,1,0,0:0:0:0:
304,47,195438,1,2,2:0:0:0:
278,167,195610,1,0,2:0:0:0:
117,20,195781,1,0,1:0:0:0:
116,164,195952,6,0,P|114:254|121:297,1,107.999996704102,2|0,0:0|0:0,0:0:0:0:
221,364,196295,2,0,P|225:310|221:256,1,107.999996704102,2|0,0:0|1:0,0:0:0:0:
123,172,196638,1,2,0:0:0:0:
123,172,196724,1,0,0:0:0:0:
123,172,196810,1,2,1:0:0:0:
225,71,196981,1,8,3:0:0:0:
267,65,197067,1,8,3:0:0:0:
309,59,197152,1,8,3:0:0:0:
351,53,197238,1,8,3:0:0:0:
393,47,197324,6,0,P|402:114|385:210,1,161.999995056153,4|0,0:0|0:0,0:0:0:0:
371,247,197667,1,0,0:0:0:0:
200,174,197838,1,10,0:0:0:0:
236,325,198010,1,0,0:0:0:0:
236,325,198095,1,0,0:0:0:0:
236,325,198181,1,10,0:0:0:0:
112,300,198352,1,0,0:0:0:0:
328,269,198524,1,10,0:0:0:0:
68,217,198695,6,0,L|81:32,1,161.999995056153,6|0,0:0|0:0,0:0:0:0:
85,12,199038,1,2,0:0:0:0:
313,90,199210,1,10,0:0:0:0:
163,175,199381,1,0,0:0:0:0:
163,175,199467,1,0,0:0:0:0:
163,175,199552,1,10,0:0:0:0:
204,57,199724,1,0,1:0:0:0:
268,234,199895,1,10,0:0:0:0:
330,63,200067,6,0,B|409:46|408:107|507:63,1,161.999995056153,4|0,0:0|0:0,0:0:0:0:
506,31,200410,1,0,0:0:0:0:
355,143,200581,2,0,P|360:215|362:269,1,107.999996704102,8|0,0:0|0:0,0:0:0:0:
306,347,200924,1,8,0:0:0:0:
306,347,201095,1,0,3:0:0:0:
438,312,201267,1,8,0:0:0:0:
190,250,201438,1,0,3:0:0:0:
190,250,201524,1,0,0:0:0:0:
190,250,201610,6,0,L|186:165,1,53.9999983520508,4|0,0:0|0:0,0:0:0:0:
133,320,201781,2,0,P|69:323|-1:304,1,107.999996704102,0|8,3:0|0:0,0:0:0:0:
174,39,202124,2,0,B|144:121|220:122|178:224,1,161.999995056153,2|0,0:0|0:0,0:0:0:0:
165,233,202467,1,0,1:0:0:0:
320,44,202638,1,8,0:0:0:0:
335,353,202810,6,0,P|404:349|498:296,1,161.999995056153,4|0,0:0|0:0,0:0:0:0:
498,266,203152,1,2,0:0:0:0:
294,245,203324,1,8,0:0:0:0:
397,145,203495,1,0,0:0:0:0:
397,145,203581,1,0,0:0:0:0:
397,145,203667,5,8,0:0:0:0:
339,329,203838,1,0,0:0:0:0:
248,98,204010,1,8,0:0:0:0:
166,264,204181,1,0,1:0:0:0:
252,67,204352,1,4,0:0:0:0:
312,255,204524,1,0,3:0:0:0:
142,53,204695,5,8,0:0:0:0:
230,332,204867,1,2,0:0:0:0:
301,162,205038,1,8,0:0:0:0:
165,265,205210,1,8,1:0:0:0:
337,263,205381,1,0,1:0:0:0:
12,306,205552,6,0,L|10:113,1,161.999995056153,4|0,0:0|0:0,0:0:0:0:
9,100,205895,1,0,1:0:0:0:
253,33,206067,1,8,0:0:0:0:
141,217,206238,1,0,0:0:0:0:
141,217,206324,1,0,0:0:0:0:
141,217,206410,1,8,0:0:0:0:
123,32,206581,1,0,0:0:0:0:
272,204,206752,1,8,0:0:0:0:
401,47,206924,1,2,0:0:0:0:
271,224,207095,5,8,0:0:0:0:
406,197,207267,1,2,0:0:0:0:
237,85,207438,1,8,0:0:0:0:
316,312,207610,1,2,0:0:0:0:
357,113,207781,1,8,0:0:0:0:
202,227,207952,1,0,1:0:0:0:
62,63,208124,1,4,1:3:0:0:
107,359,208295,6,0,P|107:276|102:162,1,161.999995056153,4|0,0:0|0:0,0:0:0:0:
96,155,208638,1,2,0:0:0:0:
9,285,208810,1,8,0:0:0:0:
220,313,208981,1,2,0:0:0:0:
220,313,209067,1,0,0:0:0:0:
220,313,209152,1,10,0:0:0:0:
305,160,209324,1,0,0:0:0:0:
369,281,209495,1,8,0:0:0:0:
203,170,209667,6,0,P|202:89|209:40,1,107.999996704102,2|8,0:0|0:0,0:0:0:0:
308,34,210010,1,0,0:0:0:0:
85,136,210181,1,8,0:0:0:0:
241,271,210352,1,0,0:0:0:0:
241,271,210438,1,8,0:0:0:0:
241,271,210524,1,8,0:0:0:0:
85,136,210695,1,8,1:0:0:0:
241,271,210867,1,0,1:0:0:0:
56,384,211038,6,0,P|39:310|38:193,1,161.999995056153,4|0,0:0|0:0,0:0:0:0:
46,182,211381,1,2,0:0:0:0:
169,304,211552,1,8,0:0:0:0:
211,177,211724,1,0,0:0:0:0:
211,177,211810,1,0,0:0:0:0:
211,177,211895,1,0,1:0:0:0:
71,290,212067,1,8,0:0:0:0:
243,362,212238,1,8,3:0:0:0:
211,177,212410,6,0,P|236:89|340:77,1,161.999995056153,4|0,0:0|0:0,0:0:0:0:
338,69,212752,1,0,1:0:0:0:
135,104,212924,1,8,0:0:0:0:
341,201,213095,1,0,0:0:0:0:
53,80,213267,2,0,L|33:14,1,53.9999983520508,8|0,0:0|0:0,0:0:0:0:
211,177,213438,2,0,L|231:111,1,53.9999983520508,2|2,0:0|0:0,0:0:0:0:
19,220,213610,2,0,L|-1:154,1,53.9999983520508,2|2,0:0|0:0,0:0:0:0:
224,353,213781,6,0,P|314:357|380:323,1,135,4|0,0:0|0:0,0:0:0:0:
385,322,214124,1,2,3:0:0:0:
344,162,214295,2,0,P|340:227|344:263,1,90,0|0,1:0|0:0,0:0:0:0:
454,184,214638,2,0,P|456:139|452:94,1,90,8|0,0:0|0:0,0:0:0:0:
344,162,214981,1,2,0:0:0:0:
125,70,215152,6,0,P|209:64|279:72,1,135,0|0,1:0|0:0,0:0:0:0:
294,75,215495,1,2,3:0:0:0:
170,188,215667,1,2,0:0:0:0:
170,188,215838,1,0,0:0:0:0:
64,98,216010,1,8,0:0:0:0:
255,176,216181,1,8,1:0:0:0:
53,231,216352,1,0,3:0:0:0:
319,349,216524,6,0,P|389:353|460:268,1,180,4|0,0:0|0:0,0:0:0:0:
360,165,217038,2,0,L|364:270,1,90,0|0,1:0|0:0,0:0:0:0:
466,171,217381,2,0,L|469:81,1,90,8|0,0:0|0:0,0:0:0:0:
275,232,217724,1,0,1:0:0:0:
491,216,217895,6,0,L|494:31,1,180,2|0,0:0|0:0,0:0:0:0:
406,4,218410,2,0,P|362:9|309:10,1,90,8|2,0:0|3:0,0:0:0:0:
103,95,218752,1,8,0:0:0:0:
181,241,218924,1,8,0:0:0:0:
231,127,219095,1,0,1:0:0:0:
375,350,219267,6,0,L|177:337,1,180,4|0,0:0|0:0,0:0:0:0:
82,335,219781,2,0,L|71:225,1,90,0|0,1:0|0:0,0:0:0:0:
180,126,220124,2,0,L|171:215,1,90,8|0,0:0|0:0,0:0:0:0:
75,148,220467,1,2,0:0:0:0:
296,212,220638,6,0,P|363:217|449:205,1,135,2|0,0:0|0:0,0:0:0:0:
461,190,220981,1,0,0:0:0:0:
356,112,221152,1,2,0:0:0:0:
323,297,221324,1,0,0:0:0:0:
323,297,221410,1,0,0:0:0:0:
323,297,221495,1,8,0:0:0:0:
430,209,221667,1,8,0:0:0:0:
296,212,221838,1,0,1:0:0:0:
486,337,222010,6,0,L|474:149,1,180,4|2,0:0|0:0,0:0:0:0:
401,40,222524,2,0,P|346:32|294:38,1,90,10|0,0:0|0:0,0:0:0:0:
151,120,222867,1,8,0:0:0:0:
151,120,223038,1,0,0:0:0:0:
305,176,223210,1,2,0:0:0:0:
96,369,223381,6,0,P|91:302|112:173,1,180,4|0,0:0|0:0,0:0:0:0:
216,189,223895,2,0,P|263:184|316:173,1,90,0|10,1:0|0:0,0:0:0:0:
139,82,224238,1,12,0:0:0:0:
208,281,224410,1,0,1:0:0:0:
280,53,224581,2,0,L|292:0,1,45,8|0,0:0|0:0,0:0:0:0:
43,150,224752,2,0,L|31:97,1,45,8|8,0:0|0:0,0:0:0:0:
421,347,224924,6,0,P|431:262|426:237,1,60,4|0,0:0|0:0,0:0:0:0:
307,156,225152,2,0,P|375:207|399:215,1,60,8|0,1:0|0:0,0:0:0:0:
512,148,225381,2,0,P|433:181|414:198,1,60,8|0,1:0|0:0,0:0:0:0:
14,184,225610,6,0,L|71:200,1,60,4|0,0:0|0:0,0:0:0:0:
148,342,225838,2,0,L|132:283,1,60,8|0,1:0|0:0,0:0:0:0:
216,138,226067,2,0,L|173:180,1,60,8|0,1:0|0:0,0:0:0:0:
63,346,226295,6,0,P|133:353|262:302,1,180,4|0,0:0|0:0,0:0:0:0:
434,117,226810,2,0,L|438:288,1,135,4|0,0:0|0:0,0:0:0:0:
438,287,227152,1,2,1:0:0:0:
284,130,227324,1,8,0:0:0:0:
336,281,227495,1,0,0:0:0:0:
369,45,227667,1,8,0:0:0:0:
218,181,227838,1,8,0:0:0:0:
218,181,227924,1,8,0:0:0:0:
218,181,228010,1,0,3:0:0:0:
218,181,229552,6,0,B|259:161|298:170|298:170|343:195|343:195|380:170|433:180,1,215.999993408203,4|2,0:0|3:0,0:0:0:0:
271,278,230066,1,8,0:0:0:0:
191,179,230238,1,0,0:0:0:0:
142,372,230409,1,0,1:0:0:0:
44,193,230581,2,0,P|34:130|44:95,1,90,8|0,3:0|3:0,0:0:0:0:
191,179,230924,6,0,P|133:179|184:100,1,180,4|2,0:0|3:0,0:0:0:0:
307,202,231438,2,0,L|301:303,1,90,8|0,2:0|0:0,0:0:0:0:
201,200,231781,1,0,1:0:0:0:
397,183,231952,2,0,L|391:284,1,90,8|0,3:0|0:0,0:0:0:0:
338,62,232295,6,0,P|415:51|505:102,1,180,4|2,0:0|3:0,0:0:0:0:
307,202,232809,1,8,0:0:0:0:
223,21,232981,1,0,0:0:0:0:
223,21,233066,1,0,0:0:0:0:
223,21,233152,1,0,1:0:0:0:
180,197,233324,1,8,3:0:0:0:
338,62,233495,1,0,0:0:0:0:
145,201,233666,6,0,P|154:290|165:390,1,180,4|2,0:0|3:0,0:0:0:0:
306,177,234181,1,8,0:0:0:0:
138,31,234352,1,0,0:0:0:0:
138,31,234438,1,0,0:0:0:0:
138,31,234524,2,0,L|86:29,1,45,0|0,1:0|0:0,0:0:0:0:
145,201,234695,2,0,L|172:156,1,45,8|8,1:0|0:0,0:0:0:0:
0,99,234866,2,0,L|24:145,1,45,8|0,1:0|0:0,0:0:0:0:
160,353,235038,6,0,B|281:366|281:366|313:354|336:314,1,180,4|2,0:0|3:0,0:0:0:0:
488,145,235552,2,0,P|505:199|505:231,1,90,8|0,0:0|0:0,0:0:0:0:
268,217,235895,1,0,1:0:0:0:
394,19,236066,2,0,P|438:14|483:9,1,90,8|0,3:0|0:0,0:0:0:0:
196,95,236409,6,0,B|69:80|69:80|111:109,1,180,4|2,0:0|3:0,0:0:0:0:
378,232,236924,2,0,P|393:189|394:145,1,90,8|0,0:0|0:0,0:0:0:0:
253,14,237266,1,0,1:0:0:0:
163,184,237438,2,0,P|163:228|179:270,1,90,8|0,0:0|0:0,0:0:0:0:
403,368,237781,6,0,P|314:358|224:347,1,180,4|2,0:0|3:0,0:0:0:0:
73,195,238295,2,0,P|117:190|162:184,1,90,8|0,0:0|0:0,0:0:0:0:
382,116,238638,1,0,1:0:0:0:
182,27,238809,2,0,P|134:28|85:51,1,90,8|0,0:0|0:0,0:0:0:0:
1,301,239152,6,0,B|125:285|125:285|151:300|192:307,1,180,4|8,0:0|3:0,0:0:0:0:
397,322,239666,1,10,0:0:0:0:
233,380,239838,1,0,0:0:0:0:
352,201,240009,1,2,0:0:0:0:
396,197,240094,1,2,0:0:0:0:
439,209,240180,1,2,0:0:0:0:
475,237,240266,1,2,0:0:0:0:
498,275,240352,2,0,L|494:319,1,45,8|8,0:0|0:0,0:0:0:0:
322,223,240524,6,0,B|307:100|307:100|353:31,1,180,4|2,0:0|3:0,0:0:0:0:
475,237,241038,1,8,0:0:0:0:
331,332,241209,1,0,0:0:0:0:
446,130,241381,1,0,1:0:0:0:
310,363,241552,2,0,L|192:349,1,90,8|0,3:0|0:0,0:0:0:0:
106,136,241895,6,0,B|209:112|187:183|293:157,1,180,4|2,0:0|3:0,0:0:0:0:
253,55,242409,1,8,0:0:0:0:
151,232,242581,1,0,0:0:0:0:
151,232,242666,1,0,0:0:0:0:
151,232,242752,1,0,1:0:0:0:
106,18,242924,1,8,0:0:0:0:
280,160,243095,1,2,0:0:0:0:
76,307,243266,6,0,P|45:227|94:142,1,180,4|2,0:0|3:0,0:0:0:0:
240,235,243781,2,0,L|129:231,1,90,8|0,0:0|0:0,0:0:0:0:
396,189,244124,1,0,1:0:0:0:
258,350,244295,1,10,0:0:0:0:
210,98,244466,1,0,0:0:0:0:
486,173,244638,6,0,P|461:256|378:280,1,180,4|0,0:0|3:0,0:0:0:0:
151,231,245152,1,8,0:0:0:0:
396,189,245324,1,0,0:0:0:0:
396,189,245409,1,0,0:0:0:0:
396,189,245495,1,2,0:0:0:0:
236,376,245666,1,8,1:0:0:0:
288,80,245838,1,8,1:0:0:0:
67,291,246009,6,0,B|26:252|26:252|48:112,1,180,4|2,0:0|3:0,0:0:0:0:
238,233,246524,2,0,P|194:240|151:230,1,90,8|0,0:0|0:0,0:0:0:0:
196,57,246866,1,0,1:0:0:0:
344,188,247038,2,0,L|338:293,1,90,8|0,0:0|3:0,0:0:0:0:
303,63,247381,6,0,P|386:64|461:129,1,180,4|2,0:0|3:0,0:0:0:0:
239,234,247895,2,0,P|230:186|239:142,1,90,8|0,0:0|0:0,0:0:0:0:
435,233,248238,1,0,1:0:0:0:
286,316,248409,1,8,3:0:0:0:
351,157,248581,1,0,3:0:0:0:
490,374,248752,6,0,P|497:291|504:182,1,180,4|2,0:0|3:0,0:0:0:0:
279,226,249266,2,0,P|281:270|285:315,1,90,8|2,0:0|0:0,0:0:0:0:
363,133,249609,1,0,1:0:0:0:
185,43,249781,2,0,P|128:36|73:58,1,90,8|0,0:0|0:0,0:0:0:0:
7,251,250124,6,0,B|59:242|59:242|123:272|123:272|195:262,1,180,4|2,0:0|0:0,0:0:0:0:
352,187,250638,1,8,0:0:0:0:
182,117,250809,1,8,0:0:0:0:
182,117,250895,1,8,0:0:0:0:
182,117,250981,2,0,L|189:50,1,45,0|0,1:0|0:0,0:0:0:0:
352,5,251152,1,8,0:0:0:0:
381,28,251238,1,8,0:0:0:0:
417,43,251324,1,8,0:0:0:0:
453,48,251409,1,8,0:0:0:0:
490,33,251495,6,0,B|477:102|477:102|501:147|501:147|491:237,1,180,4|0,0:0|0:0,0:0:0:0:
258,177,252009,2,0,L|347:168,1,90,2|0,1:0|0:0,0:0:0:0:
217,369,252352,2,0,L|128:360,1,90,2|0,1:0|0:0,0:0:0:0:
12,228,252695,1,2,1:0:0:0:
93,54,252866,6,0,P|141:97|147:219,1,180,4|0,0:0|1:0,0:0:0:0:
325,346,253381,2,0,P|325:298|349:251,1,90,2|0,1:0|0:0,0:0:0:0:
486,152,253724,1,2,1:0:0:0:
433,323,253895,1,0,0:0:0:0:
320,86,254066,1,2,1:0:0:0:
512,252,254238,1,0,0:0:0:0:
261,231,254409,6,0,L|159:237,1,90,4|0,0:0|0:0,0:0:0:0:
0,246,254752,1,2,1:0:0:0:
85,70,254924,2,0,P|129:55|189:61,1,90,4|0,0:0|2:0,0:0:0:0:
348,217,255266,2,0,P|304:232|244:226,1,90,8|10,0:0|1:0,0:0:0:0:
512,132,255609,6,0,P|507:223|501:328,1,180,4|0,0:0|3:0,0:0:0:0:
320,125,256124,2,0,P|317:79|314:26,1,90,8|0,0:0|0:0,0:0:0:0:
217,230,256466,1,8,0:0:0:0:
417,168,256638,1,0,1:0:0:0:
214,83,256809,1,4,3:0:0:0:
384,295,256981,6,0,P|314:340|201:314,1,180,4|2,0:0|3:0,0:0:0:0:
58,199,257495,1,8,0:0:0:0:
109,361,257666,1,0,0:0:0:0:
217,230,257838,1,0,1:0:0:0:
38,215,258009,2,0,L|43:118,1,90,8|2,0:0|0:0,0:0:0:0:
259,21,258352,6,0,P|314:17|364:35,1,90,4|0,0:0|0:0,0:0:0:0:
469,103,258695,1,2,0:0:0:0:
295,140,258866,1,8,0:0:0:0:
419,212,259038,2,0,L|516:200,1,90,2|0,0:0|0:0,0:0:0:0:
371,371,259381,2,0,L|274:359,1,90,0|8,1:0|0:0,0:0:0:0:
62,328,259724,1,10,0:0:0:0:
255,154,259895,5,4,0:0:0:0:
169,345,260066,1,0,1:0:0:0:
78,161,260238,1,8,0:0:0:0:
339,208,260409,2,0,P|354:155|341:101,1,90,4|0,0:0|0:0,0:0:0:0:
246,19,260752,1,8,0:0:0:0:
210,256,260924,1,8,0:0:0:0:
409,3,261095,6,0,P|457:47|480:134,1,135,4|0,0:0|0:0,0:0:0:0:
472,156,261438,1,0,1:0:0:0:
132,40,261609,1,0,1:0:0:0:
132,40,261952,5,0,1:0:0:0:
326,356,262124,1,0,1:0:0:0:
326,356,262466,6,0,B|347:313|347:313|325:176,1,161.999995056153,4|2,0:0|3:0,0:0:0:0:
158,297,262981,2,0,P|195:306|239:302,1,80.9999975280763,8|0,0:0|0:0,0:0:0:0:
203,151,263324,1,2,3:0:0:0:
137,289,263495,1,0,2:0:0:0:
93,100,263666,1,8,0:0:0:0:
249,217,263838,6,0,P|331:208|426:200,1,161.999995056153,0|0,0:0|0:0,0:0:0:0:
502,48,264352,2,0,P|461:43|413:39,1,80.9999975280763,8|0,0:0|0:0,0:0:0:0:
254,104,264695,1,8,3:0:0:0:
254,104,264781,1,0,3:0:0:0:
254,104,264866,1,8,3:0:0:0:
410,201,265038,1,8,0:0:0:0:
208,260,265209,6,0,B|167:250|123:271|123:271|64:271|28:228,1,161.999995056153,4|0,0:0|3:0,0:0:0:0:
118,49,265724,2,0,L|114:130,1,80.9999975280763,8|0,0:0|0:0,0:0:0:0:
208,260,266066,1,0,1:0:0:0:
289,138,266238,1,0,0:0:0:0:
104,156,266409,1,8,0:0:0:0:
284,109,266581,6,0,P|368:117|466:127,1,161.999995056153,0|0,0:0|0:0,0:0:0:0:
510,299,267095,2,0,P|468:303|419:308,1,80.9999975280763,8|0,0:0|0:0,0:0:0:0:
259,326,267438,1,0,0:0:0:0:
123,224,267609,1,8,0:0:0:0:
104,188,267694,1,8,0:0:0:0:
98,148,267780,1,8,0:0:0:0:
104,108,267866,1,8,0:0:0:0:
123,72,267952,6,0,B|159:98|159:98|225:113|305:79,1,161.999995056153,4|0,0:0|1:0,0:0:0:0:
445,102,268466,2,0,L|434:237,1,121.499996292114,8|0,0:0|0:0,0:0:0:0:
338,266,268809,2,0,L|331:171,1,80.9999975280763,8|0,0:0|0:0,0:0:0:0:
182,248,269152,1,8,0:0:0:0:
306,376,269324,6,0,P|365:362|474:352,1,161.999995056153,4|0,0:0|0:0,0:0:0:0:
331,184,269838,2,0,P|272:173|202:170,1,121.499996292114,8|0,0:0|0:0,0:0:0:0:
120,192,270181,1,0,1:0:0:0:
247,277,270352,1,8,0:0:0:0:
209,68,270524,1,8,0:0:0:0:
145,293,270695,6,0,P|68:281|19:211,1,161.999995056153,4|0,0:0|0:0,0:0:0:0:
95,36,271209,2,0,P|102:76|108:129,1,80.9999975280763,8|2,0:0|0:0,0:0:0:0:
228,223,271552,1,0,0:0:0:0:
243,61,271724,1,0,1:0:0:0:
120,192,271895,1,8,0:0:0:0:
299,142,272066,6,0,P|379:135|482:125,1,161.999995056153,4|0,0:0|0:0,0:0:0:0:
508,266,272581,1,8,0:0:0:0:
480,295,272666,1,8,0:0:0:0:
443,312,272752,1,8,0:0:0:0:
402,312,272838,1,8,0:0:0:0:
362,301,272924,1,2,0:0:0:0:
299,142,273095,2,0,P|301:103|303:59,1,80.9999975280763,2|0,1:0|0:0,0:0:0:0:
143,142,273438,6,0,P|147:228|151:325,1,161.999995056153,4|0,0:0|3:0,0:0:0:0:
358,192,273952,2,0,P|308:178|228:195,1,121.499996292114,8|0,0:0|0:0,0:0:0:0:
148,227,274295,1,8,0:0:0:0:
294,316,274466,1,0,0:0:0:0:
232,97,274638,1,8,0:0:0:0:
133,244,274809,1,0,0:0:0:0:
358,192,274981,6,0,L|465:197,1,80.9999975280763,8|0,0:0|0:0,0:0:0:0:
288,47,275324,2,0,B|210:59|210:59|139:42,1,121.499996292114,8|0,0:0|0:0,0:0:0:0:
78,14,275666,1,8,0:0:0:0:
164,161,275838,1,0,0:0:0:0:
294,17,276009,1,0,1:0:0:0:
90,99,276181,6,0,P|69:157|121:248,1,161.999995056153,4|0,0:0|1:0,0:0:0:0:
245,152,276695,2,0,L|135:164,1,80.9999975280763,8|0,0:0|0:0,0:0:0:0:
332,259,277038,1,2,1:0:0:0:
363,67,277209,1,0,0:0:0:0:
165,161,277381,1,8,0:0:0:0:
344,285,277552,6,0,L|461:270,1,80.9999975280763,4|8,0:0|0:0,0:0:0:0:
348,159,277895,1,0,1:0:0:0:
250,345,278066,1,8,0:0:0:0:
176,190,278238,1,0,0:0:0:0:
344,285,278409,5,8,0:0:0:0:
132,285,278581,1,2,0:0:0:0:
332,259,278752,1,8,0:0:0:0:
125,312,278924,6,0,B|62:343|1:294|1:294|30:276,1,161.999995056153,4|0,0:0|0:0,0:0:0:0:
200,186,279438,2,0,L|297:192,1,80.9999975280763,8|0,0:0|3:0,0:0:0:0:
451,202,279781,1,2,0:0:0:0:
465,173,279866,1,0,0:0:0:0:
473,141,279952,1,2,0:0:0:0:
475,109,280038,1,0,0:0:0:0:
471,77,280123,1,8,0:0:0:0:
461,46,280209,1,0,0:0:0:0:
445,18,280295,6,0,B|403:17|372:42|372:42|332:17|283:30,1,161.999995056153,4|0,2:0|1:0,0:0:0:0:
147,120,280809,1,8,0:0:0:0:
315,149,280981,1,8,0:0:0:0:
180,9,281152,1,8,0:0:0:0:
53,157,281324,2,0,L|61:229,1,40.4999987640381,8|0,0:0|0:0,0:0:0:0:
79,321,281495,1,8,0:0:0:0:
79,321,281581,1,8,0:0:0:0:
79,321,281666,6,0,P|163:334|243:269,1,180,4|0,0:0|1:0,0:0:0:0:
433,187,282181,2,0,P|451:227|457:272,1,90,8|0,0:0|0:0,0:0:0:0:
286,138,282524,2,0,P|292:93|310:52,1,90,2|0,0:0|0:0,0:0:0:0:
454,174,282866,1,8,0:0:0:0:
265,153,283038,1,0,0:0:0:0:
325,331,283209,6,0,B|270:304|270:304|134:317,1,180,2|8,0:0|0:0,0:0:0:0:
0,331,283724,1,0,3:0:0:0:
86,143,283895,1,2,0:0:0:0:
86,143,283981,1,0,0:0:0:0:
86,143,284066,1,8,1:0:0:0:
165,334,284238,1,8,1:0:0:0:
263,152,284409,6,0,B|323:144|323:144|385:166|385:166|450:159,1,180,4|0,0:0|3:0,0:0:0:0:
215,20,284924,1,8,0:0:0:0:
259,184,285095,1,0,0:0:0:0:
259,184,285181,1,0,0:0:0:0:
259,184,285266,2,0,L|252:286,1,90,2|0,0:0|0:0,0:0:0:0:
58,369,285609,2,0,L|51:267,1,90,8|0,0:0|0:0,0:0:0:0:
34,90,285952,6,0,B|127:62|117:135|214:106,1,180,2|8,0:0|0:0,0:0:0:0:
346,43,286466,1,0,3:0:0:0:
219,229,286638,1,0,1:0:0:0:
172,9,286809,1,8,1:0:0:0:
336,163,286981,1,8,1:0:0:0:
151,290,287152,6,0,B|83:326|17:273|17:273|61:240,1,180,4|0,0:0|1:0,0:0:0:0:
233,95,287666,2,0,P|239:166|244:240,1,135,8|0,0:0|0:0,0:0:0:0:
346,262,288009,2,0,P|350:209|354:154,1,90,8|0,0:0|0:0,0:0:0:0:
484,344,288352,1,8,0:0:0:0:
241,367,288524,6,0,P|160:335|112:237,1,180,6|0,0:0|0:0,0:0:0:0:
222,59,289038,2,0,L|349:64,1,90,10|0,0:0|0:0,0:0:0:0:
410,76,289295,1,8,0:0:0:0:
410,76,289381,2,0,P|417:125|400:177,1,90,8|8,0:0|0:0,0:0:0:0:
337,369,289724,1,4,1:3:0:0:
188,200,289895,6,0,B|145:176|89:192|112:201|67:230|4:204,1,180,4|2,0:0|3:0,0:0:0:0:
32,21,290409,2,0,P|51:61|47:106,1,90,8|0,0:0|0:0,0:0:0:0:
188,200,290752,2,0,P|183:155|202:115,1,90,2|0,3:0|0:0,0:0:0:0:
357,7,291095,1,8,0:0:0:0:
412,216,291266,6,0,P|327:231|265:171,1,180,4|8,0:0|0:0,0:0:0:0:
479,96,291781,1,2,0:0:0:0:
472,320,291952,1,8,3:0:0:0:
472,320,292038,1,8,0:0:0:0:
472,320,292124,1,8,0:0:0:0:
355,142,292295,1,8,0:0:0:0:
355,142,292381,1,8,0:0:0:0:
355,142,292466,1,8,0:0:0:0:
219,365,292638,6,0,P|130:350|34:338,1,180,4|0,0:0|3:0,0:0:0:0:
221,161,293152,2,0,P|287:149|359:140,1,135,8|0,0:0|0:0,0:0:0:0:
456,159,293495,1,8,0:0:0:0:
306,258,293666,1,0,0:0:0:0:
367,22,293838,1,8,0:0:0:0:
466,192,294009,1,0,0:0:0:0:
269,63,294181,6,0,L|166:56,1,90,8|0,0:0|0:0,0:0:0:0:
11,221,294524,2,0,L|160:210,1,135,8|0,0:0|0:0,0:0:0:0:
247,203,294866,1,8,0:0:0:0:
90,112,295038,1,0,1:0:0:0:
166,322,295209,1,8,1:0:0:0:
344,156,295381,6,0,B|331:18|331:18|282:65,1,180,4|0,0:0|3:0,0:0:0:0:
290,290,295895,2,0,P|351:300|424:276,1,135,8|0,0:0|0:0,0:0:0:0:
490,202,296238,2,0,L|495:89,1,90,8|0,0:0|0:0,0:0:0:0:
331,18,296581,1,8,0:0:0:0:
188,141,296752,6,0,P|141:149|42:60,1,180,6|0,0:0|0:0,0:0:0:0:
324,111,297266,2,0,L|314:208,1,90,8|0,0:0|0:0,0:0:0:0:
105,140,297609,1,2,0:0:0:0:
263,13,297781,1,8,2:0:0:0:
207,174,297952,1,0,1:0:0:0:
30,33,298124,6,0,B|1:82|1:82|24:227,1,180,4|0,0:0|3:0,0:0:0:0:
192,349,298638,2,0,P|262:349|328:311,1,135,8|0,0:0|0:0,0:0:0:0:
376,233,298981,1,0,0:0:0:0:
207,174,299152,1,8,0:0:0:0:
401,246,299324,1,8,0:0:0:0:
271,62,299495,6,0,P|194:45|97:109,1,180,4|0,0:0|1:0,0:0:0:0:
29,312,300009,1,8,0:0:0:0:
207,174,300181,1,8,0:0:0:0:
207,174,300266,1,8,0:0:0:0:
207,174,300352,1,8,0:0:0:0:
7,50,300524,1,8,0:0:0:0:
115,256,300695,1,8,1:0:0:0:
269,58,300866,6,0,P|339:41|404:68,1,125.999996154785,4|0,0:0|0:0,0:0:0:0:
500,178,301381,1,2,0:0:0:0:
500,178,301724,2,0,B|456:159|456:159|364:176,1,125.999996154785,8|0,0:0|1:0,0:0:0:0:
263,281,302238,6,0,B|307:262|307:262|399:279,1,125.999996154785,0|8,1:0|0:0,0:0:0:0:
492,239,302752,2,0,P|502:202|498:173,1,62.9999980773926,0|0,1:0|1:0,0:0:0:0:
378,76,303095,1,8,0:0:0:0:
409,197,303266,1,0,3:0:0:0:
474,88,303438,1,8,0:0:0:0:
303,153,303609,6,0,P|199:135|163:130,1,125.999996154785,4|8,0:0|0:0,0:0:0:0:
104,36,304124,2,0,P|156:27|174:24,1,62.9999980773926,2|0,0:0|0:0,0:0:0:0:
329,19,304466,2,0,B|345:100|345:100|316:140,1,125.999996154785,8|8,0:0|0:0,0:0:0:0:
236,222,304981,1,0,3:0:0:0:
352,250,305152,5,0,1:0:0:0:
319,135,305324,1,8,0:0:0:0:
435,163,305495,2,0,L|500:157,1,62.9999980773926,0|0,3:0|3:0,0:0:0:0:
417,67,305838,1,8,0:0:0:0:
319,135,306009,1,0,0:0:0:0:
352,250,306181,1,8,0:0:0:0:
309,111,306352,6,0,P|234:107|172:136,1,125.999996154785,4|0,0:0|3:0,0:0:0:0:
121,232,306866,2,0,P|152:232|189:244,1,62.9999980773926,8|0,0:0|0:0,0:0:0:0:
20,295,307209,2,0,P|3:236|24:165,1,125.999996154785,8|2,0:0|0:0,0:0:0:0:
81,71,307724,1,0,0:0:0:0:
187,125,307895,5,2,0:0:0:0:
182,5,308066,1,8,0:0:0:0:
288,60,308238,1,8,1:0:0:0:
187,125,308409,1,8,1:0:0:0:
294,179,308581,2,0,L|375:169,1,62.9999980773926,8|0,0:0|0:0,0:0:0:0:
313,283,308924,1,8,0:0:0:0:
154,203,309095,6,0,B|130:160|130:160|149:47,1,161.999995056153,4|0,0:0|0:0,0:0:0:0:
297,7,309609,2,0,P|322:45|331:83,1,80.9999975280763,0|0,1:0|0:0,0:0:0:0:
409,211,309952,2,0,P|419:172|442:138,1,80.9999975280763,8|0,0:0|0:0,0:0:0:0:
510,277,310295,1,0,1:0:0:0:
316,349,310466,6,0,P|233:330|132:315,1,180,4|8,0:0|0:0,0:0:0:0:
10,151,310981,1,8,0:0:0:0:
215,132,311152,1,8,0:0:0:0:
13,285,311324,5,8,0:0:0:0:
164,30,311495,1,8,0:0:0:0:
349,249,311666,1,8,0:0:0:0:
45,159,311838,1,8,0:0:0:0:
