osu file format v14

[General]
AudioFilename: audio.mp3
AudioLeadIn: 0
PreviewTime: 69952
Countdown: 0
SampleSet: Soft
StackLeniency: 0.7
Mode: 2
LetterboxInBreaks: 0
EpilepsyWarning: 1
WidescreenStoryboard: 1

[Editor]
Bookmarks: 136810,136852,136895,136938,136981,137024,137067,137110,137152,229381,229424,229467,229510,229552,229595,229638,229681,229724
DistanceSpacing: 2
BeatDivisor: 4
GridSize: 32
TimelineZoom: 2.799999

[Metadata]
Title:Kimi to Iu Tokuiten [singular you]
TitleUnicode:君という特異点 [singular you]
Artist:fhana
ArtistUnicode:fhána
Creator:-Sh1n1-
Version:Fruits of Melody
Source:
Tags:佐藤 純一 林 英樹 Hayashi Hideki ケセラセラ Outside of Melancholy lantis Junichi Sato yuxuki waga kevin mitsunaga towana collab collaboration shini que sera the singularity known as you singular ascendance spectator cslm cslmvenezuela mir akitoshi
BeatmapID:1453010
BeatmapSetID:686526

[Difficulty]
HPDrainRate:6
CircleSize:4.5
OverallDifficulty:9.3
ApproachRate:9.3
SliderMultiplier:1.6
SliderTickRate:2

[Events]
//Background and Video events
0,0,"BG.jpg",0,0
//Break Periods
2,104266,113113
//Storyboard Layer 0 (Background)
//Storyboard Layer 1 (Fail)
//Storyboard Layer 2 (Pass)
//Storyboard Layer 3 (Foreground)
Sprite,Foreground,CentreRight,"sb\black.jpg",320,240 F,0,20410,,0.5 V,1,20410,21095,0.1,1.5,3.7,1.5 M,0,21095,21267,747,220
Sprite,Foreground,CentreLeft,"sb\black.jpg",320,240 M,0,21267,,561,220 F,0,21267,,0.5 V,1,21267,21610,3.7,1.5,0.1,1.5
Sprite,Foreground,CentreRight,"sb\black.jpg",320,240 F,0,20410,,0.5 V,1,20410,21095,0.1,1.5,5.7,1.5 M,0,21095,21267,747,300
Sprite,Foreground,CentreLeft,"sb\black.jpg",320,240 M,0,21267,,462,300 F,0,21267,,0.5 V,1,21267,21610,5.7,1.5,0.1,1.5
Sprite,Foreground,CentreRight,"sb\black.jpg",320,240 F,0,20410,,0.5 V,1,20410,21095,0.1,1.5,4.9,1.5 M,0,21095,21267,747,380
Sprite,Foreground,CentreLeft,"sb\black.jpg",320,240 M,0,21267,,501,380 F,0,21267,,0.5 V,1,21267,21610,4.9,1.5,0.1,1.5
Sprite,Foreground,Centre,"sb\names\-sh1n1-.png",320,240 F,0,20410,21095,0,1 M,0,21267,,652,220 S,0,21267,,0.6366452 V,0,21267,,1,1 F,0,21267,21610,1,0
Sprite,Foreground,CentreLeft,"sb\black.jpg",-107,365 F,0,-332,,0.5 V,1,-332,10,0.1,1.1,2.4,1.1 V,1,103724,104067,2.4,1.1,0.1,1.1 F,0,104047,104067,0.5,0 F,0,113152,,0.5 V,1,113152,113495,0.1,1.1,2.4,1.1 V,1,136467,136810,2.4,1.1,0.1,1.1 F,0,136790,136810,0.5,0 F,0,136981,,0.5 V,1,136981,137324,0.1,1.1,3.9,1.1 V,1,227667,228010,3.9,1.1,0.1,1.1 F,0,227990,228010,0.5,0 F,0,229210,,0.5 V,1,229210,229552,0.1,1.1,3.2,1.1 V,1,311324,311666,3.2,1.1,0.1,1.1 F,0,311646,311666,0.5,0
Sprite,Foreground,CentreLeft,"sb\names\-sh1n1-.png",-107,365 S,0,-332,,0.4 F,0,-332,10,0,1 F,0,103724,104067,1,0 F,0,113152,113495,0,1 F,0,136467,136810,1,0
Sprite,Foreground,Centre,"sb\names\ascendance.png",320,240 F,0,20410,21095,0,1 M,0,21267,,621,300 S,0,21267,,0.6366453 F,0,21267,21610,1,0
Sprite,Foreground,CentreLeft,"sb\names\ascendance.png",-107,365 S,0,136981,,0.4 F,0,136981,137324,0,1 F,0,227667,228010,1,0
Sprite,Foreground,Centre,"sb\names\spectator.png",320,240 F,0,20410,21095,0,1 M,0,21267,,627,380 S,0,21267,,0.6696774 F,0,21267,21610,1,0
Sprite,Foreground,CentreLeft,"sb\names\spectator.png",-107,365 S,0,229210,,0.4 F,0,229210,229552,0,1 F,0,311324,311666,1,0
//Storyboard Sound Samples

[TimingPoints]
10,342.857142857143,4,2,1,40,1,0
5324,-100,4,2,1,62,0,0
16295,-100,4,2,1,65,0,0
27438,-100,4,2,1,48,0,0
37467,-100,4,2,1,51,0,0
38238,-100,4,2,1,64,0,0
49210,-100,4,2,1,62,0,0
66010,-100,4,2,1,52,0,0
66524,-100,4,2,1,55,0,0
67210,-100,4,2,1,58,0,0
68410,-100,4,2,1,61,0,0
70552,-100,4,2,1,5,0,0
70810,-100,4,2,1,63,0,0
70895,-100,4,2,1,5,0,0
71152,-100,4,2,1,75,0,1
81952,-100,4,2,1,75,0,0
82124,-100,4,2,1,75,0,1
92924,-100,4,2,1,75,0,0
93095,-100,4,2,1,69,0,1
104067,-100,4,2,1,60,0,0
113667,-100,4,2,1,51,0,0
130124,-100,4,2,1,54,0,0
131495,-100,4,2,1,52,0,0
153438,-86.9565217391304,4,2,1,60,0,0
158924,-80,4,2,1,70,0,1
169724,-80,4,2,1,70,0,0
169895,-80,4,2,1,70,0,1
180695,-80,4,2,1,70,0,0
180867,-80,4,2,1,70,0,1
191838,-80,4,2,1,60,0,0
213781,-80,4,2,1,59,0,0
224924,-80,4,2,1,55,0,0
229552,-80,4,2,1,60,0,1
229724,342.857142857143,4,2,1,70,1,1
229724,-86.9565217391304,4,2,1,70,0,1
240352,-86.9565217391304,4,2,1,70,0,0
240524,-86.9565217391304,4,2,1,70,0,1
251324,-86.9565217391304,4,2,1,70,0,0
251495,-83.3333333333333,4,2,1,65,0,1
262466,-90.9090909090909,4,2,1,65,0,0
281666,-90.9090909090909,4,2,1,65,0,1
281752,-90.9090909090909,4,2,1,65,0,0
300866,-100,4,2,1,52,0,0
310724,-100,4,2,1,50,0,0
310895,-100,4,2,1,53,0,0
311066,-66.6666666666667,4,2,1,56,0,0
311238,-100,4,2,1,61,0,0
311495,-66.6666666666667,4,2,1,64,0,0
311666,-100,4,2,1,66,0,0
311838,-66.6666666666667,4,2,1,68,0,0

[Colours]
Combo1 : 181,126,87
Combo2 : 153,153,204
Combo3 : 255,174,136
Combo4 : 58,156,88

[HitObjects]
295,328,10,6,0,L|455:328,2,160,2|0|0,0:0|0:0|0:0,0:0:0:0:
471,217,1038,1,2,0:0:0:0:
294,238,1210,6,0,L|134:238,2,160,0|0|2,0:0|0:0|0:0,0:0:0:0:
101,141,2067,2,0,P|45:98|100:54,1,160
338,231,2752,6,0,L|354:143,1,80,2|0,0:0|0:0,0:0:0:0:
225,139,3095,2,0,L|212:57,1,80
388,70,3438,2,0,L|484:70,2,80,2|0|0,0:0|0:0|0:0,0:0:0:0:
195,70,3952,6,0,P|136:102|192:139,1,160,2|0,0:0|0:0,0:0:0:0:
290,173,4467,1,0,0:0:0:0:
162,225,4638,1,0,0:0:0:0:
395,297,4810,2,0,L|432:277,1,40,0|8,1:0|3:2,0:0:0:0:
229,269,4981,2,8,L|266:249,1,40,8|8,3:2|3:2,3:2:0:0:
465,298,5152,2,8,L|502:278,1,40,8|8,3:2|3:2,3:2:0:0:
255,130,5324,6,0,B|300:145|300:145|411:131,1,160,4|2,0:0|3:2,0:0:0:0:
147,213,5838,1,8,0:0:0:0:
211,168,6009,1,0,0:0:0:0:
307,139,6181,1,0,3:0:0:0:
187,85,6352,1,2,3:0:0:0:
339,74,6524,1,8,1:0:0:0:
99,52,6695,6,0,P|49:114|109:126,1,160,4|2,0:0|3:0,0:0:0:0:
332,209,7210,2,0,L|428:209,1,80,8|0,0:0|0:0,0:0:0:0:
380,188,7467,1,0,0:0:0:0:
162,297,7552,1,0,3:0:0:0:
82,297,7723,1,2,3:0:0:0:
195,297,7895,1,8,1:0:0:0:
488,320,8067,6,0,L|317:320,1,160,4|2,0:0|3:3,0:0:0:0:
93,193,8581,2,0,L|173:193,1,80,8|0,0:0|0:0,0:0:0:0:
455,103,8924,1,0,1:0:0:0:
375,103,9095,1,2,3:0:0:0:
488,103,9267,1,8,3:0:0:0:
185,27,9438,6,0,P|130:66|205:103,1,160,4|2,0:0|3:0,0:0:0:0:
430,133,9952,2,0,L|510:134,1,80,8|0,0:0|0:0,0:0:0:0:
478,110,10210,1,0,0:0:0:0:
279,289,10295,1,0,1:2:0:0:
199,289,10466,1,2,3:0:0:0:
344,289,10638,1,8,1:0:0:0:
52,237,10810,6,0,P|-5:202|67:186,1,160,4|2,0:0|3:0,0:0:0:0:
342,193,11324,1,8,0:0:0:0:
278,151,11495,1,0,0:0:0:0:
182,127,11667,1,0,1:0:0:0:
294,68,11838,1,2,3:0:0:0:
149,47,12010,1,8,0:0:0:0:
446,288,12181,6,0,B|361:271|363:303|279:288,1,160,4|2,0:0|3:0,0:0:0:0:
416,187,12695,1,8,0:0:0:0:
179,169,12867,1,0,0:0:0:0:
219,169,12952,1,0,0:0:0:0:
259,169,13038,1,0,1:0:0:0:
122,79,13210,1,2,3:0:0:0:
299,75,13381,1,8,0:0:0:0:
59,187,13552,6,0,P|2:222|74:238,1,160,4|0,0:0|3:0,0:0:0:0:
295,263,14067,2,0,L|392:263,1,80,8|0,0:0|0:0,0:0:0:0:
134,158,14410,1,0,3:0:0:0:
214,158,14581,1,2,3:0:0:0:
101,158,14753,1,8,1:0:0:0:
380,91,14924,5,2,0:0:0:0:
284,59,15095,2,0,L|204:59,1,80,8|0,3:0|3:0,3:0:0:0:
236,35,15353,1,0,3:0:0:0:
425,214,15438,2,0,L|504:214,1,80,8|0,3:0|3:0,3:0:0:0:
473,190,15696,1,0,3:0:0:0:
274,286,15781,6,8,L|227:261,1,40,8|8,3:0|3:0,3:0:0:0:
449,86,15952,2,8,L|496:111,1,40,8|8,3:0|3:0,3:0:0:0:
261,292,16124,2,8,L|214:267,1,40,8|8,3:0|3:0,3:0:0:0:
456,347,16295,6,0,P|504:289|451:237,1,160,4|0,0:0|0:0,0:0:0:0:
159,196,16810,2,0,L|214:132,1,80,8|0,0:0|0:0,0:0:0:0:
451,93,17152,1,8,0:0:0:0:
371,93,17323,1,0,3:0:0:0:
484,93,17495,1,8,0:0:0:0:
155,114,17667,6,0,P|101:69|156:26,1,160,4|0,0:0|0:0,0:0:0:0:
417,186,18181,2,0,L|503:186,1,80,8|0,0:0|0:0,0:0:0:0:
248,282,18524,2,0,L|334:282,1,80,8|0,0:0|3:0,0:0:0:0:
95,198,18867,1,8,0:0:0:0:
358,160,19038,1,0,0:0:0:0:
53,109,19210,6,0,L|220:108,2,160,4|8|2,0:0|0:0|3:0,0:0:0:0:
174,165,20067,1,0,3:0:0:0:
14,227,20238,1,8,0:0:0:0:
279,315,20410,6,0,P|335:273|266:259,1,160,4|0,0:0|3:0,0:0:0:0:
181,224,20924,1,8,0:0:0:0:
421,122,21095,2,0,L|261:122,1,160,2|0,0:0|3:0,0:0:0:0:
358,27,21610,2,0,L|411:27,1,40,10|0,0:0|0:0,0:0:0:0:
157,33,21781,6,0,P|101:75|165:108,1,160,4|0,0:0|0:0,0:0:0:0:
407,242,22295,2,0,L|423:148,1,80,8|0,0:0|0:0,0:0:0:0:
276,182,22638,2,0,L|260:276,1,80,0|0,1:0|0:0,0:0:0:0:
383,333,22981,1,8,0:0:0:0:
112,248,23152,6,0,P|57:290|120:323,1,160,4|2,0:0|0:0,0:0:0:0:
350,138,23667,2,0,L|436:139,1,80,8|0,0:0|0:0,0:0:0:0:
196,29,24010,1,0,1:0:0:0:
131,69,24181,1,0,3:0:0:0:
137,144,24352,1,8,0:0:0:0:
208,172,24524,1,4,3:0:0:0:
448,249,24695,5,4,0:0:0:0:
368,249,24866,1,0,0:0:0:0:
481,249,25038,1,8,0:0:0:0:
179,332,25210,2,0,P|134:270|191:276,1,160,4|0,0:0|1:0,0:0:0:0:
307,192,25724,5,8,0:0:0:0:
74,192,25895,1,0,1:0:0:0:
54,192,26238,5,0,1:0:0:0:
327,192,26409,1,0,1:0:0:0:
347,192,26752,5,0,1:0:0:0:
34,192,26923,1,0,1:0:0:0:
473,60,27267,6,0,B|354:138|371:7|247:66,1,240,4|2,0:0|0:0,0:0:0:0:
411,175,28124,1,0,0:0:0:0:
219,225,28467,1,2,0:0:0:0:
444,278,28810,6,0,P|499:320|436:353,1,160,0|2,0:0|0:0,0:0:0:0:
281,259,29324,2,0,L|308:178,1,80,0|2,0:0|0:0,0:0:0:0:
435,138,29667,2,0,L|460:62,1,80,0|0,3:0|2:0,0:0:0:0:
227,46,30010,6,0,P|172:88|235:121,1,160,4|0,0:0|0:0,0:0:0:0:
358,173,30524,2,0,L|198:173,2,160,2|0|2,0:0|0:0|0:0,0:0:0:0:
229,173,31381,1,0,0:0:0:0:
389,272,31552,6,0,L|477:273,2,80,2|0|0,0:0|0:0|0:0,0:0:0:0:
226,268,32067,2,0,L|217:186,1,80,2|0,0:0|0:0,0:0:0:0:
346,162,32410,2,0,L|362:79,1,80,2|0,0:0|0:0,0:0:0:0:
108,265,32752,6,0,P|37:232|10:160,1,160,4|0,0:0|0:0,0:0:0:0:
108,105,33267,1,2,0:0:0:0:
268,99,33438,2,0,L|241:180,1,80
114,220,33781,2,0,L|89:296,1,80,2|0,0:0|0:0,0:0:0:0:
352,267,34124,6,0,P|407:309|344:342,1,160,4|0,2:0|0:0,0:0:0:0:
189,134,34638,2,0,L|272:131,1,80
349,127,34981,1,0,0:0:0:0:
189,290,35152,2,0,L|167:210,1,80,2|0,2:0|0:0,0:0:0:0:
288,238,35495,1,0,0:0:0:0:
47,282,35667,6,0,P|1:237|54:170,1,160,4|2,0:0|0:0,0:0:0:0:
210,211,36181,1,0,0:0:0:0:
290,211,36352,1,2,0:0:0:0:
210,211,36523,1,0,0:0:0:0:
130,211,36695,1,2,0:0:0:0:
473,52,36867,5,4,0:0:0:0:
281,52,37210,2,8,L|200:52,1,80,8|8,2:0|2:0,2:0:0:0:
473,52,37552,1,4,1:2:0:0:
249,158,37895,1,0,1:0:0:0:
161,158,38067,1,0,1:0:0:0:
432,290,38238,6,0,L|272:290,1,160,4|0,0:0|3:0,0:0:0:0:
433,198,38752,2,0,L|518:197,1,80,8|0,0:0|0:0,0:0:0:0:
272,132,39095,1,0,1:0:0:0:
192,132,39267,1,0,3:0:0:0:
296,104,39438,1,8,0:0:0:0:
167,104,39610,1,2,0:0:0:0:
407,98,39781,6,0,L|450:20,1,80,0|0,1:0|0:0,0:0:0:0:
285,219,40124,2,0,L|328:141,1,80,8|0,0:0|0:0,0:0:0:0:
164,354,40467,1,0,0:0:0:0:
228,312,40638,1,0,1:0:0:0:
324,312,40810,1,8,0:0:0:0:
63,324,40981,6,0,P|15:260|79:256,1,160,4|2,0:0|3:0,0:0:0:0:
290,212,41495,1,0,0:0:0:0:
186,116,41667,2,0,L|135:116,2,40,0|0|0,3:0|3:0|3:0,3:0:0:0:
315,81,42010,1,0,1:0:0:0:
155,14,42181,1,8,0:0:0:0:
395,265,42352,6,0,P|450:223|387:190,1,160,4|2,0:0|3:0,0:0:0:0:
108,195,42867,2,0,L|28:195,1,80,8|0,0:0|3:0,0:0:0:0:
60,165,43124,1,0,3:0:0:0:
261,105,43210,1,0,3:0:0:0:
341,105,43381,1,0,1:0:0:0:
228,105,43552,1,8,3:0:0:0:
462,293,43724,6,0,P|512:234|457:223,1,160,4|0,0:0|3:0,0:0:0:0:
302,194,44238,2,0,L|222:194,1,80,8|0,0:0|0:0,0:0:0:0:
456,74,44581,1,2,0:0:0:0:
376,74,44752,1,0,3:0:0:0:
489,74,44923,1,8,0:0:0:0:
241,130,45095,6,0,P|188:159|249:208,1,160,4|0,0:0|3:0,0:0:0:0:
405,287,45610,2,0,L|318:286,1,80,8|0,0:0|0:0,0:0:0:0:
80,196,45952,1,2,2:0:0:0:
0,196,46123,1,0,3:0:0:0:
113,196,46294,1,8,0:0:0:0:
396,111,46467,6,0,L|230:111,1,160,4|0,0:0|3:0,0:0:0:0:
470,233,46981,1,8,0:0:0:0:
366,311,47152,1,0,3:0:0:0:
406,311,47237,1,0,3:0:0:0:
446,311,47323,1,0,3:0:0:0:
317,175,47495,1,0,1:0:0:0:
478,110,47667,1,8,0:0:0:0:
178,118,47838,6,0,L|16:119,1,160,4|0,0:0|0:0,0:0:0:0:
259,224,48352,2,0,L|176:224,1,80,8|0,0:0|0:0,0:0:0:0:
413,150,48695,2,0,L|452:79,1,80,8|0,0:0|0:0,0:0:0:0:
194,75,49038,1,8,0:0:0:0:
467,229,49210,6,0,P|523:270|465:311,1,160,4|0,0:0|0:0,0:0:0:0:
308,252,49724,2,0,L|276:171,1,80,2|0,1:2|0:0,0:0:0:0:
118,167,50067,2,0,L|86:86,1,80,2|0,1:2|0:0,0:0:0:0:
257,252,50410,2,0,L|225:171,1,80,2|0,1:2|0:0,0:0:0:0:
388,158,50753,6,0,L|356:77,1,80,2|0,1:2|0:0,0:0:0:0:
191,105,51095,2,0,L|159:24,1,80,2|0,1:0|0:0,0:0:0:0:
427,265,51438,1,0,1:0:0:0:
507,265,51610,1,8,3:0:0:0:
403,237,51781,1,4,3:0:0:0:
159,270,51952,6,0,B|103:261|103:261|-7:273,1,160,4|0,0:0|3:0,0:0:0:0:
170,172,52467,2,0,L|170:76,1,80,2|0,1:0|0:0,0:0:0:0:
9,112,52810,2,0,L|9:16,1,80,2|0,1:0|0:0,0:0:0:0:
177,172,53152,2,0,L|177:76,1,80,2|0,1:0|0:0,0:0:0:0:
346,210,53495,6,0,L|346:114,1,80,2|0,1:0|0:0,0:0:0:0:
170,172,53838,2,0,L|170:76,1,80,2|0,1:0|0:0,0:0:0:0:
451,285,54181,1,0,1:0:0:0:
371,285,54353,1,8,3:0:0:0:
475,257,54524,1,4,3:0:0:0:
172,301,54695,6,0,B|121:316|121:316|3:301,1,160,4|0,0:0|0:0,0:0:0:0:
177,198,55210,2,0,L|255:145,1,80,2|0,1:0|0:0,0:0:0:0:
75,141,55552,2,0,L|153:88,1,80,2|0,1:0|0:0,0:0:0:0:
318,198,55895,2,0,L|240:145,1,80,2|0,1:0|0:0,0:0:0:0:
420,141,56238,6,0,L|342:88,1,80,2|0,1:0|0:0,0:0:0:0:
184,312,56581,2,0,L|106:259,1,80,2|0,1:0|0:0,0:0:0:0:
367,271,56924,1,2,1:0:0:0:
447,271,57096,1,8,3:0:0:0:
343,243,57267,1,4,3:0:0:0:
64,314,57438,6,0,P|8:273|66:232,1,160,4|0,0:0|0:0,0:0:0:0:
223,196,57952,2,0,L|145:143,1,80,2|0,1:0|2:0,1:0:0:0:
325,139,58295,2,0,L|247:86,1,80,2|0,1:0|2:0,1:0:0:0:
90,89,58638,2,0,L|12:36,1,80,2|0,1:0|2:0,1:0:0:0:
345,232,58981,5,0,1:0:0:0:
441,230,59152,1,8,3:0:0:0:
207,135,59324,1,8,3:0:0:0:
303,139,59495,1,8,3:0:0:0:
69,53,59667,1,4,3:3:0:0:
165,53,59838,1,4,3:3:0:0:
261,53,60010,1,4,3:3:0:0:
24,174,60181,6,0,B|70:184|70:184|138:168|138:168|180:179,1,160,4|0,0:0|0:0,0:0:0:0:
332,131,60695,1,2,0:0:0:0:
155,59,60867,1,0,0:0:0:0:
395,34,61038,2,0,L|485:34,1,80,8|0,0:0|0:0,0:0:0:0:
226,283,61381,2,0,L|136:283,1,80,0|4,3:0|3:0,0:0:0:0:
266,197,61724,5,2,0:0:0:0:
29,131,61895,2,0,L|199:131,1,160
425,131,62410,1,8,0:0:0:0:
505,131,62581,1,8,3:0:0:0:
392,131,62753,1,4,3:0:0:0:
135,299,62924,6,0,P|99:256|173:213,1,160,4|0,0:0|0:0,0:0:0:0:
344,213,63438,2,0,L|433:213,1,80,2|0,0:0|0:0,0:0:0:0:
183,113,63781,1,8,3:0:0:0:
271,113,63952,1,0,0:0:0:0:
94,42,64124,2,0,L|5:42,1,80,0|4,3:0|3:0,0:0:0:0:
126,124,64467,5,2,0:0:0:0:
358,243,64638,2,0,P|412:285|356:326,1,160
211,209,65152,1,0,0:0:0:0:
381,132,65324,2,0,L|473:131,1,80,8|4,0:0|3:0,0:0:0:0:
164,56,65667,6,0,L|4:56,1,160,4|0,0:0|0:0,0:0:0:0:
269,170,66181,1,8,0:0:0:0:
173,170,66352,1,8,0:0:0:0:
407,125,66524,5,8,0:0:0:0:
64,125,66695,1,8,0:0:0:0:
298,170,66867,1,8,0:0:0:0:
202,170,67038,1,8,0:0:0:0:
436,125,67210,5,8,0:0:0:0:
93,125,67381,1,8,0:0:0:0:
326,170,67552,1,8,0:0:0:0:
230,170,67723,1,8,0:0:0:0:
464,125,67895,5,8,0:0:0:0:
145,125,68066,1,8,0:0:0:0:
492,125,68238,1,8,0:0:0:0:
131,125,68410,6,0,P|76:167|132:208,1,160,4|8,0:0|0:0,0:0:0:0:
367,214,68924,1,4,3:0:0:0:
56,125,69095,2,0,P|1:167|57:208,1,160,4|8,0:0|0:0,0:0:0:0:
324,311,69610,6,0,L|406:311,1,80,0|0,1:2|0:0,0:0:0:0:
141,215,69952,1,0,1:0:0:0:
245,165,70124,2,8,L|305:165,1,40,8|8,3:0|3:0,3:0:0:0:
325,165,70295,1,8,3:0:0:0:
84,27,70467,6,0,P|45:71|88:97,1,120,0|0,1:0|0:0,0:0:0:0:
304,214,70810,2,0,L|178:214,1,120,4|0,1:1|0:0,0:0:0:0:
422,242,71152,6,0,P|476:284|420:325,1,160,4|2,0:0|3:0,0:0:0:0:
169,117,71667,2,0,L|248:118,1,80,8|0,0:0|0:0,0:0:0:0:
145,36,72010,1,0,1:0:0:0:
424,200,72181,2,0,L|328:200,1,80,8|0,3:0|3:0,0:0:0:0:
55,191,72524,6,0,P|1:148|62:102,1,160,4|2,0:0|3:0,0:0:0:0:
335,86,73038,2,0,L|421:83,1,80,8|0,0:0|0:0,0:0:0:0:
387,113,73295,1,0,0:0:0:0:
186,193,73381,1,0,1:0:0:0:
266,193,73552,1,8,3:0:0:0:
346,193,73724,1,0,3:0:0:0:
47,275,73895,6,0,B|160:263|160:263|213:274,1,160,4|2,0:0|3:0,0:0:0:0:
476,120,74410,2,0,L|387:121,1,80,8|0,0:0|0:0,0:0:0:0:
125,85,74752,1,0,1:0:0:0:
205,85,74923,1,8,3:0:0:0:
92,85,75095,1,0,3:0:0:0:
405,232,75267,6,0,P|461:265|398:296,1,160,4|2,0:0|3:0,0:0:0:0:
162,255,75781,2,0,L|249:255,1,80,8|0,0:0|0:0,0:0:0:0:
186,211,76038,1,0,0:0:0:0:
130,169,76124,1,0,1:0:0:0:
370,150,76295,1,8,1:0:0:0:
99,86,76467,1,8,1:0:0:0:
450,236,76638,6,0,P|504:289|436:305,1,160,4|2,0:0|0:3,0:0:0:0:
218,171,77152,2,0,L|151:98,1,80,8|0,0:0|0:0,0:0:0:0:
292,249,77495,1,0,1:0:0:0:
61,162,77667,2,0,L|15:96,1,80,8|0,3:0|3:0,0:0:0:0:
345,114,78010,6,0,P|399:156|337:202,1,160,4|2,0:0|3:0,0:0:0:0:
105,171,78524,2,0,L|26:171,1,80,8|0,0:0|0:0,0:0:0:0:
290,301,78867,1,0,1:0:0:0:
370,301,79038,1,8,3:0:0:0:
450,301,79210,1,0,3:0:0:0:
62,271,79381,6,0,P|6:238|69:207,1,160,4|2,0:0|3:0,0:0:0:0:
299,171,79895,2,0,L|348:107,1,80,8|0,0:0|0:0,0:0:0:0:
219,249,80238,1,0,1:0:0:0:
453,171,80410,2,0,L|491:99,1,80,8|0,3:0|3:0,0:0:0:0:
186,57,80752,6,0,B|236:70|236:70|344:53,1,160,4|4,0:0|3:0,0:0:0:0:
80,191,81267,2,0,L|0:191,1,80,8|0,0:0|3:0,0:0:0:0:
257,293,81610,2,2,L|306:277,1,40,2|0,0:0|0:0,0:0:0:0:
74,300,81781,2,10,L|25:284,1,40,8|8,0:0|0:0,0:0:0:0:
277,188,81952,2,8,L|326:172,1,40,10|10,0:0|0:0,0:0:0:0:
51,160,82124,6,0,P|-7:116|53:77,1,160,4|2,0:0|3:0,0:0:0:0:
311,143,82638,1,8,0:0:0:0:
247,143,82810,1,0,0:0:0:0:
151,142,82982,1,0,1:0:0:0:
406,228,83153,2,0,L|502:228,1,80,8|0,3:0|3:0,0:0:0:0:
161,317,83496,6,0,L|326:317,1,160,4|2,0:0|3:0,0:0:0:0:
79,165,84010,2,0,L|-7:162,1,80,8|0,0:0|0:0,0:0:0:0:
27,139,84267,1,0,0:0:0:0:
234,91,84352,1,0,1:0:0:0:
314,91,84524,1,8,3:0:0:0:
201,91,84696,1,0,3:0:0:0:
458,222,84867,6,0,P|516:266|456:305,1,160,4|2,0:0|3:0,0:0:0:0:
229,183,85382,2,0,L|308:182,1,80,8|0,0:0|0:0,0:0:0:0:
46,85,85724,1,0,1:0:0:0:
126,85,85895,1,8,3:0:0:0:
13,85,86067,1,0,3:0:0:0:
332,298,86238,6,0,L|491:299,1,160,4|2,0:0|3:0,0:0:0:0:
255,247,86753,2,0,L|175:247,1,80,8|0,0:0|0:0,0:0:0:0:
239,211,87010,1,0,0:0:0:0:
303,179,87095,1,0,1:0:0:0:
70,160,87266,1,8,1:0:0:0:
335,96,87438,1,8,1:0:0:0:
56,236,87610,6,0,P|2:289|70:305,1,160,4|2,0:0|3:0,0:0:0:0:
289,157,88124,2,0,L|192:158,1,80,8|0,0:0|0:0,0:0:0:0:
338,235,88467,1,0,1:0:0:0:
96,108,88639,2,0,L|0:108,1,80,8|0,3:0|0:0,0:0:0:0:
345,114,88981,6,0,L|512:113,1,160,4|2,0:0|3:0,0:0:0:0:
232,212,89496,2,0,L|153:212,1,80,8|0,0:0|0:0,0:0:0:0:
393,301,89839,1,0,1:0:0:0:
313,301,90010,1,8,3:0:0:0:
426,301,90182,1,0,3:0:0:0:
62,271,90352,6,0,P|6:238|69:207,1,160,4|2,0:0|3:0,0:0:0:0:
299,171,90867,2,0,L|396:172,1,80,8|0,0:0|0:0,0:0:0:0:
250,249,91210,1,0,1:0:0:0:
484,171,91382,2,0,L|512:97,1,80,8|0,3:0|3:0,0:0:0:0:
233,101,91724,6,0,B|180:30,1,80,4|8,0:0|0:0,0:0:0:0:
422,211,92067,1,8,0:0:0:0:
461,205,92152,1,8,0:0:0:0:
478,171,92238,1,8,0:0:0:0:
459,137,92324,1,8,0:0:0:0:
421,134,92409,1,8,0:0:0:0:
187,70,92581,6,8,L|234:70,1,40,10|8,0:0|0:0,0:0:0:0:
430,57,92753,2,8,L|378:57,1,40
189,47,92924,2,8,L|136:47,1,40
437,270,93095,6,0,P|493:237|430:206,1,160,4|0,0:0|3:0,0:0:0:0:
136,198,93610,2,0,L|56:148,1,80,2|0,1:0|0:0,0:0:0:0:
317,111,93952,2,0,L|242:69,1,80,2|0,1:0|0:0,0:0:0:0:
160,27,94295,1,2,1:0:0:0:
481,170,94467,6,0,B|425:162|425:162|320:170,1,160,4|0,0:0|3:0,0:0:0:0:
38,321,94981,2,0,L|125:320,1,80,2|0,1:0|0:0,0:0:0:0:
352,261,95323,2,0,L|431:261,1,80,2|0,1:0|0:0,0:0:0:0:
263,187,95667,1,2,1:0:0:0:
496,150,95838,1,4,3:0:0:0:
175,107,96010,6,0,P|119:74|182:43,1,160,4|2,0:0|1:0,0:0:0:0:
418,150,96524,2,0,L|477:90,1,80,4|0,0:0|0:0,0:0:0:0:
314,116,96867,2,0,L|371:59,1,80,8|0,0:0|1:0,0:0:0:0:
34,289,97210,6,0,B|90:281|90:281|195:289,1,160,4|0,0:0|1:0,0:0:0:0:
432,221,97724,2,0,L|528:221,1,80,8|0,0:0|0:0,0:0:0:0:
480,200,97981,1,0,0:0:0:0:
262,309,98066,1,8,0:0:0:0:
182,309,98237,1,4,3:0:0:0:
416,309,98409,1,4,3:0:0:0:
95,224,98581,6,0,P|40:188|111:156,1,160,4|0,0:0|0:0,0:0:0:0:
338,99,99095,2,0,L|434:99,1,80,2|0,1:0|0:0,0:0:0:0:
120,47,99437,1,0,1:0:0:0:
40,47,99610,1,0,0:0:0:0:
153,47,99780,1,8,1:0:0:0:
394,155,99952,6,0,L|416:238,1,80,4|0,0:0|0:0,0:0:0:0:
181,318,100295,2,0,L|159:235,1,80,2|0,0:0|1:0,0:0:0:0:
427,133,100638,2,0,L|449:216,1,80,2|0,0:0|1:0,0:0:0:0:
142,132,100981,2,8,L|181:130,1,40
222,129,101152,1,8,0:0:0:0:
93,50,101324,1,0,1:0:0:0:
329,181,101495,5,4,0:0:0:0:
233,181,101666,1,0,1:0:0:0:
467,136,101838,1,0,1:0:0:0:
108,136,102009,1,4,0:0:0:0:
268,74,102352,6,0,L|187:74,1,80,8|0,0:0|1:0,0:0:0:0:
443,74,102694,1,4,0:0:0:0:
234,74,103038,5,0,1:0:0:0:
467,74,103209,1,0,1:0:0:0:
214,74,103552,5,0,1:0:0:0:
487,74,103723,1,0,1:0:0:0:
71,74,104066,5,0,1:2:0:0:
225,243,113667,6,0,P|184:208|237:188,1,120,0|0,1:0|0:0,0:0:0:0:
326,150,114010,1,0,1:0:0:0:
92,94,114181,1,0,3:0:0:0:
371,292,114352,6,0,P|412:257|359:237,1,120,0|0,1:0|0:0,0:0:0:0:
169,262,114695,2,0,L|127:251,1,40,0|0,1:0|0:0,0:0:0:0:
354,102,114867,2,0,L|396:113,1,40,0|0,1:0|0:0,0:0:0:0:
124,139,115038,6,0,P|70:86|138:70,1,160,4|2,0:0|3:0,0:0:0:0:
358,194,115552,2,0,L|375:115,1,80,8|0,0:0|0:0,0:0:0:0:
255,81,115895,1,0,3:0:0:0:
432,337,116067,1,0,3:0:0:0:
512,337,116238,1,8,3:0:0:0:
399,337,116410,1,0,3:0:0:0:
166,229,116581,5,2,0:0:0:0:
246,229,116753,1,0,3:0:0:0:
142,201,116924,1,8,3:0:0:0:
271,201,117096,1,0,0:0:0:0:
33,126,117267,1,0,3:0:0:0:
113,126,117438,1,0,3:0:0:0:
0,126,117610,1,8,3:0:0:0:
279,71,117781,6,0,B|395:80|395:80|437:69,1,160,4|0,0:0|3:0,0:0:0:0:
196,161,118295,1,8,0:0:0:0:
300,229,118467,2,0,L|360:231,2,40,0|0|0,3:0|3:0|2:0,0:0:0:0:
171,273,118810,1,0,3:0:0:0:
426,318,118981,2,0,L|515:318,1,80,8|0,3:0|0:0,0:0:0:0:
265,194,119324,5,2,0:0:0:0:
345,154,119495,1,0,3:0:0:0:
339,79,119666,1,8,0:0:0:0:
253,51,119838,2,0,L|200:50,1,40
43,325,120010,1,0,0:0:0:0:
123,325,120181,1,0,3:0:0:0:
10,325,120353,1,8,3:0:0:0:
329,328,120524,6,0,P|384:288|328:249,1,160,4|8,0:0|0:0,0:0:0:0:
93,156,121038,1,8,0:0:0:0:
374,116,121210,1,0,0:0:0:0:
374,116,121295,1,0,0:0:0:0:
374,116,121381,1,0,3:0:0:0:
254,56,121552,1,8,0:0:0:0:
431,38,121724,1,0,3:0:0:0:
136,288,121895,6,0,B|175:299|175:299|301:290,1,160,4|0,0:0|0:0,0:0:0:0:
52,176,122410,2,0,L|140:176,1,80,8|0,0:0|0:0,0:0:0:0:
372,183,122752,1,2,0:0:0:0:
292,183,122924,1,0,3:0:0:0:
372,183,123095,1,8,0:0:0:0:
452,183,123267,1,0,3:0:0:0:
173,114,123438,5,4,0:0:0:0:
109,114,123609,1,0,0:0:0:0:
13,114,123781,1,8,0:0:0:0:
255,320,123952,2,0,P|310:280|254:241,1,160,2|8,0:0|0:0,0:0:0:0:
148,282,124467,1,0,1:0:0:0:
395,96,124638,5,4,0:0:0:0:
235,41,124981,2,2,L|316:41,1,80,2|2,1:2|1:2,1:2:0:0:
75,96,125323,1,4,0:0:0:0:
235,202,125666,1,0,1:0:0:0:
147,202,125838,1,8,1:0:0:0:
421,334,126010,6,0,L|261:334,1,160,4|0,0:0|3:0,0:0:0:0:
422,192,126524,2,0,L|507:191,1,80,8|0,3:0|0:0,0:0:0:0:
208,132,126867,1,2,0:0:0:0:
128,132,127039,1,0,3:0:0:0:
232,104,127210,1,8,0:0:0:0:
103,104,127382,1,0,3:0:0:0:
343,105,127553,6,0,L|386:27,1,80,2|0,0:0|3:0,0:0:0:0:
214,202,127895,2,0,L|171:280,1,80,8|0,0:0|0:0,0:0:0:0:
406,305,128239,1,2,0:0:0:0:
326,305,128410,1,0,3:0:0:0:
439,305,128582,1,8,0:0:0:0:
106,330,128753,6,0,P|48:300|111:280,1,160,4|0,0:0|3:0,0:0:0:0:
331,223,129267,1,8,0:0:0:0:
227,127,129439,2,0,L|176:127,2,40,0|0|2,0:0|0:0|0:0,0:0:0:0:
356,92,129781,1,0,3:0:0:0:
196,25,129953,1,8,0:0:0:0:
459,276,130124,6,0,P|514:234|451:201,1,160,4|0,0:0|3:0,0:0:0:0:
215,203,130639,2,0,L|346:205,1,120,8|0,0:0|0:0,0:0:0:0:
138,84,130982,1,8,3:0:0:0:
58,84,131153,1,0,1:0:0:0:
171,84,131324,1,8,0:0:0:0:
462,293,131495,6,0,P|512:234|457:223,1,160,4|0,0:0|3:0,0:0:0:0:
302,194,132010,2,0,L|222:194,1,80,8|0,0:0|0:0,0:0:0:0:
456,74,132353,1,2,0:0:0:0:
376,74,132524,1,0,3:0:0:0:
489,74,132695,1,8,0:0:0:0:
241,130,132867,6,0,P|188:159|249:208,1,160,4|0,0:0|3:0,0:0:0:0:
405,287,133382,2,0,L|318:286,1,80,8|0,0:0|0:0,0:0:0:0:
80,196,133724,1,0,3:0:0:0:
0,196,133895,1,0,3:0:0:0:
113,196,134066,1,8,3:0:0:0:
396,111,134239,6,0,L|230:111,1,160,4|0,1:0|3:0,0:0:0:0:
470,233,134753,1,8,0:0:0:0:
366,311,134924,2,0,L|315:311,2,40,0|0|2,0:0|0:0|0:0,0:0:0:0:
470,233,135267,1,8,3:0:0:0:
341,158,135439,1,8,1:0:0:0:
94,126,135610,6,0,P|39:100|107:72,1,160,4|8,0:0|3:0,0:0:0:0:
258,106,136124,2,0,L|341:106,1,80,8|0,0:0|3:0,0:0:0:0:
306,78,136381,1,0,3:0:0:0:
105,266,136467,2,8,L|188:266,1,80
56,189,136810,1,8,0:0:0:0:
306,78,136981,6,0,L|116:83,1,160,4|0,0:0|0:0,0:0:0:0:
291,231,137495,2,0,L|305:133,1,80,2|0,1:0|0:0,0:0:0:0:
140,194,137838,2,0,L|48:194,1,80,2|0,1:0|0:0,0:0:0:0:
237,272,138181,2,0,L|336:269,1,80,2|0,1:0|0:0,0:0:0:0:
36,313,138524,6,0,L|148:328,2,80,2|0|0,1:0|0:0|1:0,0:0:0:0:
266,302,139038,2,0,P|303:230|237:168,1,160,2|8,0:0|3:0,0:0:0:0:
125,175,139552,1,4,3:0:0:0:
389,65,139724,6,0,L|212:66,1,160,4|2,0:0|2:0,0:0:0:0:
88,139,140238,2,0,L|100:246,1,80,2|0,1:0|0:0,0:0:0:0:
270,220,140581,2,0,L|279:309,1,80,2|0,1:0|0:0,0:0:0:0:
119,325,140924,2,0,L|24:335,1,80,2|0,1:0|0:0,0:0:0:0:
426,248,141267,6,0,L|519:256,2,80,2|8|0,1:0|3:0|1:0,0:0:0:0:
186,348,141781,2,0,L|349:339,1,160,8|0,0:0|3:0,0:0:0:0:
259,303,142295,1,2,2:0:0:0:
31,271,142467,6,0,P|19:201|98:136,1,160,4|0,0:0|0:0,0:0:0:0:
235,209,142981,2,0,L|245:119,1,80,2|0,1:0|0:0,0:0:0:0:
95,67,143324,2,0,L|184:63,1,80,2|2,1:0|3:0,0:0:0:0:
316,57,143667,2,0,L|406:53,1,80,2|0,1:0|0:0,0:0:0:0:
155,328,144010,6,0,P|125:261|195:203,1,160,2|2,1:0|1:0,0:0:0:0:
308,197,144524,1,0,0:0:0:0:
178,204,144695,2,0,L|88:203,1,80,2|8,1:0|3:0,0:0:0:0:
280,134,145038,1,0,1:0:0:0:
45,321,145210,6,0,P|5:261|76:197,1,160,4|0,0:0|0:0,0:0:0:0:
211,236,145724,2,0,L|217:144,1,80,2|0,1:0|0:0,0:0:0:0:
355,167,146067,2,0,L|363:69,1,80,2|0,1:0|0:0,0:0:0:0:
225,89,146410,2,0,L|120:83,1,80,2|0,1:0|0:0,0:0:0:0:
426,189,146752,5,2,1:0:0:0:
298,224,146924,1,8,0:0:0:0:
424,266,147095,1,8,0:0:0:0:
181,313,147267,1,4,3:0:0:0:
286,273,147438,2,4,L|280:180,1,80,4|4,1:3|1:3,1:3:0:0:
126,163,147781,1,8,3:0:0:0:
374,53,147952,6,0,L|192:66,1,160,4|0,0:0|0:0,0:0:0:0:
345,182,148467,2,0,L|356:93,1,80,2|0,1:0|0:0,0:0:0:0:
232,131,148810,2,0,L|66:120,1,160,2|2,1:0|1:0,0:0:0:0:
159,316,149324,1,0,0:0:0:0:
407,327,149495,6,0,L|499:327,2,80,2|8|2,1:0|0:0|1:0,0:0:0:0:
93,320,150010,1,8,0:0:0:0:
226,321,150181,2,0,L|323:320,1,80,2|8,1:0|0:0,0:0:0:0:
141,242,150524,1,4,3:0:0:0:
479,84,150695,6,0,L|294:93,1,160,4|0,0:0|0:0,0:0:0:0:
196,222,151210,2,0,L|185:130,1,80,2|0,1:0|0:0,0:0:0:0:
343,343,151552,2,0,L|357:258,1,80,2|0,1:0|0:0,0:0:0:0:
203,327,151895,2,0,L|103:336,1,80,2|0,1:0|0:0,0:0:0:0:
435,302,152238,6,0,P|482:221|419:177,1,160,2|2,1:0|1:0,0:0:0:0:
331,182,152752,1,8,0:0:0:0:
429,94,152924,2,0,L|322:95,1,80,2|8,1:0|0:0,0:0:0:0:
482,51,153267,1,4,3:0:0:0:
187,329,153438,6,0,P|143:257|231:186,1,184.000003509522,4|2,0:0|3:0,0:0:0:0:
296,185,153952,2,8,L|391:185,1,92.0000017547608
129,124,154295,2,8,L|34:124,1,92.0000017547608
379,276,154638,2,0,L|389:172,1,92.0000017547608,8|8,0:0|0:0,0:0:0:0:
135,200,154981,5,8,0:0:0:0:
263,231,155152,1,8,0:0:0:0:
24,302,155324,1,8,0:0:0:0:
324,243,155495,2,8,L|336:148,1,92.0000017547608
209,109,155838,1,8,0:0:0:0:
477,87,156010,1,8,0:0:0:0:
88,235,156181,6,0,L|280:225,1,184.000003509522,4|8,0:0|0:0,0:0:0:0:
159,168,156695,1,4,3:0:0:0:
433,307,156867,2,0,P|469:220|405:159,1,184.000003509522,4|0,0:0|3:0,0:0:0:0:
148,90,157381,2,0,L|264:90,1,92.0000017547608,8|0,0:0|3:0,0:0:0:0:
195,57,157638,1,0,3:0:0:0:
28,51,157724,6,0,L|138:50,2,92.0000017547608,0|2|8,1:0|1:0|0:0,0:0:0:0:
322,272,158238,2,0,P|364:208|307:141,1,138.000002632141,4|0,1:3|0:0,0:0:0:0:
148,100,158581,2,0,L|42:100,1,92.0000017547608,4|8,1:0|3:0,0:0:0:0:
101,133,158838,1,8,3:0:0:0:
339,323,158924,6,0,P|395:249|311:171,1,200,4|2,0:0|0:3,0:0:0:0:
182,224,159438,2,0,L|180:118,1,100,8|0,0:0|0:0,0:0:0:0:
239,115,159695,1,0,0:0:0:0:
298,108,159781,1,0,1:0:0:0:
122,144,159952,2,0,L|115:41,1,100,8|0,3:0|3:0,0:0:0:0:
341,273,160295,6,0,L|139:289,1,200,4|2,0:0|3:0,0:0:0:0:
265,210,160810,1,8,0:0:0:0:
155,160,160981,1,0,0:0:0:0:
160,110,161066,1,0,0:0:0:0:
165,60,161152,1,2,2:0:0:0:
293,48,161324,1,8,3:0:0:0:
140,13,161495,1,0,3:0:0:0:
426,310,161667,6,0,P|470:233|387:156,1,200,4|2,0:0|3:0,0:0:0:0:
273,142,162181,2,0,L|409:124,1,100,8|0,0:0|0:0,0:0:0:0:
316,99,162438,1,0,0:0:0:0:
120,65,162524,2,0,L|122:183,1,100,0|8,1:0|3:0,0:0:0:0:
261,203,162867,1,0,3:0:0:0:
35,323,163038,6,0,L|267:308,1,200,4|2,0:0|2:0,0:0:0:0:
366,356,163552,2,0,L|382:245,1,100,8|0,0:0|0:0,0:0:0:0:
261,232,163895,2,8,L|202:226,1,50,8|0,0:0|0:0,0:0:0:0:
406,187,164066,2,8,L|459:196,1,50,8|0,0:0|0:0,0:0:0:0:
172,283,164238,2,8,L|161:218,1,50,8|0,0:0|0:0,0:0:0:0:
356,315,164410,6,0,P|395:247|312:163,1,200,4|2,0:0|3:0,0:0:0:0:
173,100,164924,2,0,L|288:97,1,100,8|0,0:0|3:0,0:0:0:0:
300,151,165181,1,0,3:0:0:0:
324,205,165267,1,0,1:0:0:0:
193,248,165438,1,8,3:0:0:0:
359,278,165610,1,0,3:0:0:0:
100,345,165781,6,0,P|58:270|122:188,1,200,4|2,0:0|3:0,0:0:0:0:
246,188,166295,1,8,0:0:0:0:
116,157,166467,2,0,L|52:157,2,50,0|0|2,0:0|0:0|2:0,0:0:0:0:
247,93,166810,2,0,L|115:93,1,100,8|0,0:0|1:0,0:0:0:0:
427,275,167152,6,0,P|482:200|393:119,1,200,4|0,0:0|0:0,0:0:0:0:
298,89,167667,2,0,L|162:89,1,100,8|0,0:0|0:0,0:0:0:0:
473,192,168010,2,0,L|358:192,2,100,2|8|0,0:0|3:0|2:0,0:0:0:0:
185,343,168524,6,0,P|136:268|211:192,1,200,4|2,0:0|3:0,0:0:0:0:
337,234,169038,2,0,L|348:125,1,100,8|0,0:0|0:0,0:0:0:0:
191,71,169381,2,0,L|188:129,1,50,8|8,0:0|0:0,0:0:0:0:
348,227,169552,2,0,L|273:229,1,50,8|8,0:0|0:0,0:0:0:0:
53,228,169724,2,0,L|44:294,1,50,8|8,0:0|0:0,0:0:0:0:
220,338,169895,6,0,L|436:322,1,200,4|2,0:0|3:0,0:0:0:0:
251,160,170410,2,0,L|259:283,1,100,8|0,0:0|0:0,0:0:0:0:
381,217,170752,1,0,1:0:0:0:
252,83,170924,2,0,L|379:72,1,100,8|0,3:0|3:0,0:0:0:0:
114,270,171267,6,0,P|65:206|154:109,1,200,4|2,0:0|3:0,0:0:0:0:
283,93,171781,2,0,L|150:93,1,100,8|0,0:0|0:0,0:0:0:0:
243,92,172038,1,0,0:0:0:0:
303,93,172124,1,2,2:0:0:0:
184,191,172295,2,0,L|66:192,1,100,8|0,3:0|3:0,0:0:0:0:
356,326,172638,6,0,P|406:248|323:177,1,200,4|0,0:0|0:0,0:0:0:0:
181,227,173152,2,0,L|178:116,1,100,8|0,0:0|0:0,0:0:0:0:
236,109,173410,1,0,0:0:0:0:
293,95,173495,1,0,1:0:0:0:
469,192,173667,2,0,L|334:184,1,100,8|0,3:0|3:0,0:0:0:0:
105,346,174010,6,0,L|319:333,1,200,4|2,0:0|3:0,0:0:0:0:
157,295,174524,2,0,L|141:188,1,100,8|0,0:0|0:0,0:0:0:0:
313,231,174867,2,0,L|371:226,1,50,8|8,0:0|0:0,0:0:0:0:
158,211,175038,2,0,L|100:214,1,50,8|8,0:0|0:0,0:0:0:0:
323,185,175210,2,0,L|329:134,1,50,8|8,0:0|0:0,0:0:0:0:
72,140,175381,6,0,L|285:153,1,200,4|2,0:0|3:0,0:0:0:0:
414,268,175895,2,0,L|420:158,1,100,8|0,0:0|0:0,0:0:0:0:
160,212,176238,1,0,1:0:0:0:
279,252,176410,2,0,L|278:363,1,100,8|0,3:0|3:0,0:0:0:0:
31,151,176752,6,0,L|254:142,1,200,4|2,0:0|3:0,0:0:0:0:
343,241,177267,2,0,L|353:121,1,100,8|0,0:0|0:0,0:0:0:0:
199,206,177610,2,0,L|78:212,2,100,2|8|0,0:0|3:0|3:0,0:0:0:0:
472,350,178124,6,0,L|255:335,1,200,4|2,0:0|3:0,0:0:0:0:
123,295,178638,2,0,L|112:183,1,100,8|0,2:0|0:0,0:0:0:0:
266,208,178981,2,0,L|257:90,1,100,0|8,1:0|3:0,0:0:0:0:
118,76,179324,1,8,0:0:0:0:
385,301,179495,6,0,P|432:222|348:137,1,200,4|2,0:0|3:0,0:0:0:0:
229,139,180010,2,0,L|126:139,1,100,8|0,0:0|0:0,0:0:0:0:
178,115,180267,1,0,0:0:0:0:
337,114,180352,2,8,L|396:114,1,50,8|8,0:0|0:0,0:0:0:0:
170,234,180524,2,8,L|231:234,1,50
438,301,180695,2,8,L|377:301,1,50
137,356,180867,6,0,P|91:275|176:199,1,200,4|0,0:0|0:0,0:0:0:0:
461,115,181381,2,0,L|341:115,1,100,2|0,1:0|0:0,0:0:0:0:
229,65,181724,2,0,L|114:65,1,100,2|0,1:0|0:0,0:0:0:0:
307,24,182067,1,2,1:0:0:0:
81,247,182238,6,0,L|307:246,1,200,4|0,0:0|0:0,0:0:0:0:
156,361,182752,2,0,L|150:256,1,100,2|0,1:0|0:0,0:0:0:0:
293,286,183095,1,2,1:0:0:0:
360,189,183266,1,0,0:0:0:0:
259,130,183437,1,2,1:0:0:0:
431,107,183610,1,4,3:0:0:0:
162,53,183781,6,0,L|378:44,1,200,4|8,0:0|0:0,0:0:0:0:
80,324,184295,2,0,P|37:246|127:163,1,200,4|8,0:0|0:0,0:0:0:0:
191,160,184810,1,4,3:0:0:0:
438,315,184981,6,0,P|480:252|409:162,1,200,4|8,0:0|0:0,0:0:0:0:
113,98,185495,2,0,L|255:100,1,100,8|0,0:0|0:0,0:0:0:0:
76,184,185838,2,8,L|194:184,1,100
461,190,186181,1,4,3:0:0:0:
195,360,186352,6,0,P|150:289|240:209,1,200,4|4,0:0|3:0,0:0:0:0:
342,246,186867,2,0,L|349:127,1,100,8|0,0:0|0:0,0:0:0:0:
200,83,187210,2,0,L|320:72,2,100,2|0|8,0:0|1:0|0:0,0:0:0:0:
480,229,187724,6,0,L|274:214,1,200,4|0,0:0|3:0,0:0:0:0:
410,357,188238,2,0,L|423:248,1,100,8|0,0:0|0:0,0:0:0:0:
284,234,188581,1,0,3:0:0:0:
415,199,188752,2,0,L|432:73,1,100,2|8,3:0|0:0,0:0:0:0:
281,141,189095,2,0,L|218:135,1,50,2|8,0:0|0:0,0:0:0:0:
37,222,189267,6,0,L|176:212,2,100,4|0|8,0:0|1:0|0:0,0:0:0:0:
327,331,189781,2,0,P|381:263|333:197,1,150,4|0,0:0|0:0,0:0:0:0:
95,139,190124,2,0,L|201:134,1,100,0|8,1:0|0:0,0:0:0:0:
482,117,190467,1,0,1:0:0:0:
179,106,190810,5,0,1:0:0:0:
353,119,190981,1,0,1:0:0:0:
116,102,191324,1,0,1:0:0:0:
416,126,191495,1,0,1:0:0:0:
465,154,191580,1,8,3:0:0:0:
468,202,191666,1,8,3:0:0:0:
424,236,191752,1,8,3:0:0:0:
185,343,191838,6,0,P|145:274|237:187,1,200,4|0,0:0|0:0,0:0:0:0:
349,159,192352,2,0,L|238:158,1,100,0|0,1:0|0:0,0:0:0:0:
71,81,192695,2,0,L|179:81,1,100,2|0,0:0|0:0,0:0:0:0:
467,83,193038,1,0,1:0:0:0:
330,175,193210,6,0,L|440:182,1,100,2|0,0:0|0:0,0:0:0:0:
250,227,193552,2,0,L|257:337,1,100,2|0,0:0|1:0,0:0:0:0:
493,275,193895,1,2,0:0:0:0:
338,202,194067,2,0,L|441:202,1,100,0|10,0:0|3:0,0:0:0:0:
300,126,194410,1,8,3:0:0:0:
53,268,194581,6,0,L|290:268,1,200,4|0,0:0|0:0,0:0:0:0:
422,340,195095,2,0,L|434:235,1,100,0|0,1:0|0:0,0:0:0:0:
286,142,195438,2,0,L|412:136,1,100,2|0,2:0|2:0,0:0:0:0:
115,58,195781,1,0,1:0:0:0:
248,122,195952,6,0,L|234:231,1,100,2|0,0:0|0:0,0:0:0:0:
72,225,196295,2,0,L|56:326,1,100,2|0,0:0|1:0,0:0:0:0:
380,236,196638,1,2,0:0:0:0:
274,179,196810,2,0,L|215:178,1,50,2|0,1:0|0:0,0:0:0:0:
396,130,196981,2,8,L|447:129,1,50,8|8,3:0|3:0,3:0:0:0:
274,179,197152,2,8,L|215:178,1,50,8|8,3:0|3:0,3:0:0:0:
37,295,197324,6,0,P|7:223|97:130,1,200,4|0,0:0|0:0,0:0:0:0:
326,94,197838,2,0,L|448:95,1,100,10|0,0:0|0:0,0:0:0:0:
125,53,198181,2,0,L|248:53,2,100,10|0|10,0:0|0:0|0:0,0:0:0:0:
362,215,198695,6,0,L|157:215,1,200,6|2,0:0|0:0,0:0:0:0:
325,355,199210,2,0,L|347:254,1,100,10|0,0:0|0:0,0:0:0:0:
295,224,199467,1,8,0:0:0:0:
129,174,199552,2,0,L|15:181,2,100,10|0|10,0:0|1:0|0:0,0:0:0:0:
393,230,200067,6,0,P|436:150|356:80,1,200,4|0,0:0|0:0,0:0:0:0:
209,46,200581,2,0,L|218:152,1,100,8|0,0:0|0:0,0:0:0:0:
364,179,200924,2,0,L|354:291,1,100,8|0,0:0|3:0,0:0:0:0:
215,303,201267,1,8,0:0:0:0:
485,335,201438,1,0,3:0:0:0:
215,303,201610,6,0,L|208:202,1,100,4|0,0:0|3:0,0:0:0:0:
355,167,201952,1,8,0:0:0:0:
80,73,202124,2,0,L|316:86,1,200,2|0,0:0|1:0,0:0:0:0:
108,219,202638,2,0,L|95:140,1,50,8|0,0:0|0:0,0:0:0:0:
353,303,202810,6,0,L|146:316,1,200,4|2,0:0|0:0,0:0:0:0:
343,188,203324,2,0,L|334:305,1,100,8|0,0:0|0:0,0:0:0:0:
201,262,203667,2,0,L|190:369,1,100,8|0,0:0|0:0,0:0:0:0:
344,188,204010,2,0,L|459:194,1,100,8|0,0:0|1:0,0:0:0:0:
86,96,204352,5,4,0:0:0:0:
346,189,204524,2,0,L|334:296,1,100,0|8,3:0|0:0,0:0:0:0:
71,339,204867,1,2,0:0:0:0:
8,239,205038,1,8,0:0:0:0:
43,148,205209,1,8,1:0:0:0:
156,120,205381,1,0,1:0:0:0:
441,262,205552,6,0,P|496:187|410:89,1,200,4|0,0:0|1:0,0:0:0:0:
217,56,206067,2,0,L|100:54,1,100,8|0,0:0|0:0,0:0:0:0:
457,185,206410,2,0,L|322:181,1,100,8|0,0:0|0:0,0:0:0:0:
203,176,206752,1,8,0:0:0:0:
361,266,206924,1,2,0:0:0:0:
54,350,207095,6,0,L|44:232,1,100,8|2,0:0|0:0,0:0:0:0:
207,248,207438,2,0,L|223:136,1,100,8|2,0:0|0:0,0:0:0:0:
65,78,207781,2,0,L|181:87,2,100,8|0|4,0:0|1:0|1:3,0:0:0:0:
379,197,208295,6,0,L|152:199,1,200,4|2,0:0|0:0,0:0:0:0:
345,345,208810,2,0,L|354:230,1,100,8|2,0:0|0:0,0:0:0:0:
228,277,209152,2,0,L|106:273,1,100,10|0,0:0|0:0,0:0:0:0:
481,250,209495,2,0,L|494:138,1,100,8|2,0:0|0:0,0:0:0:0:
195,185,209838,6,0,L|91:182,1,100,8|0,0:0|0:0,0:0:0:0:
246,270,210181,1,8,0:0:0:0:
327,197,210352,1,0,0:0:0:0:
313,150,210438,1,8,0:0:0:0:
273,122,210523,1,8,0:0:0:0:
143,123,210695,1,8,1:0:0:0:
307,121,210867,1,0,1:0:0:0:
52,38,211038,6,0,L|268:43,1,200,4|2,0:0|0:0,0:0:0:0:
114,165,211552,2,0,L|106:57,1,100,8|0,0:0|0:0,0:0:0:0:
467,226,211895,2,0,L|361:234,2,100,0|8|8,1:0|0:0|3:0,0:0:0:0:
187,335,212410,6,0,P|146:265|232:171,1,200,4|0,0:0|1:0,0:0:0:0:
338,177,212924,1,8,0:0:0:0:
69,186,213095,1,0,0:0:0:0:
185,186,213267,2,0,L|241:186,1,50,8|0,0:0|0:0,0:0:0:0:
46,78,213438,2,2,L|121:78,1,50
352,79,213610,2,2,L|416:79,1,50
181,339,213781,6,0,P|143:281|224:181,1,200,4|2,0:0|3:0,0:0:0:0:
321,186,214295,1,0,1:0:0:0:
199,188,214467,2,0,L|95:188,2,100,0|8|0,0:0|0:0|0:0,0:0:0:0:
334,191,214981,1,2,0:0:0:0:
68,333,215152,6,0,P|28:249|115:167,1,200,0|2,1:0|3:0,0:0:0:0:
219,224,215667,2,0,L|229:112,1,100,2|0,0:0|0:0,0:0:0:0:
93,68,216010,1,8,0:0:0:0:
241,172,216181,2,0,L|116:183,1,100,8|0,1:0|3:0,0:0:0:0:
398,317,216524,6,0,L|162:304,1,200,4|0,0:0|0:0,0:0:0:0:
482,160,217038,2,0,L|473:269,1,100,0|0,1:0|0:0,0:0:0:0:
168,196,217381,1,8,0:0:0:0:
267,201,217552,1,0,0:0:0:0:
367,206,217723,1,0,1:0:0:0:
118,256,217895,6,0,P|89:196|179:114,1,200,2|8,0:0|0:0,0:0:0:0:
289,187,218410,2,0,L|304:83,1,100,2|0,3:0|0:0,0:0:0:0:
39,132,218752,2,0,L|175:125,2,100,8|8|0,0:0|0:0|1:0,0:0:0:0:
330,279,219267,6,0,L|122:263,1,200,4|0,0:0|0:0,0:0:0:0:
274,192,219781,2,0,L|391:177,1,100,0|0,1:0|0:0,0:0:0:0:
116,118,220124,2,0,L|1:98,1,100,8|0,0:0|0:0,0:0:0:0:
150,194,220467,1,2,0:0:0:0:
422,320,220638,6,0,P|464:250|381:150,1,200,10|0,0:0|0:0,0:0:0:0:
300,82,221152,2,0,L|421:74,1,100,2|0,0:0|0:0,0:0:0:0:
236,165,221495,1,8,0:0:0:0:
335,173,221666,1,8,0:0:0:0:
435,182,221837,1,0,1:0:0:0:
136,311,222010,6,0,P|96:229|196:147,1,200,4|2,0:0|0:0,0:0:0:0:
291,198,222524,2,0,L|304:93,1,100,10|0,0:0|0:0,0:0:0:0:
191,84,222867,2,0,L|87:73,1,100,8|0,0:0|0:0,0:0:0:0:
276,37,223210,1,2,0:0:0:0:
29,251,223381,6,0,L|268:240,1,200,4|0,0:0|1:0,0:0:0:0:
359,324,223895,2,0,L|370:215,1,100,10|0,0:0|0:0,0:0:0:0:
127,193,224238,2,0,L|113:85,1,100,8|0,0:0|1:0,0:0:0:0:
372,104,224581,1,8,0:0:0:0:
114,93,224752,2,8,L|57:88,1,50
381,232,224924,6,0,L|216:245,2,133.333333333333,4|8|8,0:0|1:0|1:0,0:0:0:0:
69,136,225610,2,0,L|209:147,2,133.333333333333,4|8|8,0:0|1:0|1:0,0:0:0:0:
355,77,226295,6,0,P|453:170|352:267,1,300,4|4,0:0|0:0,0:0:0:0:
179,267,227152,1,2,1:0:0:0:
416,347,227324,2,0,L|425:244,1,100,8|0,0:0|0:0,0:0:0:0:
85,130,227667,5,8,0:0:0:0:
205,85,227838,1,8,0:0:0:0:
254,88,227923,1,8,0:0:0:0:
304,91,228009,1,0,3:0:0:0:
205,85,228181,1,2,0:0:0:0:
85,130,228352,6,0,P|27:193|103:270,1,200,2|0,0:0|0:0,0:0:0:0:
228,315,228867,2,0,L|-2:333,1,200,2|0,0:0|0:0,0:0:0:0:
441,297,229552,6,0,P|482:240|429:127,1,200,4|2,0:0|3:0,0:0:0:0:
299,130,230066,2,0,L|186:131,1,92.0000017547608,8|0,0:0|0:0,0:0:0:0:
363,221,230409,2,0,L|469:221,2,92.0000017547608,0|8|0,1:0|3:0|3:0,0:0:0:0:
137,345,230924,6,0,L|323:323,1,184.000003509522,4|2,0:0|3:0,0:0:0:0:
473,343,231438,2,0,L|482:234,1,92.0000017547608,8|0,2:0|0:0,0:0:0:0:
323,214,231781,1,0,1:0:0:0:
457,219,231952,1,8,3:0:0:0:
312,214,232124,1,0,0:0:0:0:
64,256,232295,6,0,P|22:198|85:122,1,184.000003509522,4|2,0:0|3:0,0:0:0:0:
251,137,232809,1,8,0:0:0:0:
104,149,232981,1,0,0:0:0:0:
104,149,233066,1,0,0:0:0:0:
104,149,233152,1,0,1:0:0:0:
393,256,233324,2,0,L|492:251,1,92.0000017547608,8|0,3:0|0:0,0:0:0:0:
205,340,233666,6,0,L|19:327,1,184.000003509522,4|2,0:0|3:0,0:0:0:0:
156,250,234181,2,0,L|211:236,2,46.0000008773804,8|0|0,0:0|0:0|0:0,0:0:0:0:
37,173,234524,1,0,1:0:0:0:
181,112,234695,1,8,1:0:0:0:
126,102,234781,1,8,0:0:0:0:
71,93,234866,1,8,1:0:0:0:
403,325,235038,6,0,P|439:272|376:162,1,184.000003509522,4|2,0:0|3:0,0:0:0:0:
231,277,235552,2,0,L|328:265,1,92.0000017547608,8|0,0:0|0:0,0:0:0:0:
44,196,235895,1,0,1:0:0:0:
185,123,236066,1,8,3:0:0:0:
43,171,236238,1,0,0:0:0:0:
430,199,236409,6,0,L|232:182,1,184.000003509522,4|2,0:0|3:0,0:0:0:0:
363,341,236924,2,0,L|463:333,1,92.0000017547608,8|0,0:0|0:0,0:0:0:0:
178,257,237266,1,0,1:0:0:0:
32,257,237438,1,8,0:0:0:0:
178,257,237609,1,0,0:0:0:0:
429,280,237781,6,0,P|451:219|346:134,1,184.000003509522,4|2,0:0|3:0,0:0:0:0:
222,263,238295,2,0,L|238:153,1,92.0000017547608,8|0,0:0|0:0,0:0:0:0:
370,149,238638,1,0,1:0:0:0:
62,157,238809,2,0,L|46:47,1,92.0000017547608,8|0,0:0|0:0,0:0:0:0:
292,108,239152,6,0,L|399:111,2,92.0000017547608,4|2|8,0:0|0:0|3:0,0:0:0:0:
428,252,239666,2,0,L|321:255,1,92.0000017547608,10|0,0:0|0:0,0:0:0:0:
149,366,240009,2,2,L|140:306,1,46.0000008773804
326,102,240181,2,2,L|278:97,1,46.0000008773804
75,225,240352,2,8,L|17:218,1,46.0000008773804
283,313,240524,6,0,L|483:298,1,184.000003509522,4|2,0:0|3:0,0:0:0:0:
225,211,241038,2,0,L|106:202,1,92.0000017547608,8|0,0:0|0:0,0:0:0:0:
295,121,241381,2,0,L|415:114,2,92.0000017547608,0|8|0,1:0|3:0|0:0,0:0:0:0:
52,316,241895,6,0,P|20:243|100:180,1,184.000003509522,4|2,0:0|3:0,0:0:0:0:
219,180,242409,2,0,L|242:46,1,92.0000017547608,8|0,0:0|0:0,0:0:0:0:
91,91,242752,1,0,1:0:0:0:
342,106,242924,2,0,L|319:-28,1,92.0000017547608,8|2,0:0|0:0,0:0:0:0:
32,288,243266,6,0,L|256:256,1,184.000003509522,4|2,0:0|3:0,0:0:0:0:
368,187,243781,2,0,L|263:179,1,92.0000017547608,8|0,0:0|0:0,0:0:0:0:
442,79,244124,2,0,L|328:71,2,92.0000017547608,0|10|0,1:0|0:0|0:0,0:0:0:0:
186,343,244638,6,0,P|142:291|205:192,1,184.000003509522,4|0,0:0|3:0,0:0:0:0:
328,136,245152,2,0,L|219:134,1,92.0000017547608,8|0,0:0|0:0,0:0:0:0:
480,160,245495,1,2,0:0:0:0:
343,224,245666,1,8,1:0:0:0:
480,288,245838,1,8,1:0:0:0:
175,345,246009,6,0,L|363:327,1,184.000003509522,4|2,0:0|3:0,0:0:0:0:
80,237,246524,2,0,L|204:217,1,92.0000017547608,8|0,0:0|0:0,0:0:0:0:
307,261,246866,1,0,1:0:0:0:
179,160,247038,1,8,0:0:0:0:
307,261,247209,1,0,3:0:0:0:
57,311,247381,6,0,P|20:242|69:144,1,184.000003509522,4|2,0:0|3:0,0:0:0:0:
225,151,247895,1,8,0:0:0:0:
78,155,248066,1,0,0:0:0:0:
78,155,248152,1,0,0:0:0:0:
78,155,248238,1,0,1:0:0:0:
393,223,248409,2,0,L|415:123,1,92.0000017547608,8|0,3:0|3:0,0:0:0:0:
149,328,248752,6,0,L|341:329,1,184.000003509522,4|2,0:0|3:0,0:0:0:0:
197,246,249266,1,8,0:0:0:0:
326,179,249438,1,2,0:0:0:0:
326,179,249524,1,0,0:0:0:0:
326,179,249609,1,0,1:0:0:0:
197,105,249781,2,0,L|82:98,1,92.0000017547608,8|0,0:0|0:0,0:0:0:0:
435,293,250124,6,0,P|483:234|431:146,1,184.000003509522,4|2,0:0|0:0,0:0:0:0:
156,194,250638,2,0,L|281:188,1,92.0000017547608,8|8,0:0|0:0,0:0:0:0:
116,129,250981,1,0,1:0:0:0:
415,337,251152,2,8,L|363:328,1,46.0000008773804
207,353,251324,2,8,L|146:344,1,46.0000008773804
378,293,251495,6,0,P|425:239|365:135,1,191.999994140625,4|0,0:0|0:0,0:0:0:0:
241,192,252009,2,0,L|114:182,1,95.9999970703126,2|0,1:0|0:0,0:0:0:0:
291,326,252352,2,0,L|510:312,1,191.999994140625,2|2,1:0|1:0,0:0:0:0:
197,306,252866,6,0,P|149:248|225:146,1,191.999994140625,4|0,0:0|1:0,0:0:0:0:
352,224,253381,2,0,L|361:118,1,95.9999970703126,2|0,1:0|0:0,0:0:0:0:
191,147,253724,1,2,1:0:0:0:
316,148,253895,1,0,0:0:0:0:
160,224,254066,2,0,L|151:118,1,95.9999970703126,2|0,1:0|0:0,0:0:0:0:
453,251,254409,6,0,L|244:234,1,191.999994140625,4|2,0:0|1:0,0:0:0:0:
33,254,254924,1,4,0:0:0:0:
161,258,255095,2,0,L|175:141,1,95.9999970703126,8|8,2:0|0:0,0:0:0:0:
322,162,255438,1,10,1:0:0:0:
43,254,255609,6,0,L|252:237,1,191.999994140625,4|0,0:0|3:0,0:0:0:0:
347,142,256124,2,0,L|248:127,1,95.9999970703126,8|0,0:0|0:0,0:0:0:0:
394,235,256466,1,8,0:0:0:0:
148,325,256638,1,4,3:3:0:0:
297,324,256809,1,4,3:0:0:0:
47,292,256981,6,0,P|35:220|138:144,1,191.999994140625,4|2,0:0|3:0,0:0:0:0:
262,147,257495,2,0,L|144:145,1,95.9999970703126,8|0,0:0|0:0,0:0:0:0:
297,223,257838,1,0,1:0:0:0:
64,297,258009,2,0,L|41:162,1,95.9999970703126,8|2,0:0|0:0,0:0:0:0:
336,290,258352,6,0,L|452:282,1,95.9999970703126,4|0,0:0|0:0,0:0:0:0:
291,164,258695,2,0,L|175:156,1,95.9999970703126,2|8,0:0|0:0,0:0:0:0:
341,289,259038,2,0,L|353:188,1,95.9999970703126,2|0,0:0|0:0,0:0:0:0:
195,157,259381,2,0,L|183:56,1,95.9999970703126,0|8,1:0|0:0,0:0:0:0:
343,98,259724,2,8,L|358:19,1,47.9999985351563,10|8,0:0|0:0,0:0:0:0:
131,205,259895,6,0,L|16:194,2,95.9999970703126,4|0|8,0:0|1:0|0:0,0:0:0:0:
381,125,260409,1,4,0:0:0:0:
144,248,260752,2,8,L|133:137,1,95.9999970703126
380,300,261095,6,0,P|436:243|359:162,1,191.999994140625,4|0,0:0|1:0,0:0:0:0:
43,163,261609,1,0,1:0:0:0:
128,288,261952,1,0,1:0:0:0:
480,224,262124,1,0,1:0:0:0:
80,325,262466,6,0,P|34:247|113:215,1,176.000005371094,4|2,0:0|3:0,0:0:0:0:
277,225,262981,2,0,P|297:181|277:122,1,88.000002685547,8|0,0:0|0:0,0:0:0:0:
149,142,263324,2,0,L|129:29,1,88.000002685547,2|0,3:0|2:0,0:0:0:0:
334,73,263666,2,0,L|436:74,1,88.000002685547,8|0,0:0|0:0,0:0:0:0:
273,260,264009,6,0,L|165:252,2,88.000002685547,2|0|8,3:0|0:0|0:0,0:0:0:0:
404,190,264524,1,0,0:0:0:0:
151,132,264695,1,8,3:0:0:0:
151,132,264781,1,0,3:0:0:0:
151,132,264866,1,8,3:0:0:0:
299,55,265038,1,8,0:0:0:0:
43,298,265209,6,0,P|28:246|115:159,1,176.000005371094,4|0,0:0|3:0,0:0:0:0:
256,224,265724,2,0,L|379:214,1,88.000002685547,8|0,0:0|0:0,0:0:0:0:
171,319,266066,2,0,L|161:208,1,88.000002685547,0|0,1:0|0:0,0:0:0:0:
320,128,266409,2,0,L|203:113,1,88.000002685547,8|0,0:0|0:0,0:0:0:0:
100,310,266752,6,0,L|205:295,1,88.000002685547,0|0,1:0|0:0,0:0:0:0:
335,362,267095,2,0,L|344:254,1,88.000002685547,8|0,0:0|0:0,0:0:0:0:
212,217,267438,1,0,0:0:0:0:
363,197,267609,2,8,L|416:192,1,44.0000013427735
249,105,267781,2,8,L|200:100,1,44.0000013427735
400,294,267952,6,0,P|436:227|381:142,1,176.000005371094,4|0,0:0|1:0,0:0:0:0:
237,198,268466,2,0,L|123:193,1,88.000002685547,8|0,0:0|0:0,0:0:0:0:
276,346,268809,2,0,L|390:341,1,88.000002685547,8|0,0:0|0:0,0:0:0:0:
210,347,269152,1,8,0:0:0:0:
469,296,269324,6,0,P|459:210|385:159,1,176.000005371094,4|0,0:0|0:0,0:0:0:0:
252,156,269838,1,8,0:0:0:0:
385,155,270009,1,0,0:0:0:0:
385,155,270095,1,0,0:0:0:0:
385,155,270181,1,0,1:0:0:0:
91,235,270352,2,0,L|-19:225,1,88.000002685547,8|8,0:0|0:0,0:0:0:0:
266,344,270695,6,0,L|446:323,1,176.000005371094,4|0,0:0|0:0,0:0:0:0:
324,265,271209,1,8,0:0:0:0:
212,211,271381,2,0,L|205:157,2,44.0000013427735,2|0|0,0:0|0:0|0:0,0:0:0:0:
340,99,271724,2,0,L|451:99,1,88.000002685547,0|8,1:0|0:0,0:0:0:0:
187,297,272066,6,0,L|11:286,1,176.000005371094,4|0,0:0|0:0,0:0:0:0:
63,256,272495,1,8,0:0:0:0:
221,194,272581,2,8,L|232:131,1,44.0000013427735
154,95,272752,2,8,L|143:32,1,44.0000013427735
326,98,272924,2,0,L|451:100,2,88.000002685547,2|2|0,0:0|1:0|0:0,0:0:0:0:
90,289,273438,6,0,P|67:232|163:172,1,176.000005371094,4|0,0:0|3:0,0:0:0:0:
291,208,273952,2,0,L|181:201,1,88.000002685547,8|0,0:0|0:0,0:0:0:0:
66,339,274295,2,0,L|176:332,1,88.000002685547,8|0,0:0|0:0,0:0:0:0:
310,273,274638,2,0,L|200:266,1,88.000002685547,8|0,0:0|0:0,0:0:0:0:
66,302,274981,6,0,L|50:200,1,88.000002685547,8|0,0:0|0:0,0:0:0:0:
199,215,275324,1,8,0:0:0:0:
70,214,275495,1,0,0:0:0:0:
377,238,275666,2,8,L|181:220,1,176.000005371094,8|0,0:0|1:0,0:0:0:0:
444,325,276181,6,0,P|486:277|441:164,1,176.000005371094,4|0,0:0|1:0,0:0:0:0:
282,197,276695,2,0,L|170:184,1,88.000002685547,8|0,0:0|0:0,0:0:0:0:
476,136,277038,2,0,L|278:107,1,176.000005371094,2|8,1:0|0:0,0:0:0:0:
40,290,277552,6,0,L|146:276,2,88.000002685547,4|8|0,0:0|0:0|1:0,0:0:0:0:
286,305,278066,2,0,L|296:195,1,88.000002685547,8|0,0:0|0:0,0:0:0:0:
146,228,278409,1,8,0:0:0:0:
278,226,278580,1,2,0:0:0:0:
146,228,278752,1,8,0:0:0:0:
438,294,278924,6,0,L|449:102,1,176.000005371094,4|0,0:0|0:0,0:0:0:0:
178,189,279438,1,8,0:0:0:0:
317,104,279609,1,0,0:0:0:0:
160,343,279781,2,0,L|105:291,1,44.0000013427735,2|0,0:0|0:0,0:0:0:0:
295,246,279952,2,0,L|336:189,1,44.0000013427735,2|0,0:0|0:0,0:0:0:0:
164,135,280124,2,0,L|153:76,1,44.0000013427735,8|0,0:0|0:0,0:0:0:0:
393,245,280295,6,0,P|440:202|365:111,1,176.000005371094,4|0,2:0|1:0,0:0:0:0:
247,176,280809,1,8,0:0:0:0:
377,181,280981,1,8,0:0:0:0:
219,176,281152,1,8,0:0:0:0:
390,318,281324,2,8,L|402:257,1,44.0000013427735
210,202,281495,2,8,L|197:141,1,44.0000013427735
391,210,281666,6,0,P|449:189|481:61,1,176.000005371094,4|0,0:0|1:0,0:0:0:0:
362,69,282181,2,0,L|251:67,1,88.000002685547,8|0,0:0|0:0,0:0:0:0:
146,253,282524,2,0,L|126:149,1,88.000002685547,2|0,0:0|0:0,0:0:0:0:
271,141,282866,2,0,L|287:28,1,88.000002685547,8|0,0:0|0:0,0:0:0:0:
141,172,283209,6,0,L|39:175,2,88.000002685547,2|0|8,0:0|0:0|0:0,0:0:0:0:
280,231,283724,1,0,3:0:0:0:
44,300,283895,1,2,0:0:0:0:
173,294,284066,1,8,1:0:0:0:
46,294,284238,1,8,1:0:0:0:
378,350,284409,6,0,L|402:169,1,176.000005371094,4|0,0:0|3:0,0:0:0:0:
251,176,284924,2,0,L|239:79,1,88.000002685547,8|0,0:0|0:0,0:0:0:0:
390,114,285266,2,0,L|293:108,1,88.000002685547,2|0,0:0|0:0,0:0:0:0:
172,263,285609,2,0,L|67:254,1,88.000002685547,8|0,0:0|0:0,0:0:0:0:
214,331,285952,6,0,L|339:320,2,88.000002685547,2|0|8,0:0|0:0|0:0,0:0:0:0:
73,265,286466,1,0,3:0:0:0:
322,213,286638,1,0,1:0:0:0:
468,216,286809,1,8,1:0:0:0:
315,216,286981,1,8,1:0:0:0:
51,326,287152,6,0,L|239:313,1,176.000005371094,4|0,0:0|1:0,0:0:0:0:
368,330,287666,2,0,L|383:214,1,88.000002685547,8|0,0:0|0:0,0:0:0:0:
223,212,288009,2,0,L|212:105,1,88.000002685547,8|0,0:0|0:0,0:0:0:0:
372,98,288352,1,8,0:0:0:0:
224,128,288524,1,0,0:0:0:0:
471,286,288695,6,0,L|486:176,1,88.000002685547,4|0,0:0|0:0,0:0:0:0:
335,210,289038,1,10,0:0:0:0:
216,289,289209,1,8,0:0:0:0:
210,236,289295,1,8,0:0:0:0:
204,183,289381,1,8,0:0:0:0:
346,98,289552,2,0,L|449:101,1,88.000002685547,8|4,0:0|1:3,0:0:0:0:
194,284,289895,6,0,L|14:260,1,176.000005371094,4|2,0:0|3:0,0:0:0:0:
133,197,290409,2,0,L|153:76,1,88.000002685547,8|0,0:0|0:0,0:0:0:0:
29,78,290752,2,0,L|131:68,1,88.000002685547,2|0,3:0|0:0,0:0:0:0:
250,115,291095,1,8,0:0:0:0:
489,224,291266,6,0,L|296:245,1,176.000005371094,4|8,0:0|0:0,0:0:0:0:
176,182,291781,1,2,0:0:0:0:
317,84,291952,2,8,L|327:153,1,44.0000013427735,8|8,3:0|0:0,0:0:0:0:
157,222,292124,2,8,L|143:347,1,88.000002685547
302,306,292466,1,8,0:0:0:0:
43,336,292638,6,0,L|18:144,1,176.000005371094,4|0,0:0|3:0,0:0:0:0:
200,97,293152,2,0,L|323:96,1,88.000002685547,8|0,0:0|0:0,0:0:0:0:
122,237,293495,2,0,L|-1:236,1,88.000002685547,8|0,0:0|0:0,0:0:0:0:
182,356,293838,2,0,L|191:233,1,88.000002685547,8|0,0:0|0:0,0:0:0:0:
36,192,294181,6,0,L|27:69,1,88.000002685547,8|0,0:0|0:0,0:0:0:0:
224,96,294524,2,0,L|109:76,1,88.000002685547
255,217,294866,2,0,L|135:191,1,88.000002685547,8|0,0:0|1:0,0:0:0:0:
2,253,295209,1,8,1:0:0:0:
230,342,295381,6,0,L|425:312,1,176.000005371094,4|0,0:0|3:0,0:0:0:0:
289,251,295895,2,0,L|183:231,1,88.000002685547,8|0,0:0|0:0,0:0:0:0:
348,150,296238,1,8,0:0:0:0:
203,146,296409,1,0,0:0:0:0:
354,150,296581,1,8,0:0:0:0:
197,170,296752,1,0,0:0:0:0:
436,285,296924,6,0,L|455:193,1,88.000002685547,8|0,0:0|0:0,0:0:0:0:
261,170,297266,2,0,L|240:63,1,88.000002685547,8|0,0:0|0:0,0:0:0:0:
492,38,297609,1,2,0:0:0:0:
357,77,297781,1,8,2:0:0:0:
496,126,297952,1,0,1:0:0:0:
173,302,298124,6,0,P|143:246|241:170,1,176.000005371094,4|0,0:0|3:0,2:0:0:0:
346,162,298638,1,8,0:0:0:0:
210,222,298809,1,2,0:0:0:0:
199,170,298895,1,0,0:0:0:0:
188,118,298981,1,0,0:0:0:0:
444,151,299152,2,8,L|466:38,1,88.000002685547
154,309,299495,6,0,L|362:295,1,176.000005371094,4|0,0:0|1:0,0:0:0:0:
223,212,300009,1,8,0:0:0:0:
346,120,300181,2,8,L|423:117,1,44.0000013427735
177,68,300352,2,0,L|71:60,2,88.000002685547,8|8|8,0:0|0:0|1:0,0:0:0:0:
425,310,300866,6,0,P|449:252|365:191,1,160,4|0,0:0|0:0,0:0:0:0:
266,188,301381,1,2,0:0:0:0:
64,192,301724,1,8,0:0:0:0:
267,307,302066,2,0,L|277:215,1,80,0|0,1:0|1:0,1:0:0:0:
160,222,302409,6,0,L|149:130,1,80,0|8,0:0|0:0,0:0:0:0:
271,79,302752,2,0,L|171:74,1,80,0|0,1:0|1:0,1:0:0:0:
343,175,303095,2,0,L|453:178,2,80,8|0|8,0:0|3:0|0:0,0:0:0:0:
202,282,303609,6,0,P|179:218|251:146,1,160,4|8,0:0|0:0,0:0:0:0:
340,153,304124,1,2,0:0:0:0:
170,331,304466,2,0,L|148:157,1,160,8|8,0:0|0:0,0:0:0:0:
268,170,304981,1,0,3:0:0:0:
153,256,305152,6,0,L|266:249,1,80,0|8,1:0|0:0,0:0:0:0:
362,145,305495,2,0,L|257:134,1,80,0|0,3:0|3:0,0:0:0:0:
131,66,305838,2,0,L|246:59,2,80,8|0|8,0:0|0:0|0:0,0:0:0:0:
274,264,306352,6,0,L|439:248,1,160,4|0,0:0|3:0,0:0:0:0:
317,207,306866,2,0,L|304:107,1,80,8|0,0:0|0:0,0:0:0:0:
450,78,307209,2,0,L|349:63,1,80,8|0,0:0|0:0,0:0:0:0:
237,192,307552,2,0,L|341:180,1,80,2|0,0:0|0:0,0:0:0:0:
437,244,307895,5,2,0:0:0:0:
308,310,308066,2,0,L|214:325,2,80,8|8|8,0:0|1:0|1:0,0:0:0:0:
450,345,308581,2,0,L|468:250,1,80,8|0,0:0|0:0,0:0:0:0:
319,259,308924,1,8,0:0:0:0:
54,269,309095,6,0,L|231:256,1,160,4|0,0:0|0:0,0:0:0:0:
347,298,309609,2,0,L|357:205,1,80,0|0,1:0|0:0,0:0:0:0:
205,206,309952,2,0,P|172:144|234:53,1,160,8|0,0:0|1:0,0:0:0:0:
362,146,310466,2,0,L|381:64,1,80,0|2,0:0|0:0,0:0:0:0:
117,279,310809,5,8,0:0:0:0:
240,276,310981,1,8,0:0:0:0:
103,271,311152,1,8,0:0:0:0:
427,207,311324,5,8,0:0:0:0:
306,184,311495,1,8,0:0:0:0:
437,140,311666,1,8,0:0:0:0:
76,127,311838,5,8,0:0:0:0:
