osu file format v14

[General]
AudioFilename: audio.mp3
AudioLeadIn: 0
PreviewTime: 228403
Countdown: 0
SampleSet: Normal
StackLeniency: 0.7
Mode: 0
LetterboxInBreaks: 0
WidescreenStoryboard: 0

[Editor]
Bookmarks: 403,5717,27660,38631,49603,66060,71545,81660,92117,104460,115431,126403,137374,153831,159317,168917,179888,192231,203203,214174,228403,229945,239544,250516,262858,273830,282058,301258
DistanceSpacing: 0.8
BeatDivisor: 4
GridSize: 32
TimelineZoom: 2.799999

[Metadata]
Title:Kimi to Iu Tokuiten [singular you]
TitleUnicode:君という特異点 [singular you]
Artist:fhana
ArtistUnicode:fhána
Creator:Frostt
Version:Melody
Source:
Tags:ケセラセラ Outside of Melancholy lantis Junichi Sato yuxuki waga kevin mitsunaga towana
BeatmapID:999679
BeatmapSetID:467197

[Difficulty]
HPDrainRate:6
CircleSize:4
OverallDifficulty:8.8
ApproachRate:9.3
SliderMultiplier:1.6
SliderTickRate:1

[Events]
//Background and Video events
0,0,"fhanabg.jpg",0,0
//Break Periods
//Storyboard Layer 0 (Background)
//Storyboard Layer 1 (Fail)
//Storyboard Layer 2 (Pass)
//Storyboard Layer 3 (Foreground)
//Storyboard Sound Samples

[TimingPoints]
403,342.857142857143,4,2,10,100,1,0
403,-133.333333333333,4,2,10,100,0,0
3145,-133.333333333333,4,2,1,100,0,0
5374,-100,4,2,1,100,0,0
5717,-100,4,1,1,100,0,0
27660,-133.333333333333,4,2,0,100,0,0
37260,-100,4,2,1,100,0,0
71545,-83.3333333333333,4,1,1,100,0,1
104460,-100,4,2,11,100,0,0
104974,-100,4,2,10,100,0,0
107203,-100,4,2,12,100,0,0
107717,-100,4,2,10,100,0,0
109945,-100,4,2,13,100,0,0
110460,-100,4,2,10,100,0,0
112688,-100,4,2,14,100,0,0
113203,-100,4,2,10,100,0,0
114060,-100,4,2,1,100,0,0
159317,-83.3333333333333,4,1,1,100,0,1
191888,-83.3333333333333,4,1,1,50,0,1
191974,-83.3333333333333,4,1,1,62,0,1
192060,-83.3333333333333,4,1,1,75,0,1
192145,-83.3333333333333,4,1,1,87,0,1
192231,-100,4,1,1,100,0,0
198403,-133.333333333333,4,1,1,100,0,0
198574,-100,4,1,1,100,0,0
203888,-133.333333333333,4,1,1,100,0,0
205431,-100,4,1,1,100,0,0
206631,-133.333333333333,4,1,1,100,0,0
206803,-100,4,1,1,100,0,0
209374,-133.333333333333,4,1,1,100,0,0
209545,-100,4,1,1,100,0,0
225317,-83.3333333333333,4,1,1,100,0,0
226003,-100,4,1,1,100,0,0
226688,-83.3333333333333,4,1,1,100,0,0
229945,-83.3333333333333,4,1,1,100,0,1
230116,342.857142857143,4,1,1,100,1,1
230116,-83.3333333333333,4,1,1,100,0,1
262858,-100,4,1,1,100,0,0
269030,-133.333333333333,4,1,1,100,0,0
270573,-100,4,1,1,100,0,0
273744,-100,4,2,1,5,0,0
273830,-100,4,1,1,100,0,0
274516,-133.333333333333,4,1,1,100,0,0
276058,-100,4,1,1,100,0,0
277258,-133.333333333333,4,1,1,100,0,0
277430,-100,4,1,1,100,0,0
288230,-133.333333333333,4,1,1,100,0,0
289773,-100,4,1,1,100,0,0
293716,-133.333333333333,4,1,1,100,0,0
295258,-100,4,1,1,100,0,0
296458,-133.333333333333,4,1,1,100,0,0
296630,-100,4,1,1,100,0,0

[Colours]
Combo1 : 255,128,192
Combo2 : 255,0,128
Combo3 : 128,0,255
Combo4 : 128,128,255
SliderTrackOverride : 150,50,125

[HitObjects]
217,227,403,5,2,0:0:0:0:
217,79,745,1,4,0:0:0:0:
345,153,1088,1,8,0:0:0:0:
217,227,1431,5,2,0:0:0:0:
345,153,1603,1,4,0:0:0:0:
133,138,1945,1,8,0:0:0:0:
217,227,2288,5,2,0:0:0:0:
345,153,2460,1,4,0:0:0:0:
329,364,2802,1,8,0:0:0:0:
217,227,3145,6,0,L|137:233,1,60.0000022888184
278,290,3488,2,0,L|313:231,1,60.0000022888184
186,309,3831,2,0,L|182:389,1,60.0000022888184
278,290,4174,1,0,0:0:0:0:
217,227,4345,6,0,P|205:165|217:111,1,120.000004577637
290,170,4860,1,0,0:0:0:0:
217,110,5031,1,0,0:0:0:0:
327,83,5203,1,2,0:0:0:0:
137,39,5374,5,8,0:0:0:0:
121,75,5459,1,8,0:0:0:0:
115,115,5545,1,8,0:0:0:0:
120,154,5631,1,8,0:0:0:0:
136,192,5717,6,0,L|316:223,1,160,6|2,0:0|0:0,0:0:0:0:
362,276,6231,1,8,0:0:0:0:
214,108,6403,1,2,0:0:0:0:
261,350,6574,1,2,0:0:0:0:
296,108,6745,1,8,0:0:0:0:
261,350,6917,1,2,0:0:0:0:
214,108,7088,6,0,P|233:55|331:33,1,160,6|2,0:0|0:0,0:0:0:0:
399,124,7603,1,8,0:0:0:0:
136,192,7774,1,2,0:0:0:0:
136,192,7860,1,8,0:0:0:0:
136,192,7945,1,2,0:0:0:0:
362,276,8117,1,8,0:0:0:0:
217,110,8288,1,2,0:0:0:0:
460,44,8460,6,0,P|481:128|464:199,1,160,6|2,0:0|0:0,0:0:0:0:
362,276,8974,1,8,0:0:0:0:
98,311,9145,1,2,0:0:0:0:
368,358,9317,1,2,0:0:0:0:
100,233,9488,1,8,0:0:0:0:
362,276,9660,1,2,0:0:0:0:
98,311,9831,6,0,P|29:263|41:183,1,160,6|2,0:0|0:0,0:0:0:0:
105,78,10345,1,8,0:0:0:0:
237,261,10517,1,8,0:3:0:0:
232,292,10603,1,8,0:3:0:0:
227,323,10688,1,4,0:3:0:0:
166,153,10860,1,8,0:0:0:0:
392,227,11031,1,2,0:0:0:0:
105,230,11203,6,0,P|84:153|119:57,1,160,6|2,0:0|0:0,0:0:0:0:
218,21,11717,1,8,0:0:0:0:
308,224,11888,1,2,0:0:0:0:
307,15,12060,1,2,0:0:0:0:
199,257,12231,1,8,0:0:0:0:
218,21,12403,1,2,0:0:0:0:
294,306,12574,6,0,P|355:292|387:197,1,160,6|2,0:0|0:0,0:0:0:0:
345,113,13088,1,8,0:0:0:0:
143,216,13260,1,2,0:0:0:0:
174,218,13345,1,8,0:0:0:0:
205,220,13431,1,2,0:0:0:0:
34,76,13603,1,8,0:0:0:0:
345,113,13774,1,2,0:0:0:0:
98,153,13945,6,0,P|69:236|120:292,1,160,6|2,0:0|0:0,0:0:0:0:
228,320,14460,1,8,0:0:0:0:
85,358,14631,1,2,0:0:0:0:
85,358,14717,1,8,0:0:0:0:
85,358,14803,1,2,0:0:0:0:
143,216,14974,1,8,0:0:0:0:
228,320,15145,1,2,0:0:0:0:
284,195,15317,1,2,0:0:0:0:
351,308,15488,5,4,0:3:0:0:
365,270,15573,1,4,0:3:0:0:
371,231,15659,1,4,0:3:0:0:
369,191,15745,1,4,0:3:0:0:
357,153,15830,1,8,0:0:0:0:
209,228,16003,1,4,0:3:0:0:
217,270,16088,1,4,0:3:0:0:
226,313,16174,1,8,0:0:0:0:
76,248,16345,1,4,0:3:0:0:
89,201,16431,1,8,0:0:0:0:
102,154,16517,1,8,0:0:0:0:
116,108,16603,1,8,0:0:0:0:
130,62,16688,6,0,P|200:31|299:58,1,160,6|0,0:0|0:0,0:0:0:0:
349,110,17203,1,8,0:0:0:0:
102,154,17374,1,2,0:0:0:0:
346,231,17545,1,8,0:0:0:0:
77,155,17717,1,2,0:0:0:0:
369,106,17888,1,8,0:0:0:0:
25,80,18060,6,0,P|-1:141|31:241,1,160,2|2,0:0|0:0,0:0:0:0:
123,313,18574,1,8,0:0:0:0:
174,84,18745,1,2,0:0:0:0:
222,307,18917,1,8,0:0:0:0:
174,84,19088,1,2,0:0:0:0:
123,313,19260,1,8,0:0:0:0:
174,84,19431,1,2,0:0:0:0:
46,310,19603,6,0,P|72:372|168:376,1,160,6|2,0:0|0:0,0:0:0:0:
222,307,20117,1,2,0:0:0:0:
32,206,20288,1,8,0:0:0:0:
246,146,20460,1,2,0:0:0:0:
156,382,20631,1,2,0:0:0:0:
32,206,20803,6,0,P|14:126|51:38,1,160,2|2,0:0|0:0,0:0:0:0:
100,134,21317,1,8,0:0:0:0:
32,333,21488,1,2,0:0:0:0:
38,54,21660,1,2,0:0:0:0:
135,328,21831,1,8,0:0:0:0:
16,157,22003,1,2,0:0:0:0:
241,300,22174,6,0,P|313:317|418:291,1,160,6|2,0:0|0:0,0:0:0:0:
451,183,22688,2,0,P|459:139|440:82,1,80,8|0,0:0|0:0,0:0:0:0:
311,160,23031,2,0,L|320:256,1,80,2|2,0:0|0:0,0:0:0:0:
203,141,23374,1,8,0:0:0:0:
264,54,23545,2,0,P|303:45|346:51,1,80,6|0,0:0|0:0,0:0:0:0:
311,160,23888,5,2,0:0:0:0:
135,82,24060,1,8,0:0:0:0:
343,50,24231,1,2,0:0:0:0:
88,174,24403,1,2,0:0:0:0:
311,160,24574,1,2,0:0:0:0:
56,102,24745,1,8,0:0:0:0:
342,49,24917,1,2,0:0:0:0:
130,241,25088,5,8,0:0:0:0:
342,49,25260,1,2,0:0:0:0:
288,325,25431,1,2,0:0:0:0:
88,174,25603,2,0,P|134:162|185:183,1,80,8|0,0:0|0:0,0:0:0:0:
267,225,25945,5,2,0:0:0:0:
26,243,26117,1,2,0:0:0:0:
327,172,26288,2,0,P|342:207|341:259,1,80,8|0,0:0|0:0,0:0:0:0:
255,320,26631,5,2,0:0:0:0:
342,49,26803,1,2,0:0:0:0:
360,38,27145,1,2,0:0:0:0:
80,110,27317,1,2,0:0:0:0:
60,112,27660,6,0,P|42:162|63:237,1,120.000004577637,6|0,0:0|0:0,0:0:0:0:
145,263,28174,2,0,L|211:272,1,60.0000022888184
284,185,28517,2,0,L|201:189,1,60.0000022888184
352,296,28860,2,0,L|366:218,1,60.0000022888184
373,134,29203,6,0,P|356:87|279:63,1,120.000004577637,2|0,0:0|0:0,0:0:0:0:
191,81,29717,2,0,P|151:84|104:73,1,60.0000022888184,2|0,0:0|0:0,0:0:0:0:
41,172,30060,2,0,L|44:93,1,60.0000022888184,2|0,0:0|0:0,0:0:0:0:
134,184,30403,6,0,L|118:311,1,120.000004577637,2|0,0:0|0:0,0:0:0:0:
47,380,30917,2,0,L|38:299,1,60.0000022888184
39,239,31260,1,0,0:0:0:0:
39,239,31603,1,0,0:0:0:0:
134,184,31774,1,0,0:0:0:0:
39,239,31945,5,2,0:0:0:0:
97,117,32117,2,0,P|138:108|174:121,1,60.0000022888184
249,170,32460,2,0,L|252:99,1,60.0000022888184,2|0,0:0|0:0,0:0:0:0:
167,197,32803,2,0,L|173:257,1,60.0000022888184,2|0,0:0|0:0,0:0:0:0:
119,312,33146,6,0,P|174:332|228:309,1,120.000004577637,2|0,0:0|0:0,0:0:0:0:
287,239,33660,2,0,P|340:216|396:236,1,120.000004577637
349,351,34174,2,0,L|344:292,1,60.0000022888184
287,239,34517,6,0,B|309:76|309:76|250:6,1,240.000009155274,2|0,0:0|0:0,0:0:0:0:
216,105,35374,1,0,0:0:0:0:
216,105,35545,2,0,L|206:170,1,60.0000022888184
114,265,35888,2,0,L|104:200,1,60.0000022888184,2|0,0:0|0:0,0:0:0:0:
203,310,36231,2,0,P|248:315|284:300,1,60.0000022888184,2|0,0:0|0:0,0:0:0:0:
357,268,36574,2,0,L|372:127,1,120.000004577637,2|0,0:0|0:0,0:0:0:0:
305,52,37088,1,0,0:0:0:0:
105,52,37260,6,0,P|85:117|109:213,1,160,6|2,0:0|0:0,0:0:0:0:
183,126,37774,1,8,0:0:0:0:
222,221,37945,2,0,P|241:297|221:374,1,160,6|8,0:0|0:0,0:0:0:0:
136,293,38460,1,8,0:0:0:0:
183,126,38631,6,0,P|225:106|334:127,1,160,6|2,0:0|0:0,0:0:0:0:
357,226,39145,1,8,0:0:0:0:
413,64,39317,1,0,0:0:0:0:
438,282,39488,1,2,0:0:0:0:
332,126,39660,1,2,0:0:0:0:
351,327,39831,2,0,P|313:335|265:326,1,80,8|0,0:0|0:0,0:0:0:0:
50,287,40174,5,2,0:0:0:0:
50,287,40345,2,0,P|88:295|136:286,1,80,2|8,0:0|0:0,0:0:0:0:
241,247,40688,1,0,0:0:0:0:
26,208,40860,1,2,0:0:0:0:
281,183,41031,1,2,0:0:0:0:
26,208,41203,1,8,0:0:0:0:
241,247,41374,6,0,P|297:257|355:175,1,160,2|2,0:0|0:0,0:0:0:0:
311,84,41888,1,8,0:0:0:0:
135,193,42060,1,2,0:0:0:0:
135,193,42145,1,8,0:0:0:0:
135,193,42231,1,2,0:0:0:0:
39,128,42403,1,2,0:0:0:0:
223,112,42574,1,8,0:0:0:0:
26,208,42745,6,0,P|1:286|23:365,1,160,2|2,0:0|0:0,0:0:0:0:
81,282,43260,1,8,0:0:0:0:
39,128,43431,1,2,0:0:0:0:
39,128,43517,1,8,0:0:0:0:
39,128,43603,1,8,0:0:0:0:
19,359,43774,1,2,0:0:0:0:
135,193,43945,1,8,0:0:0:0:
201,328,44117,6,0,P|284:354|372:310,1,160,6|2,0:0|0:0,0:0:0:0:
408,258,44631,2,0,L|402:171,1,80,8|0,0:0|0:0,0:0:0:0:
324,128,44974,1,2,0:0:0:0:
277,277,45145,1,2,0:0:0:0:
192,75,45317,1,8,0:0:0:0:
402,178,45488,6,0,P|346:201|223:162,1,160,2|2,0:0|0:0,0:0:0:0:
141,139,46003,2,0,P|130:182|145:228,1,80,8|0,0:0|0:0,0:0:0:0:
192,292,46345,1,2,0:0:0:0:
192,75,46517,1,2,0:0:0:0:
192,330,46688,1,8,0:0:0:0:
123,38,46860,6,0,P|203:0|266:56,1,160,2|2,0:0|0:0,0:0:0:0:
297,139,47374,1,8,0:0:0:0:
62,115,47545,1,2,0:0:0:0:
62,115,47631,1,8,0:0:0:0:
62,115,47717,1,8,0:0:0:0:
362,74,47888,1,2,0:0:0:0:
10,184,48060,1,8,0:0:0:0:
411,142,48231,6,0,P|442:78|397:-1,1,160,2|2,0:0|0:0,0:0:0:0:
260,134,48745,1,8,0:0:0:0:
440,252,48917,1,2,0:0:0:0:
362,74,49088,1,8,0:0:0:0:
257,310,49260,1,8,0:0:0:0:
411,142,49431,1,8,0:0:0:0:
179,193,49603,6,0,P|120:202|6:189,1,160,6|0,0:0|0:0,0:0:0:0:
107,70,50117,2,0,P|147:67|188:70,1,80,2|0,0:0|0:0,0:0:0:0:
412,147,50460,2,0,P|372:149|332:147,1,80,2|0,0:0|0:0,0:0:0:0:
99,193,50803,2,0,P|139:190|180:193,1,80,2|0,0:0|0:0,0:0:0:0:
283,233,51145,5,2,0:0:0:0:
136,290,51317,1,0,0:0:0:0:
136,290,51488,2,0,P|95:294|30:281,1,80,2|0,0:0|0:0,0:0:0:0:
99,193,51831,1,8,0:3:0:0:
229,315,52003,1,4,0:3:0:0:
56,289,52174,1,2,0:0:0:0:
283,233,52345,6,0,P|334:227|450:236,1,160,6|0,0:0|0:0,0:0:0:0:
312,306,52860,2,0,P|292:270|282:214,1,80,2|0,0:0|0:0,0:0:0:0:
434,308,53203,2,0,P|419:348|398:380,1,80,2|0,0:0|0:0,0:0:0:0:
359,237,53545,2,0,P|360:191|357:139,1,80,2|0,0:0|0:0,0:0:0:0:
346,73,53888,5,2,0:0:0:0:
491,116,54060,1,8,0:3:0:0:
285,143,54231,1,4,0:3:0:0:
491,116,54403,1,2,0:0:0:0:
260,69,54574,1,8,0:3:0:0:
433,192,54745,1,4,0:3:0:0:
244,212,54917,1,2,0:0:0:0:
491,116,55088,6,0,P|511:201|473:295,1,160,6|0,0:0|0:0,0:0:0:0:
399,327,55603,2,0,L|283:338,1,80,2|0,0:0|0:0,0:0:0:0:
165,205,55945,2,0,L|281:216,1,80,2|0,0:0|0:0,0:0:0:0:
64,282,56288,2,0,P|45:240|53:185,1,80,2|0,0:0|0:0,0:0:0:0:
101,63,56631,6,0,L|104:145,1,80,2|0,0:0|0:0,0:0:0:0:
240,82,56974,2,0,L|243:0,1,80,2|0,0:0|0:0,0:0:0:0:
382,127,57317,1,8,0:3:0:0:
240,82,57488,1,4,0:3:0:0:
456,35,57660,1,2,0:0:0:0:
266,158,57831,6,0,P|201:153|162:67,1,160,6|0,0:0|0:0,0:0:0:0:
240,82,58345,2,0,P|291:80|323:98,1,80,2|0,0:0|0:0,0:0:0:0:
368,170,58688,2,0,L|360:265,1,80,2|0,0:0|0:0,0:0:0:0:
259,327,59031,2,0,L|251:232,1,80,2|0,0:0|0:0,0:0:0:0:
195,175,59374,5,2,0:0:0:0:
106,324,59545,1,8,0:0:0:0:
361,249,59717,1,8,0:0:0:0:
69,226,59888,1,8,0:0:0:0:
339,330,60060,1,8,0:3:0:0:
106,324,60231,1,8,0:3:0:0:
361,249,60403,1,4,0:3:0:0:
27,297,60574,6,0,P|-3:253|28:154,1,160,6|0,0:0|0:0,0:0:0:0:
140,96,61088,2,0,L|230:107,1,80,2|2,0:0|0:0,0:0:0:0:
249,204,61431,1,8,0:0:0:0:
140,96,61603,1,2,0:0:0:0:
346,88,61774,1,2,0:0:0:0:
177,172,61945,6,0,P|183:248|280:277,1,160,2|8,0:0|0:0,0:0:0:0:
366,274,62460,2,0,P|374:232|362:185,1,80,2|2,0:0|0:0,0:0:0:0:
249,204,62803,1,8,0:0:0:0:
454,264,62974,1,2,0:0:0:0:
251,283,63145,1,2,0:0:0:0:
450,166,63317,6,0,P|469:75|436:2,1,160,6|2,0:0|0:0,0:0:0:0:
346,93,63831,2,0,P|306:98|244:85,1,80,2|2,0:0|0:0,0:0:0:0:
165,26,64174,2,0,B|140:71|140:71|166:199,1,160,8|2,0:0|0:0,0:0:0:0:
232,255,64688,1,2,0:0:0:0:
22,240,64860,5,2,0:0:0:0:
227,341,65032,1,8,0:0:0:0:
8,351,65203,1,2,0:0:0:0:
232,255,65375,1,2,0:0:0:0:
22,240,65545,1,8,0:0:0:0:
303,304,65718,1,2,0:0:0:0:
8,351,65889,1,2,0:0:0:0:
304,228,66060,6,0,P|371:273|358:356,1,160,6|2,0:0|0:0,0:0:0:0:
202,289,66574,1,2,0:0:0:0:
273,87,66745,1,2,0:0:0:0:
303,304,66917,1,2,0:0:0:0:
182,64,67088,1,2,0:0:0:0:
244,365,67260,1,2,0:0:0:0:
273,87,67431,1,2,0:0:0:0:
158,351,67603,5,10,0:0:0:0:
182,64,67774,1,10,0:0:0:0:
244,365,67945,1,10,0:0:0:0:
99,108,68117,1,10,0:0:0:0:
375,211,68288,1,8,0:0:0:0:
76,285,68460,1,8,0:0:0:0:
182,64,68631,1,8,0:0:0:0:
147,327,68803,6,0,P|90:360|-3:318,1,160,6|2,0:0|0:0,0:0:0:0:
159,184,69317,1,8,0:0:0:0:
261,280,69488,2,0,B|293:304|293:304|425:309,1,160,6|2,0:0|0:0,0:0:0:0:
350,163,70003,2,0,P|325:197|319:242,1,80,2|2,0:0|0:0,0:0:0:0:
418,227,70345,5,2,0:0:0:0:
439,183,70430,1,2,0:0:0:0:
444,137,70516,1,8,0:0:0:0:
430,91,70602,1,8,0:0:0:0:
398,55,70688,2,0,P|379:57|356:69,1,40,8|0,0:0|0:0,0:0:0:0:
198,199,70860,2,0,P|192:244|198:283,1,80,8|0,0:3|0:0,0:0:0:0:
418,227,71203,2,0,P|422:187|416:147,1,80,4|0,0:3|0:0,0:0:0:0:
222,97,71545,6,0,P|153:79|52:146,1,191.999994140625,6|2,0:0|0:0,0:0:0:0:
25,226,72060,1,8,0:0:0:0:
319,328,72231,1,2,0:0:0:0:
38,311,72403,1,2,0:0:0:0:
312,194,72574,1,8,0:0:0:0:
25,226,72745,1,2,0:0:0:0:
370,253,72917,6,0,P|387:160|307:111,1,191.999994140625,6|2,0:0|0:0,0:0:0:0:
191,88,73431,1,8,0:0:0:0:
218,303,73603,1,2,0:0:0:0:
218,303,73688,1,8,0:0:0:0:
218,303,73774,1,2,0:0:0:0:
265,34,73945,1,8,0:0:0:0:
127,283,74117,1,2,0:0:0:0:
100,63,74288,6,0,P|147:18|276:45,1,191.999994140625,6|2,0:0|0:0,0:0:0:0:
141,154,74803,2,0,P|77:161|24:137,1,95.9999970703126,8|2,0:0|0:0,0:0:0:0:
298,111,75145,2,0,P|310:163|288:216,1,95.9999970703126,2|8,0:0|0:0,0:0:0:0:
202,307,75488,1,2,0:0:0:0:
202,307,75660,6,0,P|276:340|394:292,1,191.999994140625,6|0,0:0|0:0,0:0:0:0:
422,173,76174,1,8,0:0:0:0:
146,227,76345,1,2,0:0:0:0:
456,305,76517,1,2,0:0:0:0:
116,228,76688,1,8,0:3:0:0:
453,160,76860,1,4,0:3:0:0:
76,313,77031,6,0,P|30:237|90:141,1,191.999994140625,6|2,0:0|0:0,0:0:0:0:
185,109,77545,1,8,0:0:0:0:
233,339,77717,1,2,0:0:0:0:
296,110,77888,1,2,0:0:0:0:
116,228,78060,1,8,0:0:0:0:
239,30,78231,1,2,0:0:0:0:
375,315,78403,6,0,P|432:333|499:232,1,191.999994140625,6|2,0:0|0:0,0:0:0:0:
394,182,78917,1,8,0:0:0:0:
155,250,79088,1,2,0:0:0:0:
426,258,79260,1,2,0:0:0:0:
225,113,79431,1,8,0:0:0:0:
285,354,79603,1,2,0:0:0:0:
303,73,79774,6,0,B|241:35|241:35|91:59,1,191.999994140625,6|2,0:0|0:0,0:0:0:0:
69,156,80288,2,0,P|59:211|75:274,1,95.9999970703126,8|2,0:0|0:0,0:0:0:0:
252,320,80631,2,0,P|258:272|248:225,1,95.9999970703126,2|8,0:0|0:0,0:0:0:0:
187,130,80974,1,2,0:0:0:0:
424,226,81145,6,0,P|452:123|411:27,1,191.999994140625,6|2,0:0|0:0,0:0:0:0:
352,139,81660,1,8,0:3:0:0:
347,176,81745,1,8,0:3:0:0:
342,214,81831,1,8,0:3:0:0:
338,252,81917,1,8,0:3:0:0:
334,290,82003,5,8,0:0:0:0:
289,262,82088,1,8,0:0:0:0:
239,243,82174,1,8,0:0:0:0:
186,237,82260,1,8,0:0:0:0:
133,241,82345,1,8,0:0:0:0:
83,260,82431,1,8,0:0:0:0:
37,284,82517,6,0,B|8:223|8:223|35:67,1,191.999994140625,6|2,0:0|0:0,0:0:0:0:
109,30,83031,1,8,0:0:0:0:
352,139,83203,1,2,0:0:0:0:
29,100,83374,1,2,0:0:0:0:
345,17,83545,1,8,0:0:0:0:
21,22,83717,1,2,0:0:0:0:
417,78,83888,6,0,P|432:142|346:233,1,191.999994140625,6|2,0:0|0:0,0:0:0:0:
229,113,84403,1,8,0:0:0:0:
270,315,84574,1,2,0:0:0:0:
270,315,84660,1,8,0:0:0:0:
270,315,84745,1,2,0:0:0:0:
318,56,84917,1,8,0:0:0:0:
169,322,85088,1,2,0:0:0:0:
136,59,85260,6,0,P|190:36|319:57,1,191.999994140625,6|2,0:0|0:0,0:0:0:0:
145,160,85774,2,0,P|93:156|50:108,1,95.9999970703126,8|2,0:0|0:0,0:0:0:0:
229,113,86117,1,2,0:0:0:0:
183,273,86288,1,8,0:0:0:0:
136,59,86460,1,2,0:0:0:0:
263,246,86631,6,0,P|254:312|121:334,1,191.999994140625,6|2,0:0|0:0,0:0:0:0:
66,293,87145,1,8,0:0:0:0:
301,155,87317,1,2,0:0:0:0:
329,158,87403,1,8,0:0:0:0:
357,161,87488,1,2,0:0:0:0:
58,128,87660,1,8,0:3:0:0:
336,240,87831,1,4,0:3:0:0:
66,293,88003,6,0,P|31:253|66:121,1,191.999994140625,6|2,0:0|0:0,0:0:0:0:
180,84,88517,1,8,0:0:0:0:
67,290,88688,1,2,0:0:0:0:
269,132,88860,1,2,0:0:0:0:
51,316,89031,1,8,0:0:0:0:
89,45,89203,1,2,0:0:0:0:
172,292,89374,6,0,P|241:316|365:290,1,191.999994140625,6|2,0:0|0:0,0:0:0:0:
259,192,89888,1,8,0:0:0:0:
51,316,90060,1,2,0:0:0:0:
51,316,90145,1,8,0:0:0:0:
51,316,90231,1,2,0:0:0:0:
355,295,90403,1,8,0:0:0:0:
74,197,90574,1,2,0:0:0:0:
409,231,90745,6,0,P|431:319|353:382,1,191.999994140625,6|2,0:0|0:0,0:0:0:0:
243,286,91260,2,0,L|260:182,1,95.9999970703126,8|2,0:0|0:0,0:0:0:0:
161,92,91517,1,8,0:0:0:0:
161,92,91603,2,0,L|165:205,1,95.9999970703126,2|8,0:0|0:0,0:0:0:0:
275,108,91945,1,2,0:0:0:0:
82,43,92117,6,0,P|58:115|87:249,1,191.999994140625,6|8,0:0|0:3,0:0:0:0:
94,255,92545,1,8,0:3:0:0:
124,274,92630,1,8,0:3:0:0:
156,286,92716,1,8,0:3:0:0:
190,290,92802,1,8,0:3:0:0:
224,286,92887,1,8,0:3:0:0:
253,268,92974,5,8,0:0:0:0:
309,255,93060,1,8,0:0:0:0:
354,291,93145,1,8,0:0:0:0:
354,349,93231,1,8,0:0:0:0:
309,384,93317,1,8,0:0:0:0:
253,372,93403,1,8,0:0:0:0:
220,331,93488,6,0,P|197:229|231:128,1,191.999994140625,6|2,0:0|0:0,0:0:0:0:
289,62,94003,1,8,0:0:0:0:
27,167,94174,1,2,0:0:0:0:
187,19,94345,1,8,0:0:0:0:
72,274,94517,1,2,0:0:0:0:
75,29,94688,1,8,0:0:0:0:
7,265,94860,6,0,P|14:320|148:331,1,191.999994140625,6|2,0:0|0:0,0:0:0:0:
212,298,95374,1,8,0:0:0:0:
7,265,95545,1,2,0:0:0:0:
259,208,95717,1,8,0:0:0:0:
7,265,95888,1,2,0:0:0:0:
227,108,96060,1,8,0:0:0:0:
7,265,96231,1,2,0:0:0:0:
136,59,96403,6,0,P|171:21|246:15,1,95.9999970703126,2|2,0:0|0:0,0:0:0:0:
325,60,96745,1,8,0:0:0:0:
96,177,96917,2,0,P|45:155|20:108,1,95.9999970703126,2|2,0:0|0:0,0:0:0:0:
227,108,97260,2,0,L|238:228,1,95.9999970703126,8|2,0:0|0:0,0:0:0:0:
146,330,97603,6,0,L|157:225,1,95.9999970703126,2|0,0:0|0:0,0:0:0:0:
227,108,97945,1,2,0:0:0:0:
41,245,98117,1,8,0:0:0:0:
320,259,98288,1,2,0:0:0:0:
320,259,98374,1,8,0:0:0:0:
320,259,98460,1,2,0:0:0:0:
59,144,98631,1,8,0:3:0:0:
361,72,98803,1,4,0:3:0:0:
59,144,98974,6,0,B|33:202|33:202|55:338,1,191.999994140625,6|2,0:0|0:0,0:0:0:0:
210,345,99488,1,8,0:0:0:0:
115,212,99660,1,2,0:0:0:0:
340,236,99831,1,2,0:0:0:0:
53,328,100003,1,8,0:0:0:0:
367,353,100174,1,2,0:0:0:0:
115,212,100345,6,0,L|106:104,1,95.9999970703126,6|0,0:0|0:0,0:0:0:0:
239,41,100688,2,0,L|230:149,1,95.9999970703126,2|8,0:0|0:0,0:0:0:0:
369,216,101031,2,0,L|360:108,1,95.9999970703126,2|2,0:0|0:0,0:0:0:0:
459,46,101374,1,2,0:0:0:0:
459,46,101460,1,2,0:0:0:0:
459,46,101545,1,8,0:0:0:0:
470,315,101717,1,2,0:0:0:0:
459,46,101888,5,8,0:0:0:0:
315,284,102060,1,2,0:0:0:0:
239,41,102231,1,2,0:0:0:0:
396,292,102403,2,0,P|378:337|331:364,1,95.9999970703126,8|0,0:0|0:0,0:0:0:0:
205,349,102745,5,2,0:0:0:0:
0,256,102917,1,2,0:0:0:0:
223,209,103088,2,0,P|233:161|218:101,1,95.9999970703126,8|0,0:0|0:0,0:0:0:0:
131,37,103431,5,2,0:0:0:0:
117,331,103603,1,2,0:0:0:0:
116,353,103945,1,2,0:0:0:0:
344,131,104117,1,2,0:0:0:0:
361,120,104460,5,14,0:0:0:0:
361,304,104974,1,4,0:0:0:0:
201,211,105317,1,8,0:0:0:0:
361,304,105660,5,2,0:0:0:0:
201,211,105831,1,4,0:0:0:0:
456,225,106174,1,8,0:0:0:0:
201,211,106517,5,2,0:0:0:0:
361,304,106689,1,4,0:0:0:0:
104,277,107031,1,8,0:0:0:0:
104,92,107203,5,6,0:0:0:0:
104,277,107717,1,4,0:0:0:0:
263,185,108060,1,8,0:0:0:0:
104,92,108403,5,2,0:0:0:0:
263,185,108574,1,4,0:0:0:0:
10,190,108917,1,8,0:0:0:0:
263,185,109260,5,2,0:0:0:0:
104,92,109431,1,4,0:0:0:0:
351,92,109774,1,8,0:0:0:0:
216,274,109945,5,6,0:0:0:0:
216,97,110460,1,4,0:0:0:0:
368,186,110803,1,8,0:0:0:0:
216,274,111145,5,2,0:0:0:0:
216,97,111317,1,4,0:0:0:0:
27,193,111660,1,8,0:0:0:0:
216,274,112003,5,2,0:0:0:0:
216,97,112175,1,4,0:0:0:0:
405,193,112518,1,8,0:0:0:0:
96,244,112688,5,6,0:0:0:0:
208,364,113203,1,4,0:0:0:0:
265,203,113545,1,8,0:0:0:0:
96,244,113888,1,2,0:0:0:0:
97,89,114060,6,0,P|81:176|107:266,1,160,6|8,0:0|0:0,0:0:0:0:
175,166,114574,1,8,0:0:0:0:
270,242,114745,2,0,P|357:258|447:232,1,160,6|8,0:0|0:0,0:0:0:0:
421,206,115174,1,0,0:0:0:0:
416,170,115260,1,8,0:0:0:0:
411,134,115345,1,0,0:0:0:0:
403,98,115431,6,0,B|361:73|361:73|219:94,1,160,6|2,0:0|0:0,0:0:0:0:
140,165,115945,1,8,0:0:0:0:
346,151,116117,1,2,0:0:0:0:
93,94,116288,1,2,0:0:0:0:
403,98,116460,1,2,0:0:0:0:
140,165,116631,1,8,0:0:0:0:
346,151,116803,1,2,0:0:0:0:
93,94,116974,6,0,P|59:144|98:239,1,160,2|8,0:0|0:0,0:0:0:0:
218,278,117488,2,0,P|228:234|210:179,1,80,2|2,0:0|0:0,0:0:0:0:
88,232,117831,2,0,L|89:312,1,80,2|8,0:0|0:0,0:0:0:0:
286,320,118174,6,0,P|301:250|277:137,1,160,2|2,0:0|0:0,0:0:0:0:
199,101,118688,1,8,0:0:0:0:
88,232,118860,1,2,0:0:0:0:
88,232,118945,1,8,0:0:0:0:
88,232,119031,1,2,0:0:0:0:
288,163,119203,1,2,0:0:0:0:
91,115,119374,1,8,0:0:0:0:
314,163,119545,1,2,0:0:0:0:
63,234,119717,5,2,0:0:0:0:
158,35,119888,2,0,P|199:26|259:47,1,80,2|8,0:0|0:0,0:0:0:0:
349,97,120231,2,0,L|370:16,1,80,2|2,0:0|0:0,0:0:0:0:
236,147,120574,2,0,P|238:186|275:236,1,80,2|8,0:0|0:0,0:0:0:0:
355,298,120917,6,0,L|169:334,1,160,2|2,0:0|0:0,0:0:0:0:
85,258,121431,1,8,0:0:0:0:
257,221,121603,1,2,0:0:0:0:
280,218,121688,1,8,0:0:0:0:
303,215,121774,1,2,0:0:0:0:
61,163,121945,1,2,0:0:0:0:
197,328,122117,1,8,0:0:0:0:
238,155,122288,6,0,B|280:118|280:118|336:141|413:119,1,160,2|2,0:0|0:0,0:0:0:0:
339,54,122803,1,8,0:0:0:0:
300,254,122974,1,2,0:0:0:0:
339,72,123145,1,8,0:0:0:0:
398,289,123317,1,2,0:0:0:0:
339,90,123488,1,8,0:0:0:0:
283,328,123660,1,2,0:0:0:0:
339,114,123831,5,8,0:0:0:0:
143,181,124003,1,2,0:0:0:0:
392,184,124174,1,8,0:0:0:0:
155,78,124345,1,2,0:0:0:0:
131,81,124431,1,8,0:0:0:0:
107,85,124517,1,2,0:0:0:0:
256,183,124688,1,2,0:0:0:0:
231,11,124860,1,8,0:0:0:0:
143,181,125031,6,0,P|149:237|245:298,1,160,6|2,0:0|0:0,0:0:0:0:
256,183,125545,1,8,0:0:0:0:
155,78,125717,2,0,P|99:84|38:179,1,160,6|2,0:0|0:0,0:0:0:0:
143,181,126231,1,8,0:0:0:0:
289,95,126403,6,0,P|347:84|462:100,1,160,6|2,0:0|0:0,0:0:0:0:
278,201,126917,1,8,0:0:0:0:
212,44,127088,1,2,0:0:0:0:
369,172,127260,1,2,0:0:0:0:
187,263,127431,1,2,0:0:0:0:
289,95,127603,1,8,0:0:0:0:
318,289,127774,1,2,0:0:0:0:
157,159,127945,5,2,0:0:0:0:
157,159,128117,2,0,P|94:155|65:162,1,80,2|8,0:0|0:0,0:0:0:0:
187,263,128460,2,0,P|222:248|253:200,1,80,2|2,0:0|0:0,0:0:0:0:
60,255,128803,2,0,L|66:352,1,80,2|8,0:0|0:0,0:0:0:0:
157,159,129145,6,0,P|163:108|160:-5,1,160,6|2,0:0|0:0,0:0:0:0:
61,101,129660,2,0,B|58:178|63:215,1,80,8|2,0:0|0:0,0:0:0:0:
129,228,129917,1,2,0:0:0:0:
129,228,130002,1,2,0:0:0:0:
61,101,130174,1,2,0:0:0:0:
3,288,130345,1,8,0:0:0:0:
177,163,130517,6,0,P|212:223|169:300,1,160,2|0,0:0|0:0,0:0:0:0:
56,180,131031,1,8,0:0:0:0:
226,103,131203,1,2,0:0:0:0:
226,103,131288,1,2,0:0:0:0:
226,103,131374,1,8,0:0:0:0:
173,297,131545,1,2,0:0:0:0:
61,101,131717,1,8,0:0:0:0:
262,169,131888,6,0,P|317:173|431:168,1,160,6|2,0:0|0:0,0:0:0:0:
303,47,132403,2,0,P|296:97|308:145,1,80,8|0,0:0|0:0,0:0:0:0:
338,246,132745,2,0,P|342:285|335:324,1,80,2|2,0:0|0:0,0:0:0:0:
247,277,133088,1,8,0:0:0:0:
120,341,133260,6,0,P|91:309|131:197,1,160,2|2,0:0|0:0,0:0:0:0:
247,277,133774,2,0,P|250:327|241:370,1,80,8|2,0:0|0:0,0:0:0:0:
193,198,134117,2,0,P|190:148|199:105,1,80,2|2,0:0|0:0,0:0:0:0:
285,162,134460,1,8,0:0:0:0:
104,112,134631,6,0,P|118:69|225:33,1,160,2|2,0:0|0:0,0:0:0:0:
285,162,135145,1,8,0:0:0:0:
61,202,135317,1,2,0:0:0:0:
61,202,135403,1,2,0:0:0:0:
61,202,135488,1,2,0:0:0:0:
220,46,135660,1,2,0:0:0:0:
213,282,135831,1,8,0:0:0:0:
10,129,136003,6,0,P|-19:171|14:276,1,160,2|2,0:0|0:0,0:0:0:0:
129,246,136517,1,8,0:0:0:0:
73,53,136688,1,2,0:0:0:0:
73,53,136774,1,2,0:0:0:0:
73,53,136860,1,8,0:0:0:0:
5,286,137031,1,2,0:0:0:0:
73,53,137203,1,8,0:0:0:0:
122,319,137374,6,0,P|178:332|302:311,1,160,6|0,0:0|0:0,0:0:0:0:
170,180,137888,2,0,P|125:175|88:179,1,80,2|0,0:0|0:0,0:0:0:0:
306,118,138231,2,0,P|351:123|388:119,1,80,2|0,0:0|0:0,0:0:0:0:
173,46,138574,2,0,P|128:41|91:45,1,80,2|0,0:0|0:0,0:0:0:0:
90,178,138917,6,0,P|95:224|88:260,1,80,2|0,0:0|0:0,0:0:0:0:
206,345,139260,2,0,B|201:299|207:265,1,80,2|0,0:0|0:0,0:0:0:0:
285,174,139603,1,8,0:3:0:0:
88,256,139774,1,4,0:3:0:0:
338,306,139945,1,2,0:0:0:0:
88,256,140117,6,0,P|70:202|91:93,1,160,6|0,0:0|0:0,0:0:0:0:
208,185,140631,2,0,P|211:224|206:268,1,80,2|0,0:0|0:0,0:0:0:0:
86,102,140974,2,0,P|117:67|164:57,1,80,2|0,0:0|0:0,0:0:0:0:
122,191,141317,2,0,P|81:198|27:184,1,80,2|0,0:0|0:0,0:0:0:0:
86,102,141660,5,2,0:0:0:0:
206,264,141831,1,8,0:3:0:0:
282,88,142003,1,4,0:3:0:0:
122,191,142174,1,2,0:0:0:0:
336,151,142345,1,8,0:3:0:0:
147,56,142517,1,4,0:3:0:0:
206,264,142688,1,2,0:0:0:0:
282,88,142860,6,0,P|344:72|419:130,1,160,6|0,0:0|0:0,0:0:0:0:
465,245,143374,2,0,L|459:337,1,80,2|0,0:0|0:0,0:0:0:0:
344,279,143717,2,0,L|338:187,1,80,2|0,0:0|0:0,0:0:0:0:
206,264,144060,2,0,L|200:356,1,80,2|0,0:0|0:0,0:0:0:0:
108,186,144403,6,0,P|152:174|208:184,1,80,2|0,0:0|0:0,0:0:0:0:
53,347,144745,2,0,L|39:251,1,80,2|0,0:0|0:0,0:0:0:0:
200,182,145088,1,8,0:3:0:0:
53,347,145259,1,4,0:3:0:0:
26,148,145431,1,2,0:0:0:0:
206,264,145603,6,0,P|255:240|266:134,1,160,6|0,0:0|0:0,0:0:0:0:
130,144,146117,2,0,P|122:203|140:240,1,80,2|0,0:0|0:0,0:0:0:0:
225,52,146460,2,0,P|197:23|160:10,1,80,2|0,0:0|0:0,0:0:0:0:
271,143,146803,2,0,P|320:151|363:139,1,80,2|0,0:0|0:0,0:0:0:0:
409,81,147145,5,2,0:0:0:0:
383,267,147317,1,8,0:0:0:0:
331,47,147488,1,8,0:0:0:0:
383,267,147660,1,8,0:0:0:0:
409,81,147831,1,8,0:3:0:0:
271,143,148003,1,8,0:3:0:0:
460,202,148174,1,4,0:3:0:0:
261,61,148345,6,0,P|201:108|213:202,1,160,6|0,0:0|0:0,0:0:0:0:
299,325,148860,2,0,P|306:289|296:236,1,80,2|2,0:0|0:0,0:0:0:0:
196,288,149203,2,0,P|141:298|28:285,1,160,8|2,0:0|0:0,0:0:0:0:
84,184,149717,1,2,0:0:0:0:
196,288,149888,1,2,0:0:0:0:
271,143,150060,1,8,0:0:0:0:
84,184,150231,1,2,0:0:0:0:
302,240,150403,1,2,0:0:0:0:
113,331,150574,5,8,0:0:0:0:
335,240,150746,1,2,0:0:0:0:
84,184,150917,1,2,0:0:0:0:
257,308,151088,6,0,P|331:323|422:302,1,160,6|0,0:0|0:0,0:0:0:0:
448,217,151603,2,0,P|451:167|442:115,1,80,2|0,0:0|0:0,0:0:0:0:
345,86,151945,2,0,B|321:135|321:135|337:261,1,160,8|2,0:0|0:0,0:0:0:0:
447,137,152460,1,2,0:0:0:0:
198,182,152631,1,2,0:0:0:0:
448,217,152803,1,8,0:0:0:0:
172,181,152974,1,2,0:0:0:0:
473,131,153145,1,2,0:0:0:0:
142,179,153317,5,8,0:0:0:0:
338,272,153488,1,2,0:0:0:0:
303,68,153660,1,2,0:0:0:0:
217,302,153831,6,0,P|158:316|32:288,1,160,6|2,0:0|0:0,0:0:0:0:
142,179,154345,5,2,0:0:0:0:
392,243,154517,1,2,0:0:0:0:
60,301,154688,1,2,0:0:0:0:
374,158,154860,1,2,0:0:0:0:
61,185,155031,1,2,0:0:0:0:
392,243,155203,1,2,0:0:0:0:
61,185,155374,5,10,0:0:0:0:
374,158,155545,1,10,0:0:0:0:
65,87,155717,1,10,0:0:0:0:
392,243,155888,1,10,0:0:0:0:
59,300,156060,1,8,0:0:0:0:
374,158,156231,1,8,0:0:0:0:
65,87,156403,1,8,0:0:0:0:
420,240,156574,6,0,P|462:183|438:92,1,160,6|8,0:0|0:0,0:0:0:0:
287,196,157088,1,8,0:0:0:0:
369,315,157260,2,0,B|290:329|290:329|176:308,1,160,6|2,0:0|0:0,0:0:0:0:
122,222,157774,2,0,P|156:197|206:197,1,80,2|2,0:0|0:0,0:0:0:0:
137,334,158117,5,2,0:0:0:0:
89,331,158202,1,2,0:0:0:0:
47,307,158288,1,8,0:0:0:0:
20,269,158374,1,8,0:0:0:0:
14,221,158460,2,0,P|34:211|65:208,1,40,8|0,0:0|0:0,0:0:0:0:
280,158,158631,2,0,P|286:206|267:254,1,80,8|0,0:3|0:0,0:0:0:0:
137,334,158974,2,0,L|125:246,1,80,4|0,0:3|0:0,0:0:0:0:
107,122,159317,6,0,P|158:94|300:130,1,191.999994140625,6|2,0:0|0:0,0:0:0:0:
197,172,159831,1,8,0:0:0:0:
40,43,160003,1,2,0:0:0:0:
284,116,160174,1,2,0:0:0:0:
40,212,160345,1,8,0:0:0:0:
156,3,160517,1,2,0:0:0:0:
197,172,160688,6,0,P|200:236|195:369,1,191.999994140625,6|2,0:0|0:0,0:0:0:0:
96,267,161203,1,8,0:0:0:0:
364,250,161374,1,2,0:0:0:0:
364,250,161460,1,8,0:0:0:0:
364,250,161545,1,2,0:0:0:0:
195,363,161717,1,8,0:0:0:0:
197,135,161888,1,2,0:0:0:0:
333,321,162060,6,0,P|386:324|429:208,1,191.999994140625,6|2,0:0|0:0,0:0:0:0:
338,151,162574,1,8,0:0:0:0:
96,267,162745,1,2,0:0:0:0:
60,282,162831,1,8,0:0:0:0:
25,298,162917,1,2,0:0:0:0:
197,135,163088,1,8,0:0:0:0:
195,363,163260,1,2,0:0:0:0:
126,177,163431,6,0,P|131:91|245:63,1,191.999994140625,6|2,0:0|0:0,0:0:0:0:
197,135,163945,1,8,0:0:0:0:
27,35,164117,1,2,0:0:0:0:
27,35,164203,1,8,0:0:0:0:
27,35,164288,1,2,0:0:0:0:
96,267,164460,1,8,0:0:0:0:
219,53,164631,1,8,0:0:0:0:
20,239,164803,6,0,P|23:301|161:318,1,191.999994140625,6|2,0:0|0:0,0:0:0:0:
221,286,165317,1,8,0:0:0:0:
115,54,165488,1,2,0:0:0:0:
220,316,165660,1,2,0:0:0:0:
304,53,165831,1,8,0:0:0:0:
220,345,166003,1,2,0:0:0:0:
115,54,166174,6,0,P|192:42|326:60,1,191.999994140625,6|2,0:0|0:0,0:0:0:0:
368,155,166688,1,8,0:0:0:0:
134,199,166860,1,2,0:0:0:0:
134,199,166945,1,8,0:0:0:0:
134,199,167031,1,2,0:0:0:0:
347,318,167203,1,8,0:0:0:0:
304,53,167374,1,2,0:0:0:0:
176,287,167545,6,0,P|117:288|68:170,1,191.999994140625,6|2,0:0|0:0,0:0:0:0:
101,79,168060,1,8,0:0:0:0:
176,286,168231,1,2,0:0:0:0:
176,286,168317,1,8,0:0:0:0:
176,286,168403,1,2,0:0:0:0:
258,66,168574,1,8,0:0:0:0:
55,170,168745,1,2,0:0:0:0:
278,158,168917,6,0,P|337:154|476:158,1,191.999994140625,6|0,0:0|0:0,0:0:0:0:
372,290,169431,1,4,0:3:0:0:
334,299,169517,1,4,0:3:0:0:
297,309,169602,1,4,0:3:0:0:
259,319,169688,1,4,0:3:0:0:
222,330,169774,5,8,0:0:0:0:
236,283,169860,1,8,0:0:0:0:
237,235,169945,1,8,0:0:0:0:
229,187,170031,1,8,0:0:0:0:
211,142,170117,1,8,0:0:0:0:
209,93,170203,1,8,0:0:0:0:
224,47,170288,6,0,B|281:27|281:27|422:82,1,191.999994140625,6|2,0:0|0:0,0:0:0:0:
285,139,170803,1,8,0:0:0:0:
5,253,170974,1,2,0:0:0:0:
284,216,171145,1,2,0:0:0:0:
8,88,171317,1,8,0:0:0:0:
285,139,171488,1,2,0:0:0:0:
5,253,171660,6,0,P|62:293|200:286,1,191.999994140625,6|2,0:0|0:0,0:0:0:0:
106,210,172174,1,8,0:0:0:0:
365,264,172345,1,2,0:0:0:0:
365,264,172431,1,8,0:0:0:0:
365,264,172517,1,2,0:0:0:0:
66,210,172688,1,8,0:0:0:0:
370,157,172860,1,2,0:0:0:0:
5,254,173031,6,0,P|-8:192|94:138,1,191.999994140625,6|2,0:0|0:0,0:0:0:0:
188,196,173545,1,8,0:0:0:0:
217,23,173717,1,2,0:0:0:0:
280,323,173888,1,2,0:0:0:0:
89,136,174060,1,8,0:0:0:0:
201,340,174231,1,2,0:0:0:0:
300,137,174403,6,0,P|348:122|489:139,1,191.999994140625,6|2,0:0|0:0,0:0:0:0:
395,197,174917,1,8,0:0:0:0:
89,135,175088,1,2,0:0:0:0:
89,135,175174,1,8,0:0:0:0:
89,135,175260,1,2,0:0:0:0:
392,45,175431,1,8,0:0:0:0:
89,135,175603,1,2,0:0:0:0:
464,134,175774,6,0,P|477:213|388:316,1,191.999994140625,6|2,0:0|0:0,0:0:0:0:
283,267,176288,1,8,0:0:0:0:
464,134,176460,1,2,0:0:0:0:
417,302,176631,1,2,0:0:0:0:
290,69,176803,1,8,0:0:0:0:
307,345,176974,1,2,0:0:0:0:
375,67,177145,6,0,P|337:6|206:41,1,191.999994140625,6|2,0:0|0:0,0:0:0:0:
189,133,177660,1,8,0:0:0:0:
307,345,177831,1,2,0:0:0:0:
307,344,177917,1,8,0:0:0:0:
307,344,178003,1,2,0:0:0:0:
404,138,178174,1,8,0:0:0:0:
167,256,178345,1,2,0:0:0:0:
484,172,178517,6,0,P|482:103|376:56,1,191.999994140625,6|2,0:0|0:0,0:0:0:0:
294,194,179031,2,0,P|284:147|291:99,1,95.9999970703126,8|2,0:0|0:0,0:0:0:0:
404,138,179288,1,8,0:0:0:0:
404,138,179374,2,0,L|408:258,1,95.9999970703126,2|8,0:0|0:0,0:0:0:0:
333,279,179717,1,2,0:0:0:0:
292,100,179888,6,0,B|329:151|329:151|334:305,1,191.999994140625,6|8,0:0|0:3,0:0:0:0:
319,310,180317,1,4,0:3:0:0:
298,337,180402,1,4,0:3:0:0:
268,354,180488,1,4,0:3:0:0:
235,360,180574,1,4,0:3:0:0:
201,351,180659,1,4,0:3:0:0:
168,349,180745,5,8,0:0:0:0:
196,298,180830,1,8,0:0:0:0:
212,243,180916,1,8,0:0:0:0:
218,186,181002,1,8,0:0:0:0:
211,129,181087,1,8,0:0:0:0:
193,74,181173,1,8,0:0:0:0:
164,25,181260,6,0,B|106:40|46:24|46:24|59:75|39:107,1,191.999994140625,6|2,0:0|0:0,0:0:0:0:
11,204,181774,1,8,0:0:0:0:
305,236,181945,1,2,0:0:0:0:
45,289,182117,1,8,0:0:0:0:
304,158,182288,1,2,0:0:0:0:
44,95,182460,1,8,0:0:0:0:
246,309,182631,6,0,P|299:316|406:221,1,191.999994140625,2|2,0:0|0:0,0:0:0:0:
304,158,183145,1,8,0:0:0:0:
329,366,183317,1,2,0:0:0:0:
441,113,183488,1,8,0:0:0:0:
174,236,183660,1,2,0:0:0:0:
401,235,183831,1,8,0:0:0:0:
118,140,184003,1,2,0:0:0:0:
250,311,184174,6,0,P|297:296|327:254,1,95.9999970703126,6|2,0:0|0:0,0:0:0:0:
304,158,184517,1,8,0:0:0:0:
118,227,184688,2,0,P|107:281|117:326,1,95.9999970703126,2|2,0:0|0:0,0:0:0:0:
215,188,185031,2,0,L|191:88,1,95.9999970703126,8|2,0:0|0:0,0:0:0:0:
118,227,185374,2,0,P|182:271|311:239,1,191.999994140625,6|2,0:0|0:0,0:0:0:0:
192,94,185888,1,8,0:0:0:0:
142,358,186060,1,2,0:0:0:0:
358,170,186231,1,2,0:0:0:0:
118,227,186403,1,8,0:0:0:0:
290,255,186574,1,2,0:0:0:0:
120,36,186745,6,0,P|112:125|119:236,1,191.999994140625,6|2,0:0|0:0,0:0:0:0:
290,255,187260,1,8,0:0:0:0:
30,186,187431,1,2,0:0:0:0:
291,128,187603,1,2,0:0:0:0:
30,186,187774,1,8,0:0:0:0:
312,258,187945,1,2,0:0:0:0:
30,186,188117,6,0,P|23:248|36:303,1,95.9999970703126,2|0,0:0|0:0,0:0:0:0:
163,187,188460,2,0,L|151:72,1,95.9999970703126,2|8,0:0|0:0,0:0:0:0:
321,163,188803,2,0,P|322:207|305:275,1,95.9999970703126,2|2,0:0|0:0,0:0:0:0:
201,335,189145,1,2,0:0:0:0:
201,335,189231,1,2,0:0:0:0:
201,335,189317,1,8,0:0:0:0:
153,91,189488,1,2,0:0:0:0:
321,163,189660,5,8,0:0:0:0:
30,186,189831,1,2,0:0:0:0:
278,33,190003,1,2,0:0:0:0:
119,289,190174,2,0,P|113:344|118:391,1,95.9999970703126,8|0,0:0|0:0,0:0:0:0:
268,235,190517,5,2,0:0:0:0:
52,91,190688,1,2,0:0:0:0:
268,235,190860,2,0,P|321:243|371:233,1,95.9999970703126,8|0,0:0|0:0,0:0:0:0:
316,163,191203,5,2,0:0:0:0:
38,253,191374,1,2,0:0:0:0:
13,265,191717,1,2,0:0:0:0:
334,347,191888,2,0,B|335:342|329:279,1,47.9999985351563,8|8,0:0|0:0,0:0:0:0:
313,90,192060,2,0,L|317:146,1,47.9999985351563,8|8,0:0|0:0,0:0:0:0:
334,347,192231,6,0,P|394:346|444:256,1,160,6|2,0:0|0:0,0:0:0:0:
451,157,192745,2,0,P|452:115|450:68,1,80,8|2,0:0|0:0,0:0:0:0:
317,138,193003,1,8,0:0:0:0:
317,138,193088,2,0,B|321:180|321:180|341:222,1,80,2|2,0:0|0:0,0:0:0:0:
445,268,193431,1,8,0:0:0:0:
266,227,193603,6,0,P|199:223|89:230,1,160,2|2,0:0|0:0,0:0:0:0:
183,323,194117,1,8,0:0:0:0:
266,227,194288,1,2,0:0:0:0:
275,188,194373,1,8,0:0:0:0:
278,148,194459,1,0,0:0:0:0:
276,108,194545,1,8,0:0:0:0:
268,69,194631,1,2,0:0:0:0:
187,150,194803,1,8,0:0:0:0:
266,227,194974,6,0,P|328:237|430:225,1,160,2|0,0:0|0:0,0:0:0:0:
351,121,195488,2,0,P|342:169|351:215,1,80
373,307,195745,1,0,0:0:0:0:
373,307,195831,2,0,B|333:313|333:313|265:300,1,80
190,258,196174,1,0,0:0:0:0:
86,341,196345,6,0,P|67:279|96:168,1,160
150,100,196860,1,0,0:0:0:0:
190,258,197031,1,0,0:0:0:0:
190,258,197117,1,0,0:0:0:0:
190,258,197203,1,0,0:0:0:0:
277,133,197374,1,0,0:0:0:0:
314,120,197459,1,0,0:0:0:0:
354,115,197545,1,0,0:0:0:0:
394,120,197631,1,0,0:0:0:0:
431,133,197717,6,0,L|428:299,1,160
313,330,198231,5,0,0:0:0:0:
292,137,198403,2,0,L|274:177,1,30.0000011444092
206,291,198574,1,0,0:0:0:0:
299,123,198745,1,0,0:0:0:0:
141,202,198917,1,0,0:0:0:0:
312,108,199088,6,0,P|328:187|307:283,1,160
240,188,199603,1,0,0:0:0:0:
129,294,199774,1,0,0:0:0:0:
129,294,199860,1,0,0:0:0:0:
129,294,199945,1,0,0:0:0:0:
160,137,200117,1,0,0:0:0:0:
314,264,200288,1,0,0:0:0:0:
74,210,200460,6,0,P|55:160|88:57,1,160
160,137,200974,2,0,L|154:240,1,80
200,306,201231,1,0,0:0:0:0:
200,306,201317,2,0,P|246:314|296:299,1,80
155,216,201660,1,0,0:0:0:0:
84,364,201831,6,0,B|61:316|61:316|77:178,1,160
200,306,202345,1,0,0:0:0:0:
270,208,202517,2,0,P|329:188|438:220,1,160
346,277,203031,1,0,0:0:0:0:
344,117,203203,6,0,B|291:83|291:83|236:103|179:75,1,160
241,15,203717,5,0,0:0:0:0:
270,208,203888,2,0,L|230:177,1,30.0000011444092
119,75,204060,5,0,0:0:0:0:
270,208,204231,1,0,0:0:0:0:
70,190,204403,5,0,0:0:0:0:
268,213,204574,1,0,0:0:0:0:
100,321,204745,5,0,0:0:0:0:
248,186,204917,1,0,0:0:0:0:
211,382,205088,5,0,0:0:0:0:
217,181,205260,2,0,L|241:225,1,30.0000011444092
330,345,205431,5,0,0:0:0:0:
190,200,205603,1,0,0:0:0:0:
388,220,205774,1,0,0:0:0:0:
169,219,205945,6,0,P|141:254|169:357,1,160
241,289,206460,5,0,0:0:0:0:
45,220,206631,2,0,L|98:218,1,30.0000011444092
245,208,206803,5,0,0:0:0:0:
45,309,206974,1,0,0:0:0:0:
189,139,207145,5,0,0:0:0:0:
122,370,207317,1,0,0:0:0:0:
99,115,207488,5,0,0:0:0:0:
217,342,207660,1,0,0:0:0:0:
16,143,207831,5,0,0:0:0:0:
262,260,208003,1,0,0:0:0:0:
17,264,208174,5,0,0:0:0:0:
283,161,208345,1,0,0:0:0:0:
122,370,208517,1,0,0:0:0:0:
193,149,208688,6,0,P|215:108|337:86,1,160
383,161,209203,5,0,0:0:0:0:
209,245,209374,2,0,L|247:250,1,30.0000011444092
393,269,209545,5,0,0:0:0:0:
193,149,209717,1,0,0:0:0:0:
436,118,209888,5,0,0:0:0:0:
209,245,210060,1,0,0:0:0:0:
456,288,210231,5,0,0:0:0:0:
193,149,210403,1,0,0:0:0:0:
436,118,210574,5,0,0:0:0:0:
209,245,210745,1,0,0:0:0:0:
259,259,210831,1,0,0:0:0:0:
310,269,210917,2,0,P|321:231|317:190,1,80
258,97,211260,1,0,0:0:0:0:
246,350,211431,6,0,P|312:374|404:351,1,160
416,245,211945,1,0,0:0:0:0:
246,350,212117,1,0,0:0:0:0:
246,350,212203,1,0,0:0:0:0:
246,350,212288,1,0,0:0:0:0:
471,365,212460,1,0,0:0:0:0:
246,350,212631,1,0,0:0:0:0:
416,245,212803,6,0,P|422:165|410:55,1,160
294,51,213317,1,0,0:0:0:0:
291,275,213488,1,0,0:0:0:0:
414,86,213660,5,0,0:0:0:0:
377,122,213745,1,0,0:0:0:0:
328,140,213831,1,0,0:0:0:0:
277,151,213917,1,0,0:0:0:0:
224,147,214003,1,0,0:0:0:0:
175,129,214089,1,0,0:0:0:0:
138,93,214174,6,0,B|111:147|111:147|123:262,1,160
199,330,214688,1,0,0:0:0:0:
277,151,215031,1,0,0:0:0:0:
117,147,215374,1,0,0:0:0:0:
117,147,215545,2,0,L|288:151,1,160
362,246,216060,2,0,P|327:260|261:254,1,80
121,246,216403,1,0,0:0:0:0:
117,147,216574,1,0,0:0:0:0:
204,192,216745,1,0,0:0:0:0:
121,246,216917,6,0,P|111:292|186:368,1,160
268,339,217431,1,0,0:0:0:0:
16,242,217774,1,0,0:0:0:0:
276,188,218117,1,0,0:0:0:0:
276,188,218288,2,0,P|328:196|450:185,1,160
356,117,218803,2,0,L|350:212,1,80
335,361,219145,1,0,0:0:0:0:
263,300,219317,1,0,0:0:0:0:
349,265,219488,1,0,0:0:0:0:
335,361,219660,6,0,P|279:376|179:348,1,160
101,279,220174,1,0,0:0:0:0:
349,265,220517,1,0,0:0:0:0:
133,124,220860,1,0,0:0:0:0:
133,124,221031,2,0,P|109:183|102:288,1,160
222,169,221545,2,0,P|231:126|210:59,1,80
35,47,221888,1,0,0:0:0:0:
25,133,222060,1,0,0:0:0:0:
17,219,222231,1,0,0:0:0:0:
35,47,222403,6,0,B|90:30|90:30|205:53,1,160
92,118,222917,1,0,0:0:0:0:
321,138,223260,1,0,0:0:0:0:
92,118,223603,1,0,0:0:0:0:
92,118,223774,2,0,P|80:192|89:282,1,160
150,369,224288,2,0,P|192:374|230:368,1,80
321,342,224631,1,0,0:0:0:0:
327,237,224803,1,0,0:0:0:0:
238,295,224974,1,0,0:0:0:0:
321,342,225145,1,0,0:0:0:0:
241,156,225317,6,0,P|235:117|242:17,2,127.99999609375
327,237,226003,2,0,L|454:243,2,106.666666666667
219,265,226688,6,0,P|171:296|51:240,1,191.999994140625
142,218,227203,2,0,B|156:157|156:157|120:87|156:23,1,191.999994140625
68,168,227717,1,0,0:0:0:0:
243,87,227888,5,0,0:0:0:0:
68,168,228060,1,0,0:0:0:0:
246,198,228231,1,0,0:0:0:0:
246,198,228317,1,0,0:0:0:0:
246,198,228403,1,0,0:0:0:0:
232,215,229945,6,0,P|321:229|443:208,1,191.999994140625
318,119,230458,1,0,0:0:0:0:
50,199,230630,1,0,0:0:0:0:
299,285,230801,1,0,0:0:0:0:
66,93,230973,1,0,0:0:0:0:
92,365,231144,1,0,0:0:0:0:
222,100,231316,6,0,P|256:56|398:66,1,191.999994140625
444,126,231830,1,0,0:0:0:0:
190,212,232001,1,0,0:0:0:0:
190,212,232087,1,0,0:0:0:0:
190,212,232173,1,0,0:0:0:0:
441,316,232344,1,0,0:0:0:0:
190,212,232516,1,0,0:0:0:0:
444,126,232687,6,0,P|452:178|440:324,1,191.999994140625
295,300,233201,1,0,0:0:0:0:
204,94,233373,1,0,0:0:0:0:
204,94,233458,1,0,0:0:0:0:
204,94,233544,1,0,0:0:0:0:
295,300,233716,1,0,0:0:0:0:
364,47,233887,1,0,0:0:0:0:
205,275,234058,6,0,L|8:299,1,191.999994140625
62,159,234573,1,0,0:0:0:0:
205,275,234744,1,0,0:0:0:0:
195,327,234830,1,0,0:0:0:0:
186,379,234916,1,0,0:0:0:0:
311,199,235087,1,0,0:0:0:0:
298,147,235173,1,0,0:0:0:0:
286,95,235258,1,0,0:0:0:0:
408,194,235430,6,0,P|398:244|247:275,1,191.999994140625
311,199,235944,1,0,0:0:0:0:
486,322,236116,1,0,0:0:0:0:
205,275,236287,1,0,0:0:0:0:
300,24,236458,1,0,0:0:0:0:
279,293,236630,1,0,0:0:0:0:
61,158,236801,6,0,P|41:223|61:346,1,191.999994140625
151,307,237316,1,0,0:0:0:0:
137,72,237487,1,0,0:0:0:0:
137,72,237573,1,0,0:0:0:0:
137,72,237658,1,0,0:0:0:0:
59,343,237830,1,0,0:0:0:0:
43,51,238001,1,0,0:0:0:0:
151,307,238173,6,0,P|231:265|230:171,1,191.999994140625
158,219,238687,1,0,0:0:0:0:
413,261,238858,1,0,0:0:0:0:
151,307,239030,1,0,0:0:0:0:
428,177,239201,1,0,0:0:0:0:
158,219,239373,1,0,0:0:0:0:
413,261,239544,6,0,P|483:242|478:107,1,191.999994140625
484,101,239973,1,0,0:0:0:0:
456,74,240058,1,0,0:0:0:0:
419,62,240144,1,0,0:0:0:0:
380,64,240230,1,0,0:0:0:0:
346,83,240316,1,0,0:0:0:0:
314,105,240401,5,0,0:0:0:0:
275,109,240487,1,0,0:0:0:0:
227,113,240573,1,0,0:0:0:0:
179,117,240658,1,0,0:0:0:0:
131,122,240744,1,0,0:0:0:0:
85,127,240830,1,0,0:0:0:0:
37,132,240916,6,0,P|15:198|29:324,1,191.999994140625
149,355,241430,1,0,0:0:0:0:
179,117,241601,1,0,0:0:0:0:
26,318,241773,1,0,0:0:0:0:
66,56,241944,1,0,0:0:0:0:
149,355,242116,1,0,0:0:0:0:
179,117,242287,6,0,P|212:82|349:88,1,191.999994140625
415,178,242801,1,0,0:0:0:0:
180,214,242973,1,0,0:0:0:0:
169,260,243058,1,0,0:0:0:0:
158,307,243144,1,0,0:0:0:0:
178,119,243316,1,0,0:0:0:0:
281,353,243487,1,0,0:0:0:0:
107,165,243658,6,0,P|96:99|207:39,1,191.999994140625
286,62,244173,1,0,0:0:0:0:
14,154,244344,1,0,0:0:0:0:
286,62,244516,1,0,0:0:0:0:
97,256,244687,1,0,0:0:0:0:
203,24,244858,1,0,0:0:0:0:
291,255,245030,6,0,B|347:274|424:256|424:256|385:269|365:323,1,191.999994140625
350,363,245544,1,0,0:0:0:0:
358,154,245716,1,0,0:0:0:0:
356,106,245801,1,0,0:0:0:0:
358,57,245887,1,0,0:0:0:0:
457,332,246058,1,0,0:0:0:0:
457,332,246144,1,0,0:0:0:0:
457,332,246230,1,0,0:0:0:0:
291,255,246401,6,0,P|208:239|93:260,1,191.999994140625
199,328,246916,1,0,0:0:0:0:
108,89,247087,1,0,0:0:0:0:
199,349,247258,1,0,0:0:0:0:
295,87,247430,1,0,0:0:0:0:
199,369,247601,1,0,0:0:0:0:
108,89,247773,6,0,P|188:69|310:93,1,191.999994140625
384,172,248287,1,0,0:0:0:0:
152,235,248458,1,0,0:0:0:0:
152,235,248544,1,0,0:0:0:0:
152,235,248630,1,0,0:0:0:0:
294,86,248801,1,0,0:0:0:0:
321,365,248973,1,0,0:0:0:0:
108,89,249144,6,0,B|62:124|62:124|86:177|24:188|56:272,1,191.999994140625
141,326,249658,2,0,P|192:336|261:311,1,95.9999970703126
297,253,249916,1,0,0:0:0:0:
297,253,250001,2,0,L|294:146,1,95.9999970703126
213,97,250344,1,0,0:0:0:0:
234,326,250516,6,0,P|294:351|391:258,1,191.999994140625
400,234,250944,1,0,0:0:0:0:
401,195,251030,1,0,0:0:0:0:
390,157,251116,1,0,0:0:0:0:
365,128,251201,1,0,0:0:0:0:
333,106,251287,1,0,0:0:0:0:
294,101,251373,5,0,0:0:0:0:
255,129,251458,1,0,0:0:0:0:
208,142,251544,1,0,0:0:0:0:
161,152,251630,1,0,0:0:0:0:
112,150,251716,1,0,0:0:0:0:
65,139,251801,1,0,0:0:0:0:
22,116,251887,6,0,P|11:203|19:324,1,191.999994140625
122,352,252401,1,0,0:0:0:0:
142,84,252573,1,0,0:0:0:0:
16,306,252744,1,0,0:0:0:0:
238,228,252916,1,0,0:0:0:0:
22,116,253087,1,0,0:0:0:0:
238,228,253258,6,0,P|317:237|380:148,1,191.999994140625
294,101,253773,1,0,0:0:0:0:
280,328,253944,1,0,0:0:0:0:
280,328,254030,1,0,0:0:0:0:
280,328,254116,1,0,0:0:0:0:
294,101,254287,1,0,0:0:0:0:
150,249,254458,1,0,0:0:0:0:
379,154,254630,1,0,0:0:0:0:
147,158,254801,6,0,P|99:171|60:220,1,95.9999970703126
150,249,255144,1,0,0:0:0:0:
147,59,255316,2,0,L|21:73,1,95.9999970703126
224,119,255658,2,0,P|244:73|230:5,1,95.9999970703126
147,158,256001,6,0,L|152:352,1,191.999994140625
251,319,256516,1,0,0:0:0:0:
67,203,256687,1,0,0:0:0:0:
312,191,256858,1,0,0:0:0:0:
35,309,257030,1,0,0:0:0:0:
35,309,257116,1,0,0:0:0:0:
35,309,257201,1,0,0:0:0:0:
363,256,257373,6,0,P|393:206|311:108,1,191.999994140625
248,225,257887,2,0,P|241:285|258:334,1,95.9999970703126
324,109,258230,1,0,0:0:0:0:
159,153,258401,2,0,P|106:161|50:149,1,95.9999970703126
180,44,258744,6,0,P|186:96|173:159,1,95.9999970703126
48,270,259087,2,0,P|41:222|47:175,1,95.9999970703126
184,278,259430,2,0,L|173:382,1,95.9999970703126
123,222,259773,1,0,0:0:0:0:
123,222,259858,1,0,0:0:0:0:
123,222,259944,1,0,0:0:0:0:
282,244,260116,1,0,0:0:0:0:
173,373,260287,5,0,0:0:0:0:
288,114,260458,1,0,0:0:0:0:
363,378,260630,1,0,0:0:0:0:
123,222,260801,2,0,P|113:172|129:117,1,95.9999970703126
186,33,261144,5,0,0:0:0:0:
160,350,261316,1,0,0:0:0:0:
186,33,261487,2,0,P|238:24|321:52,1,95.9999970703126
362,113,261830,5,0,0:0:0:0:
25,209,262001,1,0,0:0:0:0:
0,216,262344,1,0,0:0:0:0:
342,297,262516,1,0,0:0:0:0:
362,301,262858,6,0,P|386:213|353:139,1,160
305,228,263373,1,0,0:0:0:0:
464,317,263544,1,0,0:0:0:0:
464,317,263630,1,0,0:0:0:0:
464,317,263716,1,0,0:0:0:0:
465,141,263887,1,0,0:0:0:0:
362,301,264058,1,0,0:0:0:0:
294,137,264230,6,0,P|236:117|115:153,1,160
214,240,264744,1,0,0:0:0:0:
102,321,264916,1,0,0:0:0:0:
110,282,265001,1,0,0:0:0:0:
118,242,265087,1,0,0:0:0:0:
126,202,265173,1,0,0:0:0:0:
135,163,265258,1,0,0:0:0:0:
214,240,265430,1,0,0:0:0:0:
44,170,265601,6,0,P|74:104|171:74,1,160
262,106,266116,1,0,0:0:0:0:
135,163,266287,1,0,0:0:0:0:
135,163,266373,1,0,0:0:0:0:
135,163,266458,1,0,0:0:0:0:
306,215,266630,1,0,0:0:0:0:
118,242,266801,1,0,0:0:0:0:
339,299,266973,6,0,P|375:263|369:155,1,160
262,106,267487,1,0,0:0:0:0:
306,215,267658,1,0,0:0:0:0:
306,215,267744,1,0,0:0:0:0:
306,215,267830,1,0,0:0:0:0:
262,106,268001,1,0,0:0:0:0:
222,111,268087,1,0,0:0:0:0:
182,117,268173,1,0,0:0:0:0:
142,122,268258,1,0,0:0:0:0:
102,128,268344,6,0,P|86:203|98:288,1,160
186,338,268858,1,0,0:0:0:0:
268,155,269030,2,0,L|268:203,1,30.0000011444092
268,352,269201,5,0,0:0:0:0:
186,168,269373,1,0,0:0:0:0:
337,298,269544,5,0,0:0:0:0:
146,236,269716,1,0,0:0:0:0:
335,216,269887,5,0,0:0:0:0:
126,229,270058,1,0,0:0:0:0:
371,213,270230,5,0,0:0:0:0:
100,217,270401,2,0,L|149:218,1,30.0000011444092
400,235,270573,5,0,0:0:0:0:
74,193,270744,1,0,0:0:0:0:
430,259,270916,1,0,0:0:0:0:
61,165,271087,6,0,P|59:108|153:85,1,160
240,89,271601,1,0,0:0:0:0:
61,165,271773,1,0,0:0:0:0:
61,165,271858,1,0,0:0:0:0:
61,165,271944,1,0,0:0:0:0:
188,17,272116,1,0,0:0:0:0:
146,236,272287,1,0,0:0:0:0:
105,50,272458,6,0,P|145:93|263:69,1,160
272,64,272887,1,0,0:0:0:0:
311,57,272973,1,0,0:0:0:0:
350,64,273058,1,0,0:0:0:0:
381,88,273144,1,0,0:0:0:0:
395,125,273230,1,0,0:0:0:0:
396,165,273316,1,0,0:0:0:0:
367,275,273487,2,0,P|308:284|228:248,1,120
226,243,273830,6,0,B|212:191|212:191|245:69,1,160
289,192,274344,1,0,0:0:0:0:
141,191,274516,2,0,L|176:196,1,30.0000011444092
322,217,274687,5,0,0:0:0:0:
122,163,274858,1,0,0:0:0:0:
326,165,275030,5,0,0:0:0:0:
120,219,275201,1,0,0:0:0:0:
343,243,275373,5,0,0:0:0:0:
99,144,275544,1,0,0:0:0:0:
343,141,275716,5,0,0:0:0:0:
94,236,275887,2,0,L|143:240,1,30.0000011444092
365,259,276058,5,0,0:0:0:0:
56,189,276230,1,0,0:0:0:0:
368,125,276401,1,0,0:0:0:0:
19,196,276573,6,0,P|10:240|106:323,1,160
179,318,277087,1,0,0:0:0:0:
159,104,277258,2,0,L|150:144,1,30.0000011444092
122,247,277430,5,0,0:0:0:0:
249,80,277601,1,0,0:0:0:0:
97,162,277773,5,0,0:0:0:0:
305,158,277944,1,0,0:0:0:0:
159,104,278116,5,0,0:0:0:0:
305,249,278287,1,0,0:0:0:0:
249,80,278458,5,0,0:0:0:0:
179,318,278630,1,0,0:0:0:0:
159,104,278801,5,0,0:0:0:0:
179,318,278972,1,0,0:0:0:0:
305,158,279143,1,0,0:0:0:0:
179,318,279316,2,0,B|227:345|227:345|356:348,1,160
252,261,279830,1,0,0:0:0:0:
72,333,280001,1,0,0:0:0:0:
72,333,280087,1,0,0:0:0:0:
72,333,280173,1,0,0:0:0:0:
331,347,280344,1,0,0:0:0:0:
87,233,280516,1,0,0:0:0:0:
331,347,280687,6,0,P|396:324|420:216,1,160
373,159,281201,1,0,0:0:0:0:
202,178,281373,1,0,0:0:0:0:
345,261,281544,1,0,0:0:0:0:
255,101,281716,1,0,0:0:0:0:
217,88,281801,1,0,0:0:0:0:
177,91,281887,1,0,0:0:0:0:
141,108,281973,1,0,0:0:0:0:
115,138,282058,6,0,B|100:180|100:180|121:300,1,160
202,178,282573,1,0,0:0:0:0:
15,199,282744,1,0,0:0:0:0:
15,199,282830,1,0,0:0:0:0:
15,199,282916,1,0,0:0:0:0:
119,293,283087,1,0,0:0:0:0:
115,138,283258,1,0,0:0:0:0:
43,286,283430,6,0,P|49:325|176:348,1,160
230,322,283944,1,0,0:0:0:0:
15,199,284116,1,0,0:0:0:0:
15,199,284201,1,0,0:0:0:0:
15,199,284287,1,0,0:0:0:0:
267,249,284458,1,0,0:0:0:0:
43,286,284630,1,0,0:0:0:0:
230,322,284801,6,0,P|287:324|349:239,1,160
309,152,285316,1,0,0:0:0:0:
471,215,285487,1,0,0:0:0:0:
471,215,285573,1,0,0:0:0:0:
471,215,285658,1,0,0:0:0:0:
267,247,285830,1,0,0:0:0:0:
470,115,286001,1,0,0:0:0:0:
231,97,286173,6,0,P|175:94|59:99,1,160
152,182,286687,1,0,0:0:0:0:
292,27,286858,1,0,0:0:0:0:
252,20,286944,1,0,0:0:0:0:
212,15,287030,1,0,0:0:0:0:
309,152,287201,1,0,0:0:0:0:
318,190,287287,1,0,0:0:0:0:
323,229,287373,1,0,0:0:0:0:
323,268,287458,1,0,0:0:0:0:
318,307,287544,6,0,L|149:320,1,160
69,275,288058,1,0,0:0:0:0:
323,229,288230,2,0,L|267:223,1,30.0000011444092
51,206,288401,5,0,0:0:0:0:
306,249,288573,1,0,0:0:0:0:
59,135,288744,5,0,0:0:0:0:
283,263,288916,1,0,0:0:0:0:
90,71,289087,5,0,0:0:0:0:
257,268,289259,1,0,0:0:0:0:
141,22,289430,5,0,0:0:0:0:
234,264,289601,2,0,L|227:211,1,30.0000011444092
206,0,289773,5,0,0:0:0:0:
207,251,289945,1,0,0:0:0:0:
277,0,290116,1,0,0:0:0:0:
190,230,290287,6,0,P|166:284|186:380,1,160
248,302,290801,1,0,0:0:0:0:
42,267,290973,1,0,0:0:0:0:
42,267,291058,1,0,0:0:0:0:
42,267,291144,1,0,0:0:0:0:
350,277,291316,1,0,0:0:0:0:
42,267,291487,1,0,0:0:0:0:
323,349,291658,6,0,P|376:349|423:252,1,160
415,225,292087,1,0,0:0:0:0:
404,186,292173,1,0,0:0:0:0:
394,147,292258,1,0,0:0:0:0:
384,108,292344,1,0,0:0:0:0:
371,69,292430,1,0,0:0:0:0:
361,30,292516,1,0,0:0:0:0:
236,103,292687,1,0,0:0:0:0:
189,114,292773,1,0,0:0:0:0:
142,104,292858,1,0,0:0:0:0:
37,167,293030,6,0,B|17:217|17:217|29:343,1,160
135,344,293544,1,0,0:0:0:0:
268,147,293716,2,0,L|250:199,1,30.0000011444092
194,376,293887,5,0,0:0:0:0:
251,145,294059,1,0,0:0:0:0:
261,386,294230,5,0,0:0:0:0:
236,149,294402,1,0,0:0:0:0:
327,372,294573,5,0,0:0:0:0:
223,159,294745,1,0,0:0:0:0:
384,337,294916,5,0,0:0:0:0:
214,174,295087,2,0,L|257:199,1,30.0000011444092
426,284,295259,5,0,0:0:0:0:
209,187,295431,1,0,0:0:0:0:
448,220,295602,1,0,0:0:0:0:
211,204,295773,6,0,P|201:242|212:368,1,160
286,279,296287,5,0,0:0:0:0:
38,355,296458,2,0,L|71:337,1,30.0000011444092
285,247,296630,5,0,0:0:0:0:
36,276,296801,1,0,0:0:0:0:
285,203,296973,5,0,0:0:0:0:
36,199,297144,1,0,0:0:0:0:
284,165,297316,5,0,0:0:0:0:
38,120,297487,1,0,0:0:0:0:
284,115,297658,5,0,0:0:0:0:
40,44,297830,1,0,0:0:0:0:
286,71,298001,5,0,0:0:0:0:
36,199,298173,1,0,0:0:0:0:
286,279,298344,1,0,0:0:0:0:
138,13,298516,6,0,P|119:87|155:186,1,160
202,247,299030,1,0,0:0:0:0:
309,83,299201,1,0,0:0:0:0:
309,83,299287,1,0,0:0:0:0:
309,83,299373,1,0,0:0:0:0:
202,247,299544,1,0,0:0:0:0:
215,24,299716,1,0,0:0:0:0:
321,295,299887,6,0,P|371:309|470:254,1,160
381,226,300401,1,0,0:0:0:0:
197,289,300573,1,0,0:0:0:0:
191,336,300658,1,0,0:0:0:0:
185,383,300744,1,0,0:0:0:0:
64,117,300916,1,0,0:0:0:0:
372,193,301087,1,0,0:0:0:0:
53,313,301258,6,0,P|39:254|69:128,1,160
128,235,301773,1,0,0:0:0:0:
215,24,302116,1,0,0:0:0:0:
274,253,302458,1,0,0:0:0:0:
274,253,302630,6,0,P|335:265|448:249,1,160
352,174,303144,1,0,0:0:0:0:
429,255,303316,1,0,0:0:0:0:
352,174,303487,1,0,0:0:0:0:
273,254,303658,1,0,0:0:0:0:
239,157,303830,1,0,0:0:0:0:
431,254,304001,6,0,P|419:341|330:378,1,160
263,345,304516,2,0,P|259:298|273:255,1,80
313,72,304858,1,0,0:0:0:0:
119,247,305201,1,0,0:0:0:0:
119,247,305373,6,0,B|88:197|88:197|91:73,1,160
176,174,305887,1,0,0:0:0:0:
154,324,306058,1,0,0:0:0:0:
176,174,306230,1,0,0:0:0:0:
119,247,306402,1,0,0:0:0:0:
213,261,306573,1,0,0:0:0:0:
90,95,306744,6,0,P|136:73|244:80,1,160
176,174,307258,1,0,0:0:0:0:
474,214,307601,1,0,0:0:0:0:
223,338,307944,1,0,0:0:0:0:
223,338,308116,6,0,P|148:344|36:333,1,160
29,241,308630,1,0,0:0:0:0:
175,195,308801,1,0,0:0:0:0:
29,241,308973,1,0,0:0:0:0:
63,335,309144,1,0,0:0:0:0:
134,254,309316,1,0,0:0:0:0:
29,241,309487,6,0,P|18:163|36:69,1,160
117,161,310001,1,0,0:0:0:0:
364,28,310344,1,0,0:0:0:0:
201,294,310687,1,0,0:0:0:0:
201,294,310858,6,0,P|174:325|33:311,1,160
110,253,311373,1,0,0:0:0:0:
366,294,311544,1,0,0:0:0:0:
80,249,311716,1,0,0:0:0:0:
398,165,311887,1,0,0:0:0:0:
106,87,312058,1,0,0:0:0:0:
239,344,312230,1,0,0:0:0:0:
