osu file format v14

[General]
AudioFilename: audio.ogg
AudioLeadIn: 0
PreviewTime: 157722
Countdown: 0
SampleSet: Normal
StackLeniency: 0.7
Mode: 1
LetterboxInBreaks: 0
WidescreenStoryboard: 0

[Editor]
Bookmarks: 27267,38238,49724
DistanceSpacing: 2.2
BeatDivisor: 4
GridSize: 8
TimelineZoom: 1.9

[Metadata]
Title:Kimi to Iu Tokuiten [singular you]
TitleUnicode:君という特異点 [singular you]
Artist:fhana
ArtistUnicode:fhána
Creator:CatzerTM
Version:Oni of Singularity
Source:
Tags:japanese pop j-pop jpop ファナ 佐藤純一 Junichi Sato 林 英樹 Hayashi Hideki 和賀裕希 yuxuki waga kevin mitsunaga とわな towana ケセラセラ Que sera sera Outside of Melancholy lantis
BeatmapID:2872699
BeatmapSetID:1391235

[Difficulty]
HPDrainRate:6
CircleSize:5
OverallDifficulty:5.5
ApproachRate:5
SliderMultiplier:1.4
SliderTickRate:1

[Events]
//Background and Video events
0,0,"BG (1).jpg",0,0
//Break Periods
//Storyboard Layer 0 (Background)
//Storyboard Layer 1 (Fail)
//Storyboard Layer 2 (Pass)
//Storyboard Layer 3 (Foreground)
//Storyboard Layer 4 (Overlay)
//Storyboard Sound Samples

[TimingPoints]
351,342.857142857143,4,1,0,40,1,0
5322,-95.2380952380952,4,1,0,70,0,0
5408,-90.9090909090909,4,1,0,70,0,0
5493,-86.9565217391304,4,1,0,70,0,0
5665,-83.3333333333333,4,1,0,70,0,0
27779,-100,4,1,0,40,0,0
37208,-100,4,1,0,70,0,0
70293,-99.009900990099,4,1,0,70,0,0
70465,-98.0392156862745,4,1,0,70,0,0
70551,-97.0873786407767,4,1,0,70,0,0
70636,-96.1538461538461,4,1,0,70,0,0
70808,-95.2380952380952,4,1,0,70,0,0
71236,-91.9540229885058,4,1,0,70,0,0
71322,-88.8888888888889,4,1,0,70,0,0
71408,-86.0215053763441,4,1,0,70,0,0
71493,-83.3333333333333,4,1,0,70,0,1
81093,-83.3333333333333,4,1,0,70,0,0
81265,-100,4,1,0,70,0,0
81436,-97.2382395211211,4,1,0,70,0,0
81608,-94.6248361807524,4,1,0,70,0,0
81779,-92.1483182471178,4,1,0,70,0,0
81951,-89.7981248355572,4,1,0,70,0,0
82036,-88.6673387650945,4,1,0,70,0,0
82122,-87.5647541356833,4,1,0,70,0,0
82208,-86.4892541426191,4,1,0,70,0,0
82293,-85.4398529067492,4,1,0,70,0,0
82379,-84.4156118232506,4,1,0,70,0,0
82465,-83.4155671799783,4,1,0,70,0,1
104408,-83.3333333333333,4,1,0,70,0,0
104579,-90.9090909090909,4,1,0,40,0,0
104751,-100,4,1,0,40,0,0
114008,-100,4,1,0,70,0,0
158065,-98.6913526636796,4,1,0,70,0,0
158236,-96.1742831890238,4,1,0,70,0,0
158408,-93.7824135466821,4,1,0,70,0,0
158579,-91.506545463197,4,1,0,70,0,0
158922,-87.2710008936551,4,1,0,70,0,0
159008,-86.2726422549598,4,1,0,70,0,0
159093,-85.2968672166609,4,1,0,70,0,0
159179,-84.3429891998802,4,1,0,70,0,0
159265,-83.4101401707405,4,1,0,70,0,1
168865,-83.3333333333333,4,1,0,70,0,0
169036,-100,4,1,0,70,0,0
169208,-97.2222627314984,4,1,0,70,0,0
169379,-94.594581811543,4,1,0,70,0,0
169551,-92.1052873961283,4,1,0,70,0,0
169722,-89.7435667324188,4,1,0,70,0,0
169808,-88.6076285851754,4,1,0,70,0,0
169893,-87.5000109375014,4,1,0,70,0,0
169979,-86.4197424173157,4,1,0,70,0,0
170065,-85.3658224271381,4,1,0,70,0,0
170151,-84.3373697198481,4,1,0,70,0,0
170236,-83.3333333333333,4,1,0,70,0,1
192179,-83.3333333333333,4,1,0,70,0,0
192351,-90.9090909090909,4,1,0,70,0,0
214293,-100,4,1,0,70,0,0
227665,-102.941131055383,4,1,0,70,0,0
227836,-106.060622130397,4,1,0,70,0,0
227922,-107.692357396473,4,1,0,70,0,0
228008,-109.374965820323,4,1,0,70,0,0
228179,-112.903262226859,4,1,0,70,0,0
228265,-114.754041924242,4,1,0,70,0,0
228351,-116.666647222225,4,1,0,70,0,0
228522,-120.68971759813,4,1,0,70,0,0
228693,-125,4,1,0,70,0,0
229379,342.857142857143,4,1,0,70,1,8
229379,-125,4,1,0,70,0,8
229893,-83.3333333333333,4,1,0,70,0,1
230064,342.857142857143,4,1,0,70,1,1
230064,-83.3333333333333,4,1,0,70,0,1
239492,-83.3333333333333,4,1,0,70,0,0
239664,-100,4,1,0,70,0,0
239835,-97.2222627314984,4,1,0,70,0,0
240006,-94.594581811543,4,1,0,70,0,0
240178,-92.1052873961283,4,1,0,70,0,0
240349,-89.7435667324188,4,1,0,70,0,0
240435,-88.6076285851754,4,1,0,70,0,0
240521,-87.5000109375014,4,1,0,70,0,0
240606,-86.4197424173157,4,1,0,70,0,0
240692,-85.3658224271381,4,1,0,70,0,0
240778,-84.3373697198481,4,1,0,70,0,0
240864,-83.3333333333333,4,1,0,70,0,1
262806,-83.3333333333333,4,1,0,70,0,0
262978,-90.9090909090909,4,1,0,70,0,0
280806,-100,4,1,0,70,0,0
281664,-93.7499707031342,4,1,0,70,0,0
281749,-90.9090909090909,4,1,0,70,0,0
281835,-88.2353200692118,4,1,0,70,0,0
281921,-85.7142612244968,4,1,0,70,0,0
282006,-83.3333333333333,4,1,0,70,0,1
301206,-83.3333333333333,4,1,0,70,0,0
301378,-100,4,1,0,70,0,0

[HitObjects]
221,88,351,5,8,0:0:0:0:
250,160,693,1,0,0:0:0:0:
301,196,1036,1,0,0:0:0:0:
186,153,1379,1,8,0:0:0:0:
236,210,1551,1,0,0:0:0:0:
191,97,1893,1,0,0:0:0:0:
213,69,2236,1,8,0:0:0:0:
269,163,2408,1,0,0:0:0:0:
210,172,2751,1,0,0:0:0:0:
185,174,3093,1,8,0:0:0:0:
354,227,3265,1,0,0:0:0:0:
180,44,3436,1,0,0:0:0:0:
218,132,3779,1,8,0:0:0:0:
322,145,3951,1,0,0:0:0:0:
269,215,4122,1,8,0:0:0:0:
226,127,4293,1,0,0:0:0:0:
182,81,4636,1,8,0:0:0:0:
266,115,4808,1,0,0:0:0:0:
304,145,4979,1,8,0:0:0:0:
176,210,5151,1,0,0:0:0:0:
225,77,5322,1,0,0:0:0:0:
317,99,5408,1,0,0:0:0:0:
221,133,5493,1,8,0:0:0:0:
176,138,5665,1,12,0:0:0:0:
261,217,6008,1,8,0:0:0:0:
103,163,6179,1,0,0:0:0:0:
235,174,6351,1,0,0:0:0:0:
349,168,6522,1,0,0:0:0:0:
349,168,6608,1,0,0:0:0:0:
191,66,6693,1,8,0:0:0:0:
136,89,6865,1,0,0:0:0:0:
194,126,7036,1,4,0:0:0:0:
261,232,7379,1,0,0:0:0:0:
98,149,7551,1,8,0:0:0:0:
316,128,7722,1,0,0:0:0:0:
316,128,7808,1,8,0:0:0:0:
227,190,7893,1,0,0:0:0:0:
227,190,8065,1,8,0:0:0:0:
146,210,8236,1,0,0:0:0:0:
261,193,8408,1,12,0:0:0:0:
241,112,8751,1,0,0:0:0:0:
256,94,8922,1,8,0:0:0:0:
167,144,9093,1,0,0:0:0:0:
226,253,9265,1,0,0:0:0:0:
294,266,9351,1,0,0:0:0:0:
315,271,9436,1,8,0:0:0:0:
250,102,9608,1,8,0:0:0:0:
343,120,9779,1,4,0:0:0:0:
111,154,10122,1,0,0:0:0:0:
255,78,10293,1,8,0:0:0:0:
194,110,10465,1,0,0:0:0:0:
292,194,10551,1,8,0:0:0:0:
166,82,10636,1,0,0:0:0:0:
206,163,10808,1,8,0:0:0:0:
267,194,10893,1,8,0:0:0:0:
267,194,10979,1,0,0:0:0:0:
231,69,11151,1,12,0:0:0:0:
276,155,11493,1,0,0:0:0:0:
359,205,11665,1,8,0:0:0:0:
292,206,11836,1,0,0:0:0:0:
204,136,11922,1,0,0:0:0:0:
236,177,12008,1,0,0:0:0:0:
164,212,12179,1,8,0:0:0:0:
188,97,12351,1,0,0:0:0:0:
239,42,12522,1,12,0:0:0:0:
187,174,12865,1,0,0:0:0:0:
286,218,13036,1,8,0:0:0:0:
248,82,13208,1,0,0:0:0:0:
218,160,13293,1,8,0:0:0:0:
265,150,13379,1,0,0:0:0:0:
174,101,13551,1,8,0:0:0:0:
163,34,13636,1,8,0:0:0:0:
102,100,13722,1,0,0:0:0:0:
275,168,13893,1,12,0:0:0:0:
169,181,14236,1,0,0:0:0:0:
322,185,14408,1,8,0:0:0:0:
239,107,14579,1,0,0:0:0:0:
239,107,14665,1,0,0:0:0:0:
137,112,14751,1,8,0:0:0:0:
194,125,14836,1,8,0:0:0:0:
199,201,14922,1,0,0:0:0:0:
142,179,15093,1,8,0:0:0:0:
211,244,15265,1,4,0:0:0:0:
201,134,15608,1,8,0:0:0:0:
260,162,15693,1,8,0:0:0:0:
216,207,15779,1,0,0:0:0:0:
176,163,15951,1,8,0:0:0:0:
112,179,16036,1,8,0:0:0:0:
126,150,16122,1,0,0:0:0:0:
233,71,16293,1,0,0:0:0:0:
307,117,16379,1,0,0:0:0:0:
307,117,16465,1,8,0:0:0:0:
240,143,16551,1,8,0:0:0:0:
179,53,16636,1,4,0:0:0:0:
205,258,16979,1,0,0:0:0:0:
106,164,17151,1,8,0:0:0:0:
197,178,17322,1,0,0:0:0:0:
226,92,17493,1,8,0:0:0:0:
197,134,17579,1,8,0:0:0:0:
197,134,17665,1,0,0:0:0:0:
184,85,17836,1,0,0:0:0:0:
340,118,18008,1,12,0:0:0:0:
223,191,18351,1,0,0:0:0:0:
305,227,18522,1,8,0:0:0:0:
240,109,18693,1,0,0:0:0:0:
246,47,18779,1,8,0:0:0:0:
169,129,18865,1,8,0:0:0:0:
198,101,19036,1,0,0:0:0:0:
317,139,19208,1,8,0:0:0:0:
266,145,19379,1,0,0:0:0:0:
161,113,19465,1,8,0:0:0:0:
371,18,19551,1,4,0:0:0:0:
254,27,19722,1,0,0:0:0:0:
143,198,19893,1,8,0:0:0:0:
213,201,20065,1,0,0:0:0:0:
160,17,20151,1,8,0:0:0:0:
107,286,20236,1,8,0:0:0:0:
276,279,20408,1,8,0:0:0:0:
79,56,20579,1,0,0:0:0:0:
267,43,20751,1,12,0:0:0:0:
231,328,21093,1,0,0:0:0:0:
315,323,21265,1,8,0:0:0:0:
178,244,21436,1,0,0:0:0:0:
115,298,21608,1,0,0:0:0:0:
89,151,21693,1,8,0:0:0:0:
98,67,21779,1,0,0:0:0:0:
199,57,21951,1,8,0:0:0:0:
265,62,22036,1,0,0:0:0:0:
130,42,22122,1,12,0:0:0:0:
196,275,22465,1,0,0:0:0:0:
99,291,22636,1,8,0:0:0:0:
224,40,22808,1,0,0:0:0:0:
239,49,22893,1,0,0:0:0:0:
176,259,22979,1,0,0:0:0:0:
148,77,23151,1,0,0:0:0:0:
201,69,23322,1,8,0:0:0:0:
342,310,23493,1,12,0:0:0:0:
170,277,23836,1,0,0:0:0:0:
113,237,23922,1,0,0:0:0:0:
205,243,24008,1,8,0:0:0:0:
237,281,24179,1,8,0:0:0:0:
186,328,24351,1,0,0:0:0:0:
354,300,24522,1,0,0:0:0:0:
291,312,24608,1,8,0:0:0:0:
210,28,24693,1,8,0:0:0:0:
164,72,24865,1,0,0:0:0:0:
304,42,25036,1,4,0:0:0:0:
184,308,25208,1,0,0:0:0:0:
252,253,25379,1,8,0:0:0:0:
333,255,25551,1,12,0:0:0:0:
121,279,25893,1,0,0:0:0:0:
227,37,26065,1,8,0:0:0:0:
285,328,26236,1,12,0:0:0:0:
144,247,26579,1,4,0:0:0:0:
264,279,26751,1,12,0:0:0:0:
201,270,27093,1,4,0:0:0:0:
197,266,27265,1,12,0:0:0:0:
258,22,27608,1,4,0:0:0:0:
57,132,29151,1,0,0:0:0:0:
261,98,29665,1,8,0:0:0:0:
220,33,29836,1,0,0:0:0:0:
215,179,30008,1,8,0:0:0:0:
279,167,30351,1,0,0:0:0:0:
206,263,31722,1,0,0:0:0:0:
291,133,31893,1,8,0:0:0:0:
291,133,32065,1,0,0:0:0:0:
212,211,32408,1,8,0:0:0:0:
234,103,32751,1,8,0:0:0:0:
166,102,33093,1,8,0:0:0:0:
125,193,33608,1,0,0:0:0:0:
256,82,34122,1,0,0:0:0:0:
191,26,34465,1,8,0:0:0:0:
207,151,35493,1,8,0:0:0:0:
227,50,35665,1,0,0:0:0:0:
245,198,35836,1,8,0:0:0:0:
150,77,36008,1,8,0:0:0:0:
176,114,36179,1,0,0:0:0:0:
286,148,36522,1,8,0:0:0:0:
216,113,37208,1,4,0:0:0:0:
217,76,37551,1,0,0:0:0:0:
298,142,37722,1,0,0:0:0:0:
160,70,37893,1,12,0:0:0:0:
132,193,38236,1,0,0:0:0:0:
156,188,38408,1,8,0:0:0:0:
320,128,38579,1,4,0:0:0:0:
177,268,38922,1,0,0:0:0:0:
245,269,39093,1,8,0:0:0:0:
185,96,39265,1,0,0:0:0:0:
228,102,39351,1,8,0:0:0:0:
287,161,39436,1,0,0:0:0:0:
160,167,39608,1,0,0:0:0:0:
228,167,39779,1,8,0:0:0:0:
267,181,39951,1,0,0:0:0:0:
231,221,40122,1,8,0:0:0:0:
295,232,40293,1,0,0:0:0:0:
231,66,40379,1,0,0:0:0:0:
194,143,40465,1,8,0:0:0:0:
155,194,40636,1,0,0:0:0:0:
196,88,40808,1,0,0:0:0:0:
284,104,40979,1,8,0:0:0:0:
181,107,41151,1,0,0:0:0:0:
271,192,41322,1,12,0:0:0:0:
209,229,41665,1,0,0:0:0:0:
312,254,41836,1,8,0:0:0:0:
158,117,42093,1,8,0:0:0:0:
281,73,42179,1,0,0:0:0:0:
213,82,42351,1,0,0:0:0:0:
166,26,42522,1,8,0:0:0:0:
277,178,42693,1,8,0:0:0:0:
151,149,43036,1,0,0:0:0:0:
280,235,43208,1,8,0:0:0:0:
191,102,43379,1,0,0:0:0:0:
228,112,43465,1,0,0:0:0:0:
260,145,43551,1,8,0:0:0:0:
334,62,43722,1,0,0:0:0:0:
277,78,43893,1,8,0:0:0:0:
210,150,44065,1,4,0:0:0:0:
191,112,44408,1,0,0:0:0:0:
284,133,44579,1,8,0:0:0:0:
157,198,44665,1,0,0:0:0:0:
157,198,44751,1,0,0:0:0:0:
157,198,44922,1,0,0:0:0:0:
248,174,45093,1,0,0:0:0:0:
255,223,45265,1,8,0:0:0:0:
266,64,45436,1,12,0:0:0:0:
211,173,45779,1,0,0:0:0:0:
229,195,45951,1,8,0:0:0:0:
197,105,46122,1,0,0:0:0:0:
197,105,46208,1,0,0:0:0:0:
235,82,46293,1,0,0:0:0:0:
169,88,46465,1,0,0:0:0:0:
231,166,46636,1,8,0:0:0:0:
243,42,46808,1,4,0:0:0:0:
146,228,47151,1,0,0:0:0:0:
278,260,47322,1,8,0:0:0:0:
301,195,47493,1,0,0:0:0:0:
380,243,47579,1,8,0:0:0:0:
421,267,47665,1,0,0:0:0:0:
291,170,47836,1,8,0:0:0:0:
226,176,48008,1,0,0:0:0:0:
180,167,48179,1,4,0:0:0:0:
189,274,48522,1,0,0:0:0:0:
268,255,48693,1,8,0:0:0:0:
401,198,48865,1,0,0:0:0:0:
82,252,48951,1,0,0:0:0:0:
174,266,49036,1,8,0:0:0:0:
206,280,49122,1,8,0:0:0:0:
208,282,49208,1,0,0:0:0:0:
270,208,49379,1,8,0:0:0:0:
183,268,49551,1,4,0:0:0:0:
114,232,50065,1,8,0:0:0:0:
256,250,50236,1,0,0:0:0:0:
256,250,50408,1,8,0:0:0:0:
317,201,50579,1,0,0:0:0:0:
267,320,50751,1,8,0:0:0:0:
190,252,50922,1,0,0:0:0:0:
178,254,51093,1,8,0:0:0:0:
161,65,51179,1,8,0:0:0:0:
93,207,51265,1,0,0:0:0:0:
161,65,51436,1,8,0:0:0:0:
241,62,51608,1,0,0:0:0:0:
178,331,51779,1,8,0:0:0:0:
296,294,51951,1,0,0:0:0:0:
304,294,52036,1,0,0:0:0:0:
296,294,52122,1,8,0:0:0:0:
192,272,52293,1,12,0:0:0:0:
251,47,52636,1,0,0:0:0:0:
247,72,52722,1,0,0:0:0:0:
149,73,52808,1,8,0:0:0:0:
246,72,52979,1,0,0:0:0:0:
247,72,53151,1,8,0:0:0:0:
270,76,53322,1,0,0:0:0:0:
278,224,53493,1,8,0:0:0:0:
261,234,53665,1,0,0:0:0:0:
145,56,53836,1,8,0:0:0:0:
79,148,53922,1,8,0:0:0:0:
224,53,54008,1,0,0:0:0:0:
77,229,54093,1,0,0:0:0:0:
169,263,54179,1,8,0:0:0:0:
183,289,54351,1,0,0:0:0:0:
117,208,54522,1,0,0:0:0:0:
196,62,54608,1,0,0:0:0:0:
68,97,54693,1,8,0:0:0:0:
177,32,54865,1,0,0:0:0:0:
301,81,55036,1,12,0:0:0:0:
265,298,55379,1,0,0:0:0:0:
238,275,55465,1,0,0:0:0:0:
156,234,55551,1,8,0:0:0:0:
316,237,55722,1,0,0:0:0:0:
238,275,55893,1,8,0:0:0:0:
19,199,56065,1,0,0:0:0:0:
279,248,56236,1,8,0:0:0:0:
201,292,56322,1,8,0:0:0:0:
225,231,56408,1,0,0:0:0:0:
301,322,56579,1,8,0:0:0:0:
79,230,56751,1,0,0:0:0:0:
115,173,56922,1,8,0:0:0:0:
125,88,57093,1,0,0:0:0:0:
224,53,57179,1,0,0:0:0:0:
171,284,57265,1,0,0:0:0:0:
261,55,57436,1,8,0:0:0:0:
146,34,57608,1,0,0:0:0:0:
281,315,57779,1,12,0:0:0:0:
121,252,58122,1,8,0:0:0:0:
160,301,58293,1,8,0:0:0:0:
262,263,58465,1,0,0:0:0:0:
218,255,58636,1,8,0:0:0:0:
218,255,58808,1,0,0:0:0:0:
218,255,58979,1,8,0:0:0:0:
251,268,59065,1,8,0:0:0:0:
256,269,59151,1,0,0:0:0:0:
311,326,59322,1,0,0:0:0:0:
311,326,59408,1,0,0:0:0:0:
265,237,59493,1,8,0:0:0:0:
181,77,59579,1,8,0:0:0:0:
181,77,59665,1,0,0:0:0:0:
181,37,59751,1,8,0:0:0:0:
266,58,59836,1,0,0:0:0:0:
194,282,60008,1,8,0:0:0:0:
151,73,60179,1,0,0:0:0:0:
258,58,60351,1,8,0:0:0:0:
181,37,60522,1,4,0:0:0:0:
114,264,61036,1,0,0:0:0:0:
210,287,61379,1,8,0:0:0:0:
229,249,61465,1,8,0:0:0:0:
286,243,61551,1,0,0:0:0:0:
181,54,61636,1,0,0:0:0:0:
259,48,61722,1,8,0:0:0:0:
259,48,61893,1,0,0:0:0:0:
279,327,62065,1,8,0:0:0:0:
335,47,62151,1,0,0:0:0:0:
335,47,62236,1,8,0:0:0:0:
371,51,62408,1,8,0:0:0:0:
308,41,62579,1,0,0:0:0:0:
198,44,62751,1,8,0:0:0:0:
181,243,62922,1,0,0:0:0:0:
101,56,63093,1,0,0:0:0:0:
307,62,63265,1,12,0:0:0:0:
135,264,63608,1,0,0:0:0:0:
260,306,63779,1,8,0:0:0:0:
283,258,64122,1,8,0:0:0:0:
92,246,64465,1,0,0:0:0:0:
111,71,64636,1,0,0:0:0:0:
192,74,64808,1,0,0:0:0:0:
184,46,64979,1,8,0:0:0:0:
247,51,65151,1,0,0:0:0:0:
292,67,65236,1,8,0:0:0:0:
290,52,65322,1,0,0:0:0:0:
426,78,65493,1,0,0:0:0:0:
225,63,65665,1,8,0:0:0:0:
81,168,65836,1,0,0:0:0:0:
285,286,66008,1,12,0:0:0:0:
470,237,66351,1,8,0:0:0:0:
315,51,66522,1,0,0:0:0:0:
157,45,66693,1,8,0:0:0:0:
238,64,66865,1,8,0:0:0:0:
206,273,67036,1,8,0:0:0:0:
316,64,67208,1,8,0:0:0:0:
323,36,67379,1,8,0:0:0:0:
176,282,67551,1,8,0:0:0:0:
172,269,67722,1,8,0:0:0:0:
229,225,67893,1,8,0:0:0:0:
163,240,68065,1,0,0:0:0:0:
286,307,68236,1,8,0:0:0:0:
284,58,68408,1,8,0:0:0:0:
177,12,68579,1,0,0:0:0:0:
210,73,68751,1,4,0:0:0:0:
168,273,69093,1,0,0:0:0:0:
269,289,69265,1,8,0:0:0:0:
321,253,69436,1,4,0:0:0:0:
225,252,69779,1,8,0:0:0:0:
184,2,69951,1,4,0:0:0:0:
151,62,70293,1,8,0:0:0:0:
116,214,70465,1,0,0:0:0:0:
305,66,70551,1,8,0:0:0:0:
228,57,70636,1,0,0:0:0:0:
185,238,70808,1,8,0:0:0:0:
251,250,71151,1,0,0:0:0:0:
40,141,71236,1,0,0:0:0:0:
70,76,71322,1,8,0:0:0:0:
196,64,71408,1,8,0:0:0:0:
196,64,71493,1,4,0:0:0:0:
225,164,71836,1,8,0:0:0:0:
259,173,72008,1,0,0:0:0:0:
246,111,72179,1,0,0:0:0:0:
239,128,72265,1,0,0:0:0:0:
281,145,72351,1,8,0:0:0:0:
147,57,72522,1,0,0:0:0:0:
219,87,72693,1,0,0:0:0:0:
309,83,72865,1,12,0:0:0:0:
293,156,73208,1,8,0:0:0:0:
270,67,73293,1,8,0:0:0:0:
293,156,73379,1,8,0:0:0:0:
141,109,73551,1,0,0:0:0:0:
263,86,73722,1,0,0:0:0:0:
223,84,73893,1,8,0:0:0:0:
223,84,73979,1,0,0:0:0:0:
223,84,74065,1,0,0:0:0:0:
370,110,74236,1,4,0:0:0:0:
194,213,74579,1,0,0:0:0:0:
274,138,74751,1,8,0:0:0:0:
138,83,74922,1,0,0:0:0:0:
172,97,75008,1,8,0:0:0:0:
257,82,75093,1,8,0:0:0:0:
176,103,75265,1,0,0:0:0:0:
173,123,75436,1,0,0:0:0:0:
294,177,75608,1,12,0:0:0:0:
149,211,75951,1,0,0:0:0:0:
207,221,76122,1,8,0:0:0:0:
431,255,76293,1,0,0:0:0:0:
141,97,76465,1,8,0:0:0:0:
241,130,76551,1,8,0:0:0:0:
226,77,76636,1,0,0:0:0:0:
196,23,76722,1,0,0:0:0:0:
219,165,76808,1,8,0:0:0:0:
124,106,76893,1,0,0:0:0:0:
266,56,76979,1,12,0:0:0:0:
155,277,77322,1,0,0:0:0:0:
74,167,77408,1,8,0:0:0:0:
112,54,77493,1,8,0:0:0:0:
214,51,77665,1,0,0:0:0:0:
245,274,77836,1,8,0:0:0:0:
88,112,77922,1,8,0:0:0:0:
220,71,78008,1,8,0:0:0:0:
401,231,78179,1,0,0:0:0:0:
299,219,78351,1,4,0:0:0:0:
214,51,78693,1,0,0:0:0:0:
328,52,78865,1,8,0:0:0:0:
134,53,79036,1,0,0:0:0:0:
202,70,79122,1,8,0:0:0:0:
293,65,79208,1,0,0:0:0:0:
181,234,79379,1,0,0:0:0:0:
257,242,79551,1,0,0:0:0:0:
407,283,79722,1,12,0:0:0:0:
54,62,80065,1,0,0:0:0:0:
108,64,80151,1,0,0:0:0:0:
177,61,80236,1,8,0:0:0:0:
111,262,80408,1,0,0:0:0:0:
235,276,80579,1,8,0:0:0:0:
228,91,80751,1,0,0:0:0:0:
235,24,80922,1,0,0:0:0:0:
113,67,81093,1,12,0:0:0:0:
206,69,81436,1,0,0:0:0:0:
178,246,81608,1,8,0:0:0:0:
265,239,81779,1,0,0:0:0:0:
316,256,81951,1,8,0:0:0:0:
316,256,82036,1,0,0:0:0:0:
338,263,82122,1,8,0:0:0:0:
267,266,82208,1,8,0:0:0:0:
221,237,82293,1,0,0:0:0:0:
143,220,82379,1,8,0:0:0:0:
217,45,82465,1,4,0:0:0:0:
215,152,82808,1,8,0:0:0:0:
288,160,82979,1,0,0:0:0:0:
284,69,83151,1,0,0:0:0:0:
393,280,83236,1,0,0:0:0:0:
178,143,83322,1,8,0:0:0:0:
267,264,83493,1,8,0:0:0:0:
241,77,83579,1,8,0:0:0:0:
235,80,83665,1,0,0:0:0:0:
168,28,83836,1,4,0:0:0:0:
197,142,84179,1,8,0:0:0:0:
357,228,84265,1,0,0:0:0:0:
161,126,84351,1,8,0:0:0:0:
209,269,84522,1,0,0:0:0:0:
295,91,84608,1,0,0:0:0:0:
153,58,84693,1,8,0:0:0:0:
277,36,84865,1,8,0:0:0:0:
258,47,85036,1,0,0:0:0:0:
199,91,85208,1,12,0:0:0:0:
178,33,85551,1,0,0:0:0:0:
281,42,85722,1,8,0:0:0:0:
131,111,85893,1,0,0:0:0:0:
158,280,86065,1,0,0:0:0:0:
230,304,86151,1,0,0:0:0:0:
243,309,86236,1,8,0:0:0:0:
230,304,86322,1,8,0:0:0:0:
234,301,86408,1,0,0:0:0:0:
284,234,86579,1,4,0:0:0:0:
176,188,86922,1,0,0:0:0:0:
303,166,87093,1,8,0:0:0:0:
185,84,87265,1,0,0:0:0:0:
234,46,87351,1,0,0:0:0:0:
294,97,87436,1,8,0:0:0:0:
327,104,87522,1,0,0:0:0:0:
203,145,87608,1,8,0:0:0:0:
237,157,87693,1,8,0:0:0:0:
176,138,87779,1,0,0:0:0:0:
165,52,87951,1,4,0:0:0:0:
331,108,88293,1,0,0:0:0:0:
245,100,88379,1,0,0:0:0:0:
336,211,88465,1,8,0:0:0:0:
147,178,88636,1,8,0:0:0:0:
227,165,88722,1,8,0:0:0:0:
190,206,88808,1,8,0:0:0:0:
232,200,88979,1,0,0:0:0:0:
226,77,89151,1,8,0:0:0:0:
321,145,89322,1,4,0:0:0:0:
219,173,89665,1,0,0:0:0:0:
219,173,89836,1,8,0:0:0:0:
269,227,90008,1,0,0:0:0:0:
269,227,90093,1,8,0:0:0:0:
269,227,90179,1,0,0:0:0:0:
206,151,90351,1,8,0:0:0:0:
308,110,90522,1,0,0:0:0:0:
229,95,90693,1,12,0:0:0:0:
156,165,91036,1,0,0:0:0:0:
182,175,91122,1,0,0:0:0:0:
182,175,91208,1,8,0:0:0:0:
216,193,91379,1,0,0:0:0:0:
308,205,91465,1,8,0:0:0:0:
308,205,91551,1,0,0:0:0:0:
229,232,91722,1,0,0:0:0:0:
229,232,91893,1,8,0:0:0:0:
229,232,92065,1,4,0:0:0:0:
278,117,92408,1,8,0:0:0:0:
278,117,92493,1,8,0:0:0:0:
278,117,92579,1,0,0:0:0:0:
278,117,92751,1,8,0:0:0:0:
278,117,92836,1,8,0:0:0:0:
278,117,92922,1,0,0:0:0:0:
214,126,93093,1,8,0:0:0:0:
188,193,93179,1,0,0:0:0:0:
188,193,93265,1,8,0:0:0:0:
270,209,93351,1,8,0:0:0:0:
365,65,93436,1,4,0:0:0:0:
256,96,93779,1,0,0:0:0:0:
192,288,93951,1,8,0:0:0:0:
128,64,94122,1,0,0:0:0:0:
256,64,94208,1,0,0:0:0:0:
256,64,94293,1,8,0:0:0:0:
192,64,94465,1,0,0:0:0:0:
142,47,94551,1,0,0:0:0:0:
192,96,94636,1,8,0:0:0:0:
126,190,94722,1,0,0:0:0:0:
288,96,94808,1,12,0:0:0:0:
206,148,95151,1,0,0:0:0:0:
206,148,95322,1,8,0:0:0:0:
261,44,95493,1,0,0:0:0:0:
261,44,95579,1,0,0:0:0:0:
261,44,95665,1,8,0:0:0:0:
190,137,95836,1,8,0:0:0:0:
230,120,95922,1,0,0:0:0:0:
230,120,96008,1,8,0:0:0:0:
186,115,96179,1,0,0:0:0:0:
321,122,96351,1,12,0:0:0:0:
177,151,96522,1,0,0:0:0:0:
190,137,96693,1,8,0:0:0:0:
191,186,96865,1,0,0:0:0:0:
204,209,97036,1,0,0:0:0:0:
204,209,97122,1,0,0:0:0:0:
204,209,97208,1,8,0:0:0:0:
204,209,97293,1,8,0:0:0:0:
204,209,97379,1,0,0:0:0:0:
276,164,97551,1,12,0:0:0:0:
137,98,97893,1,0,0:0:0:0:
137,98,98065,1,8,0:0:0:0:
211,48,98322,1,8,0:0:0:0:
211,48,98408,1,0,0:0:0:0:
213,75,98579,1,0,0:0:0:0:
267,73,98665,1,0,0:0:0:0:
267,73,98751,1,0,0:0:0:0:
226,15,98922,1,4,0:0:0:0:
172,73,99265,1,0,0:0:0:0:
172,73,99436,1,8,0:0:0:0:
261,121,99608,1,8,0:0:0:0:
261,121,99693,1,8,0:0:0:0:
261,121,99779,1,0,0:0:0:0:
198,54,99865,1,0,0:0:0:0:
262,99,99951,1,8,0:0:0:0:
118,91,100122,1,0,0:0:0:0:
176,75,100293,1,12,0:0:0:0:
168,121,100636,1,8,0:0:0:0:
152,74,100722,1,0,0:0:0:0:
261,121,100808,1,8,0:0:0:0:
243,119,100979,1,0,0:0:0:0:
243,119,101151,1,0,0:0:0:0:
203,49,101322,1,0,0:0:0:0:
203,49,101408,1,0,0:0:0:0:
155,77,101493,1,8,0:0:0:0:
207,12,101665,1,0,0:0:0:0:
265,167,101836,1,4,0:0:0:0:
217,97,102008,1,0,0:0:0:0:
177,117,102179,1,8,0:0:0:0:
124,168,102351,1,12,0:0:0:0:
224,142,102693,1,8,0:0:0:0:
303,97,102865,1,0,0:0:0:0:
165,72,103036,1,12,0:0:0:0:
114,92,103379,1,4,0:0:0:0:
118,88,103551,1,4,0:0:0:0:
166,156,103893,1,4,0:0:0:0:
166,156,104065,1,4,0:0:0:0:
233,71,104408,1,12,0:0:0:0:
181,234,104922,1,0,0:0:0:0:
181,234,105265,1,0,0:0:0:0:
166,108,105608,1,8,0:0:0:0:
237,106,105779,1,0,0:0:0:0:
177,116,106122,1,0,0:0:0:0:
263,160,106465,1,8,0:0:0:0:
263,160,106636,1,0,0:0:0:0:
263,160,106722,1,0,0:0:0:0:
254,124,106808,1,0,0:0:0:0:
88,168,106979,1,0,0:0:0:0:
128,75,107151,1,8,0:0:0:0:
125,118,107665,1,0,0:0:0:0:
223,173,108008,1,0,0:0:0:0:
221,160,108351,1,8,0:0:0:0:
221,160,108522,1,0,0:0:0:0:
331,117,108865,1,0,0:0:0:0:
331,117,109208,1,8,0:0:0:0:
155,110,109379,1,0,0:0:0:0:
155,110,109465,1,0,0:0:0:0:
237,49,109551,1,8,0:0:0:0:
235,87,109636,1,8,0:0:0:0:
210,144,109722,1,0,0:0:0:0:
215,139,109893,1,8,0:0:0:0:
244,174,110408,1,0,0:0:0:0:
321,120,110751,1,0,0:0:0:0:
183,104,111093,1,8,0:0:0:0:
183,104,111265,1,0,0:0:0:0:
181,164,111608,1,0,0:0:0:0:
314,201,111951,1,0,0:0:0:0:
314,201,112036,1,0,0:0:0:0:
229,88,112122,1,0,0:0:0:0:
229,88,112208,1,8,0:0:0:0:
335,50,112293,1,8,0:0:0:0:
283,146,112465,1,0,0:0:0:0:
283,146,112636,1,8,0:0:0:0:
157,133,113151,1,8,0:0:0:0:
214,95,113493,1,0,0:0:0:0:
203,78,113836,1,8,0:0:0:0:
149,105,114008,1,4,0:0:0:0:
95,197,114351,1,0,0:0:0:0:
95,197,114522,1,8,0:0:0:0:
212,122,114693,1,4,0:0:0:0:
276,181,115036,1,0,0:0:0:0:
276,181,115122,1,0,0:0:0:0:
276,181,115208,1,8,0:0:0:0:
265,140,115293,1,8,0:0:0:0:
154,79,115379,1,4,0:0:0:0:
106,174,115722,1,0,0:0:0:0:
204,163,115893,1,8,0:0:0:0:
251,92,116151,1,8,0:0:0:0:
251,92,116236,1,0,0:0:0:0:
251,92,116408,1,0,0:0:0:0:
211,115,116579,1,8,0:0:0:0:
191,159,116751,1,0,0:0:0:0:
321,195,116836,1,0,0:0:0:0:
191,159,116922,1,0,0:0:0:0:
321,195,117093,1,0,0:0:0:0:
321,195,117265,1,8,0:0:0:0:
148,159,117436,1,0,0:0:0:0:
236,105,117522,1,8,0:0:0:0:
179,246,117608,1,0,0:0:0:0:
179,246,117779,1,8,0:0:0:0:
124,97,117951,1,0,0:0:0:0:
288,96,118122,1,8,0:0:0:0:
141,185,118465,1,0,0:0:0:0:
178,140,118636,1,8,0:0:0:0:
242,71,118808,1,0,0:0:0:0:
242,71,118893,1,8,0:0:0:0:
242,71,118979,1,0,0:0:0:0:
204,86,119151,1,0,0:0:0:0:
208,90,119322,1,8,0:0:0:0:
206,193,119493,1,0,0:0:0:0:
376,126,119665,1,8,0:0:0:0:
208,90,119751,1,0,0:0:0:0:
306,152,119836,1,0,0:0:0:0:
363,75,120008,1,8,0:0:0:0:
236,98,120179,1,0,0:0:0:0:
198,52,120265,1,8,0:0:0:0:
198,52,120351,1,0,0:0:0:0:
198,52,120522,1,0,0:0:0:0:
189,150,120693,1,8,0:0:0:0:
246,180,120865,1,4,0:0:0:0:
147,102,121208,1,0,0:0:0:0:
147,102,121379,1,8,0:0:0:0:
249,58,121636,1,8,0:0:0:0:
249,58,121722,1,0,0:0:0:0:
212,66,121893,1,0,0:0:0:0:
225,40,122065,1,8,0:0:0:0:
201,203,122236,1,12,0:0:0:0:
121,112,122579,1,0,0:0:0:0:
222,76,122751,1,8,0:0:0:0:
265,127,122922,1,0,0:0:0:0:
265,127,123093,1,0,0:0:0:0:
265,127,123179,1,0,0:0:0:0:
162,94,123265,1,8,0:0:0:0:
142,215,123436,1,8,0:0:0:0:
170,140,123608,1,0,0:0:0:0:
161,76,123693,1,0,0:0:0:0:
249,169,123779,1,8,0:0:0:0:
161,237,123951,1,0,0:0:0:0:
201,98,124122,1,8,0:0:0:0:
106,93,124293,1,0,0:0:0:0:
176,78,124379,1,8,0:0:0:0:
176,78,124465,1,0,0:0:0:0:
121,257,124636,1,0,0:0:0:0:
170,265,124808,1,8,0:0:0:0:
170,265,124979,1,4,0:0:0:0:
196,154,125322,1,0,0:0:0:0:
196,154,125408,1,0,0:0:0:0:
196,154,125493,1,8,0:0:0:0:
200,93,125665,1,12,0:0:0:0:
121,204,126008,1,0,0:0:0:0:
212,153,126179,1,8,0:0:0:0:
277,61,126351,1,4,0:0:0:0:
113,187,126693,1,0,0:0:0:0:
113,187,126865,1,8,0:0:0:0:
211,99,127208,1,0,0:0:0:0:
234,139,127379,1,0,0:0:0:0:
214,64,127551,1,8,0:0:0:0:
229,129,127722,1,0,0:0:0:0:
229,129,127808,1,0,0:0:0:0:
229,129,127893,1,8,0:0:0:0:
334,210,128065,1,0,0:0:0:0:
461,220,128236,1,8,0:0:0:0:
249,209,128408,1,0,0:0:0:0:
276,209,128579,1,0,0:0:0:0:
245,72,128751,1,8,0:0:0:0:
183,72,128836,1,0,0:0:0:0:
183,72,128922,1,8,0:0:0:0:
248,92,129093,1,0,0:0:0:0:
451,217,129436,1,0,0:0:0:0:
451,217,129608,1,8,0:0:0:0:
254,148,129779,1,0,0:0:0:0:
254,148,129865,1,8,0:0:0:0:
254,148,129951,1,0,0:0:0:0:
254,148,130122,1,0,0:0:0:0:
254,148,130293,1,8,0:0:0:0:
211,133,130465,1,8,0:0:0:0:
181,230,130808,1,0,0:0:0:0:
181,230,130979,1,8,0:0:0:0:
214,124,131236,1,0,0:0:0:0:
214,124,131322,1,8,0:0:0:0:
253,109,131493,1,0,0:0:0:0:
144,93,131665,1,8,0:0:0:0:
199,200,131836,1,4,0:0:0:0:
195,149,132179,1,0,0:0:0:0:
195,149,132265,1,0,0:0:0:0:
195,149,132351,1,8,0:0:0:0:
282,200,132522,1,8,0:0:0:0:
112,109,132693,1,8,0:0:0:0:
132,153,132865,1,0,0:0:0:0:
184,59,133036,1,0,0:0:0:0:
184,59,133208,1,12,0:0:0:0:
195,169,133551,1,0,0:0:0:0:
195,169,133722,1,8,0:0:0:0:
195,77,133893,1,8,0:0:0:0:
195,77,133979,1,8,0:0:0:0:
195,77,134065,1,0,0:0:0:0:
227,74,134236,1,0,0:0:0:0:
222,151,134408,1,8,0:0:0:0:
222,151,134579,1,4,0:0:0:0:
244,228,134922,1,0,0:0:0:0:
244,228,135093,1,8,0:0:0:0:
219,220,135265,1,0,0:0:0:0:
219,220,135351,1,8,0:0:0:0:
219,220,135436,1,0,0:0:0:0:
243,99,135608,1,8,0:0:0:0:
243,99,135693,1,8,0:0:0:0:
243,99,135779,1,0,0:0:0:0:
243,99,135865,1,0,0:0:0:0:
243,99,135951,1,12,0:0:0:0:
248,157,136293,1,8,0:0:0:0:
111,178,136465,1,0,0:0:0:0:
111,178,136636,1,0,0:0:0:0:
199,104,136722,1,0,0:0:0:0:
189,185,136808,1,8,0:0:0:0:
199,104,136979,1,8,0:0:0:0:
199,104,137151,1,0,0:0:0:0:
223,46,137322,1,12,0:0:0:0:
398,175,137836,1,8,0:0:0:0:
156,181,138008,1,0,0:0:0:0:
156,181,138179,1,8,0:0:0:0:
276,132,138351,1,0,0:0:0:0:
276,132,138436,1,0,0:0:0:0:
276,132,138522,1,8,0:0:0:0:
207,164,138693,1,0,0:0:0:0:
186,203,138865,1,8,0:0:0:0:
174,93,138951,1,8,0:0:0:0:
174,93,139036,1,0,0:0:0:0:
174,93,139208,1,8,0:0:0:0:
275,164,139379,1,0,0:0:0:0:
205,7,139465,1,8,0:0:0:0:
179,93,139551,1,8,0:0:0:0:
211,58,139722,1,8,0:0:0:0:
108,128,139893,1,0,0:0:0:0:
227,153,140065,1,12,0:0:0:0:
156,264,140408,1,0,0:0:0:0:
131,54,140493,1,0,0:0:0:0:
233,248,140579,1,8,0:0:0:0:
83,229,140751,1,0,0:0:0:0:
121,333,140922,1,8,0:0:0:0:
131,54,141093,1,0,0:0:0:0:
131,54,141265,1,8,0:0:0:0:
201,52,141436,1,8,0:0:0:0:
200,47,141522,1,8,0:0:0:0:
134,273,141608,1,8,0:0:0:0:
209,260,141779,1,0,0:0:0:0:
213,243,141951,1,8,0:0:0:0:
174,37,142122,1,0,0:0:0:0:
170,42,142293,1,8,0:0:0:0:
231,49,142465,1,0,0:0:0:0:
231,49,142551,1,0,0:0:0:0:
231,49,142636,1,0,0:0:0:0:
193,24,142808,1,12,0:0:0:0:
153,172,143151,1,8,0:0:0:0:
253,116,143236,1,0,0:0:0:0:
196,162,143322,1,8,0:0:0:0:
253,116,143493,1,0,0:0:0:0:
253,116,143665,1,8,0:0:0:0:
209,83,143836,1,0,0:0:0:0:
209,83,144008,1,8,0:0:0:0:
194,119,144179,1,0,0:0:0:0:
242,139,144351,1,8,0:0:0:0:
209,83,144436,1,8,0:0:0:0:
175,26,144522,1,0,0:0:0:0:
175,26,144693,1,8,0:0:0:0:
341,124,144865,1,0,0:0:0:0:
159,82,145036,1,0,0:0:0:0:
337,160,145122,1,0,0:0:0:0:
159,82,145208,1,8,0:0:0:0:
337,160,145293,1,8,0:0:0:0:
106,144,145379,1,0,0:0:0:0:
163,153,145551,1,4,0:0:0:0:
188,261,145893,1,0,0:0:0:0:
188,261,146065,1,8,0:0:0:0:
197,32,146151,1,8,0:0:0:0:
96,229,146236,1,0,0:0:0:0:
227,265,146408,1,8,0:0:0:0:
184,265,146579,1,0,0:0:0:0:
184,265,146665,1,0,0:0:0:0:
184,265,146751,1,8,0:0:0:0:
76,70,146922,1,0,0:0:0:0:
221,58,147093,1,0,0:0:0:0:
215,42,147179,1,0,0:0:0:0:
221,58,147265,1,8,0:0:0:0:
236,67,147351,1,0,0:0:0:0:
220,76,147436,1,8,0:0:0:0:
130,237,147522,1,8,0:0:0:0:
169,51,147608,1,0,0:0:0:0:
169,51,147779,1,8,0:0:0:0:
201,258,147865,1,8,0:0:0:0:
146,253,147951,1,0,0:0:0:0:
146,253,148122,1,8,0:0:0:0:
208,22,148293,1,12,0:0:0:0:
97,206,148808,1,0,0:0:0:0:
107,216,149151,1,8,0:0:0:0:
166,72,149322,1,8,0:0:0:0:
243,80,149493,1,0,0:0:0:0:
166,72,149665,1,0,0:0:0:0:
226,107,149751,1,0,0:0:0:0:
212,65,149836,1,0,0:0:0:0:
156,182,150008,1,8,0:0:0:0:
226,107,150179,1,0,0:0:0:0:
114,161,150351,1,0,0:0:0:0:
166,138,150522,1,8,0:0:0:0:
200,165,150693,1,8,0:0:0:0:
199,143,150779,1,0,0:0:0:0:
199,143,150865,1,0,0:0:0:0:
208,62,151036,1,12,0:0:0:0:
131,82,151379,1,0,0:0:0:0:
205,139,151551,1,0,0:0:0:0:
180,69,151893,1,8,0:0:0:0:
129,197,152236,1,0,0:0:0:0:
129,197,152408,1,0,0:0:0:0:
254,19,152579,1,0,0:0:0:0:
230,98,152751,1,8,0:0:0:0:
154,12,152922,1,0,0:0:0:0:
154,12,153008,1,8,0:0:0:0:
154,12,153093,1,0,0:0:0:0:
172,5,153265,1,8,0:0:0:0:
74,83,153436,1,0,0:0:0:0:
120,241,153608,1,8,0:0:0:0:
181,248,153779,1,4,0:0:0:0:
266,306,154122,1,8,0:0:0:0:
282,275,154293,1,0,0:0:0:0:
188,72,154465,1,8,0:0:0:0:
188,72,154636,1,8,0:0:0:0:
188,72,154808,1,8,0:0:0:0:
188,72,154979,1,8,0:0:0:0:
188,72,155151,1,8,0:0:0:0:
188,72,155322,1,8,0:0:0:0:
188,72,155493,1,8,0:0:0:0:
188,72,155665,1,8,0:0:0:0:
188,72,155836,1,0,0:0:0:0:
188,72,156008,1,8,0:0:0:0:
188,72,156179,1,0,0:0:0:0:
188,72,156351,1,0,0:0:0:0:
188,72,156522,1,4,0:0:0:0:
282,60,156865,1,0,0:0:0:0:
217,42,157036,1,8,0:0:0:0:
217,42,157208,1,4,0:0:0:0:
227,48,157551,1,8,0:0:0:0:
169,83,157636,1,8,0:0:0:0:
227,48,157722,1,4,0:0:0:0:
216,17,157979,1,8,0:0:0:0:
216,17,158065,1,0,0:0:0:0:
89,64,158236,1,0,0:0:0:0:
296,69,158408,1,8,0:0:0:0:
207,62,158579,1,0,0:0:0:0:
313,285,158922,1,8,0:0:0:0:
316,67,159008,1,8,0:0:0:0:
316,67,159093,1,8,0:0:0:0:
172,40,159179,1,0,0:0:0:0:
261,37,159265,1,12,0:0:0:0:
97,198,159608,1,8,0:0:0:0:
110,213,159779,1,0,0:0:0:0:
251,295,159951,1,0,0:0:0:0:
251,295,160036,1,8,0:0:0:0:
251,295,160122,1,8,0:0:0:0:
221,280,160293,1,0,0:0:0:0:
204,291,160465,1,0,0:0:0:0:
204,291,160636,1,12,0:0:0:0:
216,19,160979,1,8,0:0:0:0:
167,77,161151,1,0,0:0:0:0:
243,273,161322,1,0,0:0:0:0:
116,42,161408,1,8,0:0:0:0:
116,42,161493,1,0,0:0:0:0:
187,62,161665,1,8,0:0:0:0:
289,62,161836,1,0,0:0:0:0:
204,82,162008,1,4,0:0:0:0:
97,232,162351,1,0,0:0:0:0:
97,232,162522,1,8,0:0:0:0:
214,242,162693,1,0,0:0:0:0:
214,242,162779,1,8,0:0:0:0:
187,258,162865,1,8,0:0:0:0:
109,292,163036,1,0,0:0:0:0:
73,48,163208,1,0,0:0:0:0:
151,77,163379,1,12,0:0:0:0:
155,232,163722,1,0,0:0:0:0:
155,232,163893,1,8,0:0:0:0:
122,37,164065,1,0,0:0:0:0:
260,326,164151,1,0,0:0:0:0:
122,37,164236,1,8,0:0:0:0:
206,71,164322,1,8,0:0:0:0:
187,8,164408,1,0,0:0:0:0:
206,71,164493,1,0,0:0:0:0:
101,52,164579,1,8,0:0:0:0:
229,68,164751,1,12,0:0:0:0:
179,288,165093,1,0,0:0:0:0:
179,288,165179,1,0,0:0:0:0:
179,288,165265,1,8,0:0:0:0:
211,46,165436,1,8,0:0:0:0:
256,59,165608,1,8,0:0:0:0:
140,48,165693,1,8,0:0:0:0:
256,59,165779,1,0,0:0:0:0:
191,258,165951,1,8,0:0:0:0:
191,258,166122,1,4,0:0:0:0:
185,102,166465,1,0,0:0:0:0:
185,102,166636,1,8,0:0:0:0:
128,222,166808,1,8,0:0:0:0:
136,259,166893,1,8,0:0:0:0:
251,255,166979,1,0,0:0:0:0:
141,17,167151,1,0,0:0:0:0:
205,49,167322,1,0,0:0:0:0:
437,242,167493,1,12,0:0:0:0:
61,213,167836,1,8,0:0:0:0:
130,69,168008,1,0,0:0:0:0:
187,55,168179,1,0,0:0:0:0:
181,54,168265,1,0,0:0:0:0:
186,54,168351,1,8,0:0:0:0:
187,55,168436,1,8,0:0:0:0:
187,55,168522,1,0,0:0:0:0:
163,35,168693,1,8,0:0:0:0:
230,42,168865,1,4,0:0:0:0:
290,77,169208,1,0,0:0:0:0:
290,77,169379,1,8,0:0:0:0:
189,130,169551,1,0,0:0:0:0:
338,266,169722,1,8,0:0:0:0:
338,266,169808,1,0,0:0:0:0:
248,272,169893,1,8,0:0:0:0:
248,272,169979,1,0,0:0:0:0:
248,272,170065,1,8,0:0:0:0:
248,272,170151,1,8,0:0:0:0:
279,30,170236,1,4,0:0:0:0:
81,128,170579,1,8,0:0:0:0:
171,111,170751,1,0,0:0:0:0:
253,128,170922,1,0,0:0:0:0:
175,88,171008,1,0,0:0:0:0:
175,88,171093,1,8,0:0:0:0:
148,49,171179,1,8,0:0:0:0:
162,15,171265,1,8,0:0:0:0:
181,73,171436,1,0,0:0:0:0:
163,108,171608,1,4,0:0:0:0:
140,186,171951,1,0,0:0:0:0:
140,186,172122,1,8,0:0:0:0:
169,121,172293,1,0,0:0:0:0:
170,122,172379,1,8,0:0:0:0:
170,122,172465,1,8,0:0:0:0:
170,122,172636,1,8,0:0:0:0:
191,163,172808,1,0,0:0:0:0:
191,163,172979,1,4,0:0:0:0:
20,243,173322,1,0,0:0:0:0:
191,37,173408,1,0,0:0:0:0:
20,243,173493,1,8,0:0:0:0:
138,266,173665,1,8,0:0:0:0:
191,37,173751,1,8,0:0:0:0:
230,199,173836,1,0,0:0:0:0:
209,222,174008,1,8,0:0:0:0:
104,268,174179,1,0,0:0:0:0:
208,330,174351,1,4,0:0:0:0:
168,75,174693,1,0,0:0:0:0:
168,75,174865,1,8,0:0:0:0:
168,75,175036,1,0,0:0:0:0:
30,124,175122,1,8,0:0:0:0:
198,48,175208,1,0,0:0:0:0:
296,41,175293,1,0,0:0:0:0:
198,48,175379,1,8,0:0:0:0:
236,72,175465,1,0,0:0:0:0:
148,25,175551,1,8,0:0:0:0:
138,207,175722,1,12,0:0:0:0:
211,308,176065,1,0,0:0:0:0:
211,308,176236,1,8,0:0:0:0:
99,138,176408,1,0,0:0:0:0:
99,138,176493,1,0,0:0:0:0:
99,138,176579,1,8,0:0:0:0:
163,24,176665,1,0,0:0:0:0:
226,107,176751,1,8,0:0:0:0:
231,94,176922,1,8,0:0:0:0:
231,94,177093,1,4,0:0:0:0:
176,111,177436,1,0,0:0:0:0:
181,112,177522,1,0,0:0:0:0:
181,112,177608,1,8,0:0:0:0:
160,111,177779,1,0,0:0:0:0:
161,112,177865,1,8,0:0:0:0:
161,112,177951,1,0,0:0:0:0:
178,166,178122,1,8,0:0:0:0:
178,166,178293,1,0,0:0:0:0:
233,183,178465,1,12,0:0:0:0:
51,145,178808,1,0,0:0:0:0:
54,160,178979,1,8,0:0:0:0:
226,104,179151,1,8,0:0:0:0:
205,95,179236,1,0,0:0:0:0:
189,39,179322,1,0,0:0:0:0:
129,61,179493,1,8,0:0:0:0:
76,178,179665,1,0,0:0:0:0:
76,178,179836,1,4,0:0:0:0:
208,133,180179,1,8,0:0:0:0:
208,133,180265,1,8,0:0:0:0:
208,133,180351,1,0,0:0:0:0:
208,133,180522,1,8,0:0:0:0:
208,133,180608,1,8,0:0:0:0:
208,133,180693,1,0,0:0:0:0:
303,97,180865,1,8,0:0:0:0:
214,24,180951,1,0,0:0:0:0:
237,108,181036,1,8,0:0:0:0:
251,101,181122,1,8,0:0:0:0:
214,24,181208,1,4,0:0:0:0:
162,133,181551,1,0,0:0:0:0:
162,133,181722,1,8,0:0:0:0:
204,132,181893,1,0,0:0:0:0:
171,120,182065,1,8,0:0:0:0:
158,174,182236,1,0,0:0:0:0:
158,174,182322,1,0,0:0:0:0:
158,174,182408,1,8,0:0:0:0:
158,174,182493,1,0,0:0:0:0:
158,174,182579,1,12,0:0:0:0:
270,96,182922,1,0,0:0:0:0:
270,96,183093,1,8,0:0:0:0:
219,160,183265,1,0,0:0:0:0:
219,160,183351,1,0,0:0:0:0:
219,160,183436,1,8,0:0:0:0:
219,160,183608,1,0,0:0:0:0:
219,160,183779,1,8,0:0:0:0:
292,117,183865,1,8,0:0:0:0:
197,83,183951,1,0,0:0:0:0:
197,83,184122,1,12,0:0:0:0:
281,78,184293,1,0,0:0:0:0:
281,78,184465,1,8,0:0:0:0:
192,40,184636,1,0,0:0:0:0:
208,88,184722,1,0,0:0:0:0:
248,128,184808,1,8,0:0:0:0:
248,128,184893,1,8,0:0:0:0:
248,128,184979,1,0,0:0:0:0:
136,112,185151,1,0,0:0:0:0:
136,112,185322,1,12,0:0:0:0:
112,256,185665,1,0,0:0:0:0:
128,272,185836,1,8,0:0:0:0:
112,160,186008,1,0,0:0:0:0:
112,160,186179,1,0,0:0:0:0:
208,24,186351,1,8,0:0:0:0:
208,24,186436,1,0,0:0:0:0:
208,24,186522,1,8,0:0:0:0:
208,24,186608,1,8,0:0:0:0:
208,24,186693,1,4,0:0:0:0:
240,144,187036,1,0,0:0:0:0:
240,144,187208,1,8,0:0:0:0:
184,96,187379,1,8,0:0:0:0:
184,96,187465,1,0,0:0:0:0:
184,96,187551,1,0,0:0:0:0:
160,96,187722,1,8,0:0:0:0:
136,120,187893,1,0,0:0:0:0:
136,120,188065,1,12,0:0:0:0:
240,216,188408,1,8,0:0:0:0:
240,216,188579,1,8,0:0:0:0:
167,114,188665,1,8,0:0:0:0:
208,88,188751,1,0,0:0:0:0:
160,96,188922,1,0,0:0:0:0:
192,96,189093,1,0,0:0:0:0:
240,80,189179,1,0,0:0:0:0:
240,80,189265,1,8,0:0:0:0:
192,120,189436,1,0,0:0:0:0:
192,144,189608,1,4,0:0:0:0:
166,96,189779,1,0,0:0:0:0:
166,96,189951,1,8,0:0:0:0:
166,96,190122,1,12,0:0:0:0:
132,73,190465,1,8,0:0:0:0:
171,178,190636,1,0,0:0:0:0:
171,178,190808,1,12,0:0:0:0:
176,146,191151,1,4,0:0:0:0:
176,146,191322,1,12,0:0:0:0:
176,146,191665,1,4,0:0:0:0:
176,146,191836,1,12,0:0:0:0:
136,42,192008,1,8,0:0:0:0:
136,42,192093,1,8,0:0:0:0:
176,146,192179,1,4,0:0:0:0:
197,111,192522,1,0,0:0:0:0:
197,111,192693,1,8,0:0:0:0:
216,73,192865,1,0,0:0:0:0:
166,59,192951,1,0,0:0:0:0:
125,111,193036,1,0,0:0:0:0:
170,36,193208,1,0,0:0:0:0:
224,148,193379,1,8,0:0:0:0:
224,148,193551,1,0,0:0:0:0:
211,30,193722,1,8,0:0:0:0:
211,30,193808,1,0,0:0:0:0:
211,30,193893,1,0,0:0:0:0:
216,96,194065,1,8,0:0:0:0:
157,125,194236,1,0,0:0:0:0:
162,127,194322,1,8,0:0:0:0:
157,125,194408,1,0,0:0:0:0:
210,100,194579,1,0,0:0:0:0:
154,211,194665,1,0,0:0:0:0:
70,109,194751,1,8,0:0:0:0:
154,211,194836,1,8,0:0:0:0:
131,54,194922,1,4,0:0:0:0:
154,211,195265,1,0,0:0:0:0:
154,211,195436,1,8,0:0:0:0:
261,84,195608,1,0,0:0:0:0:
276,91,195693,1,8,0:0:0:0:
276,91,195779,1,0,0:0:0:0:
221,52,195951,1,0,0:0:0:0:
182,10,196122,1,8,0:0:0:0:
146,97,196208,1,8,0:0:0:0:
143,93,196293,1,0,0:0:0:0:
121,37,196465,1,8,0:0:0:0:
130,274,196636,1,0,0:0:0:0:
187,47,196808,1,8,0:0:0:0:
176,51,196979,1,8,0:0:0:0:
150,52,197065,1,8,0:0:0:0:
104,56,197151,1,0,0:0:0:0:
186,81,197322,1,0,0:0:0:0:
186,81,197408,1,8,0:0:0:0:
186,81,197493,1,0,0:0:0:0:
224,62,197579,1,0,0:0:0:0:
224,62,197665,1,12,0:0:0:0:
178,273,198008,1,0,0:0:0:0:
178,273,198179,1,8,0:0:0:0:
271,280,198351,1,0,0:0:0:0:
271,280,198436,1,8,0:0:0:0:
271,280,198522,1,8,0:0:0:0:
235,254,198693,1,0,0:0:0:0:
131,205,198865,1,8,0:0:0:0:
202,35,199036,1,4,0:0:0:0:
115,86,199379,1,0,0:0:0:0:
115,86,199551,1,8,0:0:0:0:
93,54,199722,1,0,0:0:0:0:
93,54,199808,1,8,0:0:0:0:
202,35,199893,1,0,0:0:0:0:
246,48,200065,1,0,0:0:0:0:
218,54,200236,1,8,0:0:0:0:
300,57,200408,1,12,0:0:0:0:
108,246,200751,1,0,0:0:0:0:
108,246,200922,1,8,0:0:0:0:
171,37,201093,1,8,0:0:0:0:
171,37,201179,1,0,0:0:0:0:
171,37,201265,1,0,0:0:0:0:
244,34,201436,1,0,0:0:0:0:
236,69,201608,1,8,0:0:0:0:
128,71,201779,1,4,0:0:0:0:
137,306,201951,1,8,0:0:0:0:
321,46,202036,1,8,0:0:0:0:
201,282,202122,1,0,0:0:0:0:
189,268,202208,1,0,0:0:0:0:
189,268,202293,1,8,0:0:0:0:
161,282,202465,1,0,0:0:0:0:
151,95,202551,1,8,0:0:0:0:
122,246,202636,1,0,0:0:0:0:
136,37,202808,1,0,0:0:0:0:
178,21,202979,1,8,0:0:0:0:
256,51,203151,1,12,0:0:0:0:
103,62,203493,1,0,0:0:0:0:
103,62,203665,1,8,0:0:0:0:
241,34,203922,1,0,0:0:0:0:
241,34,204008,1,8,0:0:0:0:
240,39,204179,1,0,0:0:0:0:
190,22,204351,1,8,0:0:0:0:
206,57,204522,1,0,0:0:0:0:
201,44,204693,1,8,0:0:0:0:
201,44,204779,1,8,0:0:0:0:
160,51,204865,1,0,0:0:0:0:
161,249,205036,1,0,0:0:0:0:
210,26,205208,1,8,0:0:0:0:
210,26,205293,1,8,0:0:0:0:
210,26,205379,1,0,0:0:0:0:
229,22,205465,1,0,0:0:0:0:
206,47,205551,1,8,0:0:0:0:
201,55,205722,1,8,0:0:0:0:
120,255,205893,1,4,0:0:0:0:
209,287,206236,1,0,0:0:0:0:
209,287,206408,1,8,0:0:0:0:
183,45,206665,1,0,0:0:0:0:
183,46,206751,1,8,0:0:0:0:
232,53,206922,1,0,0:0:0:0:
218,42,207093,1,8,0:0:0:0:
168,32,207265,1,0,0:0:0:0:
208,64,207351,1,8,0:0:0:0:
152,48,207436,1,0,0:0:0:0:
80,80,207608,1,0,0:0:0:0:
200,32,207779,1,8,0:0:0:0:
184,48,207951,1,0,0:0:0:0:
304,48,208122,1,8,0:0:0:0:
392,296,208208,1,8,0:0:0:0:
240,24,208293,1,0,0:0:0:0:
424,328,208379,1,0,0:0:0:0:
424,328,208465,1,8,0:0:0:0:
260,72,208636,1,4,0:0:0:0:
125,284,208979,1,0,0:0:0:0:
125,284,209151,1,8,0:0:0:0:
125,284,209408,1,0,0:0:0:0:
165,248,209493,1,8,0:0:0:0:
155,85,209665,1,0,0:0:0:0:
252,68,209751,1,0,0:0:0:0:
155,85,209836,1,8,0:0:0:0:
155,85,210008,1,0,0:0:0:0:
154,52,210179,1,8,0:0:0:0:
26,117,210351,1,0,0:0:0:0:
26,117,210522,1,8,0:0:0:0:
251,41,210693,1,8,0:0:0:0:
251,41,210779,1,0,0:0:0:0:
251,41,210865,1,8,0:0:0:0:
231,33,211036,1,0,0:0:0:0:
207,14,211208,1,8,0:0:0:0:
158,37,211379,1,4,0:0:0:0:
226,42,211722,1,0,0:0:0:0:
226,42,211893,1,8,0:0:0:0:
141,41,212065,1,0,0:0:0:0:
141,41,212151,1,8,0:0:0:0:
141,41,212236,1,0,0:0:0:0:
251,45,212408,1,0,0:0:0:0:
251,45,212579,1,8,0:0:0:0:
297,46,212751,1,12,0:0:0:0:
131,73,213093,1,0,0:0:0:0:
131,73,213179,1,0,0:0:0:0:
131,73,213265,1,8,0:0:0:0:
152,72,213351,1,8,0:0:0:0:
198,33,213436,1,0,0:0:0:0:
224,56,213608,1,0,0:0:0:0:
224,64,213693,1,8,0:0:0:0:
224,56,213779,1,8,0:0:0:0:
224,56,213865,1,0,0:0:0:0:
224,56,213951,1,8,0:0:0:0:
240,80,214036,1,0,0:0:0:0:
384,56,214122,1,12,0:0:0:0:
184,88,214465,1,0,0:0:0:0:
128,272,214636,1,0,0:0:0:0:
176,24,214808,1,8,0:0:0:0:
104,96,214979,1,0,0:0:0:0:
224,24,215151,1,8,0:0:0:0:
208,56,215322,1,0,0:0:0:0:
248,0,215493,1,0,0:0:0:0:
176,56,215836,1,8,0:0:0:0:
176,32,216008,1,8,0:0:0:0:
256,32,216179,1,0,0:0:0:0:
256,32,216351,1,8,0:0:0:0:
256,32,216522,1,8,0:0:0:0:
240,56,216693,1,0,0:0:0:0:
192,32,216865,1,4,0:0:0:0:
120,296,217379,1,0,0:0:0:0:
232,56,217722,1,8,0:0:0:0:
104,16,218065,1,0,0:0:0:0:
104,16,218236,1,8,0:0:0:0:
128,56,218579,1,8,0:0:0:0:
176,64,218751,1,0,0:0:0:0:
176,48,218922,1,0,0:0:0:0:
264,40,219093,1,8,0:0:0:0:
160,72,219265,1,8,0:0:0:0:
152,72,219436,1,0,0:0:0:0:
288,56,219608,1,12,0:0:0:0:
208,168,220122,1,0,0:0:0:0:
224,48,220465,1,8,0:0:0:0:
208,88,220808,1,0,0:0:0:0:
208,88,220979,1,8,0:0:0:0:
224,152,221322,1,8,0:0:0:0:
208,112,221493,1,8,0:0:0:0:
88,144,221836,1,0,0:0:0:0:
184,72,222008,1,0,0:0:0:0:
184,72,222179,1,8,0:0:0:0:
192,48,222351,1,4,0:0:0:0:
184,160,222865,1,0,0:0:0:0:
176,248,223208,1,8,0:0:0:0:
208,256,223551,1,0,0:0:0:0:
304,56,223722,1,8,0:0:0:0:
152,104,224065,1,8,0:0:0:0:
152,104,224408,1,0,0:0:0:0:
128,208,224579,1,0,0:0:0:0:
232,160,224751,1,0,0:0:0:0:
200,48,224922,1,8,0:0:0:0:
250,109,225265,1,12,0:0:0:0:
199,170,225493,1,4,0:0:0:0:
152,129,225722,1,12,0:0:0:0:
270,104,225951,1,4,0:0:0:0:
254,46,226179,1,4,0:0:0:0:
316,73,226408,1,12,0:0:0:0:
223,91,226636,1,4,0:0:0:0:
297,161,227151,1,12,0:0:0:0:
139,88,227493,1,0,0:0:0:0:
192,115,227665,1,8,0:0:0:0:
251,106,227836,1,0,0:0:0:0:
160,207,227922,1,0,0:0:0:0:
182,224,228008,1,8,0:0:0:0:
235,184,228179,1,0,0:0:0:0:
330,162,228265,1,8,0:0:0:0:
330,162,228351,1,0,0:0:0:0:
273,278,228522,1,8,0:0:0:0:
354,249,228693,1,0,0:0:0:0:
243,251,229036,1,8,0:0:0:0:
250,78,229208,1,0,0:0:0:0:
166,163,229550,1,8,0:0:0:0:
270,149,229893,1,12,0:0:0:0:
347,114,230235,1,8,0:0:0:0:
228,129,230406,1,0,0:0:0:0:
136,128,230578,1,0,0:0:0:0:
136,128,230664,1,0,0:0:0:0:
136,128,230749,1,8,0:0:0:0:
216,40,230921,1,8,0:0:0:0:
216,40,231092,1,0,0:0:0:0:
200,64,231264,1,12,0:0:0:0:
208,120,231606,1,8,0:0:0:0:
184,144,231778,1,0,0:0:0:0:
224,136,231949,1,0,0:0:0:0:
224,136,232035,1,8,0:0:0:0:
224,136,232121,1,0,0:0:0:0:
224,136,232292,1,8,0:0:0:0:
200,120,232464,1,0,0:0:0:0:
168,40,232635,1,4,0:0:0:0:
96,160,232978,1,0,0:0:0:0:
96,160,233149,1,8,0:0:0:0:
208,96,233321,1,0,0:0:0:0:
208,96,233406,1,8,0:0:0:0:
208,96,233492,1,8,0:0:0:0:
208,48,233664,1,8,0:0:0:0:
184,48,233749,1,8,0:0:0:0:
208,48,233835,1,0,0:0:0:0:
200,40,234006,1,12,0:0:0:0:
200,136,234349,1,0,0:0:0:0:
200,136,234521,1,8,0:0:0:0:
224,208,234692,1,0,0:0:0:0:
248,144,234778,1,8,0:0:0:0:
280,56,234864,1,0,0:0:0:0:
280,56,234949,1,0,0:0:0:0:
240,72,235035,1,8,0:0:0:0:
136,80,235121,1,0,0:0:0:0:
80,128,235206,1,8,0:0:0:0:
120,152,235292,1,8,0:0:0:0:
192,32,235378,1,4,0:0:0:0:
320,144,235721,1,0,0:0:0:0:
320,144,235806,1,0,0:0:0:0:
320,144,235892,1,8,0:0:0:0:
224,80,236064,1,0,0:0:0:0:
192,80,236235,1,8,0:0:0:0:
192,80,236321,1,0,0:0:0:0:
389,364,236406,1,8,0:0:0:0:
112,136,236578,1,0,0:0:0:0:
112,136,236749,1,4,0:0:0:0:
176,208,237092,1,0,0:0:0:0:
184,208,237264,1,8,0:0:0:0:
240,128,237435,1,0,0:0:0:0:
240,128,237521,1,8,0:0:0:0:
240,128,237606,1,0,0:0:0:0:
240,128,237778,1,0,0:0:0:0:
240,128,237949,1,8,0:0:0:0:
240,128,238121,1,12,0:0:0:0:
64,208,238464,1,0,0:0:0:0:
80,208,238635,1,8,0:0:0:0:
240,120,238806,1,0,0:0:0:0:
192,56,238892,1,0,0:0:0:0:
144,144,238978,1,8,0:0:0:0:
144,144,239149,1,0,0:0:0:0:
168,152,239321,1,0,0:0:0:0:
168,152,239492,1,12,0:0:0:0:
144,80,239835,1,0,0:0:0:0:
200,136,240006,1,8,0:0:0:0:
248,104,240178,1,0,0:0:0:0:
240,80,240349,1,8,0:0:0:0:
240,80,240435,1,8,0:0:0:0:
240,80,240521,1,0,0:0:0:0:
240,80,240606,1,0,0:0:0:0:
240,72,240692,1,8,0:0:0:0:
240,72,240778,1,8,0:0:0:0:
240,72,240864,1,4,0:0:0:0:
96,144,241206,1,8,0:0:0:0:
240,144,241378,1,0,0:0:0:0:
176,48,241549,1,0,0:0:0:0:
176,56,241635,1,0,0:0:0:0:
176,56,241721,1,8,0:0:0:0:
208,16,241806,1,8,0:0:0:0:
208,16,241892,1,0,0:0:0:0:
192,128,242064,1,8,0:0:0:0:
256,88,242235,1,4,0:0:0:0:
151,193,242578,1,0,0:0:0:0:
151,193,242749,1,8,0:0:0:0:
254,155,242921,1,0,0:0:0:0:
176,88,243006,1,0,0:0:0:0:
254,155,243092,1,8,0:0:0:0:
321,149,243264,1,8,0:0:0:0:
223,44,243349,1,0,0:0:0:0:
151,111,243435,1,0,0:0:0:0:
163,195,243606,1,12,0:0:0:0:
288,116,243949,1,0,0:0:0:0:
288,116,244121,1,8,0:0:0:0:
190,106,244206,1,8,0:0:0:0:
190,106,244292,1,8,0:0:0:0:
208,141,244464,1,0,0:0:0:0:
280,117,244635,1,8,0:0:0:0:
233,166,244806,1,0,0:0:0:0:
217,207,244978,1,4,0:0:0:0:
70,58,245321,1,0,0:0:0:0:
70,58,245406,1,0,0:0:0:0:
52,73,245492,1,8,0:0:0:0:
143,35,245664,1,0,0:0:0:0:
226,58,245749,1,8,0:0:0:0:
186,107,245835,1,8,0:0:0:0:
126,164,245921,1,0,0:0:0:0:
126,164,246006,1,8,0:0:0:0:
126,164,246092,1,0,0:0:0:0:
326,196,246178,1,8,0:0:0:0:
253,58,246349,1,12,0:0:0:0:
174,148,246692,1,0,0:0:0:0:
174,148,246864,1,8,0:0:0:0:
135,88,246949,1,8,0:0:0:0:
135,88,247035,1,0,0:0:0:0:
217,96,247206,1,8,0:0:0:0:
248,80,247378,1,8,0:0:0:0:
174,68,247549,1,0,0:0:0:0:
177,53,247721,1,4,0:0:0:0:
160,114,248064,1,0,0:0:0:0:
160,114,248149,1,0,0:0:0:0:
160,114,248235,1,8,0:0:0:0:
166,113,248321,1,8,0:0:0:0:
166,113,248406,1,0,0:0:0:0:
175,81,248492,1,8,0:0:0:0:
175,81,248578,1,0,0:0:0:0:
243,66,248749,1,8,0:0:0:0:
212,104,248921,1,0,0:0:0:0:
263,148,249092,1,12,0:0:0:0:
237,173,249435,1,0,0:0:0:0:
237,173,249606,1,8,0:0:0:0:
246,117,249778,1,0,0:0:0:0:
246,117,249864,1,8,0:0:0:0:
221,116,249949,1,0,0:0:0:0:
141,118,250121,1,0,0:0:0:0:
177,42,250292,1,8,0:0:0:0:
167,48,250464,1,4,0:0:0:0:
246,117,250806,1,8,0:0:0:0:
246,117,250892,1,8,0:0:0:0:
243,115,250978,1,0,0:0:0:0:
246,117,251149,1,8,0:0:0:0:
246,117,251235,1,8,0:0:0:0:
246,117,251321,1,0,0:0:0:0:
246,117,251492,1,8,0:0:0:0:
179,64,251578,1,0,0:0:0:0:
179,64,251664,1,8,0:0:0:0:
179,64,251749,1,8,0:0:0:0:
349,200,251835,1,4,0:0:0:0:
215,169,252178,1,0,0:0:0:0:
205,174,252349,1,8,0:0:0:0:
234,115,252521,1,0,0:0:0:0:
218,106,252606,1,0,0:0:0:0:
127,66,252692,1,8,0:0:0:0:
165,212,252778,1,8,0:0:0:0:
123,214,252864,1,0,0:0:0:0:
165,212,252949,1,0,0:0:0:0:
208,179,253035,1,8,0:0:0:0:
208,179,253206,1,12,0:0:0:0:
118,138,253549,1,0,0:0:0:0:
210,37,253721,1,8,0:0:0:0:
236,78,253892,1,0,0:0:0:0:
236,78,254064,1,8,0:0:0:0:
170,156,254235,1,0,0:0:0:0:
170,156,254321,1,0,0:0:0:0:
170,156,254406,1,8,0:0:0:0:
375,242,254578,1,8,0:0:0:0:
375,242,254749,1,12,0:0:0:0:
246,41,254921,1,0,0:0:0:0:
192,83,255006,1,0,0:0:0:0:
239,96,255092,1,8,0:0:0:0:
239,96,255264,1,8,0:0:0:0:
377,195,255435,1,0,0:0:0:0:
255,144,255606,1,8,0:0:0:0:
203,162,255692,1,0,0:0:0:0:
155,85,255778,1,8,0:0:0:0:
239,198,255864,1,8,0:0:0:0:
155,85,255949,1,4,0:0:0:0:
209,64,256292,1,0,0:0:0:0:
209,64,256464,1,8,0:0:0:0:
209,64,256635,1,0,0:0:0:0:
209,64,256806,1,8,0:0:0:0:
219,111,256978,1,0,0:0:0:0:
219,111,257064,1,0,0:0:0:0:
219,111,257149,1,0,0:0:0:0:
186,82,257321,1,4,0:0:0:0:
185,53,257664,1,0,0:0:0:0:
185,53,257835,1,8,0:0:0:0:
314,40,258006,1,8,0:0:0:0:
222,59,258092,1,8,0:0:0:0:
237,17,258178,1,0,0:0:0:0:
158,64,258264,1,0,0:0:0:0:
208,57,258349,1,8,0:0:0:0:
194,38,258521,1,0,0:0:0:0:
187,64,258692,1,4,0:0:0:0:
214,46,259035,1,0,0:0:0:0:
166,46,259121,1,8,0:0:0:0:
286,65,259206,1,8,0:0:0:0:
286,65,259378,1,0,0:0:0:0:
286,65,259549,1,0,0:0:0:0:
132,93,259721,1,8,0:0:0:0:
197,40,259806,1,0,0:0:0:0:
197,40,259892,1,8,0:0:0:0:
201,47,260064,1,0,0:0:0:0:
193,35,260235,1,4,0:0:0:0:
242,68,260406,1,0,0:0:0:0:
181,65,260578,1,8,0:0:0:0:
139,95,260749,1,12,0:0:0:0:
236,71,261092,1,0,0:0:0:0:
236,71,261264,1,8,0:0:0:0:
242,68,261435,1,12,0:0:0:0:
92,78,261778,1,4,0:0:0:0:
92,78,261949,1,4,0:0:0:0:
92,78,262292,1,4,0:0:0:0:
92,78,262464,1,4,0:0:0:0:
92,78,262806,1,12,0:0:0:0:
270,98,263149,1,0,0:0:0:0:
270,98,263321,1,8,0:0:0:0:
131,141,263492,1,0,0:0:0:0:
131,141,263578,1,8,0:0:0:0:
131,141,263664,1,0,0:0:0:0:
210,101,263835,1,0,0:0:0:0:
210,101,264006,1,8,0:0:0:0:
237,102,264178,1,0,0:0:0:0:
238,58,264521,1,0,0:0:0:0:
238,58,264606,1,0,0:0:0:0:
248,31,264692,1,8,0:0:0:0:
173,153,264864,1,0,0:0:0:0:
173,153,265035,1,8,0:0:0:0:
173,153,265121,1,8,0:0:0:0:
173,153,265206,1,0,0:0:0:0:
383,242,265378,1,8,0:0:0:0:
283,184,265549,1,4,0:0:0:0:
221,117,265892,1,0,0:0:0:0:
221,117,266064,1,8,0:0:0:0:
193,67,266235,1,0,0:0:0:0:
193,67,266321,1,8,0:0:0:0:
193,67,266406,1,0,0:0:0:0:
187,74,266578,1,0,0:0:0:0:
291,40,266749,1,8,0:0:0:0:
291,40,266835,1,0,0:0:0:0:
291,40,266921,1,0,0:0:0:0:
162,70,267264,1,0,0:0:0:0:
256,85,267435,1,8,0:0:0:0:
230,97,267606,1,0,0:0:0:0:
230,97,267692,1,8,0:0:0:0:
230,97,267778,1,0,0:0:0:0:
196,77,267949,1,8,0:0:0:0:
196,77,268035,1,0,0:0:0:0:
196,77,268121,1,8,0:0:0:0:
163,109,268206,1,8,0:0:0:0:
153,64,268292,1,4,0:0:0:0:
194,204,268635,1,0,0:0:0:0:
194,204,268721,1,0,0:0:0:0:
194,204,268806,1,8,0:0:0:0:
192,96,269064,1,0,0:0:0:0:
224,40,269149,1,8,0:0:0:0:
224,40,269321,1,0,0:0:0:0:
136,48,269492,1,8,0:0:0:0:
224,112,269664,1,4,0:0:0:0:
88,120,270006,1,0,0:0:0:0:
96,152,270178,1,8,0:0:0:0:
232,136,270349,1,0,0:0:0:0:
232,136,270435,1,8,0:0:0:0:
232,136,270521,1,0,0:0:0:0:
192,136,270692,1,0,0:0:0:0:
192,72,270864,1,8,0:0:0:0:
208,56,271035,1,12,0:0:0:0:
224,144,271378,1,0,0:0:0:0:
184,96,271549,1,8,0:0:0:0:
216,64,271806,1,8,0:0:0:0:
216,80,271892,1,0,0:0:0:0:
304,80,272064,1,0,0:0:0:0:
304,80,272149,1,0,0:0:0:0:
288,80,272235,1,8,0:0:0:0:
240,88,272406,1,4,0:0:0:0:
105,79,272749,1,0,0:0:0:0:
160,45,272921,1,8,0:0:0:0:
181,51,273006,1,8,0:0:0:0:
181,51,273092,1,0,0:0:0:0:
181,51,273178,1,0,0:0:0:0:
181,51,273264,1,8,0:0:0:0:
181,51,273435,1,0,0:0:0:0:
94,47,273606,1,8,0:0:0:0:
167,74,273778,1,4,0:0:0:0:
267,32,274121,1,0,0:0:0:0:
267,32,274292,1,8,0:0:0:0:
267,32,274464,1,0,0:0:0:0:
267,32,274549,1,0,0:0:0:0:
267,32,274635,1,8,0:0:0:0:
225,105,274806,1,0,0:0:0:0:
252,122,274978,1,8,0:0:0:0:
126,117,275149,1,0,0:0:0:0:
126,117,275235,1,0,0:0:0:0:
126,117,275321,1,8,0:0:0:0:
170,138,275492,1,0,0:0:0:0:
162,143,275664,1,8,0:0:0:0:
162,143,275749,1,8,0:0:0:0:
162,143,275835,1,0,0:0:0:0:
162,143,275921,1,0,0:0:0:0:
162,143,276006,1,8,0:0:0:0:
162,143,276178,1,0,0:0:0:0:
277,82,276349,1,8,0:0:0:0:
265,313,276521,1,4,0:0:0:0:
84,183,276864,1,0,0:0:0:0:
84,183,277035,1,8,0:0:0:0:
210,252,277292,1,0,0:0:0:0:
210,252,277378,1,8,0:0:0:0:
115,112,277464,1,8,0:0:0:0:
208,82,277549,1,0,0:0:0:0:
208,82,277721,1,8,0:0:0:0:
115,51,277892,1,12,0:0:0:0:
163,73,278235,1,0,0:0:0:0:
243,58,278321,1,0,0:0:0:0:
243,58,278406,1,8,0:0:0:0:
136,192,278578,1,0,0:0:0:0:
257,250,278749,1,8,0:0:0:0:
257,250,278835,1,8,0:0:0:0:
251,176,278921,1,0,0:0:0:0:
232,179,279092,1,8,0:0:0:0:
201,127,279264,1,4,0:0:0:0:
195,70,279606,1,0,0:0:0:0:
195,70,279778,1,8,0:0:0:0:
212,133,279949,1,0,0:0:0:0:
164,62,280121,1,8,0:0:0:0:
164,62,280206,1,8,0:0:0:0:
164,62,280292,1,0,0:0:0:0:
164,62,280378,1,0,0:0:0:0:
164,62,280464,1,8,0:0:0:0:
114,128,280549,1,8,0:0:0:0:
114,128,280635,1,4,0:0:0:0:
265,188,280978,1,0,0:0:0:0:
211,89,281149,1,0,0:0:0:0:
211,89,281235,1,0,0:0:0:0:
211,89,281321,1,0,0:0:0:0:
211,89,281492,1,8,0:0:0:0:
211,89,281664,1,0,0:0:0:0:
211,89,281749,1,0,0:0:0:0:
211,89,281835,1,8,0:0:0:0:
211,89,281921,1,0,0:0:0:0:
211,89,282006,1,12,0:0:0:0:
301,106,282349,1,0,0:0:0:0:
301,106,282521,1,8,0:0:0:0:
95,188,282692,1,0,0:0:0:0:
95,188,282778,1,8,0:0:0:0:
95,188,282864,1,8,0:0:0:0:
191,209,283035,1,0,0:0:0:0:
246,98,283206,1,8,0:0:0:0:
246,98,283378,1,0,0:0:0:0:
255,97,283721,1,0,0:0:0:0:
255,97,283806,1,0,0:0:0:0:
255,97,283892,1,8,0:0:0:0:
195,116,284064,1,0,0:0:0:0:
206,144,284149,1,8,0:0:0:0:
195,116,284235,1,8,0:0:0:0:
195,116,284321,1,8,0:0:0:0:
195,116,284406,1,0,0:0:0:0:
195,116,284578,1,8,0:0:0:0:
201,173,284749,1,12,0:0:0:0:
194,127,285092,1,0,0:0:0:0:
194,127,285264,1,8,0:0:0:0:
239,67,285435,1,0,0:0:0:0:
239,67,285521,1,8,0:0:0:0:
239,67,285606,1,0,0:0:0:0:
141,81,285778,1,0,0:0:0:0:
152,145,285949,1,8,0:0:0:0:
212,99,286121,1,0,0:0:0:0:
255,137,286292,1,0,0:0:0:0:
255,137,286378,1,0,0:0:0:0:
255,137,286464,1,0,0:0:0:0:
268,148,286635,1,8,0:0:0:0:
199,176,286806,1,0,0:0:0:0:
218,159,286892,1,8,0:0:0:0:
218,159,286978,1,0,0:0:0:0:
183,184,287149,1,8,0:0:0:0:
131,52,287235,1,0,0:0:0:0:
204,106,287321,1,8,0:0:0:0:
175,24,287406,1,8,0:0:0:0:
245,77,287492,1,4,0:0:0:0:
154,154,287835,1,0,0:0:0:0:
154,154,288006,1,8,0:0:0:0:
200,129,288178,1,0,0:0:0:0:
200,129,288264,1,0,0:0:0:0:
200,129,288349,1,8,0:0:0:0:
286,102,288521,1,0,0:0:0:0:
208,133,288692,1,8,0:0:0:0:
199,138,288864,1,4,0:0:0:0:
186,165,289206,1,0,0:0:0:0:
216,231,289378,1,8,0:0:0:0:
216,231,289464,1,8,0:0:0:0:
216,231,289549,1,8,0:0:0:0:
112,117,289635,1,0,0:0:0:0:
241,128,289721,1,8,0:0:0:0:
236,67,289892,1,0,0:0:0:0:
236,67,290064,1,8,0:0:0:0:
210,109,290235,1,4,0:0:0:0:
195,185,290578,1,0,0:0:0:0:
195,185,290749,1,8,0:0:0:0:
266,154,290921,1,0,0:0:0:0:
266,154,291006,1,8,0:0:0:0:
266,154,291092,1,0,0:0:0:0:
166,147,291264,1,0,0:0:0:0:
166,147,291435,1,8,0:0:0:0:
201,52,291521,1,0,0:0:0:0:
201,52,291606,1,12,0:0:0:0:
125,54,291949,1,8,0:0:0:0:
216,107,292121,1,0,0:0:0:0:
216,107,292206,1,0,0:0:0:0:
75,137,292292,1,0,0:0:0:0:
75,137,292378,1,8,0:0:0:0:
75,137,292464,1,8,0:0:0:0:
307,183,292635,1,8,0:0:0:0:
218,172,292806,1,0,0:0:0:0:
218,172,292892,1,0,0:0:0:0:
218,172,292978,1,12,0:0:0:0:
266,107,293321,1,0,0:0:0:0:
266,107,293492,1,8,0:0:0:0:
228,93,293749,1,0,0:0:0:0:
228,93,293835,1,8,0:0:0:0:
173,87,294006,1,0,0:0:0:0:
173,87,294092,1,0,0:0:0:0:
173,87,294178,1,8,0:0:0:0:
181,75,294349,1,0,0:0:0:0:
276,148,294521,1,8,0:0:0:0:
275,88,294692,1,0,0:0:0:0:
266,84,294864,1,8,0:0:0:0:
266,84,294949,1,8,0:0:0:0:
266,84,295035,1,0,0:0:0:0:
130,117,295121,1,0,0:0:0:0:
179,7,295206,1,8,0:0:0:0:
168,128,295378,1,0,0:0:0:0:
288,80,295549,1,8,0:0:0:0:
251,111,295721,1,4,0:0:0:0:
154,187,296064,1,0,0:0:0:0:
200,224,296235,1,8,0:0:0:0:
151,105,296406,1,0,0:0:0:0:
151,105,296492,1,0,0:0:0:0:
151,105,296578,1,8,0:0:0:0:
290,42,296749,1,0,0:0:0:0:
254,60,296921,1,8,0:0:0:0:
223,86,297092,1,4,0:0:0:0:
225,148,297264,1,8,0:0:0:0:
173,206,297435,1,0,0:0:0:0:
166,196,297521,1,0,0:0:0:0:
218,129,297606,1,8,0:0:0:0:
86,99,297778,1,0,0:0:0:0:
183,68,297949,1,8,0:0:0:0:
183,68,298035,1,8,0:0:0:0:
183,68,298121,1,0,0:0:0:0:
240,97,298206,1,0,0:0:0:0:
207,30,298292,1,8,0:0:0:0:
207,30,298378,1,8,0:0:0:0:
210,59,298464,1,4,0:0:0:0:
131,195,298806,1,0,0:0:0:0:
131,195,298978,1,8,0:0:0:0:
56,176,299149,1,8,0:0:0:0:
229,137,299235,1,8,0:0:0:0:
229,137,299321,1,0,0:0:0:0:
229,137,299492,1,0,0:0:0:0:
251,143,299664,1,8,0:0:0:0:
200,11,299835,1,12,0:0:0:0:
261,111,300178,1,8,0:0:0:0:
221,142,300349,1,0,0:0:0:0:
187,88,300521,1,0,0:0:0:0:
187,88,300606,1,8,0:0:0:0:
187,88,300692,1,0,0:0:0:0:
79,127,300864,1,0,0:0:0:0:
249,179,301035,1,8,0:0:0:0:
186,186,301206,1,4,0:0:0:0:
211,85,301721,1,0,0:0:0:0:
57,132,302064,1,8,0:0:0:0:
256,97,302406,1,0,0:0:0:0:
256,97,302578,1,0,0:0:0:0:
361,203,302921,1,8,0:0:0:0:
182,80,303264,1,0,0:0:0:0:
227,155,303435,1,8,0:0:0:0:
302,196,303606,1,0,0:0:0:0:
219,244,303778,1,0,0:0:0:0:
219,244,303949,1,12,0:0:0:0:
262,59,304292,1,8,0:0:0:0:
296,70,304635,1,0,0:0:0:0:
296,70,304806,1,8,0:0:0:0:
161,157,304978,1,0,0:0:0:0:
232,133,305149,1,0,0:0:0:0:
151,117,305321,1,0,0:0:0:0:
196,37,305664,1,8,0:0:0:0:
184,64,306006,1,0,0:0:0:0:
184,64,306178,1,8,0:0:0:0:
136,195,306349,1,0,0:0:0:0:
136,195,306521,1,0,0:0:0:0:
136,195,306692,1,4,0:0:0:0:
320,104,307206,1,0,0:0:0:0:
304,152,307378,1,0,0:0:0:0:
168,160,307549,1,8,0:0:0:0:
128,104,307892,1,0,0:0:0:0:
232,104,308064,1,0,0:0:0:0:
206,126,308406,1,8,0:0:0:0:
64,200,308749,1,0,0:0:0:0:
230,245,308921,1,8,0:0:0:0:
268,123,309092,1,0,0:0:0:0:
260,129,309264,1,8,0:0:0:0:
231,107,309435,1,12,0:0:0:0:
185,83,309949,1,0,0:0:0:0:
186,106,310121,1,0,0:0:0:0:
247,56,310292,1,8,0:0:0:0:
218,127,310635,1,0,0:0:0:0:
246,221,310806,1,12,0:0:0:0:
220,90,311149,1,0,0:0:0:0:
133,78,311321,1,8,0:0:0:0:
133,78,311492,1,8,0:0:0:0:
133,78,311664,1,8,0:0:0:0:
133,78,311835,1,8,0:0:0:0:
135,49,312006,1,8,0:0:0:0:
135,49,312178,1,12,0:0:0:0:
