osu file format v14

[General]
AudioFilename: audio.mp3
AudioLeadIn: 0
PreviewTime: 41304
Countdown: 0
SampleSet: Soft
StackLeniency: 0.3
Mode: 0
LetterboxInBreaks: 0
WidescreenStoryboard: 0

[Editor]
DistanceSpacing: 1.9
BeatDivisor: 4
GridSize: 16
TimelineZoom: 2.1

[Metadata]
Title:Hoshikuzu no Interlude (Serji Remix)
TitleUnicode:星屑のインターリュード (Serji Remix)
Artist:fhana
ArtistUnicode:fhána
Creator:handsome
Version:Master
Source:天体のメソッド
Tags:sora no celestial method ending ED noel nonoka yuzuki Toyosaki Aki Natsukawa Shiina Minase Inori loli lolicon yuri
BeatmapID:951173
BeatmapSetID:442278

[Difficulty]
HPDrainRate:6
CircleSize:5
OverallDifficulty:8
ApproachRate:9
SliderMultiplier:1.2
SliderTickRate:1

[Events]
//Background and Video events
0,0,"sora-no-faggot.jpg",0,0
//Break Periods
//Storyboard Layer 0 (Background)
//Storyboard Layer 1 (Fail)
//Storyboard Layer 2 (Pass)
//Storyboard Layer 3 (Foreground)
//Storyboard Sound Samples

[TimingPoints]
644,428.571428571429,4,2,1,30,1,0
644,-166.666666666667,4,2,1,30,0,0
965,-166.666666666667,4,2,2,25,0,0
1286,-166.666666666667,4,2,1,20,0,0
1608,-166.666666666667,4,2,2,15,0,0
1929,-166.666666666667,4,2,1,10,0,0
2358,-166.666666666667,4,2,1,30,0,0
2786,-166.666666666667,4,2,2,25,0,0
3001,-166.666666666667,4,2,1,20,0,0
3322,-166.666666666667,4,2,2,15,0,0
3644,-166.666666666667,4,2,1,10,0,0
4072,-166.666666666667,4,2,1,30,0,0
4394,-166.666666666667,4,2,2,25,0,0
4715,-166.666666666667,4,2,1,20,0,0
5036,-166.666666666667,4,2,2,15,0,0
5358,-166.666666666667,4,2,1,10,0,0
5786,-125,4,2,1,30,0,0
7501,-111.111111111111,4,2,1,30,0,0
7715,-111.111111111111,4,2,1,5,0,0
7822,-125,4,2,1,25,0,0
8036,-111.111111111111,4,2,1,5,0,0
8143,-142.857142857143,4,2,1,20,0,0
8358,-142.857142857143,4,2,1,5,0,0
8465,-166.666666666667,4,2,1,15,0,0
8679,-166.666666666667,4,2,1,5,0,0
8786,-200,4,2,1,10,0,0
9215,-111.111111111111,4,2,1,30,0,0
9429,-111.111111111111,4,2,1,5,0,0
9536,-125,4,2,1,25,0,0
9751,-125,4,2,1,5,0,0
9858,-142.857142857143,4,2,1,20,0,0
10072,-142.857142857143,4,2,1,5,0,0
10179,-166.666666666667,4,2,1,15,0,0
10393,-166.666666666667,4,2,1,5,0,0
10501,-200,4,2,1,10,0,0
10929,-111.111111111111,4,2,1,30,0,0
11143,-111.111111111111,4,2,1,5,0,0
11251,-125,4,2,1,25,0,0
11465,-125,4,2,1,5,0,0
11572,-142.857142857143,4,2,1,20,0,0
11786,-142.857142857143,4,2,1,5,0,0
11893,-166.666666666667,4,2,1,15,0,0
12108,-166.666666666667,4,2,1,5,0,0
12215,-200,4,2,1,10,0,0
12644,-125,4,2,1,30,0,0
14358,-100,4,2,1,50,0,0
28072,-83.3333333333333,4,2,1,60,0,0
41358,-62.5,4,2,1,60,0,0
41786,-71.4285714285714,4,2,1,70,0,0
45215,-142.857142857143,4,2,1,70,0,0
51644,-71.4285714285714,4,2,1,70,0,0
52072,-142.857142857143,4,2,1,70,0,0
53358,-71.4285714285714,4,2,1,70,0,0
53786,-125,4,2,1,50,0,0
55501,-71.4285714285714,4,2,1,60,0,0
58929,-142.857142857143,4,2,1,60,0,0
64072,-111.111111111111,4,2,1,70,0,0
64929,-83.3333333333333,4,2,1,70,0,0
65786,-83.3333333333333,4,2,1,75,0,0
66215,-71.4285714285714,4,2,1,80,0,0
66644,-62.5,4,2,1,85,0,0
67072,-55.5555555555556,4,2,1,90,0,0
69215,-125,4,2,1,40,0,0
82929,-83.3333333333333,4,2,1,60,0,0
93215,-200,4,2,1,50,0,0
98358,-125,4,2,1,60,0,0
112072,-100,4,2,1,30,0,0
115501,-100,4,2,1,60,0,0
125786,-125,4,2,1,60,0,0
130715,-166.666666666667,4,2,1,60,0,0
133501,-71.4285714285714,4,2,1,50,0,0
146358,-142.857142857143,4,2,1,60,0,0
148072,-71.4285714285715,4,2,1,70,0,0
160072,-142.857142857143,4,2,1,60,0,0
161358,-142.857142857143,4,2,1,70,0,0
161786,-83.3333333333333,4,2,1,50,0,0
175501,-83.3333333333333,4,2,1,60,0,0
185786,-200,4,2,1,50,0,0
190929,-125,4,2,1,60,0,0
204644,-100,4,2,1,30,0,0
208072,-100,4,2,1,60,0,0
220072,-100,4,2,1,30,0,0
226929,-125,4,2,1,50,0,0
232072,-71.4285714285714,4,2,1,60,0,0
233786,-50,4,2,1,70,0,0
240644,-50,4,2,1,60,0,0
247501,-125,4,2,1,50,0,0
248358,-100,4,2,1,55,0,0
248786,-100,4,2,1,60,0,0
249215,-100,4,2,1,65,0,0
249644,-100,4,2,1,70,0,0
250072,-100,4,2,1,75,0,0
250501,-50,4,2,1,80,0,0
250929,-200,4,2,1,30,0,0
262929,-125,4,2,1,30,0,0
264644,-83.3333333333333,4,2,1,60,0,0
278358,-166.666666666667,4,2,1,40,0,0
280072,-125,4,2,1,60,0,0
292072,-100,4,2,1,30,0,0
295501,-100,4,2,1,60,0,0
305786,-125,4,2,1,60,0,0
310715,-166.666666666667,4,2,1,40,0,0
312644,-100,4,2,1,50,0,0
317572,-166.666666666667,4,2,1,60,0,0
323786,-71.4285714285714,4,2,1,50,0,0
324644,-71.4285714285714,4,2,1,70,0,0
328072,-142.857142857143,4,2,1,70,0,0
334501,-71.4285714285714,4,2,1,70,0,0
334929,-142.857142857143,4,2,1,70,0,0
336215,-71.4285714285714,4,2,1,70,0,0
336644,-100,4,2,1,50,0,0
338358,-71.4285714285714,4,2,1,60,0,0
341786,-142.857142857143,4,2,1,60,0,0
348215,-71.4285714285714,4,2,1,60,0,0
348644,-142.857142857143,4,2,1,60,0,0
349929,-71.4285714285714,4,2,1,60,0,0
352072,-142.857142857143,4,2,1,50,0,0
358929,-200,4,2,1,40,0,0
372644,-200,4,2,1,30,0,0
378644,-100,4,2,1,30,0,0

[Colours]
Combo1 : 255,227,72
Combo2 : 200,245,249
Combo3 : 70,172,255
Combo4 : 250,209,239
Combo5 : 255,64,184
Combo6 : 249,240,181

[HitObjects]
256,96,644,6,0,L|256:32,4,53.9999983520508,4|0|0|0|0,0:0|0:0|0:0|0:0|0:0,0:0:0:0:
339,240,2358,6,0,P|361:261|394:272,4,53.9999983520508,4|0|0|0|0,0:0|0:0|0:0|0:0|0:0,0:0:0:0:
172,240,4072,70,0,P|151:261|117:272,4,53.9999983520508,4|0|0|0|0,0:0|0:0|0:0|0:0|0:0,0:0:0:0:
256,192,5786,5,4,0:0:0:0:
172,240,6001,1,2,0:0:0:0:
256,80,6322,1,2,0:0:0:0:
339,240,6644,1,2,0:0:0:0:
256,240,7072,2,0,L|256:192,1,48
118,143,7501,70,0,P|154:120|182:116,1,53.9999983520508,4|0,0:0|0:0,0:0:0:0:
167,105,7822,2,0,P|206:93|233:96,1,48,4|0,0:0|0:0,0:0:0:0:
218,82,8143,2,0,P|252:81|273:89,1,41.9999987182618,4|0,0:0|0:0,0:0:0:0:
267,74,8465,2,0,P|297:81|313:93,1,35.9999989013672,4|0,0:0|0:0,0:0:0:0:
311,77,8786,2,0,P|333:89|343:102,1,30,4|0,0:0|0:0,0:0:0:0:
282,336,9215,6,0,P|244:316|227:294,1,53.9999983520508,4|0,0:0|0:0,0:0:0:0:
225,312,9536,2,0,P|195:284|184:259,1,48,4|0,0:0|0:0,0:0:0:0:
179,279,9858,2,0,P|161:250|158:228,1,41.9999987182618,4|0,0:0|0:0,0:0:0:0:
148,241,10179,2,0,P|139:211|141:192,1,35.9999989013672,4|0,0:0|0:0,0:0:0:0:
128,201,10501,2,0,P|128:176|134:161,1,30,4|0,0:0|0:0,0:0:0:0:
367,96,10929,70,0,P|369:139|358:165,1,53.9999983520508,4|0,0:0|0:0,0:0:0:0:
375,158,11251,2,0,P|366:198|350:220,1,48,4|0,0:0|0:0,0:0:0:0:
370,214,11572,2,0,P|354:244|336:258,1,41.9999987182618,4|0,0:0|0:0,0:0:0:0:
352,260,11893,2,0,P|331:283|313:290,1,35.9999989013672,4|0,0:0|0:0,0:0:0:0:
328,297,12215,2,0,P|306:310|290:312,1,30,4|0,0:0|0:0,0:0:0:0:
190,154,12644,5,4,0:0:0:0:
320,154,12965,1,2,0:0:0:0:
256,266,13286,1,2,0:0:0:0:
256,192,13501,2,0,L|256:240,1,48,2|0,0:0|0:0,0:0:0:0:
256,352,13929,2,0,L|256:368,4,12
256,16,14358,69,0,3:2:0:0:
178,138,14572,2,0,P|148:139|116:120,1,60,2|0,0:1|0:0,0:0:0:0:
150,12,14894,2,0,P|165:37|165:74,1,60,2|0,0:1|0:0,0:0:0:0:
55,100,15215,2,0,P|69:73|101:55,1,60,10|0,0:0|0:0,0:0:0:0:
39,199,15644,2,0,L|27:154,1,30,2|0,0:1|0:0,0:0:0:0:
96,274,15858,2,0,L|100:237,1,30,2|0,0:1|0:0,0:0:0:0:
47,331,16072,1,4,0:0:0:0:
109,268,16286,6,0,L|115:205,1,60,2|0,0:1|0:0,0:0:0:0:
117,193,16608,1,2,0:1:0:0:
25,191,16822,1,0,0:0:0:0:
23,175,16930,2,0,L|16:115,1,60,8|0,0:0|0:0,0:0:0:0:
0,32,17358,2,0,P|19:25|48:24,1,30,2|0,0:1|0:0,0:0:0:0:
112,96,17572,2,0,P|93:103|64:104,1,30,2|0,0:1|0:0,0:0:0:0:
143,20,17786,69,2,0:0:0:0:
224,72,18215,1,0,3:0:0:0:
305,39,18644,1,8,0:0:0:0:
325,53,18965,1,0,0:0:0:0:
345,67,19286,1,0,0:0:0:0:
345,67,19501,1,0,0:0:0:0:
334,138,19715,6,0,P|364:139|396:120,1,60,2|0,0:1|0:0,0:0:0:0:
457,100,20036,2,0,P|443:73|411:55,1,60,2|0,0:1|0:0,0:0:0:0:
362,12,20358,2,0,P|347:37|347:74,1,60,8|0,0:0|0:0,0:0:0:0:
440,201,20786,2,0,L|442:148,3,30
432,274,21215,1,4,3:2:0:0:
432,274,21644,69,0,0:0:0:0:
307,266,21858,2,0,L|319:336,1,60,2|8,0:1|0:0,0:0:0:0:
432,274,22286,1,0,0:0:0:0:
284,255,22501,1,0,0:0:0:0:
291,299,22608,1,0,0:0:0:0:
299,343,22715,1,0,0:0:0:0:
432,274,22929,5,2,0:1:0:0:
432,274,23358,1,0,0:0:0:0:
317,325,23572,2,0,L|306:265,1,60,2|8,0:1|0:0,0:0:0:0:
432,274,24001,1,0,0:0:0:0:
299,343,24215,2,0,L|289:289,1,30,2|0,0:1|0:0,0:0:0:0:
280,237,24429,2,0,L|270:183,1,30,2|0,0:1|0:0,0:0:0:0:
260,130,24644,1,0,0:0:0:0:
178,138,24858,70,0,P|148:139|116:120,1,60,2|0,0:1|0:0,0:0:0:0:
150,12,25180,2,0,P|165:37|165:74,1,60,2|0,0:1|0:0,0:0:0:0:
55,100,25501,2,0,P|69:73|101:55,1,60,10|0,0:0|0:0,0:0:0:0:
239,86,25929,2,0,L|284:75,1,30,2|0,0:1|0:0,0:0:0:0:
336,32,26144,2,0,L|366:40,1,30,2|0,0:1|0:0,0:0:0:0:
445,78,26358,6,0,P|456:111|441:156,1,60,2|0,0:3|0:3,0:3:0:0:
394,170,26679,2,0,P|383:137|398:92,1,60,2|0,0:1|0:0,0:0:0:0:
382,24,27001,2,0,L|353:17,1,30,2|0,3:1|0:0,0:0:0:0:
262,97,27215,2,0,L|202:112,1,60,8|0,0:0|0:0,0:0:0:0:
67,183,27644,2,0,L|126:197,1,60,0|0,0:0|1:0,0:0:0:0:
195,213,27965,1,0,1:0:0:0:
141,264,28072,6,0,P|112:300|143:365,1,107.999996704102,12|0,3:1|0:0,0:0:0:0:
200,337,28501,1,8,3:1:0:0:
209,320,28608,1,0,1:0:0:0:
279,338,28715,1,0,1:0:0:0:
288,355,28822,1,0,1:0:0:0:
340,297,28929,6,0,P|384:291|420:305,1,71.9999978027344,8|0,0:2|3:0,0:0:0:0:
508,355,29358,2,0,L|515:301,1,35.9999989013672,10|0,0:1|0:0,0:0:0:0:
387,224,29572,2,0,L|380:170,1,35.9999989013672,2|0,0:1|0:0,0:0:0:0:
465,98,29786,37,8,3:1:0:0:
433,114,29893,1,0,1:0:0:0:
397,121,30000,1,0,1:0:0:0:
362,118,30107,1,0,1:0:0:0:
304,156,30215,1,8,3:1:0:0:
275,134,30321,1,0,1:0:0:0:
253,105,30428,1,0,1:0:0:0:
240,72,30536,1,0,1:0:0:0:
172,87,30644,6,0,P|128:93|92:79,1,71.9999978027344,8|0,0:2|1:0,0:0:0:0:
4,29,31072,2,0,L|-3:83,1,35.9999989013672,10|0,0:1|0:0,0:0:0:0:
135,159,31286,2,0,L|142:213,1,35.9999989013672,2|0,1:0|1:0,0:0:0:0:
30,282,31501,5,8,3:1:0:0:
26,305,31608,1,0,0:0:0:0:
33,328,31715,1,0,0:0:0:0:
50,346,31822,1,0,0:0:0:0:
94,298,31929,1,8,3:1:0:0:
127,308,32036,1,0,0:0:0:0:
162,302,32143,1,0,0:0:0:0:
189,278,32250,1,0,0:0:0:0:
172,213,32358,5,8,0:2:0:0:
138,202,32465,1,0,0:0:0:0:
102,207,32572,1,0,3:0:0:0:
76,232,32679,1,0,0:0:0:0:
30,282,32786,1,8,0:1:0:0:
14,265,32893,1,0,0:0:0:0:
7,242,33000,1,0,0:0:0:0:
11,219,33107,1,0,0:0:0:0:
76,232,33215,38,0,L|122:242,3,35.9999989013672,8|0|0|0,3:1|1:0|1:0|1:0,0:0:0:0:
198,186,33644,2,0,L|244:176,3,35.9999989013672,8|0|0|0,3:1|1:0|1:0|1:0,0:0:0:0:
355,223,34072,5,8,0:2:0:0:
438,183,34286,1,0,3:0:0:0:
355,223,34501,2,0,L|299:214,1,35.9999989013672,0|0,0:0|3:0,0:0:0:0:
198,186,34715,1,0,3:0:0:0:
371,120,34929,6,0,P|400:84|369:19,1,107.999996704102,12|0,3:1|0:0,0:0:0:0:
312,47,35358,1,8,3:1:0:0:
303,64,35465,1,0,1:0:0:0:
233,46,35572,1,0,1:0:0:0:
224,29,35679,1,0,1:0:0:0:
172,87,35786,6,0,P|128:93|92:79,1,71.9999978027344,8|0,0:2|3:0,0:0:0:0:
4,29,36215,2,0,L|-3:83,1,35.9999989013672,10|0,0:1|0:0,0:0:0:0:
125,160,36429,2,0,L|132:214,1,35.9999989013672,2|0,0:1|0:0,0:0:0:0:
47,286,36644,37,8,3:1:0:0:
79,270,36750,1,0,1:0:0:0:
115,263,36857,1,0,1:0:0:0:
150,266,36964,1,0,1:0:0:0:
208,228,37072,1,8,3:1:0:0:
237,250,37178,1,0,1:0:0:0:
259,279,37285,1,0,1:0:0:0:
272,312,37393,1,0,1:0:0:0:
340,297,37501,6,0,P|384:291|420:305,1,71.9999978027344,8|0,0:2|1:0,0:0:0:0:
508,355,37929,2,0,L|515:301,1,35.9999989013672,10|0,0:1|0:0,0:0:0:0:
377,225,38144,2,0,L|370:171,1,35.9999989013672,2|0,1:0|1:0,0:0:0:0:
362,66,38358,5,8,3:1:0:0:
224,106,38572,1,8,3:1:0:0:
222,32,38786,1,8,3:1:0:0:
84,72,39000,1,8,3:1:0:0:
362,66,39215,5,0,3:0:0:0:
316,80,39322,1,8,3:1:0:0:
270,93,39429,1,0,3:0:0:0:
224,106,39536,1,8,3:1:0:0:
222,32,39644,1,8,3:1:0:0:
176,45,39751,1,0,3:0:0:0:
130,58,39858,1,8,3:1:0:0:
84,72,39965,1,0,3:0:0:0:
31,120,40072,5,12,0:1:0:0:
31,120,40179,1,2,0:1:0:0:
91,157,40286,5,12,0:1:0:0:
91,157,40393,1,2,0:1:0:0:
21,187,40501,69,12,0:1:0:0:
21,187,40608,1,2,0:1:0:0:
101,224,40715,5,12,0:1:0:0:
101,224,40822,1,2,0:1:0:0:
11,254,40929,69,12,0:1:0:0:
444,328,41358,6,0,L|462:260,1,48
199,34,41786,69,6,3:1:0:0:
186,185,42001,1,0,1:0:0:0:
219,152,42108,1,0,1:0:0:0:
129,29,42322,1,0,1:0:0:0:
96,62,42429,1,0,1:0:0:0:
120,258,42644,5,8,0:0:0:0:
33,91,42858,1,0,0:0:0:0:
62,291,43072,2,0,L|107:284,1,41.9999987182618,2|0,1:0|0:0,0:0:0:0:
54,68,43286,2,0,L|99:61,1,41.9999987182618,2|0,0:1|0:0,0:0:0:0:
313,34,43501,69,6,3:1:0:0:
326,185,43716,1,0,1:0:0:0:
293,152,43823,1,0,1:0:0:0:
383,29,44037,1,0,1:0:0:0:
416,62,44144,1,0,1:0:0:0:
392,258,44359,5,8,0:0:0:0:
479,91,44573,1,0,0:0:0:0:
450,291,44787,2,0,L|405:284,1,41.9999987182618,2|0,1:0|0:0,0:0:0:0:
458,68,45001,2,0,L|413:61,1,41.9999987182618,2|0,0:1|0:0,0:0:0:0:
196,165,45215,70,0,P|186:182|195:230,1,62.9999980773926,6|0,3:1|0:0,0:0:0:0:
252,249,45644,1,0,0:0:0:0:
162,82,45858,5,0,0:0:0:0:
118,134,45965,1,0,0:0:0:0:
186,147,46072,1,8,0:0:0:0:
175,1,46286,69,0,0:0:0:0:
40,160,46501,1,0,1:0:0:0:
249,200,46715,1,0,1:0:0:0:
162,82,46929,5,6,3:1:0:0:
74,335,47144,2,0,L|131:318,1,41.9999987182618,2|0,1:0|0:0,0:0:0:0:
161,269,47465,2,0,L|218:252,1,41.9999987182618,2|0,1:0|0:0,0:0:0:0:
249,200,47786,2,0,L|306:183,1,41.9999987182618,2|0,1:0|0:0,0:0:0:0:
405,290,48215,1,2,1:2:0:0:
435,284,48322,1,0,1:0:0:0:
444,243,48429,1,0,1:0:0:0:
474,237,48536,1,0,1:0:0:0:
479,196,48643,69,4,3:1:0:0:
292,324,48858,1,0,1:0:0:0:
266,306,48965,1,0,3:0:0:0:
292,60,49179,1,0,1:0:0:0:
266,78,49286,1,0,3:0:0:0:
328,192,49501,5,8,0:0:0:0:
184,192,49715,1,0,3:0:0:0:
256,144,49929,1,0,1:0:0:0:
256,192,50036,1,0,0:0:0:0:
256,240,50144,1,0,0:0:0:0:
355,84,50358,70,0,L|427:106,1,62.9999980773926,6|0,3:1|0:0,0:0:0:0:
355,300,50786,2,0,L|427:278,1,62.9999980773926,6|0,3:1|0:0,0:0:0:0:
472,192,51215,5,10,0:0:0:0:
472,192,51429,1,2,0:0:0:0:
334,87,51644,2,0,L|278:95,1,41.9999987182618,2|0,0:1|0:0,0:0:0:0:
334,297,51858,2,0,L|278:289,1,41.9999987182618,2|0,0:1|0:0,0:0:0:0:
157,84,52072,70,0,L|85:106,1,62.9999980773926,6|0,3:1|0:0,0:0:0:0:
157,300,52500,2,0,L|85:278,1,62.9999980773926,6|0,3:1|0:0,0:0:0:0:
40,192,52929,5,8,0:0:0:0:
40,192,53143,1,0,0:0:0:0:
178,87,53358,2,0,L|234:95,1,41.9999987182618,2|0,0:1|0:0,0:0:0:0:
178,297,53572,2,0,L|234:289,1,41.9999987182618,2|0,0:1|0:0,0:0:0:0:
448,192,53786,69,4,3:1:0:0:
384,192,54215,1,0,0:0:0:0:
320,192,54644,1,0,0:0:0:0:
256,192,54965,2,0,L|263:240,1,48
331,273,55286,1,0,0:0:0:0:
326,302,55394,1,0,0:0:0:0:
362,357,55501,5,6,3:1:0:0:
460,286,55715,1,0,1:0:0:0:
455,257,55823,1,0,1:0:0:0:
351,204,56036,1,0,1:0:0:0:
356,175,56144,1,0,1:0:0:0:
479,69,56358,69,8,1:2:0:0:
490,136,56464,1,0,1:0:0:0:
502,203,56572,1,0,1:0:0:0:
351,204,56786,2,0,L|295:209,1,41.9999987182618,2|0,1:0|0:0,0:0:0:0:
392,104,57001,2,0,L|336:109,1,41.9999987182618,2|0,0:1|0:0,0:0:0:0:
150,27,57215,5,6,3:1:0:0:
52,98,57429,1,0,1:0:0:0:
57,127,57537,1,0,1:0:0:0:
161,180,57750,1,0,1:0:0:0:
156,209,57858,1,0,1:0:0:0:
33,315,58072,69,8,1:2:0:0:
22,248,58178,1,0,1:0:0:0:
10,181,58286,1,0,1:0:0:0:
161,180,58500,2,0,L|217:175,1,41.9999987182618,2|0,1:0|0:0,0:0:0:0:
120,280,58715,2,0,L|176:275,1,41.9999987182618,2|0,0:1|0:0,0:0:0:0:
435,337,58929,6,0,P|458:315|470:284,1,62.9999980773926,6|0,3:1|0:0,0:0:0:0:
317,273,59358,2,0,P|338:296|369:308,1,62.9999980773926,6|0,3:1|0:0,0:0:0:0:
456,214,59786,1,8,1:2:0:0:
456,214,59894,1,0,1:0:0:0:
456,214,60001,1,0,1:0:0:0:
439,137,60215,1,0,1:0:0:0:
362,154,60429,1,0,0:0:0:0:
379,231,60644,1,6,3:1:0:0:
283,215,60858,70,0,L|289:258,1,41.9999987182618,2|0,1:0|0:0,0:0:0:0:
219,261,61179,2,0,L|225:304,1,41.9999987182618,2|0,1:0|0:0,0:0:0:0:
155,307,61501,2,0,L|161:350,1,41.9999987182618,2|0,1:0|0:0,0:0:0:0:
61,267,61929,1,2,1:2:0:0:
49,250,62036,1,0,1:0:0:0:
101,200,62144,1,0,1:0:0:0:
113,183,62251,1,0,1:0:0:0:
71,124,62358,5,6,3:1:0:0:
177,76,62786,1,0,0:0:0:0:
61,5,63215,70,0,P|41:27|37:59,1,62.9999980773926,10|0,0:1|0:0,0:0:0:0:
22,67,63644,2,0,P|23:96|43:122,1,62.9999980773926,2|0,0:1|0:0,0:0:0:0:
175,61,64072,6,0,P|214:53|252:66,1,80.9999975280763,6|0,3:1|0:0,0:0:0:0:
261,51,64501,2,0,P|293:73|311:109,1,80.9999975280763,6|0,3:1|0:0,0:0:0:0:
438,256,64929,70,0,P|410:275|330:271,1,107.999996704102,10|0,0:1|0:0,0:0:0:0:
324,292,65358,2,0,P|289:285|235:226,1,107.999996704102,2|0,0:1|0:0,0:0:0:0:
348,59,65786,6,0,L|368:90,1,35.9999989013672,6|0,3:1|0:0,0:0:0:0:
326,192,66001,2,0,L|337:156,1,35.9999989013672,2|0,0:1|0:0,0:0:0:0:
272,61,66215,70,0,L|289:99,1,41.9999987182618,6|0,3:1|0:0,0:0:0:0:
252,209,66429,2,0,L|257:167,1,41.9999987182618,2|0,0:1|0:0,0:0:0:0:
196,51,66644,6,0,L|209:104,1,48,10|0,0:1|0:0,0:0:0:0:
181,240,66858,2,0,L|178:185,1,48,2|0,0:1|0:0,0:0:0:0:
123,28,67072,70,0,L|126:88,1,53.9999983520508,2|0,0:1|0:0,0:0:0:0:
118,282,67287,2,0,L|105:222,1,53.9999983520508,2|0,0:1|0:0,0:0:0:0:
54,99,67501,5,6,3:1:0:0:
98,153,67608,1,2,0:1:0:0:
44,197,67715,1,2,0:1:0:0:
0,143,67822,1,2,0:1:0:0:
67,102,67929,69,6,3:1:0:0:
96,166,68036,1,2,0:1:0:0:
32,195,68143,1,2,0:1:0:0:
3,131,68250,1,2,0:1:0:0:
50,148,68358,5,2,0:3:0:0:
398,251,69215,6,0,L|421:247,1,24,6|0,3:1|0:0,0:0:0:0:
398,251,69644,5,0,1:0:0:0:
375,244,69751,1,0,1:0:0:0:
351,247,69858,1,0,1:0:0:0:
331,261,69965,1,0,1:0:0:0:
319,281,70072,1,8,1:2:0:0:
317,305,70179,1,0,1:0:0:0:
325,327,70286,2,0,L|348:323,1,24,6|0,3:1|0:0,0:0:0:0:
258,157,70501,69,0,1:0:0:0:
255,180,70608,1,0,1:0:0:0:
263,202,70715,2,0,L|286:198,1,24,6|0,3:1|0:0,0:0:0:0:
146,179,70929,5,0,1:0:0:0:
123,172,71036,1,0,1:0:0:0:
99,176,71143,1,0,1:0:0:0:
80,189,71250,1,0,1:0:0:0:
68,210,71357,1,0,1:0:0:0:
66,234,71464,1,0,1:0:0:0:
74,256,71571,1,0,1:0:0:0:
91,273,71678,1,0,1:0:0:0:
113,281,71786,2,0,L|136:277,1,24,6|0,3:1|0:0,0:0:0:0:
200,233,72001,69,0,1:0:0:0:
216,249,72108,1,0,1:0:0:0:
238,257,72216,2,0,L|261:253,1,24,6|0,3:1|0:0,0:0:0:0:
153,158,72429,5,0,1:0:0:0:
136,141,72536,1,0,1:0:0:0:
114,133,72644,2,0,L|91:137,1,24,6|0,3:1|0:0,0:0:0:0:
114,133,73072,69,0,1:0:0:0:
136,139,73179,1,0,1:0:0:0:
160,136,73286,1,0,1:0:0:0:
180,122,73393,1,0,1:0:0:0:
192,102,73500,1,8,1:2:0:0:
194,78,73607,1,0,1:0:0:0:
187,57,73714,2,0,L|164:61,1,24,6|0,3:1|0:0,0:0:0:0:
254,227,73929,5,0,1:0:0:0:
257,204,74036,1,0,1:0:0:0:
249,182,74143,2,0,L|226:186,1,24,6|0,3:1|0:0,0:0:0:0:
366,205,74357,69,0,1:0:0:0:
388,211,74464,1,0,1:0:0:0:
412,207,74571,1,0,1:0:0:0:
431,194,74678,1,0,1:0:0:0:
443,173,74786,1,0,1:0:0:0:
445,149,74894,1,0,1:0:0:0:
437,127,75001,1,0,1:0:0:0:
420,110,75108,1,0,1:0:0:0:
399,103,75215,6,0,L|321:116,1,72,6|0,3:1|0:0,0:0:0:0:
177,97,75644,2,0,L|248:85,1,72,6|0,3:1|0:0,0:0:0:0:
291,98,76072,70,0,L|294:66,1,24,6|0,3:1|0:0,0:0:0:0:
291,98,76501,5,0,1:0:0:0:
303,118,76608,1,0,1:0:0:0:
315,139,76715,1,0,1:0:0:0:
327,160,76822,1,0,1:0:0:0:
339,180,76929,1,8,1:2:0:0:
351,201,77036,1,0,1:0:0:0:
364,222,77144,2,0,L|367:190,1,24,6|0,3:1|0:0,0:0:0:0:
421,138,77358,69,0,1:0:0:0:
433,158,77465,1,0,1:0:0:0:
445,179,77573,2,0,L|448:147,1,24,6|0,3:1|0:0,0:0:0:0:
266,57,77786,5,0,1:0:0:0:
279,77,77893,1,0,1:0:0:0:
291,98,78000,1,0,1:0:0:0:
303,119,78107,1,0,1:0:0:0:
315,139,78214,1,0,1:0:0:0:
327,160,78321,1,0,1:0:0:0:
340,180,78429,1,0,1:0:0:0:
352,201,78537,1,0,1:0:0:0:
364,222,78644,2,0,L|366:198,1,24,6|0,3:1|0:0,0:0:0:0:
243,170,78858,69,0,1:0:0:0:
255,191,78965,1,0,1:0:0:0:
267,212,79072,2,0,L|269:188,1,24,6|0,3:1|0:0,0:0:0:0:
197,244,79286,5,0,1:0:0:0:
209,265,79393,1,0,1:0:0:0:
221,286,79501,2,0,L|218:318,1,24,6|0,3:1|0:0,0:0:0:0:
221,286,79929,69,0,1:0:0:0:
209,266,80036,1,0,1:0:0:0:
197,245,80143,1,0,1:0:0:0:
185,224,80250,1,0,1:0:0:0:
173,204,80357,1,8,1:2:0:0:
161,183,80464,1,0,1:0:0:0:
148,162,80572,2,0,L|145:194,1,24,6|0,3:1|0:0,0:0:0:0:
91,246,80786,5,0,1:0:0:0:
79,226,80893,1,0,1:0:0:0:
67,205,81001,2,0,L|64:237,1,24,6|0,3:1|0:0,0:0:0:0:
246,327,81215,69,0,1:0:0:0:
233,307,81321,1,0,1:0:0:0:
221,286,81428,1,0,1:0:0:0:
209,265,81535,1,0,1:0:0:0:
197,245,81644,1,0,1:0:0:0:
185,224,81751,1,0,1:0:0:0:
172,204,81858,1,0,1:0:0:0:
160,183,81965,1,0,1:0:0:0:
148,162,82072,6,0,L|155:79,1,72,6|0,3:1|0:0,0:0:0:0:
201,47,82501,1,0,0:0:0:0:
258,23,82608,1,0,0:0:0:0:
320,28,82715,1,0,0:0:0:0:
373,59,82822,1,0,0:0:0:0:
407,111,82929,6,0,B|391:140|391:140|407:230,1,107.999996704102,4|0,3:1|0:0,0:0:0:0:
409,236,83358,1,0,0:0:0:0:
322,322,83572,1,0,1:0:0:0:
324,330,83679,1,0,1:0:0:0:
326,338,83786,2,0,P|361:339|391:320,1,71.9999978027344,4|0,3:0|0:0,0:0:0:0:
259,350,84108,2,0,P|283:347|326:369,1,71.9999978027344,4|0,3:0|0:0,0:0:0:0:
193,334,84429,2,0,L|241:323,1,35.9999989013672,4|0,3:0|0:0,0:0:0:0:
105,273,84644,6,0,B|121:244|121:244|105:154,1,107.999996704102,6|0,3:1|0:0,0:0:0:0:
103,148,85073,1,8,0:0:0:0:
190,62,85286,1,0,1:0:0:0:
188,54,85394,1,0,1:0:0:0:
186,46,85501,2,0,P|151:45|121:64,1,71.9999978027344,4|0,3:0|0:0,0:0:0:0:
253,34,85823,2,0,P|229:37|186:15,1,71.9999978027344,4|0,3:0|0:0,0:0:0:0:
319,50,86144,2,0,L|271:61,1,35.9999989013672,4|0,3:0|0:0,0:0:0:0:
120,64,86358,70,0,P|75:75|66:153,1,107.999996704102,6|0,3:1|0:0,0:0:0:0:
66,144,86786,1,8,0:0:0:0:
186,139,87001,1,0,1:0:0:0:
184,131,87108,1,0,1:0:0:0:
182,123,87215,2,0,P|215:108|260:118,1,71.9999978027344,4|0,3:0|0:0,0:0:0:0:
275,49,87536,2,0,P|304:70|318:114,1,71.9999978027344,4|0,3:0|0:0,0:0:0:0:
386,94,87858,2,0,P|383:123|357:152,1,35.9999989013672,4|0,3:0|0:0,0:0:0:0:
392,320,88072,6,0,P|437:309|446:231,1,107.999996704102,6|0,3:1|0:0,0:0:0:0:
446,240,88500,1,8,0:0:0:0:
326,245,88715,1,0,1:0:0:0:
328,253,88822,1,0,1:0:0:0:
330,261,88929,1,4,3:1:0:0:
250,304,89144,1,8,0:0:0:0:
252,296,89251,1,4,3:0:0:0:
175,256,89465,1,12,0:0:0:0:
173,248,89572,1,4,3:0:0:0:
171,240,89679,1,8,0:0:0:0:
169,232,89786,70,0,L|182:98,1,107.999996704102,6|0,3:1|0:0,0:0:0:0:
182,109,90215,1,8,0:0:0:0:
280,136,90429,1,0,1:0:0:0:
284,141,90536,1,0,1:0:0:0:
289,146,90644,2,0,P|339:148|374:122,1,71.9999978027344,4|0,3:0|0:0,0:0:0:0:
433,106,90965,2,0,P|386:103|351:129,1,71.9999978027344,4|0,3:0|0:0,0:0:0:0:
384,205,91286,2,0,L|380:249,1,35.9999989013672,4|0,3:0|0:0,0:0:0:0:
212,214,91501,6,0,P|260:205|341:230,1,107.999996704102,6|0,3:1|0:0,0:0:0:0:
395,64,91929,2,0,P|379:110|317:167,1,107.999996704102,6|0,3:1|0:0,0:0:0:0:
433,298,92358,2,0,P|402:260|383:178,1,107.999996704102,6|0,3:1|0:0,0:0:0:0:
384,205,92786,2,0,L|380:249,1,35.9999989013672,4|0,0:0|0:0,0:0:0:0:
395,124,93001,1,0,3:0:0:0:
97,308,93215,69,6,3:1:0:0:
88,297,93858,5,0,3:0:0:0:
103,212,94072,1,8,0:0:0:0:
121,281,94715,69,0,3:0:0:0:
113,195,94929,1,0,0:0:0:0:
148,256,95572,5,0,3:0:0:0:
118,175,95786,1,8,0:0:0:0:
168,225,96429,69,0,3:0:0:0:
118,155,96644,1,0,0:0:0:0:
179,191,97287,5,0,3:0:0:0:
113,135,97501,2,0,L|114:200,1,60,8|0,0:0|0:0,0:0:0:0:
179,191,98358,70,0,P|208:176|248:184,1,72,4|0,3:0|0:0,0:0:0:0:
325,283,98786,1,2,1:2:0:0:
318,236,98894,1,2,1:2:0:0:
312,191,99001,1,2,1:2:0:0:
305,146,99108,1,2,1:2:0:0:
299,100,99215,1,10,1:2:0:0:
458,296,99429,6,0,P|426:311|391:304,1,72,4|0,3:0|0:0,0:0:0:0:
325,283,99858,2,0,P|308:281|288:288,1,24,4|0,3:0|0:0,0:0:0:0:
169,374,100072,69,2,1:2:0:0:
176,327,100179,1,2,1:2:0:0:
182,282,100286,1,2,1:2:0:0:
189,237,100393,1,2,1:2:0:0:
195,191,100500,1,2,1:2:0:0:
202,144,100608,1,2,1:2:0:0:
208,99,100715,1,2,1:2:0:0:
215,54,100822,1,2,1:2:0:0:
221,8,100929,1,4,3:1:0:0:
128,136,101358,1,4,3:1:0:0:
315,282,101786,6,0,P|286:267|246:275,1,72,4|0,3:0|0:0,0:0:0:0:
169,374,102214,1,2,1:2:0:0:
176,327,102322,1,2,1:2:0:0:
182,282,102429,1,2,1:2:0:0:
189,237,102536,1,2,1:2:0:0:
195,191,102643,1,10,1:2:0:0:
60,206,102858,70,0,P|89:221|129:213,1,72,4|0,3:0|0:0,0:0:0:0:
195,191,103286,2,0,P|212:189|232:196,1,24,4|0,3:0|0:0,0:0:0:0:
343,374,103501,5,2,1:2:0:0:
336,327,103608,1,2,1:2:0:0:
330,282,103715,1,2,1:2:0:0:
323,237,103822,1,2,1:2:0:0:
317,191,103929,1,2,1:2:0:0:
310,144,104037,1,2,1:2:0:0:
304,99,104144,1,2,1:2:0:0:
297,54,104251,1,2,1:2:0:0:
291,8,104358,1,4,3:1:0:0:
384,136,104786,1,4,3:1:0:0:
160,176,105215,70,0,L|231:182,1,72,4|0,3:0|0:0,0:0:0:0:
317,191,105644,1,2,1:2:0:0:
310,144,105752,1,2,1:2:0:0:
304,99,105859,1,2,1:2:0:0:
297,54,105966,1,2,1:2:0:0:
291,8,106073,1,10,1:2:0:0:
199,124,106286,6,0,L|127:130,1,72,4|0,3:0|0:0,0:0:0:0:
67,161,106715,2,0,L|62:198,1,24,4|0,3:0|0:0,0:0:0:0:
90,368,106929,69,2,1:2:0:0:
83,321,107036,1,2,1:2:0:0:
77,276,107143,1,2,1:2:0:0:
70,231,107250,1,2,1:2:0:0:
64,185,107357,1,2,1:2:0:0:
57,138,107465,1,2,1:2:0:0:
51,93,107572,1,2,1:2:0:0:
44,48,107679,1,2,1:2:0:0:
38,2,107786,1,4,3:1:0:0:
300,113,108215,1,4,3:1:0:0:
57,138,108644,6,0,L|128:132,1,72,4|0,3:0|0:0,0:0:0:0:
214,123,109073,1,2,1:2:0:0:
207,170,109179,1,2,1:2:0:0:
201,215,109286,1,2,1:2:0:0:
194,260,109394,1,2,1:2:0:0:
188,306,109502,69,10,1:2:0:0:
216,285,109608,1,2,0:0:0:0:
251,278,109715,1,2,0:0:0:0:
286,285,109822,1,2,0:0:0:0:
315,305,109929,2,0,L|386:299,1,72,4|0,3:1|0:0,0:0:0:0:
435,228,110358,5,4,3:1:0:0:
445,181,110466,1,0,1:0:0:0:
439,134,110573,1,0,1:0:0:0:
419,91,110680,1,0,1:0:0:0:
386,56,110787,1,8,1:2:0:0:
343,34,110894,1,0,1:0:0:0:
296,26,111001,1,0,1:0:0:0:
249,33,111108,1,0,1:0:0:0:
207,56,111215,70,0,L|135:62,1,72,4|0,3:1|0:0,0:0:0:0:
55,110,111644,1,0,3:0:0:0:
56,115,111751,1,0,0:0:0:0:
57,121,111858,1,0,0:0:0:0:
58,127,111965,1,0,0:0:0:0:
60,133,112072,5,8,3:1:0:0:
60,133,112501,1,8,0:1:0:0:
60,133,112929,1,8,0:1:0:0:
60,133,113358,1,8,0:1:0:0:
256,64,113572,1,0,3:0:0:0:
452,133,113786,69,8,3:1:0:0:
452,133,114215,1,8,0:1:0:0:
452,133,114643,1,8,0:1:0:0:
452,133,115072,2,0,L|463:157,2,15,8|0|0,1:0|1:0|1:0,0:0:0:0:
386,89,115286,2,0,L|397:65,2,15,8|0|0,1:0|1:0|1:0,0:0:0:0:
384,164,115501,5,4,3:1:0:0:
359,181,115608,1,2,0:2:0:0:
331,190,115715,1,2,0:2:0:0:
301,189,115822,1,2,0:2:0:0:
273,179,115929,1,2,1:2:0:0:
250,160,116036,1,2,1:2:0:0:
234,135,116143,1,2,1:2:0:0:
222,109,116251,1,2,1:2:0:0:
200,90,116358,1,10,1:2:0:0:
172,78,116465,1,2,0:2:0:0:
143,75,116572,1,2,0:2:0:0:
113,81,116679,1,2,0:2:0:0:
87,95,116786,1,2,0:2:0:0:
67,117,116893,1,2,0:2:0:0:
54,144,117000,1,2,3:2:0:0:
49,173,117108,1,2,0:2:0:0:
27,209,117215,69,4,3:1:0:0:
73,198,117322,1,2,1:2:0:0:
120,204,117429,1,2,1:2:0:0:
162,227,117536,1,2,1:2:0:0:
193,263,117643,1,2,1:2:0:0:
223,293,117751,1,2,1:2:0:0:
260,322,117858,1,2,1:2:0:0:
305,338,117965,1,2,1:2:0:0:
353,339,118072,1,10,1:2:0:0:
399,325,118179,1,2,0:2:0:0:
438,298,118286,1,2,0:2:0:0:
466,259,118393,1,2,3:2:0:0:
481,214,118500,1,2,0:2:0:0:
480,166,118608,1,2,3:2:0:0:
465,120,118715,1,2,3:2:0:0:
436,82,118822,1,2,0:2:0:0:
397,68,118929,5,4,3:1:0:0:
383,79,119036,1,2,0:2:0:0:
368,88,119143,1,2,0:2:0:0:
351,94,119250,1,2,0:2:0:0:
334,98,119357,1,2,1:2:0:0:
316,99,119464,1,2,1:2:0:0:
298,98,119571,1,2,3:2:0:0:
280,93,119678,1,2,1:2:0:0:
245,68,119786,69,8,1:2:0:0:
256,82,119893,1,2,0:2:0:0:
265,97,120000,1,2,0:2:0:0:
271,114,120107,1,2,0:2:0:0:
275,131,120214,1,2,0:2:0:0:
276,149,120321,1,2,0:2:0:0:
275,167,120428,1,2,3:2:0:0:
270,185,120535,1,2,0:2:0:0:
245,220,120644,5,4,1:1:0:0:
259,209,120751,1,2,1:2:0:0:
274,200,120858,1,2,1:2:0:0:
291,194,120965,1,2,1:2:0:0:
308,190,121072,1,2,1:2:0:0:
326,189,121179,1,2,1:2:0:0:
344,190,121286,1,2,3:2:0:0:
362,195,121393,1,2,1:2:0:0:
397,220,121501,69,8,1:2:0:0:
386,206,121608,1,2,1:2:0:0:
377,191,121715,1,2,1:2:0:0:
371,174,121822,1,2,1:2:0:0:
367,157,121929,1,2,3:2:0:0:
366,139,122036,1,2,1:2:0:0:
367,121,122143,1,2,1:2:0:0:
372,103,122250,1,2,1:2:0:0:
397,68,122358,5,4,3:1:0:0:
370,53,122465,1,2,0:2:0:0:
342,44,122572,1,2,0:2:0:0:
312,42,122679,1,2,0:2:0:0:
282,46,122786,1,2,1:2:0:0:
254,56,122893,1,2,1:2:0:0:
229,72,123000,1,2,1:2:0:0:
208,93,123107,1,2,1:2:0:0:
196,121,123215,1,10,1:2:0:0:
169,132,123322,1,2,0:2:0:0:
141,121,123429,1,2,0:2:0:0:
129,93,123537,1,2,0:2:0:0:
141,65,123644,1,2,0:2:0:0:
169,54,123751,1,2,0:2:0:0:
196,65,123858,1,2,3:2:0:0:
208,93,123965,1,2,0:2:0:0:
196,121,124072,69,4,3:1:0:0:
149,130,124179,1,2,1:2:0:0:
109,157,124286,1,2,1:2:0:0:
82,197,124393,1,2,1:2:0:0:
73,244,124500,1,2,1:2:0:0:
82,291,124607,1,2,1:2:0:0:
109,331,124715,1,2,1:2:0:0:
149,357,124822,1,2,1:2:0:0:
196,367,124929,1,10,1:2:0:0:
243,357,125036,1,2,1:2:0:0:
283,331,125143,1,2,1:2:0:0:
310,291,125250,1,2,1:2:0:0:
319,244,125357,1,2,3:2:0:0:
310,197,125465,1,2,1:2:0:0:
283,157,125572,1,2,1:2:0:0:
243,130,125679,1,2,1:2:0:0:
229,174,125786,6,0,B|211:122|233:82|233:82|230:115|247:135,1,144,6|0,3:1|0:0,0:0:0:0:
224,203,126644,2,0,P|206:165|223:52,1,144,6|0,3:1|0:0,0:0:0:0:
312,112,127501,70,0,B|351:123|351:123|469:106,1,144,6|0,3:1|0:0,0:0:0:0:
500,29,128358,2,0,L|357:48,1,144,6|0,3:1|0:0,0:0:0:0:
284,60,129215,6,0,P|231:59|196:136,1,144,6|0,3:1|0:0,0:0:0:0:
161,200,130072,2,0,P|115:196|87:149,1,96,6|0,3:1|0:0,0:0:0:0:
14,40,130715,38,2,B|34:211|34:211|47:165|97:156,1,251.999992309571,6|0,3:1|0:0,0:1:0:0:
262,226,132429,6,2,B|176:189|179:258|106:227,1,161.999995056153,6|0,3:1|0:0,0:1:0:0:
140,163,133501,2,0,L|135:142,7,20.9999993591309,0|0|0|0|0|0|0|0,3:0|3:0|3:0|3:0|3:0|3:0|3:0|3:0,3:0:0:0:
217,284,133929,2,4,L|221:304,7,20.9999993591309,4|4|4|4|4|4|4|4,3:0|3:0|3:0|3:0|3:0|3:0|3:0|3:0,3:0:0:0:
262,226,134358,37,4,3:1:0:0:
363,280,134572,1,0,0:0:0:0:
354,169,134786,1,8,0:0:0:0:
354,169,134894,1,0,0:0:0:0:
295,312,135108,1,8,0:0:0:0:
438,363,135322,5,8,0:0:0:0:
438,363,135429,2,0,L|419:310,1,41.9999987182618,4|0,3:1|0:0,0:0:0:0:
441,260,135644,2,0,L|422:207,1,41.9999987182618,8|0,0:0|0:0,0:0:0:0:
450,159,135858,2,0,L|431:106,1,41.9999987182618,4|0,3:1|0:0,0:0:0:0:
457,59,136072,69,0,3:0:0:0:
350,79,136286,1,0,0:0:0:0:
457,59,136501,1,8,0:0:0:0:
350,79,136715,1,0,0:0:0:0:
457,59,136929,1,4,3:1:0:0:
350,79,137144,1,0,0:0:0:0:
457,59,137358,5,4,3:1:0:0:
350,79,137465,2,0,L|254:94,1,83.9999974365235
250,158,137786,69,4,3:1:0:0:
149,104,138000,1,0,0:0:0:0:
158,215,138214,1,8,0:0:0:0:
158,215,138322,1,0,0:0:0:0:
217,72,138536,1,8,0:0:0:0:
74,21,138750,5,8,0:0:0:0:
100,84,138857,2,0,L|119:137,1,41.9999987182618,6|0,3:1|0:0,0:0:0:0:
264,197,139072,2,0,L|249:157,1,41.9999987182618,8|0,0:0|0:0,0:0:0:0:
352,13,139286,2,0,L|366:52,1,41.9999987182618,4|0,3:1|0:0,0:0:0:0:
498,196,139501,69,0,3:0:0:0:
491,179,139608,2,0,L|462:97,1,83.9999974365235
438,38,139929,1,8,0:0:0:0:
383,185,140144,1,0,0:0:0:0:
314,89,140358,5,4,3:1:0:0:
300,90,140465,1,0,0:0:0:0:
286,91,140572,1,0,0:0:0:0:
272,92,140679,1,0,0:0:0:0:
201,179,140786,1,4,3:1:0:0:
187,180,140893,1,0,0:0:0:0:
173,181,141000,1,0,0:0:0:0:
159,182,141107,1,0,0:0:0:0:
98,146,141215,69,0,3:0:0:0:
214,266,141429,1,0,0:0:0:0:
58,212,141644,1,8,0:0:0:0:
58,212,141751,1,0,0:0:0:0:
182,103,141965,1,8,0:0:0:0:
338,157,142179,5,8,0:0:0:0:
338,157,142286,2,0,L|331:209,1,41.9999987182618,4|0,3:1|0:0,0:0:0:0:
265,166,142501,2,0,L|258:218,1,41.9999987182618,8|0,0:0|0:0,0:0:0:0:
194,173,142715,2,0,L|187:225,1,41.9999987182618,4|0,3:1|0:0,0:0:0:0:
305,355,142929,69,0,3:0:0:0:
436,384,143144,1,0,0:0:0:0:
305,355,143358,1,8,0:0:0:0:
436,384,143573,1,0,0:0:0:0:
305,355,143786,1,4,3:1:0:0:
436,384,144001,1,0,0:0:0:0:
305,355,144215,5,4,3:1:0:0:
436,384,144322,2,0,L|423:290,1,83.9999974365235
414,238,144644,69,0,3:0:0:0:
298,118,144858,1,0,0:0:0:0:
454,172,145073,1,8,0:0:0:0:
454,172,145180,1,0,0:0:0:0:
330,281,145394,1,8,0:0:0:0:
174,227,145608,5,8,0:0:0:0:
182,160,145715,2,0,L|189:108,1,41.9999987182618,6|0,3:1|0:0,0:0:0:0:
304,76,145930,2,0,L|298:117,1,41.9999987182618
112,112,146144,2,0,L|119:60,1,41.9999987182618,4|0,3:1|0:0,0:0:0:0:
222,4,146358,70,2,B|159:35|141:-19|79:11,1,146.999995513916,6|0,3:1|0:0,0:1:0:0:
50,77,147215,5,4,3:1:0:0:
53,90,147322,1,0,0:0:0:0:
56,104,147429,1,0,0:0:0:0:
59,117,147536,1,0,0:0:0:0:
154,168,147644,1,4,3:1:0:0:
157,181,147751,1,0,0:0:0:0:
160,195,147858,1,0,0:0:0:0:
163,208,147965,1,0,0:0:0:0:
116,264,148072,69,4,3:1:0:0:
212,349,148286,1,0,0:0:0:0:
220,161,148501,1,8,0:0:0:0:
220,161,148608,1,0,0:0:0:0:
129,335,148822,1,8,0:0:0:0:
29,171,149036,5,8,0:0:0:0:
29,171,149144,2,0,L|41:226,1,41.9999987182618,4|0,3:1|0:0,0:0:0:0:
77,92,149358,2,0,L|89:147,1,41.9999987182618,8|0,0:0|0:0,0:0:0:0:
127,12,149572,2,0,L|139:67,1,41.9999987182618,4|0,3:1|0:0,0:0:0:0:
189,229,149786,69,0,3:0:0:0:
356,257,150001,1,0,0:0:0:0:
189,229,150215,1,8,0:0:0:0:
356,257,150430,1,0,0:0:0:0:
189,229,150644,1,4,3:1:0:0:
356,257,150859,1,0,0:0:0:0:
189,229,151072,5,4,3:1:0:0:
356,257,151179,2,0,P|370:203|360:165,1,83.9999974365235
396,120,151501,69,4,3:1:0:0:
300,35,151715,1,0,0:0:0:0:
292,223,151930,1,8,0:0:0:0:
292,223,152037,1,0,0:0:0:0:
383,49,152251,1,8,0:0:0:0:
483,213,152465,5,8,0:0:0:0:
465,148,152573,2,0,L|453:93,1,41.9999987182618,6|0,3:1|0:0,0:0:0:0:
300,35,152786,2,0,L|308:76,1,41.9999987182618,8|0,0:0|0:0,0:0:0:0:
300,264,153001,2,0,L|288:209,1,41.9999987182618,4|0,3:1|0:0,0:0:0:0:
111,136,153215,69,0,3:0:0:0:
115,155,153322,2,0,L|134:239,1,83.9999974365235
153,301,153644,1,8,0:0:0:0:
34,235,153858,1,0,0:0:0:0:
181,102,154072,5,4,3:1:0:0:
194,99,154179,1,0,0:0:0:0:
208,96,154286,1,0,0:0:0:0:
222,93,154393,1,0,0:0:0:0:
297,165,154501,1,4,3:1:0:0:
310,162,154608,1,0,0:0:0:0:
324,159,154715,1,0,0:0:0:0:
338,156,154822,1,0,0:0:0:0:
376,97,154929,69,4,3:1:0:0:
266,40,155144,1,0,0:0:0:0:
261,227,155358,1,8,0:0:0:0:
261,227,155465,1,0,0:0:0:0:
409,162,155679,1,8,0:0:0:0:
208,88,155894,5,8,0:0:0:0:
208,88,156001,2,0,L|140:71,1,41.9999987182618,4|0,3:1|0:0,0:0:0:0:
125,137,156215,2,0,L|57:120,1,41.9999987182618,8|0,0:0|0:0,0:0:0:0:
40,181,156429,2,0,L|-28:164,1,41.9999987182618,4|0,3:1|0:0,0:0:0:0:
124,364,156644,69,0,3:0:0:0:
13,251,156858,1,0,0:0:0:0:
124,364,157072,1,8,0:0:0:0:
13,251,157286,1,0,0:0:0:0:
124,364,157501,1,4,3:1:0:0:
13,251,157715,1,0,0:0:0:0:
124,364,157929,5,4,3:1:0:0:
13,251,158036,2,0,P|61:231|117:256,1,83.9999974365235
136,287,158358,69,4,3:1:0:0:
246,344,158572,1,0,0:0:0:0:
251,157,158786,1,8,0:0:0:0:
251,157,158893,1,0,0:0:0:0:
103,222,159107,1,8,0:0:0:0:
304,296,159322,5,8,0:0:0:0:
367,312,159429,2,0,L|435:329,1,41.9999987182618,6|0,3:1|0:0,0:0:0:0:
438,147,159644,2,0,L|397:136,1,41.9999987182618,8|0,0:0|0:0,0:0:0:0:
251,157,159858,2,0,L|319:174,1,41.9999987182618,4|0,3:1|0:0,0:0:0:0:
315,230,160072,70,0,P|345:209|327:113,1,146.999995513916
257,117,160929,5,2,0:0:0:0:
247,123,161036,1,2,0:0:0:0:
172,111,161144,1,2,0:0:0:0:
162,125,161251,1,2,0:0:0:0:
85,142,161358,1,10,0:0:0:0:
85,161,161465,1,2,0:0:0:0:
19,209,161572,1,2,0:0:0:0:
31,229,161679,1,2,0:0:0:0:
116,240,161786,5,4,3:1:0:0:
116,240,162215,1,0,1:0:0:0:
172,213,162322,1,0,1:0:0:0:
234,216,162429,1,0,1:0:0:0:
288,248,162536,1,0,1:0:0:0:
320,301,162644,2,0,L|330:183,2,107.999996704102,4|4|4,3:1|3:1|3:1,0:0:0:0:
395,173,163501,6,0,P|392:156|367:139,1,35.9999989013672,2|2,1:2|1:2,0:0:0:0:
294,136,163715,2,0,P|272:151|270:167,1,35.9999989013672,2|2,1:2|1:2,0:0:0:0:
196,270,163929,1,2,1:2:0:0:
182,273,164036,1,2,0:0:0:0:
71,190,164251,1,2,0:0:0:0:
85,187,164358,2,0,L|163:167,1,71.9999978027344,8|0,0:0|3:0,0:0:0:0:
198,88,164786,2,0,L|128:105,1,71.9999978027344,4|8,0:1|0:0,0:0:0:0:
67,68,165215,69,0,3:0:0:0:
208,16,165429,1,0,0:0:0:0:
245,28,165536,1,0,0:0:0:0:
282,41,165644,2,0,L|280:70,2,17.9999994506836,0|0|0,1:0|1:0|1:0,0:0:0:0:
195,123,165858,2,0,L|196:99,2,17.9999994506836,0|0|0,1:0|1:0|1:0,0:0:0:0:
256,176,166072,1,8,1:2:0:0:
290,185,166179,1,0,1:0:0:0:
325,195,166286,2,0,L|316:279,1,71.9999978027344,4|0,3:1|0:0,0:0:0:0:
448,367,166715,2,0,L|457:283,1,71.9999978027344,4|0,3:1|0:0,0:0:0:0:
391,97,167144,5,0,3:0:0:0:
409,192,167358,1,0,1:0:0:0:
462,161,167465,1,0,1:0:0:0:
486,104,167572,1,0,1:0:0:0:
470,44,167679,1,0,1:0:0:0:
421,6,167786,2,0,L|342:12,1,71.9999978027344,4|0,3:1|0:0,0:0:0:0:
304,65,168108,2,0,L|224:71,1,71.9999978027344,4|0,3:1|0:0,0:0:0:0:
180,115,168429,2,0,L|140:118,1,35.9999989013672,4|0,3:1|0:0,0:0:0:0:
91,158,168644,2,0,L|51:161,1,35.9999989013672,4|0,3:1|0:0,0:0:0:0:
32,34,168858,69,8,0:1:0:0:
32,34,169072,1,8,0:1:0:0:
101,16,169286,1,0,1:0:0:0:
103,42,169393,1,0,1:0:0:0:
93,67,169500,1,8,1:2:0:0:
11,125,169715,2,0,L|20:205,1,71.9999978027344,4|0,3:1|0:0,0:0:0:0:
107,316,170144,2,0,L|98:244,1,71.9999978027344,4|0,3:1|0:0,0:0:0:0:
90,180,170465,1,0,0:0:0:0:
90,180,170572,1,0,0:0:0:0:
159,103,170786,5,4,3:1:0:0:
159,103,170893,1,0,0:0:0:0:
186,201,171108,1,2,0:0:0:0:
186,201,171215,2,0,P|225:218|267:212,1,71.9999978027344,8|0,0:0|0:0,0:0:0:0:
261,213,171536,2,0,L|261:261,1,35.9999989013672,2|0,0:0|0:0,0:0:0:0:
330,280,171751,2,0,L|330:244,1,35.9999989013672,2|0,0:0|0:0,0:0:0:0:
398,194,171965,1,0,0:0:0:0:
398,194,172072,70,0,P|397:151|373:118,1,71.9999978027344,4|0,3:1|0:0,0:0:0:0:
339,123,172394,1,0,1:0:0:0:
295,120,172501,1,0,1:0:0:0:
251,117,172608,1,0,1:0:0:0:
207,114,172715,1,0,1:0:0:0:
21,247,172929,6,0,L|62:238,1,35.9999989013672,10|0,1:2|0:0,0:0:0:0:
138,288,173144,2,0,L|142:246,1,35.9999989013672,2|0,1:2|0:0,0:0:0:0:
212,190,173358,2,0,L|173:173,1,35.9999989013672,2|0,3:2|0:0,0:0:0:0:
142,88,173572,2,0,L|114:119,1,35.9999989013672,2|0,1:2|0:0,0:0:0:0:
24,124,173786,70,0,L|45:160,1,35.9999989013672,0|0,3:1|0:0,0:0:0:0:
107,187,174001,1,2,1:2:0:0:
169,179,174108,1,2,1:2:0:0:
232,171,174215,1,2,1:2:0:0:
294,163,174322,1,2,1:2:0:0:
377,226,174536,6,0,L|355:189,1,35.9999989013672,2|8,1:2|0:0,0:0:0:0:
294,163,174751,1,2,1:2:0:0:
232,171,174858,1,2,1:2:0:0:
169,179,174965,1,2,1:2:0:0:
107,187,175072,2,0,L|96:169,2,17.9999994506836,0|0|0,1:0|1:0|1:0,0:0:0:0:
129,281,175286,2,0,L|138:296,2,17.9999994506836,0|0|0,1:0|1:0|1:0,0:0:0:0:
201,234,175501,6,0,P|236:229|267:306,1,107.999996704102,6|0,3:1|0:0,0:0:0:0:
270,300,175929,1,8,0:0:0:0:
70,318,176144,1,0,0:0:0:0:
68,310,176251,1,0,0:0:0:0:
66,303,176358,2,0,L|140:296,1,71.9999978027344,4|0,3:1|0:0,0:0:0:0:
201,234,176679,2,0,L|275:227,1,71.9999978027344,4|0,3:1|0:0,0:0:0:0:
352,276,177001,2,0,L|393:272,1,35.9999989013672,4|0,3:1|0:0,0:0:0:0:
311,150,177215,6,0,P|276:155|245:78,1,107.999996704102,6|0,3:1|0:0,0:0:0:0:
242,84,177643,1,8,0:0:0:0:
442,66,177858,1,0,0:0:0:0:
444,74,177965,1,0,0:0:0:0:
446,81,178072,2,0,L|372:88,1,71.9999978027344,4|0,3:1|0:0,0:0:0:0:
311,150,178393,2,0,L|237:157,1,71.9999978027344,4|0,3:1|0:0,0:0:0:0:
160,108,178715,2,0,L|118:111,1,35.9999989013672,4|0,3:1|0:0,0:0:0:0:
219,28,178929,70,0,L|237:146,1,107.999996704102,6|0,3:1|0:0,0:0:0:0:
239,156,179358,1,8,0:0:0:0:
75,225,179572,1,0,0:0:0:0:
74,218,179679,1,0,0:0:0:0:
73,210,179787,2,0,P|95:183|129:172,1,71.9999978027344,4|0,3:1|0:0,0:0:0:0:
165,235,180108,2,0,P|209:272|250:268,1,71.9999978027344,4|0,3:1|0:0,0:0:0:0:
273,228,180429,2,0,P|288:212|319:209,1,35.9999989013672,4|0,3:1|0:0,0:0:0:0:
293,356,180644,6,0,L|275:238,1,107.999996704102,6|0,3:1|0:0,0:0:0:0:
273,228,181073,1,8,0:0:0:0:
437,159,181286,1,0,0:0:0:0:
438,166,181393,1,0,0:0:0:0:
438,173,181501,1,4,3:1:0:0:
371,108,181715,1,8,0:0:0:0:
371,115,181823,1,4,3:1:0:0:
283,132,182036,1,8,0:0:0:0:
283,139,182144,1,4,3:1:0:0:
283,146,182251,1,8,0:0:0:0:
283,153,182358,70,0,L|159:163,1,107.999996704102,6|0,3:1|0:0,0:0:0:0:
158,164,182786,1,8,0:0:0:0:
35,128,183001,1,0,0:0:0:0:
35,128,183108,1,0,0:0:0:0:
35,128,183215,2,0,L|25:48,1,71.9999978027344,4|0,3:1|0:0,0:0:0:0:
62,193,183536,2,0,L|52:113,1,71.9999978027344,4|0,3:1|0:0,0:0:0:0:
88,258,183858,2,0,L|81:194,1,35.9999989013672,4|0,3:1|0:0,0:0:0:0:
117,78,184072,6,0,P|167:68|231:82,1,107.999996704102,4|0,3:1|0:0,0:0:0:0:
270,236,184501,2,0,P|236:197|216:135,1,107.999996704102,4|0,3:1|0:0,0:0:0:0:
331,25,184929,2,0,P|314:73|270:121,1,107.999996704102,4|0,3:1|0:0,0:0:0:0:
278,116,185358,2,0,L|326:122,1,35.9999989013672,2|0,0:1|0:0,0:0:0:0:
191,109,185572,1,0,3:0:0:0:
405,52,185786,69,0,0:0:0:0:
501,85,186429,5,0,3:0:0:0:
406,75,186644,1,8,0:0:0:0:
490,131,187286,69,0,3:0:0:0:
401,97,187501,1,0,0:0:0:0:
467,172,188143,5,0,3:0:0:0:
390,116,188358,1,8,0:0:0:0:
434,206,189000,69,0,3:0:0:0:
374,132,189215,1,0,0:0:0:0:
393,230,189857,5,0,3:0:0:0:
354,144,190072,2,0,P|316:137|288:144,1,60,8|0,0:0|0:0,0:0:0:0:
252,220,190929,70,0,L|176:217,1,72,4|0,3:0|0:0,0:0:0:0:
130,324,191358,1,2,0:2:0:0:
123,277,191466,1,2,0:2:0:0:
117,232,191572,1,2,3:2:0:0:
110,187,191680,1,2,0:2:0:0:
104,141,191786,2,0,L|40:138,1,48,10|0,3:2|0:0,0:0:0:0:
222,145,192108,2,0,L|158:142,1,48,4|0,3:0|0:0,0:0:0:0:
313,151,192429,2,0,L|276:149,1,24,4|0,3:0|0:0,0:0:0:0:
345,368,192644,5,2,1:2:0:0:
352,321,192751,1,2,1:2:0:0:
358,276,192858,1,2,1:2:0:0:
365,231,192965,1,2,1:2:0:0:
371,185,193072,1,2,1:2:0:0:
378,138,193180,1,2,1:2:0:0:
384,93,193287,1,2,1:2:0:0:
391,48,193394,1,2,1:2:0:0:
397,2,193501,1,4,3:1:0:0:
476,113,193929,1,4,3:1:0:0:
251,165,194358,70,0,L|327:162,1,72,4|0,3:0|0:0,0:0:0:0:
373,269,194787,1,2,1:2:0:0:
380,222,194895,1,2,1:2:0:0:
386,177,195001,1,2,3:2:0:0:
393,132,195109,1,2,1:2:0:0:
399,86,195215,2,0,L|463:83,1,48,10|0,3:2|0:0,0:0:0:0:
512,142,195536,2,0,L|464:144,1,48,4|0,3:0|0:0,0:0:0:0:
386,177,195858,2,0,L|409:175,1,24,4|0,3:0|0:0,0:0:0:0:
490,209,196072,6,0,L|466:210,5,24
496,277,196715,2,0,L|472:278,1,24,4|0,3:1|0:0,0:0:0:0:
389,339,196929,2,0,L|300:328,1,72,4|0,3:1|0:0,0:0:0:0:
182,334,197358,2,0,L|253:342,1,72,4|0,3:1|0:0,0:0:0:0:
271,278,197786,70,0,P|266:240|231:209,1,72,4|0,3:0|0:0,0:0:0:0:
204,266,198215,1,2,1:2:0:0:
211,219,198323,1,2,1:2:0:0:
217,174,198429,1,2,3:2:0:0:
224,129,198537,1,2,1:2:0:0:
230,83,198643,2,0,L|294:80,1,48,10|0,3:2|0:0,0:0:0:0:
165,110,198965,2,0,L|229:107,1,48,4|0,3:0|0:0,0:0:0:0:
103,143,199286,2,0,L|140:141,1,24,4|0,3:0|0:0,0:0:0:0:
70,373,199501,5,2,1:2:0:0:
77,326,199608,1,2,1:2:0:0:
83,281,199715,1,2,1:2:0:0:
90,236,199822,1,2,1:2:0:0:
96,190,199929,1,2,1:2:0:0:
103,143,200037,1,2,1:2:0:0:
109,98,200144,1,2,1:2:0:0:
116,53,200251,1,2,1:2:0:0:
122,7,200358,1,4,3:1:0:0:
319,293,200786,1,4,3:1:0:0:
471,62,201215,70,0,L|385:68,1,72,4|0,3:0|0:0,0:0:0:0:
345,110,201644,1,2,1:2:0:0:
338,157,201752,1,2,1:2:0:0:
332,202,201858,1,2,3:2:0:0:
325,247,201966,1,2,1:2:0:0:
319,293,202072,5,10,1:2:0:0:
292,265,202179,1,2,0:2:0:0:
257,251,202286,1,2,0:2:0:0:
218,251,202393,1,2,0:2:0:0:
183,266,202501,2,0,L|97:272,1,72,4|0,3:1|0:0,0:0:0:0:
3,175,202929,69,4,3:1:0:0:
34,138,203036,1,2,1:2:0:0:
77,119,203143,1,2,1:2:0:0:
125,123,203250,1,2,1:2:0:0:
165,148,203357,1,2,1:2:0:0:
206,173,203465,1,2,1:2:0:0:
253,177,203572,1,2,1:2:0:0:
297,158,203679,1,2,1:2:0:0:
327,121,203786,6,0,P|367:112|399:127,1,72,4|0,3:1|0:0,0:0:0:0:
449,207,204215,1,0,3:0:0:0:
451,201,204322,1,0,0:0:0:0:
453,195,204429,1,0,0:0:0:0:
456,190,204536,1,0,0:0:0:0:
458,184,204643,69,8,3:1:0:0:
458,184,205072,1,8,0:1:0:0:
458,184,205501,1,8,0:1:0:0:
458,184,205822,1,0,0:0:0:0:
450,177,205929,1,8,0:1:0:0:
256,320,206144,1,0,3:0:0:0:
53,184,206358,5,8,3:1:0:0:
53,184,206787,1,8,0:1:0:0:
53,184,207216,1,8,0:1:0:0:
53,184,207536,1,0,0:0:0:0:
62,177,207644,2,0,L|71:150,2,15,0|0|0,1:0|1:0|1:0,0:0:0:0:
98,243,207858,2,0,L|107:269,2,15,0|0|0,1:0|1:0|1:0,0:0:0:0:
134,181,208072,69,4,3:1:0:0:
152,157,208179,1,2,0:2:0:0:
177,141,208286,1,2,0:2:0:0:
206,133,208393,1,2,0:2:0:0:
236,134,208500,1,2,1:2:0:0:
263,145,208607,1,2,1:2:0:0:
286,164,208714,1,2,1:2:0:0:
302,189,208822,1,2,1:2:0:0:
317,214,208929,1,10,1:2:0:0:
340,233,209036,1,2,0:2:0:0:
368,244,209143,1,2,0:2:0:0:
398,245,209250,1,2,0:2:0:0:
427,237,209357,1,2,0:2:0:0:
452,221,209464,1,2,0:2:0:0:
470,197,209571,1,2,3:2:0:0:
475,167,209679,1,2,0:2:0:0:
450,125,209786,5,4,3:1:0:0:
411,153,209894,1,2,1:2:0:0:
392,197,210001,1,2,1:2:0:0:
398,245,210108,1,2,1:2:0:0:
420,287,210215,1,2,1:2:0:0:
414,334,210322,1,2,1:2:0:0:
384,370,210429,1,2,1:2:0:0:
338,383,210536,1,2,1:2:0:0:
293,369,210643,1,10,1:2:0:0:
263,332,210750,1,2,0:2:0:0:
259,285,210857,1,2,0:2:0:0:
281,242,210965,1,2,3:2:0:0:
296,197,211072,1,2,0:2:0:0:
290,149,211179,1,2,3:2:0:0:
263,110,211286,1,2,3:2:0:0:
221,87,211393,1,2,0:2:0:0:
204,132,211501,69,4,3:1:0:0:
198,149,211608,1,2,0:2:0:0:
188,164,211715,1,2,0:2:0:0:
176,177,211822,1,2,0:2:0:0:
161,186,211929,1,2,1:2:0:0:
144,192,212036,1,2,1:2:0:0:
126,194,212143,1,2,3:2:0:0:
108,193,212251,1,2,1:2:0:0:
94,221,212358,5,10,1:2:0:0:
77,215,212465,1,2,0:2:0:0:
62,205,212572,1,2,0:2:0:0:
49,193,212679,1,2,0:2:0:0:
40,178,212786,1,2,0:2:0:0:
34,161,212893,1,2,0:2:0:0:
31,143,213000,1,2,3:2:0:0:
33,125,213108,1,2,0:2:0:0:
5,110,213216,69,4,3:1:0:0:
11,93,213323,1,2,1:2:0:0:
21,78,213430,1,2,1:2:0:0:
33,65,213537,1,2,1:2:0:0:
48,56,213644,1,2,1:2:0:0:
65,50,213751,1,2,1:2:0:0:
83,47,213858,1,2,3:2:0:0:
101,49,213966,1,2,1:2:0:0:
115,21,214073,5,10,1:2:0:0:
132,27,214180,1,2,0:2:0:0:
147,37,214287,1,2,0:2:0:0:
160,49,214394,1,2,0:2:0:0:
169,64,214501,1,2,3:2:0:0:
175,81,214608,1,2,0:2:0:0:
178,99,214715,1,2,0:2:0:0:
176,117,214823,1,2,0:2:0:0:
204,132,214929,69,4,3:1:0:0:
198,161,215036,1,2,0:2:0:0:
199,191,215143,1,2,0:2:0:0:
205,220,215250,1,2,0:2:0:0:
217,248,215357,1,2,1:2:0:0:
233,273,215464,1,2,1:2:0:0:
255,294,215571,1,2,1:2:0:0:
280,310,215679,1,2,1:2:0:0:
307,322,215786,1,10,1:2:0:0:
337,328,215893,1,2,0:2:0:0:
367,328,216000,1,2,0:2:0:0:
396,322,216107,1,2,0:2:0:0:
424,311,216214,1,2,0:2:0:0:
449,295,216321,1,2,0:2:0:0:
470,274,216429,1,2,3:2:0:0:
487,249,216536,1,2,0:2:0:0:
452,272,216644,5,4,3:1:0:0:
408,291,216751,1,2,0:2:0:0:
363,272,216858,1,2,0:2:0:0:
345,228,216965,1,2,0:2:0:0:
363,184,217072,1,2,1:2:0:0:
408,165,217179,1,2,1:2:0:0:
452,184,217286,1,2,1:2:0:0:
470,228,217394,1,2,1:2:0:0:
434,284,217501,69,10,1:2:0:0:
386,287,217608,1,2,0:2:0:0:
350,254,217715,1,2,0:2:0:0:
348,206,217822,1,2,0:2:0:0:
380,171,217929,1,2,3:2:0:0:
429,168,218036,1,2,0:2:0:0:
464,201,218143,1,2,0:2:0:0:
466,249,218251,1,2,0:2:0:0:
413,290,218358,5,4,3:1:0:0:
367,276,218465,1,2,0:2:0:0:
345,233,218572,1,2,0:2:0:0:
359,187,218679,1,2,0:2:0:0:
401,165,218786,1,2,0:2:0:0:
448,179,218893,1,2,0:2:0:0:
469,222,219000,1,2,0:2:0:0:
455,268,219108,1,2,0:2:0:0:
391,288,219215,69,6,3:1:0:0:
353,259,219322,1,2,0:2:0:0:
347,211,219429,1,2,0:2:0:0:
376,173,219536,1,2,0:2:0:0:
423,167,219643,1,2,0:2:0:0:
462,196,219750,1,2,0:2:0:0:
467,244,219857,1,2,0:2:0:0:
438,282,219965,1,2,0:2:0:0:
407,227,220072,53,4,0:0:0:0:
289,44,221786,5,4,0:0:0:0:
108,159,223501,69,4,0:0:0:0:
223,340,225215,5,4,0:0:0:0:
316,226,226929,69,12,0:1:0:0:
256,192,227144,1,0,1:0:0:0:
249,205,227251,1,0,1:0:0:0:
247,220,227358,1,8,1:0:0:0:
247,235,227465,1,0,1:0:0:0:
251,249,227572,1,0,1:0:0:0:
373,155,227786,6,0,P|351:142|334:141,1,24,8|0,1:0|1:0,0:0:0:0:
227,213,228001,2,0,P|226:238|234:253,1,24,0|0,1:0|1:0,0:0:0:0:
349,311,228215,2,0,P|371:298|380:284,1,24,8|0,1:0|1:0,0:0:0:0:
316,226,228429,1,0,1:0:0:0:
196,226,228643,69,8,0:1:0:0:
256,192,228858,1,0,1:0:0:0:
248,179,228965,1,0,1:0:0:0:
236,170,229072,1,8,1:0:0:0:
223,162,229179,1,0,1:0:0:0:
209,159,229286,1,0,1:0:0:0:
229,311,229500,6,0,P|251:299|261:285,1,24,8|0,1:0|1:0,0:0:0:0:
252,156,229715,2,0,P|231:143|214:142,1,24,0|0,1:0|1:0,0:0:0:0:
106,213,229929,2,0,P|106:238|114:253,1,24,8|0,1:0|1:0,0:0:0:0:
196,226,230143,1,0,1:0:0:0:
255,123,230357,69,8,0:1:0:0:
256,192,230572,1,0,1:0:0:0:
270,191,230679,1,0,1:0:0:0:
284,185,230786,1,8,1:0:0:0:
297,178,230893,1,0,1:0:0:0:
307,167,231000,1,0,1:0:0:0:
165,109,231214,6,0,P|165:134|172:149,1,24,8|0,1:0|1:0,0:0:0:0:
288,206,231429,2,0,P|310:194|319:180,1,24,0|0,1:0|1:0,0:0:0:0:
312,51,231643,2,0,P|290:39|273:38,1,24,8|0,1:0|1:0,0:0:0:0:
255,123,231857,1,0,1:0:0:0:
102,99,232072,69,10,0:2:0:0:
103,93,232179,1,2,0:2:0:0:
132,90,232286,1,2,0:2:0:0:
133,84,232393,1,2,0:2:0:0:
165,109,232501,1,10,0:2:0:0:
166,103,232608,1,2,0:2:0:0:
200,90,232715,1,2,0:2:0:0:
201,84,232822,1,2,0:2:0:0:
254,129,232929,1,10,0:2:0:0:
255,123,233036,1,2,0:2:0:0:
322,97,233143,1,2,0:2:0:0:
323,91,233250,1,2,0:2:0:0:
379,147,233358,6,0,L|374:193,1,41.9999987182618,2|2,1:0|1:0,1:0:0:0:
483,112,233572,2,0,L|488:66,1,41.9999987182618,2|2,1:0|1:0,1:0:0:0:
268,57,233786,53,4,3:1:0:0:
286,129,233894,1,0,3:0:0:0:
420,39,234108,1,0,3:0:0:0:
487,159,234322,53,0,3:0:0:0:
415,151,234430,1,8,3:1:0:0:
345,171,234537,1,0,3:0:0:0:
286,129,234644,1,0,3:0:0:0:
420,39,234858,1,0,3:0:0:0:
220,100,235072,53,8,3:1:0:0:
230,171,235179,1,0,3:0:0:0:
241,243,235287,1,0,3:0:0:0:
43,236,235501,53,0,3:0:0:0:
126,261,235608,1,0,3:0:0:0:
233,74,235822,1,0,3:0:0:0:
100,64,236036,53,0,3:0:0:0:
69,130,236144,1,8,3:1:0:0:
97,195,236251,1,0,3:0:0:0:
126,261,236358,1,0,3:0:0:0:
233,74,236572,1,0,3:0:0:0:
126,261,236786,53,8,3:1:0:0:
197,251,236893,1,0,3:0:0:0:
269,240,237001,1,0,3:0:0:0:
396,304,237215,53,0,3:0:0:0:
412,215,237322,1,0,3:0:0:0:
258,211,237536,1,0,3:0:0:0:
459,160,237751,53,0,3:0:0:0:
484,228,237858,1,8,3:1:0:0:
439,284,237965,1,0,3:0:0:0:
412,215,238072,1,0,3:0:0:0:
258,211,238286,1,0,3:0:0:0:
389,376,238501,53,8,3:1:0:0:
396,304,238608,1,0,3:0:0:0:
403,232,238715,1,0,3:0:0:0:
264,112,238929,53,0,3:0:0:0:
158,132,239036,1,0,3:0:0:0:
217,313,239251,1,0,3:0:0:0:
24,242,239465,53,0,3:0:0:0:
29,170,239572,1,8,3:1:0:0:
100,175,239679,1,0,3:0:0:0:
158,132,239786,1,0,3:0:0:0:
217,313,240001,1,0,3:0:0:0:
243,183,240215,53,8,3:1:0:0:
314,172,240322,1,0,3:0:0:0:
385,161,240429,1,0,3:0:0:0:
440,281,240644,37,0,3:0:0:0:
433,316,240751,1,0,3:0:0:0:
322,356,240965,1,0,3:0:0:0:
430,211,241179,53,0,3:0:0:0:
446,244,241286,1,8,3:1:0:0:
440,281,241394,1,0,3:0:0:0:
433,316,241501,1,0,3:0:0:0:
322,356,241715,1,0,3:0:0:0:
367,245,241929,53,8,3:1:0:0:
331,240,242036,1,0,3:0:0:0:
294,235,242144,1,0,3:0:0:0:
358,39,242358,53,0,3:0:0:0:
393,34,242465,1,0,3:0:0:0:
432,154,242679,1,0,3:0:0:0:
286,51,242894,53,0,3:0:0:0:
322,45,243001,1,8,3:1:0:0:
358,39,243108,1,0,3:0:0:0:
393,34,243215,1,0,3:0:0:0:
432,154,243429,1,0,3:0:0:0:
294,235,243644,53,8,3:1:0:0:
284,200,243751,1,0,3:0:0:0:
274,165,243858,1,0,3:0:0:0:
72,103,244072,53,0,3:0:0:0:
79,68,244179,1,0,3:0:0:0:
190,28,244393,1,0,3:0:0:0:
82,173,244607,53,0,3:0:0:0:
66,140,244714,1,8,3:1:0:0:
72,103,244822,1,0,3:0:0:0:
79,68,244929,1,0,3:0:0:0:
190,28,245143,1,0,3:0:0:0:
145,139,245357,53,8,3:1:0:0:
181,144,245464,1,0,3:0:0:0:
218,149,245572,1,0,3:0:0:0:
154,345,245786,53,0,3:0:0:0:
119,350,245893,1,0,3:0:0:0:
80,230,246107,1,0,3:0:0:0:
226,333,246322,53,0,3:0:0:0:
190,339,246429,1,8,3:1:0:0:
154,345,246536,1,0,3:0:0:0:
119,350,246643,1,0,3:0:0:0:
80,230,246857,1,0,3:0:0:0:
218,149,247072,53,8,3:1:0:0:
228,184,247179,1,0,3:0:0:0:
238,219,247286,1,0,3:0:0:0:
346,87,247501,54,0,B|264:128|264:51|171:88,1,168,4|0,3:1|0:0,0:0:0:0:
126,112,248358,1,2,0:2:0:0:
127,119,248465,1,2,0:2:0:0:
133,122,248572,1,2,0:2:0:0:
144,118,248680,1,2,0:2:0:0:
149,107,248787,1,2,0:2:0:0:
147,92,248894,1,2,0:2:0:0:
136,78,249001,1,2,0:2:0:0:
115,71,249108,1,2,0:2:0:0:
91,77,249215,1,2,0:2:0:0:
72,96,249322,1,2,0:2:0:0:
65,126,249430,1,2,0:2:0:0:
75,159,249537,1,2,0:2:0:0:
104,183,249644,1,2,0:2:0:0:
143,191,249751,1,2,0:2:0:0:
184,175,249858,1,2,0:2:0:0:
213,140,249965,1,2,0:2:0:0:
220,91,250072,1,2,0:2:0:0:
200,42,250180,1,2,0:2:0:0:
156,9,250287,1,2,0:2:0:0:
99,3,250394,1,2,0:2:0:0:
44,26,250501,1,2,0:2:0:0:
8,77,250608,1,2,0:2:0:0:
1,141,250715,1,2,0:2:0:0:
28,204,250822,1,2,0:2:0:0:
85,245,250930,5,4,0:2:0:0:
309,363,252644,5,4,0:2:0:0:
427,139,254358,5,4,0:2:0:0:
203,21,256072,69,4,0:2:0:0:
161,79,256500,1,2,0:0:0:0:
203,137,256929,1,2,0:0:0:0:
272,115,257357,1,2,0:0:0:0:
272,43,257786,5,4,0:0:0:0:
299,108,258429,2,0,L|334:198,1,90,2|4,0:0|0:0,0:0:0:0:
272,43,259501,69,4,0:0:0:0:
299,108,260144,2,0,L|334:198,1,90,2|4,0:0|0:0,0:0:0:0:
272,43,261215,5,4,0:0:0:0:
272,43,262929,69,4,0:0:0:0:
299,108,263251,1,4,0:0:0:0:
326,173,263572,1,4,0:0:0:0:
298,237,263786,6,0,L|234:250,1,48
353,280,264215,2,0,L|400:270,1,48
193,330,264644,6,0,L|181:209,1,107.999996704102,12|0,3:1|0:0,0:0:0:0:
114,184,265072,1,8,3:1:0:0:
98,171,265179,1,0,1:0:0:0:
50,107,265286,1,0,1:0:0:0:
34,94,265393,1,0,1:0:0:0:
79,27,265501,6,0,P|129:9|176:29,1,71.9999978027344,8|0,0:2|3:0,0:0:0:0:
212,143,265929,2,0,L|169:151,1,35.9999989013672,10|0,0:1|0:0,0:0:0:0:
321,73,266144,2,0,L|278:65,1,35.9999989013672,2|0,0:1|0:0,0:0:0:0:
426,19,266358,37,8,3:1:0:0:
446,47,266465,1,0,1:0:0:0:
450,83,266572,1,0,1:0:0:0:
433,114,266679,1,0,1:0:0:0:
353,145,266786,1,8,3:1:0:0:
332,173,266893,1,0,1:0:0:0:
328,209,267000,1,0,1:0:0:0:
345,240,267107,1,0,1:0:0:0:
434,258,267215,6,0,L|341:273,1,71.9999978027344,8|0,0:2|1:0,0:0:0:0:
297,383,267644,2,0,P|304:365|303:341,1,35.9999989013672,10|0,0:1|0:0,0:0:0:0:
203,248,267858,2,0,P|196:230|197:206,1,35.9999989013672,2|0,0:1|0:0,0:0:0:0:
226,94,268072,5,8,3:1:0:0:
243,109,268179,1,0,1:0:0:0:
267,113,268286,1,0,1:0:0:0:
289,106,268393,1,0,1:0:0:0:
302,32,268501,1,8,3:1:0:0:
335,19,268608,1,0,1:0:0:0:
370,26,268715,1,0,1:0:0:0:
396,50,268822,1,0,1:0:0:0:
384,125,268929,5,8,1:2:0:0:
350,137,269036,1,0,1:0:0:0:
315,130,269143,1,0,3:0:0:0:
289,106,269250,1,0,1:0:0:0:
302,32,269358,1,8,1:0:0:0:
284,16,269465,1,0,1:0:0:0:
260,12,269572,1,0,1:0:0:0:
238,19,269679,1,0,1:0:0:0:
226,94,269786,38,0,L|184:105,3,35.9999989013672,8|0|0|0,3:1|1:0|1:0|1:0,0:0:0:0:
137,172,270215,2,0,L|95:161,3,35.9999989013672,8|0|0|0,3:1|1:0|1:0|1:0,0:0:0:0:
0,137,270644,5,8,0:0:0:0:
83,54,270858,1,0,3:0:0:0:
0,137,271072,2,0,L|43:148,1,35.9999989013672,0|0,0:0|3:0,0:0:0:0:
137,172,271286,1,0,3:0:0:0:
319,54,271501,6,0,L|331:175,1,107.999996704102,12|0,3:1|0:0,0:0:0:0:
398,200,271929,1,8,3:1:0:0:
414,213,272036,1,0,1:0:0:0:
462,277,272143,1,0,1:0:0:0:
478,290,272250,1,0,1:0:0:0:
433,357,272358,6,0,P|383:375|336:355,1,71.9999978027344,8|0,0:2|3:0,0:0:0:0:
300,241,272786,2,0,L|343:233,1,35.9999989013672,10|0,0:1|0:0,0:0:0:0:
191,311,273001,2,0,L|234:319,1,35.9999989013672,2|0,0:1|0:0,0:0:0:0:
86,365,273215,37,8,3:1:0:0:
66,337,273322,1,0,1:0:0:0:
62,301,273429,1,0,1:0:0:0:
79,270,273536,1,0,1:0:0:0:
159,239,273643,1,8,3:1:0:0:
180,211,273750,1,0,1:0:0:0:
184,175,273857,1,0,1:0:0:0:
167,144,273964,1,0,1:0:0:0:
78,126,274072,6,0,L|171:111,1,71.9999978027344,8|0,0:2|1:0,0:0:0:0:
215,1,274501,2,0,P|208:19|209:43,1,35.9999989013672,10|0,0:1|0:0,0:0:0:0:
309,136,274715,2,0,P|316:154|315:178,1,35.9999989013672,2|0,0:1|0:0,0:0:0:0:
292,296,274929,5,8,3:1:0:0:
159,239,275144,1,8,3:1:0:0:
208,188,275358,1,8,3:1:0:0:
341,245,275573,1,8,3:1:0:0:
292,296,275786,5,8,3:1:0:0:
247,277,275893,1,0,3:0:0:0:
203,258,276000,1,8,3:1:0:0:
159,239,276107,1,0,3:0:0:0:
208,188,276215,1,8,3:1:0:0:
252,207,276322,1,0,3:0:0:0:
296,226,276429,1,8,3:1:0:0:
341,245,276536,1,0,3:0:0:0:
410,226,276644,5,12,0:1:0:0:
410,226,276751,1,0,0:1:0:0:
487,156,276858,5,12,0:1:0:0:
487,156,276965,1,0,0:1:0:0:
383,167,277072,69,12,0:1:0:0:
383,167,277179,1,8,0:1:0:0:
473,218,277287,5,12,0:3:0:0:
473,218,277394,1,0,0:3:0:0:
430,123,277501,69,12,0:1:0:0:
292,68,278358,22,2,P|271:55|149:164,1,215.999993408203,6|8,0:1|0:0,0:1:0:0:
145,149,280072,6,0,L|157:230,1,72,4|0,3:1|0:0,0:0:0:0:
187,283,280501,1,0,1:0:0:0:
244,325,280608,1,0,1:0:0:0:
315,335,280715,1,0,1:0:0:0:
382,312,280822,1,0,1:0:0:0:
431,260,280929,2,0,P|464:253|512:270,2,72,4|4|4,3:1|0:1|0:1,0:0:0:0:
351,215,281786,6,0,L|279:205,1,72,4|0,3:0|0:0,0:0:0:0:
221,291,282215,1,2,1:2:0:0:
214,244,282323,1,2,1:2:0:0:
208,199,282430,1,2,1:2:0:0:
201,154,282537,1,2,1:2:0:0:
195,108,282644,1,10,1:2:0:0:
69,266,282858,6,0,L|141:256,1,72,4|0,3:0|0:0,0:0:0:0:
214,244,283286,2,0,L|250:239,1,24,4|0,3:0|0:0,0:0:0:0:
343,374,283501,69,2,1:2:0:0:
336,327,283608,1,2,1:2:0:0:
330,282,283715,1,2,1:2:0:0:
323,237,283822,1,2,1:2:0:0:
317,191,283929,1,2,1:2:0:0:
310,144,284037,1,2,1:2:0:0:
304,99,284144,1,2,1:2:0:0:
297,54,284251,1,2,1:2:0:0:
291,8,284358,1,4,3:1:0:0:
445,207,284786,1,4,3:1:0:0:
59,171,285215,6,0,L|131:161,1,72,4|0,3:0|0:0,0:0:0:0:
189,247,285644,1,2,1:2:0:0:
195,201,285752,1,2,1:2:0:0:
202,154,285859,1,2,1:2:0:0:
208,109,285966,1,2,1:2:0:0:
215,64,286073,1,10,1:2:0:0:
276,232,286286,70,0,L|348:222,1,72,4|0,3:0|0:0,0:0:0:0:
421,210,286714,2,0,L|457:205,1,24,4|0,3:0|0:0,0:0:0:0:
169,384,286929,5,2,1:2:0:0:
176,337,287036,1,2,1:2:0:0:
182,292,287143,1,2,1:2:0:0:
189,247,287250,1,2,1:2:0:0:
195,201,287357,1,2,1:2:0:0:
202,154,287465,1,2,1:2:0:0:
208,109,287572,1,2,1:2:0:0:
215,64,287679,1,2,1:2:0:0:
221,18,287786,1,4,3:1:0:0:
67,198,288215,1,4,3:1:0:0:
479,177,288644,70,0,L|407:167,1,72,4|0,3:0|0:0,0:0:0:0:
323,70,289073,1,10,1:2:0:0:
330,115,289180,1,2,1:2:0:0:
336,160,289286,1,2,1:2:0:0:
343,207,289394,1,2,1:2:0:0:
349,253,289502,5,10,1:2:0:0:
319,277,289608,1,2,0:2:0:0:
284,291,289715,1,2,0:2:0:0:
246,289,289822,1,2,0:2:0:0:
213,270,289929,2,0,L|141:260,1,72,4|0,3:1|0:0,0:0:0:0:
57,232,290358,69,4,3:1:0:0:
33,190,290465,1,0,1:0:0:0:
26,143,290572,1,0,1:0:0:0:
36,96,290679,1,0,1:0:0:0:
62,56,290786,1,0,1:0:0:0:
100,28,290893,1,0,1:0:0:0:
146,16,291000,1,0,1:0:0:0:
194,21,291107,1,0,1:0:0:0:
237,42,291215,6,0,L|309:32,1,72,4|0,3:1|0:0,0:0:0:0:
399,49,291644,1,0,0:0:0:0:
402,54,291751,1,0,0:0:0:0:
405,59,291858,1,0,0:0:0:0:
408,64,291965,1,0,0:0:0:0:
411,69,292072,69,8,0:1:0:0:
411,69,292501,1,8,0:1:0:0:
411,69,292929,1,8,0:1:0:0:
411,69,293251,1,0,0:0:0:0:
416,75,293358,1,8,0:1:0:0:
256,368,293572,1,0,0:0:0:0:
100,69,293786,5,8,0:1:0:0:
100,69,294108,1,0,0:0:0:0:
96,75,294215,2,0,L|75:69,2,15,0|0|0,1:0|1:0|1:0,0:0:0:0:
160,113,294429,2,0,L|180:107,2,15,0|0|0,1:0|1:0|1:0,0:0:0:0:
92,144,294644,1,0,1:0:0:0:
95,173,294751,1,0,1:0:0:0:
99,203,294858,1,0,1:0:0:0:
168,234,295072,2,0,L|188:228,2,15,0|0|0,1:0|1:0|1:0,0:0:0:0:
108,278,295286,2,0,L|87:272,2,15,0|0|0,1:0|1:0|1:0,0:0:0:0:
175,308,295501,69,6,3:1:0:0:
196,328,295608,1,2,0:2:0:0:
222,343,295715,1,2,0:2:0:0:
251,352,295822,1,2,0:2:0:0:
281,353,295929,1,2,1:2:0:0:
310,348,296036,1,2,1:2:0:0:
337,336,296143,1,2,1:2:0:0:
361,318,296250,1,2,1:2:0:0:
380,295,296358,1,10,1:2:0:0:
393,268,296465,1,2,0:2:0:0:
400,239,296572,1,2,0:2:0:0:
399,209,296679,1,2,0:2:0:0:
392,180,296786,1,2,0:2:0:0:
378,153,296893,1,2,0:2:0:0:
358,131,297000,1,2,3:2:0:0:
334,114,297108,1,2,0:2:0:0:
286,119,297215,5,6,3:1:0:0:
303,164,297322,1,2,1:2:0:0:
344,188,297429,1,2,1:2:0:0:
392,180,297536,1,2,1:2:0:0:
422,143,297643,1,2,1:2:0:0:
422,95,297751,1,2,1:2:0:0:
392,58,297858,1,2,1:2:0:0:
344,50,297965,1,2,1:2:0:0:
303,74,298072,1,10,1:2:0:0:
286,119,298179,1,2,0:2:0:0:
252,152,298286,1,2,0:2:0:0:
208,172,298394,1,2,3:2:0:0:
160,175,298501,1,2,0:2:0:0:
115,161,298608,1,2,3:2:0:0:
77,132,298715,1,2,3:2:0:0:
52,91,298822,1,2,0:2:0:0:
42,44,298929,69,6,3:1:0:0:
37,61,299036,1,2,0:2:0:0:
33,79,299143,1,2,0:2:0:0:
29,96,299250,1,2,0:2:0:0:
25,114,299357,1,2,1:2:0:0:
21,131,299464,1,2,1:2:0:0:
17,149,299571,1,2,1:2:0:0:
13,166,299678,1,2,1:2:0:0:
72,196,299786,5,10,1:2:0:0:
77,179,299893,1,2,0:2:0:0:
81,161,300000,1,2,0:2:0:0:
85,144,300107,1,2,0:2:0:0:
89,126,300214,1,2,0:2:0:0:
93,109,300321,1,2,0:2:0:0:
97,91,300428,1,2,0:2:0:0:
101,74,300535,1,2,0:2:0:0:
167,73,300644,69,6,3:1:0:0:
162,90,300751,1,2,1:2:0:0:
158,108,300858,1,2,1:2:0:0:
154,125,300965,1,2,1:2:0:0:
150,143,301072,1,2,1:2:0:0:
146,160,301179,1,2,1:2:0:0:
142,178,301286,1,2,3:2:0:0:
138,195,301393,1,2,1:2:0:0:
197,225,301501,5,10,1:2:0:0:
202,208,301608,1,2,0:2:0:0:
206,190,301715,1,2,0:2:0:0:
210,173,301822,1,2,0:2:0:0:
214,155,301929,1,2,3:2:0:0:
218,138,302036,1,2,0:2:0:0:
222,120,302143,1,2,0:2:0:0:
226,103,302250,1,2,0:2:0:0:
285,73,302358,69,6,3:1:0:0:
312,61,302465,1,2,0:2:0:0:
341,54,302572,1,2,0:2:0:0:
371,54,302679,1,2,0:2:0:0:
401,60,302786,1,2,1:2:0:0:
428,72,302893,1,2,1:2:0:0:
453,89,303000,1,2,1:2:0:0:
473,111,303107,1,2,1:2:0:0:
489,136,303215,1,10,1:2:0:0:
500,164,303322,1,2,0:2:0:0:
504,194,303429,1,2,0:2:0:0:
503,223,303536,1,2,0:2:0:0:
496,252,303643,1,2,0:2:0:0:
482,279,303750,1,2,0:2:0:0:
464,303,303857,1,2,0:2:0:0:
441,323,303965,1,2,0:2:0:0:
404,352,304072,5,6,3:1:0:0:
369,318,304179,1,2,1:2:0:0:
327,296,304286,1,2,1:2:0:0:
280,287,304393,1,2,1:2:0:0:
232,292,304500,1,2,1:2:0:0:
188,310,304607,1,2,1:2:0:0:
148,336,304715,1,2,1:2:0:0:
101,339,304822,1,2,1:2:0:0:
58,320,304929,1,10,1:2:0:0:
29,282,305036,1,2,0:2:0:0:
23,235,305143,1,2,0:2:0:0:
40,190,305250,1,2,0:2:0:0:
76,160,305357,1,2,3:2:0:0:
123,150,305465,1,2,0:2:0:0:
168,164,305572,1,2,0:2:0:0:
206,194,305679,1,2,0:2:0:0:
254,180,305786,70,0,B|271:173|296:193|296:193|253:229|193:186,1,144,6|0,3:1|0:0,0:0:0:0:
322,231,306644,2,0,P|268:254|187:229,1,144,6|0,3:1|0:0,0:0:0:0:
189,148,307501,6,0,B|211:43|211:43|165:68,1,144,6|0,3:1|0:0,0:0:0:0:
121,118,308358,2,0,B|113:160|113:160|158:259,1,144,6|0,3:1|0:0,0:0:0:0:
222,214,309215,70,0,P|272:207|346:285,1,144,6|0,3:1|0:0,0:0:0:0:
405,316,310072,2,0,P|435:271|409:234,1,96,6|0,3:1|0:0,0:0:0:0:
342,163,310715,2,0,B|374:170|374:170|412:161|412:161|448:169,1,107.999996704102,6|2,3:1|0:3,0:0:0:0:
49,384,311786,5,2,3:0:0:0:
46,371,311893,1,0,3:0:0:0:
43,359,312000,1,0,3:0:0:0:
41,347,312107,1,0,3:0:0:0:
38,334,312214,1,2,3:0:0:0:
36,322,312321,1,0,3:0:0:0:
33,310,312428,1,0,3:0:0:0:
30,297,312535,1,0,3:0:0:0:
28,285,312643,37,4,3:1:0:0:
129,202,312858,1,0,1:0:0:0:
156,209,312965,1,0,1:0:0:0:
191,331,313179,1,8,1:2:0:0:
164,339,313286,1,0,1:0:0:0:
75,190,313501,5,4,3:1:0:0:
102,196,313608,1,0,1:0:0:0:
129,202,313715,1,0,1:0:0:0:
156,209,313822,1,0,1:0:0:0:
319,187,314036,1,0,1:0:0:0:
346,195,314144,1,0,1:0:0:0:
258,365,314358,69,0,0:0:0:0:
234,203,314572,1,0,1:0:0:0:
248,178,314679,1,0,1:0:0:0:
380,279,314894,1,0,1:0:0:0:
394,305,315001,1,8,1:2:0:0:
204,309,315215,6,0,L|216:276,1,30,4|0,3:1|1:0,1:0:0:0:
346,195,315429,2,0,L|333:162,1,30,0|0,1:0|1:0,1:0:0:0:
216,113,315644,2,0,L|221:99,2,15,0|0|0,1:0|1:0|1:0,1:0:0:0:
291,57,315858,2,0,L|285:43,2,15,0|0|0,1:0|1:0|1:0,1:0:0:0:
292,247,316072,69,4,3:1:0:0:
366,122,316286,1,0,1:0:0:0:
353,94,316394,1,0,1:0:0:0:
195,24,316608,1,0,1:0:0:0:
182,52,316716,1,8,1:2:0:0:
112,225,316929,5,4,3:1:0:0:
89,162,317036,1,0,0:0:0:0:
66,99,317144,1,0,0:0:0:0:
72,283,317358,1,0,0:0:0:0:
104,38,317572,70,2,B|188:3|185:75|281:37,1,179.999994506836,4|0,3:1|0:0,0:1:0:0:
278,38,319072,5,8,0:0:0:0:
340,72,319286,2,2,P|373:108|358:231,1,179.999994506836,4|0,3:1|0:0,0:1:0:0:
359,229,320572,70,0,P|390:232|400:237,1,35.9999989013672,0|8,0:0|0:0,0:0:0:0:
372,300,321001,2,2,P|335:362|299:292,1,179.999994506836,4|0,3:1|0:0,0:1:0:0:
296,295,322286,6,0,L|258:302,1,35.9999989013672,0|8,0:0|0:0,0:0:0:0:
220,369,322715,2,2,L|226:207,1,161.999995056153,4|0,3:1|0:0,0:1:0:0:
180,149,323786,2,0,L|173:127,7,20.9999993591309,0|0|0|0|0|0|0|0,3:0|3:0|3:0|3:0|3:0|3:0|3:0|3:0,3:0:0:0:
306,157,324215,2,4,L|313:179,7,20.9999993591309,4|4|4|4|4|4|4|4,3:0|3:0|3:0|3:0|3:0|3:0|3:0|3:0,3:0:0:0:
349,35,324644,37,6,3:1:0:0:
490,133,324858,1,0,1:0:0:0:
477,177,324965,1,0,1:0:0:0:
303,266,325179,1,0,1:0:0:0:
316,310,325286,1,0,1:0:0:0:
492,287,325501,5,8,0:0:0:0:
287,197,325715,1,0,0:0:0:0:
477,177,325929,2,0,L|420:167,1,41.9999987182618,2|0,1:0|0:0,0:0:0:0:
373,133,326144,2,0,L|316:123,1,41.9999987182618,2|0,0:1|0:0,0:0:0:0:
163,35,326358,69,6,3:1:0:0:
22,133,326572,1,0,1:0:0:0:
35,177,326679,1,0,1:0:0:0:
209,266,326893,1,0,1:0:0:0:
196,310,327000,1,0,1:0:0:0:
20,287,327215,5,8,0:0:0:0:
225,197,327429,1,0,0:0:0:0:
35,177,327643,2,0,L|92:167,1,41.9999987182618,2|0,1:0|0:0,0:0:0:0:
139,133,327858,2,0,L|196:123,1,41.9999987182618,2|0,0:1|0:0,0:0:0:0:
339,269,328072,70,0,P|355:241|350:196,1,62.9999980773926,6|0,3:1|0:0,0:0:0:0:
313,161,328501,1,0,0:0:0:0:
286,353,328715,5,0,0:0:0:0:
354,343,328822,1,0,0:0:0:0:
422,333,328929,1,8,0:0:0:0:
188,292,329144,69,0,0:0:0:0:
339,269,329358,1,0,1:0:0:0:
490,247,329572,1,0,1:0:0:0:
301,8,329786,5,6,3:1:0:0:
172,130,330001,2,0,P|150:135|124:132,1,41.9999987182618,2|0,1:0|0:0,0:0:0:0:
92,35,330322,2,0,P|107:51|117:75,1,41.9999987182618,2|0,1:0|0:0,0:0:0:0:
50,152,330644,2,0,P|56:130|72:109,1,41.9999987182618,2|0,1:0|0:0,0:0:0:0:
0,291,331072,1,2,1:2:0:0:
26,287,331179,1,0,1:0:0:0:
55,300,331286,1,0,1:0:0:0:
81,297,331393,1,0,1:0:0:0:
112,273,331501,69,6,3:1:0:0:
139,112,331715,1,0,1:0:0:0:
172,130,331822,1,0,1:0:0:0:
174,307,332036,1,0,1:0:0:0:
207,325,332143,1,0,1:0:0:0:
343,149,332358,5,8,0:0:0:0:
170,237,332572,1,0,3:0:0:0:
299,171,332786,1,0,0:0:0:0:
256,193,332893,1,0,0:0:0:0:
213,215,333000,1,0,0:0:0:0:
401,322,333215,70,0,P|416:301|421:261,1,62.9999980773926,6|0,3:1|0:0,0:0:0:0:
363,91,333644,2,0,P|348:112|343:152,1,62.9999980773926,6|0,3:1|0:0,0:0:0:0:
472,192,334072,5,10,0:0:0:0:
472,192,334286,1,2,0:0:0:0:
349,273,334501,2,0,L|304:263,1,41.9999987182618,2|0,1:0|1:0,0:0:0:0:
256,320,334715,2,0,L|211:310,1,41.9999987182618,2|0,1:0|1:0,0:0:0:0:
111,322,334929,70,0,P|96:301|91:261,1,62.9999980773926,6|0,3:1|0:0,0:0:0:0:
149,91,335358,2,0,P|164:112|169:152,1,62.9999980773926,6|0,3:1|0:0,0:0:0:0:
40,192,335786,5,10,0:0:0:0:
40,192,336000,1,2,0:0:0:0:
163,273,336215,2,0,L|207:263,1,41.9999987182618,2|0,1:0|1:0,0:0:0:0:
256,320,336429,2,0,L|300:310,1,41.9999987182618,2|0,1:0|1:0,0:0:0:0:
443,92,336644,69,4,3:1:0:0:
435,160,337072,1,0,0:0:0:0:
427,228,337501,1,0,0:0:0:0:
427,228,337929,2,0,L|451:239,2,15,0|0|0,1:0|1:0|1:0,0:0:0:0:
334,248,338144,2,0,L|320:241,2,15,0|0|0,1:0|1:0|1:0,0:0:0:0:
398,324,338358,5,6,3:1:0:0:
206,353,338572,1,0,1:0:0:0:
213,323,338679,1,0,1:0:0:0:
73,227,338894,1,0,1:0:0:0:
66,197,339001,1,0,1:0:0:0:
163,40,339215,69,8,0:0:0:0:
246,49,339322,1,0,0:0:0:0:
329,58,339429,1,0,0:0:0:0:
222,230,339644,2,0,L|180:240,1,41.9999987182618,2|0,1:0|0:0,0:0:0:0:
25,206,339858,2,0,L|65:196,1,41.9999987182618,2|0,0:1|0:0,0:0:0:0:
114,60,340072,5,6,3:1:0:0:
306,31,340286,1,0,1:0:0:0:
299,61,340393,1,0,1:0:0:0:
439,157,340608,1,0,1:0:0:0:
446,187,340715,1,0,1:0:0:0:
349,344,340929,69,8,0:0:0:0:
265,334,341036,1,0,0:0:0:0:
182,325,341143,1,0,0:0:0:0:
290,154,341358,2,0,L|332:144,1,41.9999987182618,2|0,1:0|0:0,0:0:0:0:
487,178,341572,2,0,L|446:187,1,41.9999987182618,2|0,0:1|0:0,0:0:0:0:
265,334,341786,6,0,L|275:270,1,62.9999980773926,2|0,3:1|0:0,0:0:0:0:
244,208,342215,2,0,L|253:145,1,62.9999980773926,2|0,3:1|0:0,0:0:0:0:
180,252,342644,1,8,1:2:0:0:
180,252,342751,1,0,1:0:0:0:
180,252,342858,1,0,1:0:0:0:
105,266,343072,1,0,1:0:0:0:
42,222,343286,1,0,0:0:0:0:
28,147,343501,1,6,3:1:0:0:
136,85,343715,70,0,L|89:80,1,41.9999987182618
201,59,344036,2,0,L|154:64,1,41.9999987182618
258,98,344358,2,0,L|211:93,1,41.9999987182618,2|0,1:0|0:0,0:0:0:0:
375,35,344786,1,2,1:2:0:0:
369,56,344894,1,0,1:0:0:0:
425,102,345001,1,0,1:0:0:0:
419,123,345109,1,0,1:0:0:0:
465,180,345215,5,6,3:1:0:0:
366,319,345429,1,0,1:0:0:0:
366,319,345536,1,0,1:0:0:0:
295,163,345751,1,0,1:0:0:0:
295,163,345858,1,0,1:0:0:0:
375,220,346072,69,8,0:0:0:0:
286,314,346286,1,0,3:0:0:0:
174,252,346501,1,0,1:0:0:0:
174,252,346608,1,0,0:0:0:0:
174,252,346715,1,0,0:0:0:0:
60,181,346929,6,0,P|53:148|62:118,1,62.9999980773926,6|0,3:1|0:0,0:0:0:0:
113,64,347358,2,0,P|146:57|176:66,1,62.9999980773926,6|0,3:1|0:0,0:0:0:0:
145,149,347786,1,8,0:0:0:0:
145,149,348001,1,0,0:0:0:0:
164,234,348215,2,0,L|213:238,1,41.9999987182618,2|0,0:1|0:0,0:0:0:0:
306,145,348429,2,0,L|348:150,1,41.9999987182618,2|0,0:1|0:0,0:0:0:0:
452,203,348644,70,0,P|459:236|450:266,1,62.9999980773926,6|0,3:1|0:0,0:0:0:0:
399,320,349073,2,0,P|366:327|336:318,1,62.9999980773926,6|0,3:1|0:0,0:0:0:0:
367,235,349501,1,8,0:0:0:0:
367,235,349716,1,0,0:0:0:0:
348,150,349930,2,0,L|298:145,1,41.9999987182618,2|0,0:1|0:0,0:0:0:0:
205,238,350144,2,0,L|164:234,1,41.9999987182618,2|0,0:1|0:0,0:0:0:0:
46,45,350358,5,4,3:1:0:0:
123,58,350786,1,0,0:0:0:0:
200,71,351215,1,8,0:0:0:0:
200,71,351429,2,0,L|209:113,1,41.9999987182618
277,261,351644,1,0,0:0:0:0:
214,251,351751,1,0,0:0:0:0:
203,189,351858,1,0,0:0:0:0:
259,160,351965,1,0,0:0:0:0:
304,204,352072,5,6,3:1:0:0:
145,235,352286,2,0,L|77:225,2,62.9999980773926,2|2|8,1:0|1:0|0:0,0:0:0:0:
214,251,353144,1,0,0:0:0:0:
218,145,353358,2,0,P|233:178|228:228,1,83.9999974365235,0|4,0:0|3:1,0:0:0:0:
367,149,354001,6,0,L|435:159,2,62.9999980773926,2|2|8,1:0|1:0|0:0,0:0:0:0:
298,133,354859,1,0,0:0:0:0:
294,239,355073,2,0,P|279:206|284:156,1,83.9999974365235,0|4,0:0|3:1,0:0:0:0:
282,159,355929,69,0,0:0:0:0:
282,159,356358,2,0,L|203:148,1,62.9999980773926
155,139,356786,1,0,0:0:0:0:
156,154,356893,1,0,0:0:0:0:
157,170,357000,1,0,0:0:0:0:
159,186,357107,1,0,0:0:0:0:
160,201,357214,5,0,3:0:0:0:
112,254,357429,2,0,P|105:273|108:327,2,62.9999980773926,2|2|8,1:0|1:0|0:0,0:0:0:0:
160,201,358501,1,0,0:0:0:0:
159,186,358608,1,0,0:0:0:0:
157,170,358715,1,0,0:0:0:0:
156,154,358822,1,0,0:0:0:0:
155,139,358929,70,0,P|214:118|269:135,1,120,4|8,3:1|0:0,0:0:0:0:
203,293,360644,2,0,P|182:234|199:179,1,120,4|8,3:1|0:0,0:0:0:0:
357,245,362358,2,0,P|298:266|243:249,1,120,4|8,3:1|0:0,0:0:0:0:
309,91,364072,2,0,P|330:150|313:205,1,120,4|8,3:1|0:0,0:0:0:0:
96,271,365786,6,0,P|81:229|112:158,1,120,0|8,3:0|0:0,0:0:0:0:
208,172,367501,2,0,P|223:214|192:285,1,120,0|8,3:0|0:0,0:0:0:0:
280,47,369215,70,0,L|410:31,1,120,0|8,3:0|0:0,0:0:0:0:
490,131,370929,2,0,L|360:147,1,120,0|8,3:0|0:0,0:0:0:0:
400,120,372644,6,0,B|271:83|314:204|178:160,1,240,0|0,3:0|3:0,0:0:0:0:
386,228,375215,1,8,0:0:0:0:
256,192,376072,12,0,378215,0:0:0:0:
392,98,378644,6,0,P|386:81|380:69,2,30,8|0|0,0:0|0:0|3:0,0:0:0:0:
381,183,379072,1,8,0:0:0:0:
381,183,379179,1,0,3:0:0:0:
381,183,379286,1,8,0:0:0:0:
381,183,379394,1,0,3:0:0:0:
