osu file format v14

[General]
AudioFilename: audio.mp3
AudioLeadIn: 0
PreviewTime: 120802
Countdown: 0
SampleSet: Soft
StackLeniency: 0.7
Mode: 0
LetterboxInBreaks: 0
WidescreenStoryboard: 0

[Editor]
DistanceSpacing: 0.9
BeatDivisor: 6
GridSize: 32
TimelineZoom: 1.900001

[Metadata]
Title:Hoshi o Atsumete
TitleUnicode:星をあつめて
Artist:fhana
ArtistUnicode:fhána
Creator:Sotarks
Version:Melancholy
Source:劇場版「SHIROBAKO」
Tags:movie anime japanese female vocalist white box p.a. works miyamori aoi yasuhara ema sakaki shizuka imai midori toudou misa miyai kaede Junichi Sato yuxuki waga kevin mitsunaga towana lantis 15th single irohas mugiwarasekai kowari akitoshi corinn -laura- deca
BeatmapID:2316964
BeatmapSetID:1108679

[Difficulty]
HPDrainRate:5.2
CircleSize:4
OverallDifficulty:8
ApproachRate:9
SliderMultiplier:2.22
SliderTickRate:1

[Events]
//Background and Video events
0,0,"bg.jpg",0,0
//Break Periods
//Storyboard Layer 0 (Background)
//Storyboard Layer 1 (Fail)
//Storyboard Layer 2 (Pass)
//Storyboard Layer 3 (Foreground)
//Storyboard Layer 4 (Overlay)
//Storyboard Sound Samples

[TimingPoints]
82,458.015267175573,4,2,22,52,1,0
540,491.803278688525,4,2,22,52,1,0
1031,480,4,2,22,52,1,0
1031,-108.695652173913,4,2,22,52,0,0
1991,472.44094488189,4,2,22,52,1,0
1991,-108.695652173913,4,2,22,52,0,0
2935,483.870967741935,4,2,22,52,1,0
2935,-108.695652173913,4,2,22,52,0,0
4386,476.190476190476,4,2,22,52,1,0
4386,-108.695652173913,4,2,22,52,0,0
5814,487.80487804878,4,2,22,52,1,0
5814,-108.695652173913,4,2,22,52,0,0
6301,480,4,2,22,52,1,0
6781,-89.2857142857143,4,2,22,52,0,0
7741,468.75,4,2,22,52,1,0
7741,-89.2857142857143,4,2,22,52,0,0
8053,535.714285714286,4,2,22,52,1,0
8053,-89.2857142857143,4,2,22,52,0,0
8231,476.190476190476,4,2,22,52,1,0
8231,-89.2857142857143,4,2,22,52,0,0
8707,481.927710843374,4,2,22,52,1,0
8707,-108.695652173913,4,2,22,52,0,0
9670,480,4,2,22,52,1,0
10150,468.75,4,2,22,52,1,0
10618,483.870967741935,4,2,22,52,1,0
10618,-98.0392156862745,4,2,22,52,0,0
11585,-98.0392156862745,4,2,22,72,0,0
12069,-70.4225352112676,4,2,22,72,0,0
12553,487.80487804878,4,2,22,62,1,0
12553,-98.0392156862745,4,2,22,62,0,0
13040,-98.0392156862745,4,2,22,62,0,0
13528,481.927710843374,4,2,22,62,1,0
13528,-98.0392156862745,4,2,22,62,0,0
14491,479.041916167665,4,2,22,62,1,0
14491,-98.0392156862745,4,2,22,62,0,0
15449,465.116279069767,4,2,22,62,1,0
15914,487.80487804878,4,2,22,62,1,0
16239,-98.0392156862745,4,2,22,62,0,0
16401,480,4,2,22,62,1,0
16401,-98.0392156862745,4,2,22,62,0,0
17361,491.803278688525,4,2,22,62,1,0
17361,-98.0392156862745,4,2,22,62,0,0
17852,476.190476190476,4,2,22,62,1,0
17852,-98.0392156862745,4,2,22,62,0,0
18328,476.190476190476,4,2,22,62,1,0
18328,-81.9672131147541,4,2,22,62,0,0
19121,-81.9672131147541,4,2,22,62,0,0
19756,480,4,2,22,62,1,0
19756,-81.9672131147541,4,2,22,62,0,0
20236,480,4,2,22,62,1,0
20236,-98.0392156862745,4,2,22,62,0,0
20716,-98.0392156862745,4,2,22,62,0,0
21196,-98.0392156862745,4,2,22,62,0,0
21676,478.08764940239,4,2,22,62,1,0
21676,-98.0392156862745,4,2,22,62,0,0
22154,478.08764940239,4,2,22,62,1,0
22154,-98.0392156862745,4,2,22,62,0,0
23588,483.870967741935,4,2,22,62,1,0
23588,-98.0392156862745,4,2,22,62,0,0
24071,-98.0392156862745,4,2,22,62,0,0
25039,480,4,2,22,62,1,0
25039,-98.0392156862745,4,2,22,62,0,0
25999,480,4,2,22,62,1,0
25999,-81.9672131147541,4,2,22,62,0,0
26799,495.867768595041,4,2,22,62,1,0
26799,-81.9672131147541,4,2,22,62,0,0
27460,461.538461538462,4,2,22,62,1,0
27921,480,4,2,22,62,1,0
27921,-98.0392156862745,4,2,22,62,0,0
29361,-98.0392156862745,4,2,22,62,0,0
29681,-98.0392156862745,4,2,22,62,0,0
29841,-98.0392156862745,4,2,22,62,0,0
31281,472.44094488189,4,2,22,62,1,0
31753,480,4,2,22,62,1,0
31753,-98.0392156862745,4,2,22,62,0,0
32713,491.803278688525,4,2,22,62,1,0
32713,-98.0392156862745,4,2,22,62,0,0
33204,458.015267175573,4,2,22,62,1,0
33509,491.803278688525,4,2,22,62,1,0
33509,-98.0392156862745,4,2,22,62,0,0
34000,444.444444444444,4,2,22,62,1,0
34148,495.867768595041,4,2,22,62,1,0
34643,461.538461538462,4,2,22,62,1,0
35412,517.241379310345,4,2,22,62,1,0
35584,487.80487804878,4,2,22,62,1,0
35584,-98.0392156862745,4,2,22,62,0,0
36071,476.190476190476,4,2,22,62,1,0
36071,-98.0392156862745,4,2,22,62,0,0
36547,480,4,2,22,62,1,0
36547,-98.0392156862745,4,2,22,62,0,0
37027,-98.0392156862745,4,2,22,62,0,0
37347,-98.0392156862745,4,2,22,62,0,0
37507,-98.0392156862745,4,2,22,62,0,0
37987,483.870967741935,4,2,22,62,1,0
37987,-98.0392156862745,4,2,22,62,0,0
38954,465.116279069767,4,2,22,62,1,0
39419,495.867768595041,4,2,22,62,1,0
39419,-98.0392156862745,4,2,22,62,0,0
39914,487.80487804878,4,2,22,62,1,0
39914,-98.0392156862745,4,2,22,62,0,0
40401,480,4,2,22,62,1,0
40401,-98.0392156862745,4,2,22,62,0,0
41361,480,4,2,22,62,1,0
41361,-98.0392156862745,4,2,22,62,0,0
42801,454.545454545455,4,2,22,62,1,0
43255,487.80487804878,4,2,22,62,1,0
43255,-98.0392156862745,4,2,22,62,0,0
43742,-98.0392156862745,4,2,22,62,0,0
44230,-98.0392156862745,4,2,22,62,0,0
45206,474.308300395257,4,2,22,72,1,0
47103,487.80487804878,4,2,22,82,1,0
47103,-75.7575757575758,4,2,22,82,0,0
48078,476.190476190476,4,2,22,82,1,0
48078,-75.7575757575758,4,2,22,82,0,0
48871,-75.7575757575758,4,2,22,82,0,0
49030,-75.7575757575758,4,2,22,82,0,0
49506,491.803278688525,4,2,22,82,1,0
49506,-75.7575757575758,4,2,22,82,0,0
49997,476.190476190476,4,2,22,82,1,0
49997,-75.7575757575758,4,2,22,82,0,0
51425,481.927710843374,4,2,22,82,1,0
51425,-75.7575757575758,4,2,22,82,0,0
51906,468.75,4,2,22,82,1,0
51906,-75.7575757575758,4,2,22,82,0,0
52374,487.80487804878,4,2,22,82,1,0
52699,-75.7575757575758,4,2,22,82,0,0
52861,-75.7575757575758,4,2,22,82,0,0
53349,479.041916167665,4,2,22,82,1,0
54147,-65.7894736842105,4,2,22,82,0,0
54786,483.870967741935,4,2,22,82,1,0
54786,-75.7575757575758,4,2,22,82,0,0
55753,491.803278688525,4,2,22,82,1,0
55753,-75.7575757575758,4,2,22,82,0,0
56244,480,4,2,22,82,1,0
56244,-75.7575757575758,4,2,22,82,0,0
57684,478.08764940239,4,2,22,82,1,0
57684,-75.7575757575758,4,2,22,82,0,0
58160,-75.7575757575758,4,2,22,82,0,0
58480,480,4,2,22,82,1,0
58480,-75.7575757575758,4,2,22,82,0,0
58640,480,4,2,22,82,1,0
58640,-75.7575757575758,4,2,22,82,0,0
59600,458.015267175573,4,2,22,82,1,0
59600,-75.7575757575758,4,2,22,82,0,0
60058,491.803278688525,4,2,22,82,1,0
60385,-75.7575757575758,4,2,22,82,0,0
61041,476.190476190476,4,2,22,82,1,0
61834,-75.7575757575758,4,2,22,82,0,0
62310,-75.7575757575758,4,2,22,82,0,0
62469,-75.7575757575758,4,2,22,82,0,0
62945,483.870967741935,4,2,22,82,1,0
62945,-75.7575757575758,4,2,22,82,0,0
64396,480,4,2,22,82,1,0
64396,-75.7575757575758,4,2,22,82,0,0
65356,-75.7575757575758,4,2,22,82,0,0
66316,-121.951219512195,4,2,22,82,0,0
66796,-75.7575757575758,4,2,22,82,0,0
67116,-121.951219512195,4,2,22,82,0,0
67756,-192.307692307692,4,2,22,82,0,0
67996,-192.307692307692,4,2,22,5,0,0
68076,-75.7575757575758,4,2,22,82,0,0
69196,483.870967741935,4,2,22,82,1,0
70002,-81.9672131147541,4,2,22,82,0,0
70163,-81.9672131147541,4,2,22,82,0,0
70647,468.75,4,2,22,82,1,0
70647,-81.9672131147541,4,2,22,82,0,0
71115,480,4,2,22,82,1,0
71115,-81.9672131147541,4,2,22,82,0,0
72555,487.80487804878,4,2,22,82,1,0
72555,-81.9672131147541,4,2,22,82,0,0
73042,480,4,2,22,82,1,0
73522,468.75,4,2,22,82,1,0
73990,481.927710843374,4,2,22,72,1,0
73990,-89.2857142857143,4,2,22,72,0,0
76399,480,4,2,22,72,1,0
76399,-89.2857142857143,4,2,22,72,0,0
77679,-90.0900900900901,4,2,22,72,0,0
77839,484.848484848485,4,2,22,72,1,0
77839,-89.2857142857143,4,2,22,72,0,0
78808,458.015267175573,4,2,22,72,1,0
79266,512.820512820513,4,2,22,72,1,0
79266,-89.2857142857143,4,2,22,72,0,0
79607,-75.7575757575758,4,2,22,72,0,0
79949,454.545454545455,4,2,22,72,1,0
80252,468.75,4,2,22,72,1,0
80720,480,4,2,22,72,1,0
81520,-89.2857142857143,4,2,22,72,0,0
81680,480,4,2,22,72,1,0
81680,-89.2857142857143,4,2,22,72,0,0
82640,487.80487804878,4,2,22,72,1,0
82640,-89.2857142857143,4,2,22,72,0,0
83127,480,4,2,22,72,1,0
83447,-89.2857142857143,4,2,22,72,0,0
83607,480,4,2,22,72,1,0
83607,-89.2857142857143,4,2,22,72,0,0
85367,-89.2857142857143,4,2,22,72,0,0
85847,-89.2857142857143,4,2,22,72,0,0
86007,468.75,4,2,22,72,1,0
86007,-89.2857142857143,4,2,22,72,0,0
86163,-89.2857142857143,4,2,22,72,0,0
86475,-89.2857142857143,4,2,22,72,0,0
86944,491.803278688525,4,2,22,72,1,0
87271,-87.719298245614,4,2,22,72,0,0
87435,480,4,2,22,72,1,0
87435,-89.2857142857143,4,2,22,72,0,0
88875,468.75,4,2,22,72,1,0
89343,535.714285714286,4,2,22,42,1,0
89343,-457.247370827618,4,2,22,42,0,0
89700,480,4,2,22,42,1,0
91140,474.308300395257,4,2,22,42,1,0
92246,480,4,2,22,42,1,0
93206,512.820512820513,4,2,22,42,1,0
93206,-450.856627592426,4,2,22,42,0,0
93547,480,4,2,22,42,1,0
94987,478.08764940239,4,2,22,42,1,0
95624,451.127819548872,4,2,22,42,1,0
95624,-238.095238095238,4,2,22,42,0,0
96075,491.803278688525,4,2,22,42,1,0
96075,-238.095238095238,4,2,22,42,0,0
96566,470.588235294118,4,2,22,42,1,0
96566,-238.095238095238,4,2,22,42,0,0
97036,476.190476190476,4,2,22,52,1,0
97036,-192.307692307692,4,2,22,52,0,0
98464,487.80487804878,4,2,22,52,1,0
98464,-192.307692307692,4,2,22,52,0,0
99439,474.308300395257,4,2,22,52,1,0
99439,-192.307692307692,4,2,22,52,0,0
100861,487.80487804878,4,2,22,52,1,0
100861,-192.307692307692,4,2,22,52,0,0
101836,480,4,2,22,52,1,0
101836,-192.307692307692,4,2,22,52,0,0
102156,-192.307692307692,4,2,22,52,0,0
102476,-192.307692307692,4,2,22,52,0,0
102796,474.308300395257,4,2,22,62,1,0
103586,444.444444444444,4,2,22,62,1,0
103882,504.201680672269,4,2,22,62,1,0
104218,480,4,2,22,62,1,0
104698,483.870967741935,4,2,22,52,1,0
104698,-161.290322580645,4,2,22,52,0,0
106633,480,4,2,22,52,1,0
106633,-161.290322580645,4,2,22,52,0,0
107113,-161.290322580645,4,2,22,52,0,0
108553,483.870967741935,4,2,22,52,1,0
108553,-161.290322580645,4,2,22,52,0,0
109036,480,4,2,22,52,1,0
109516,-161.290322580645,4,2,22,52,0,0
110476,476.190476190476,4,2,22,52,1,0
110476,-161.290322580645,4,2,22,52,0,0
111428,-98.0392156862745,4,2,22,52,0,0
112380,500.834724540902,4,2,22,52,1,0
112380,-192.307692307692,4,2,22,52,0,0
112713,-138.888888888889,4,2,22,52,0,0
113047,480,4,2,22,52,1,0
113047,-108.695652173913,4,2,22,52,0,0
113367,476.190476190476,4,2,22,62,1,0
113367,-161.290322580645,4,2,22,62,0,0
113684,-121.951219512195,4,2,22,62,0,0
114001,458.015267175573,4,2,22,62,1,0
114001,-98.0392156862745,4,2,22,62,0,0
114306,476.190476190476,4,2,22,62,1,0
114306,-138.888888888889,4,2,22,62,0,0
114623,-108.695652173913,4,2,22,62,0,0
114940,-89.2857142857143,4,2,22,62,0,0
115258,487.80487804878,4,2,22,62,1,0
115908,444.444444444444,4,2,22,62,1,0
116204,487.80487804878,4,2,22,62,1,0
116204,-98.0392156862745,4,2,22,62,0,0
116691,-98.0392156862745,4,2,22,62,0,0
117179,-98.0392156862745,4,2,22,62,0,0
118155,480,4,2,22,62,1,0
118155,-98.0392156862745,4,2,22,62,0,0
119115,472.44094488189,4,2,22,72,1,0
119587,491.803278688525,4,2,22,72,1,0
120078,-100,4,2,22,52,0,0
120406,468.75,4,2,22,52,1,0
120562,480,4,2,22,52,1,0
121042,480,4,2,22,72,1,0
121042,-312.5,4,2,22,72,0,0
122802,483.870967741935,4,2,22,72,1,0
122802,-312.5,4,2,22,72,0,0
124253,441.176470588235,4,2,22,72,1,0
124694,487.80487804878,4,2,22,72,1,0
124694,-312.5,4,2,22,72,0,0
124856,487.80487804878,4,2,22,72,1,0
126644,-192.307692307692,4,2,22,72,0,0
127295,468.75,4,2,22,72,1,0
127763,480,4,2,22,72,1,0
128083,517.241379310345,4,2,22,72,1,0
128083,-65.7894736842105,4,2,22,72,0,0
128427,410.958904109589,4,2,22,72,1,0
128563,480,4,2,22,72,1,0
128723,480,4,2,22,82,1,0
128723,-75.7575757575758,4,2,22,82,0,0
130483,483.870967741935,4,2,22,82,1,0
130483,-75.7575757575758,4,2,22,82,0,0
131127,478.08764940239,4,2,22,82,1,0
131127,-75.7575757575758,4,2,22,82,0,0
131286,-75.7575757575758,4,2,22,82,0,0
131764,-75.7575757575758,4,2,22,82,0,0
132242,-75.7575757575758,4,2,22,82,0,0
132401,-75.7575757575758,4,2,22,82,0,0
132561,-75.7575757575758,4,2,22,82,0,0
133039,483.870967741935,4,2,22,82,1,0
133039,-75.7575757575758,4,2,22,82,0,0
133522,476.190476190476,4,2,22,82,1,0
133522,-75.7575757575758,4,2,22,82,0,0
135426,491.803278688525,4,2,22,82,1,0
135752,-65.7894736842105,4,2,22,82,0,0
136409,480,4,2,22,82,1,0
136409,-75.7575757575758,4,2,22,82,0,0
138809,468.75,4,2,22,82,1,0
138809,-75.7575757575758,4,2,22,82,0,0
138965,-75.7575757575758,4,2,22,82,0,0
139277,-75.7575757575758,4,2,22,82,0,0
139746,483.870967741935,4,2,22,82,1,0
139746,-75.7575757575758,4,2,22,82,0,0
140068,-75.7575757575758,4,2,22,82,0,0
140229,-75.7575757575758,4,2,22,82,0,0
141681,465.116279069767,4,2,22,82,1,0
141991,491.803278688525,4,2,22,82,1,0
142154,487.80487804878,4,2,22,82,1,0
142641,476.190476190476,4,2,22,82,1,0
143434,-75.7575757575758,4,2,22,82,0,0
143831,-75.7575757575758,4,2,22,5,0,0
143910,-75.7575757575758,4,2,22,82,0,0
144545,483.870967741935,4,2,22,82,1,0
145028,-75.7575757575758,4,2,22,82,0,0
145512,-75.7575757575758,4,2,22,82,0,0
145996,483.870967741935,4,2,22,82,1,0
145996,-75.7575757575758,4,2,22,82,0,0
146963,-75.7575757575758,4,2,22,82,0,0
147448,468.75,4,2,22,82,1,0
147916,480,4,2,22,82,1,0
147916,-121.951219512195,4,2,22,82,0,0
148396,-75.7575757575758,4,2,22,82,0,0
148716,-121.951219512195,4,2,22,82,0,0
149356,-192.307692307692,4,2,22,82,0,0
149596,-192.307692307692,4,2,22,5,0,0
149676,-75.7575757575758,4,2,22,82,0,0
150316,466.926070038911,4,2,22,82,1,0
150782,480,4,2,22,82,1,0
151582,487.80487804878,4,2,22,82,1,0
151582,-81.9672131147541,4,2,22,82,0,0
151744,487.80487804878,4,2,22,82,1,0
152231,-81.9672131147541,4,2,22,82,0,0
152719,480,4,2,22,82,1,0
152719,-81.9672131147541,4,2,22,82,0,0
153519,-81.9672131147541,4,2,22,82,0,0
154159,487.80487804878,4,2,22,82,1,0
154159,-81.9672131147541,4,2,22,82,0,0
154646,476.190476190476,4,2,22,82,1,0
155598,483.870967741935,4,2,22,82,1,0
155598,-81.9672131147541,4,2,22,82,0,0
156565,480,4,2,22,82,1,0
156565,-81.9672131147541,4,2,22,82,0,0
157525,-81.9672131147541,4,2,22,82,0,0
158485,487.80487804878,4,2,22,82,1,0
158485,-81.9672131147541,4,2,22,82,0,0
158972,476.190476190476,4,2,22,82,1,0
159448,472.44094488189,4,2,22,82,1,0
159448,-81.9672131147541,4,2,22,82,0,0
160392,487.80487804878,4,2,22,82,1,0
160392,-81.9672131147541,4,2,22,82,0,0
160879,-81.9672131147541,4,2,22,82,0,0
161367,480,4,2,22,82,1,0
162167,485.82995951417,4,2,22,82,1,0
162814,472.44094488189,4,2,22,82,1,0
163286,476.190476190476,4,2,22,72,1,0
164238,487.80487804878,4,2,22,72,1,0
165213,478.08764940239,4,2,22,72,1,0
167603,487.80487804878,4,2,22,72,1,0
168090,472.44094488189,4,2,22,72,1,0
168562,480,4,2,22,72,1,0
169522,491.803278688525,4,2,22,72,1,0
170013,504.201680672269,4,2,22,72,1,0
170349,441.176470588235,4,2,22,72,1,0
170496,480,4,2,22,72,1,0
170496,-98.0392156862745,4,2,22,72,0,0
170976,480,4,2,22,72,1,0
170976,-833.333333333333,4,2,22,52,0,0
171056,-833.333333333333,4,2,22,22,0,0
176496,-833.333333333333,4,2,22,12,0,0

[Colours]
Combo1 : 20,100,220
Combo2 : 70,164,191
Combo3 : 6,255,255

[HitObjects]
68,84,1031,6,0,P|165:68|225:51,1,136.159995429199,6|0,1:2|0:2,0:2:0:0:
223,208,1511,2,0,P|148:182|120:181,1,68.0799977145997,2|0,1:2|3:2,0:2:0:0:
306,109,1831,1,0,3:2:0:0:
374,241,1991,2,0,P|386:312|391:391,1,136.159995429199,2|0,1:2|0:2,0:2:0:0:
305,269,2463,1,2,1:2:0:0:
417,174,2620,1,0,3:2:0:0:
306,109,2778,1,0,3:2:0:0:
456,246,2935,6,0,P|491:177|427:73,1,204.239993143799,6|0,1:2|1:2,0:2:0:0:
299,191,3580,1,0,3:2:0:0:
172,106,3741,1,0,3:2:0:0:
245,20,3902,2,0,P|256:100|260:130,2,68.0799977145997,2|0|0,1:2|3:2|3:2,0:2:0:0:
220,274,4386,2,0,P|224:240|229:206,2,68.0799977145997,2|0|0,1:2|3:2|3:2,0:2:0:0:
137,35,4862,6,0,P|82:85|98:219,1,204.239993143799,2|0,1:2|1:2,0:2:0:0:
242,300,5497,1,0,3:2:0:0:
163,154,5655,1,2,3:2:0:0:
163,154,5735,1,2,3:2:0:0:
163,154,5814,2,0,P|143:227|138:304,1,136.159995429199,2|0,1:2|0:2,0:2:0:0:
239,143,6301,1,2,1:2:0:0:
97,215,6461,1,0,3:2:0:0:
242,300,6621,1,0,3:2:0:0:
163,72,6781,6,0,P|225:37|292:56,1,124.320001517578,2|0,1:2|0:2,0:2:0:0:
288,27,7101,2,0,P|268:21|247:18,1,41.4400005058594,2|0,1:2|0:2,0:2:0:0:
163,72,7261,1,2,1:2:0:0:
437,3,7581,6,0,P|449:60|448:76,1,41.4400005058594,10|0,0:2|0:2,0:2:0:0:
448,42,7741,2,0,P|429:103|423:187,1,124.320001517578,0|0,1:2|0:2,0:2:0:0:
353,218,8053,2,0,P|341:158|337:142,1,41.4400005058594,10|0,0:2|0:2,0:2:0:0:
346,178,8231,2,0,P|356:106|365:78,2,82.8800010117188,2|0|0,1:2|3:2|3:2,0:2:0:0:
253,269,8707,6,0,P|179:304|103:268,1,136.159995429199,6|0,1:2|0:2,0:2:0:0:
70,191,9188,5,2,1:2:0:0:
36,267,9349,1,0,3:2:0:0:
36,267,9510,1,0,3:2:0:0:
153,128,9670,5,2,1:2:0:0:
190,222,9830,1,0,3:2:0:0:
190,222,9990,1,0,3:2:0:0:
327,60,10150,5,2,1:2:0:0:
283,225,10306,1,0,3:2:0:0:
283,225,10462,1,0,3:2:0:0:
434,29,10618,6,0,P|503:83|475:183,1,150.960000921387,2|0,1:2|0:2,0:2:0:0:
320,290,11101,1,2,1:2:0:0:
425,132,11263,1,0,3:2:0:0:
348,165,11424,1,0,3:2:0:0:
425,334,11585,5,10,1:2:0:0:
333,135,11747,1,2,1:2:0:0:
153,185,11908,1,2,1:2:0:0:
245,384,12069,2,0,P|251:280|264:169,1,210.159989417603,14|0,0:2|3:2,0:2:0:0:
241,97,12472,1,0,3:2:0:0:
241,97,12553,6,0,B|141:95|202:156|80:147,1,150.960000921387,6|0,1:2|0:2,0:2:0:0:
301,47,13040,1,10,0:2:0:0:
142,219,13366,1,2,1:2:0:0:
221,171,13528,2,0,P|225:245|234:335,1,150.960000921387,0|0,1:2|0:2,0:2:0:0:
165,122,14009,1,10,0:2:0:0:
404,277,14331,1,2,0:2:0:0:
476,196,14491,6,0,B|367:195|441:255|299:242,1,150.960000921387,0|0,1:2|0:2,0:2:0:0:
490,117,14970,1,10,0:2:0:0:
230,247,15290,1,2,1:2:0:0:
295,140,15449,1,0,1:2:0:0:
226,104,15604,1,2,3:2:0:0:
338,243,15759,1,0,3:2:0:0:
161,329,15914,1,10,0:2:0:0:
161,329,16239,2,0,P|119:317|108:319,1,37.7400002303467,2|0,0:2|0:2,0:2:0:0:
245,360,16401,6,0,P|326:336|416:329,1,150.960000921387,2|0,1:2|0:2,0:2:0:0:
512,279,16881,2,0,P|430:259|413:249,1,75.4800004606934,8|0,0:2|0:2,0:2:0:0:
360,178,17201,1,2,1:2:0:0:
420,46,17361,2,0,P|486:104|469:177,1,150.960000921387,2|0,1:2|0:2,0:2:0:0:
340,69,17852,2,0,B|252:69|293:129|189:123,1,150.960000921387,8|0,0:2|0:2,0:2:0:0:
57,24,18328,6,0,P|1:80|8:151,1,135.419994420868,14|0,0:2|0:2,0:2:0:0:
27,154,18645,2,0,P|22:103|28:85,1,45.1399981402894,2|0,1:2|0:2,0:2:0:0:
7,246,18804,1,10,0:2:0:0:
7,246,19121,6,0,P|111:221|169:292,1,180.559992561158,6|0,1:2|0:2,0:2:0:0:
176,124,19597,2,0,P|182:188|182:203,1,45.1399981402894,10|0,0:2|0:2,0:2:0:0:
174,352,19756,2,0,P|190:235|224:148,1,180.559992561158,10|8,0:2|0:3,0:2:0:0:
350,79,20236,6,0,P|253:96|224:7,1,150.960000921387,6|0,1:2|0:2,0:2:0:0:
375,163,20716,2,0,P|433:120|499:147,1,150.960000921387,8|0,0:2|1:2,0:2:0:0:
326,226,21196,2,0,P|253:189|225:200,1,75.4800004606934,2|0,1:2|0:2,0:2:0:0:
114,245,21516,1,0,1:2:0:0:
301,312,21676,2,0,P|403:252|443:278,1,150.960000921387,8|0,0:2|0:2,0:2:0:0:
68,179,22154,6,0,P|33:259|55:353,1,150.960000921387,2|0,1:2|0:2,0:2:0:0:
184,211,22632,2,0,P|188:136|155:69,1,150.960000921387,8|0,0:2|1:2,0:2:0:0:
265,167,23110,1,2,1:2:0:0:
95,109,23269,1,0,0:2:0:0:
250,24,23428,1,0,1:2:0:0:
114,188,23588,2,0,P|93:272|100:306,1,75.4800004606934,10|0,0:2|0:2,0:2:0:0:
23,70,23910,1,0,1:2:0:0:
205,112,24071,6,0,P|282:86|303:87,1,75.4800004606934,2|0,1:2|0:2,0:2:0:0:
163,31,24394,1,0,1:2:0:0:
306,179,24555,2,0,P|347:87|296:7,1,150.960000921387,10|0,0:2|1:2,0:2:0:0:
245,228,25039,2,0,P|254:312|279:339,1,75.4800004606934,2|0,1:2|0:2,0:2:0:0:
381,217,25359,1,0,1:2:0:0:
229,148,25519,2,0,B|137:143|190:206|67:195,1,150.960000921387,10|0,0:2|1:2,0:2:0:0:
287,34,25999,6,0,P|367:27|404:102,1,135.419994420868,14|0,0:2|0:2,0:2:0:0:
459,102,26319,2,0,P|440:157|424:175,1,45.1399981402894,0|0,1:2|0:2,0:2:0:0:
381,217,26479,1,10,0:2:0:0:
381,217,26799,6,0,P|301:194|41:175,1,315.979986982026,6|0,1:2|0:2,0:2:0:0:
38,193,27460,1,10,0:2:0:0:
235,103,27613,1,8,0:2:0:0:
69,23,27767,1,8,0:2:0:0:
199,259,27921,6,0,P|253:191|327:223,1,150.960000921387,2|0,1:2|0:2,0:2:0:0:
483,223,28401,2,0,P|411:227|374:165,1,150.960000921387,10|0,0:2|1:2,0:2:0:0:
311,21,28881,2,0,P|343:99|339:116,1,75.4800004606934,2|0,1:2|0:2,0:2:0:0:
247,161,29201,1,2,1:2:0:0:
172,65,29361,2,0,P|180:28|204:0,1,75.4800004606934,8|0,0:2|0:2,0:2:0:0:
321,188,29681,6,0,P|221:261|118:189,1,226.44000138208,6|0,1:2|1:2,0:2:0:0:
382,142,30321,2,0,P|457:171|465:184,1,75.4800004606934,10|0,0:2|0:2,0:2:0:0:
247,161,30641,1,0,1:2:0:0:
412,56,30801,1,2,1:2:0:0:
337,19,30961,1,0,1:2:0:0:
280,72,31121,1,0,1:2:0:0:
272,250,31281,1,10,0:2:0:0:
136,312,31438,1,8,0:2:0:0:
53,208,31595,1,8,0:3:0:0:
129,94,31753,6,0,P|140:171|118:259,1,150.960000921387,6|0,1:2|0:2,0:2:0:0:
207,376,32233,2,0,P|192:302|203:227,1,150.960000921387,10|0,0:2|1:2,0:2:0:0:
349,75,32713,2,0,P|266:108|242:106,1,75.4800004606934,2|0,1:2|0:2,0:2:0:0:
163,29,33040,1,2,1:2:0:0:
300,180,33204,1,8,0:2:0:0:
300,180,33509,6,0,B|157:155|232:260|65:238,1,226.44000138208,6|0,1:2|1:2,0:2:0:0:
37,170,34148,5,10,0:2:0:0:
9,261,34313,1,0,1:2:0:0:
37,170,34478,1,0,1:2:0:0:
140,304,34643,5,2,1:2:0:0:
96,114,34796,1,8,0:2:0:0:
140,304,34950,1,0,1:2:0:0:
241,89,35104,5,10,0:2:0:0:
89,234,35258,1,4,0:3:0:0:
294,307,35412,1,4,0:3:0:0:
207,197,35584,6,0,P|169:306|186:363,1,150.960000921387,6|0,1:2|0:2,0:2:0:0:
258,141,36071,2,0,P|261:66|226:0,1,150.960000921387,10|0,0:2|0:2,0:2:0:0:
320,182,36547,2,0,P|400:205|429:198,1,75.4800004606934,2|0,1:2|0:2,0:2:0:0:
192,86,36867,1,2,1:2:0:0:
101,223,37027,2,0,P|21:246|-8:239,1,75.4800004606934,8|0,0:2|0:2,0:2:0:0:
134,33,37347,6,0,P|263:35|299:127,1,226.44000138208,6|0,1:2|1:2,0:2:0:0:
243,297,37987,2,0,P|225:217|229:206,1,75.4800004606934,10|0,0:2|1:2,0:2:0:0:
326,137,38309,1,0,1:2:0:0:
160,241,38470,2,0,P|178:208|180:170,1,75.4800004606934,2|0,1:2|0:2,0:2:0:0:
120,57,38793,1,0,1:2:0:0:
77,269,38954,1,8,0:2:0:0:
236,121,39109,1,8,0:3:0:0:
269,332,39264,1,4,0:3:0:0:
269,332,39341,1,4,0:3:0:0:
269,332,39419,6,0,P|365:307|458:298,1,150.960000921387,6|0,1:2|0:2,0:2:0:0:
211,261,39914,1,8,0:2:0:0:
471,147,40239,1,0,1:2:0:0:
394,54,40401,2,0,P|377:140|371:162,1,75.4800004606934,2|0,1:2|0:2,0:2:0:0:
334,276,40721,1,2,1:2:0:0:
252,132,40881,2,0,P|258:169|266:206,1,75.4800004606934,8|0,0:2|0:2,0:2:0:0:
33,322,41201,6,0,P|49:212|163:228,1,226.44000138208,2|0,1:2|1:2,0:2:0:0:
272,291,41841,2,0,P|189:317|174:327,1,75.4800004606934,8|0,0:2|0:2,0:2:0:0:
355,165,42161,1,0,1:2:0:0:
448,264,42321,2,0,P|362:316|368:375,1,150.960000921387,2|0,1:2|0:2,0:2:0:0:
277,200,42801,1,8,0:2:0:0:
319,85,42952,1,8,0:3:0:0:
431,119,43104,1,8,0:3:0:0:
359,165,43255,6,0,B|251:153|314:217|183:201,1,150.960000921387,2|0,1:2|0:2,0:2:0:0:
35,125,43742,2,0,P|100:178|180:136,1,150.960000921387,8|0,0:2|0:2,0:2:0:0:
29,228,44230,2,0,P|1:308|-1:325,1,75.4800004606934,2|0,1:2|0:2,0:2:0:0:
84,377,44555,1,0,1:2:0:0:
115,106,44718,2,0,P|140:219|148:286,1,150.960000921387,8|0,0:2|0:2,0:2:0:0:
326,360,45206,5,10,0:2:0:0:
326,360,45285,1,8,0:2:0:0:
326,360,45364,1,8,0:2:0:0:
266,171,45522,1,8,0:2:0:0:
212,257,45680,1,8,0:3:0:0:
426,270,45838,1,4,0:3:0:0:
387,172,45996,1,4,0:3:0:0:
221,84,46154,5,10,0:2:0:0:
447,88,46312,1,8,0:2:0:0:
336,19,46470,1,8,0:2:0:0:
482,187,46628,1,4,0:3:0:0:
266,171,46787,1,4,0:3:0:0:
426,270,46945,1,4,0:3:0:0:
144,42,47103,6,0,P|49:118|85:200,1,195.359999403809,6|0,1:2|0:2,0:2:0:0:
395,366,47590,2,0,P|396:273|313:231,1,195.359999403809,10|0,0:2|1:2,0:2:0:0:
53,292,48078,2,0,P|151:328|162:336,1,97.6799997019043,2|0,1:2|0:2,0:2:0:0:
140,117,48395,1,0,1:2:0:0:
234,372,48554,1,10,0:2:0:0:
234,372,48871,6,0,P|248:184|272:64,1,293.039999105713,6|0,1:2|1:2,0:2:0:0:
69,203,49506,2,0,P|61:125|48:58,1,97.6799997019043,8|0,0:2|0:2,0:2:0:0:
212,258,49833,1,0,1:2:0:0:
103,31,49997,2,0,P|96:79|91:127,1,97.6799997019043,2|0,1:2|0:2,0:2:0:0:
279,209,50314,2,0,P|274:160|267:112,2,97.6799997019043,2|8|0,1:2|0:2|0:2,0:2:0:0:
31,303,50790,6,0,B|197:248|116:410|351:354,1,293.039999105713,2|0,1:2|1:2,0:2:0:0:
487,182,51425,2,0,P|359:210|277:267,1,195.359999403809,10|0,0:2|1:2,0:2:0:0:
160,30,51906,2,0,P|270:59|304:62,1,97.6799997019043,10|0,0:2|0:2,0:2:0:0:
47,222,52218,1,10,0:2:0:0:
274,129,52374,1,0,1:2:0:0:
274,129,52699,6,0,P|157:79|105:171,1,195.359999403809,6|8,1:2|0:2,0:2:0:0:
106,146,53105,1,8,0:2:0:0:
106,146,53187,1,8,0:2:0:0:
196,261,53349,1,10,0:2:0:0:
349,231,53508,1,4,0:3:0:0:
393,91,53668,1,4,0:3:0:0:
359,337,53828,1,10,0:2:0:0:
359,337,54147,6,0,B|243:321|311:387|182:373,1,168.71999794043,6|0,1:2|0:2,0:2:0:0:
169,360,54466,1,8,0:2:0:0:
428,255,54626,1,8,0:2:0:0:
142,38,54786,6,0,P|130:165|115:263,1,195.359999403809,6|0,1:2|0:2,0:2:0:0:
388,25,55269,2,0,P|400:152|415:250,1,195.359999403809,10|0,0:2|1:2,0:2:0:0:
174,116,55753,2,0,P|158:233|156:256,1,97.6799997019043,2|0,1:2|0:2,0:2:0:0:
204,334,56080,1,0,1:2:0:0:
352,118,56244,1,10,0:2:0:0:
352,118,56564,6,0,P|274:186|203:50,1,293.039999105713,2|0,1:2|1:2,0:2:0:0:
408,63,57204,2,0,P|439:176|435:198,1,97.6799997019043,8|0,0:2|0:2,0:2:0:0:
292,294,57524,1,0,1:2:0:0:
119,212,57684,2,0,P|224:177|239:176,1,97.6799997019043,2|0,1:2|0:2,0:2:0:0:
93,371,58002,2,0,P|45:359|2:338,2,97.6799997019043,2|8|0,1:2|0:2|0:2,0:2:0:0:
369,163,58480,6,0,P|455:219|392:395,1,293.039999105713,2|0,1:2|1:2,0:2:0:0:
198,251,59120,2,0,P|318:263|396:308,1,195.359999403809,10|0,0:2|1:2,0:2:0:0:
249,162,59600,1,10,0:2:0:0:
310,344,59752,1,8,0:2:0:0:
121,277,59905,1,10,0:2:0:0:
350,162,60058,1,8,0:2:0:0:
350,162,60385,5,2,1:2:0:0:
201,225,60549,1,8,0:2:0:0:
201,225,60631,1,8,0:2:0:0:
201,225,60713,1,8,0:2:0:0:
249,162,60877,1,0,1:2:0:0:
121,45,61041,1,8,0:2:0:0:
271,235,61199,1,4,0:3:0:0:
326,90,61358,1,4,0:3:0:0:
182,325,61517,1,10,0:2:0:0:
182,325,61834,2,0,P|87:258|102:353,1,244.199999254761,10|0,0:2|0:2,0:2:0:0:
163,350,62310,6,0,B|349:371|232:237|474:259,1,293.039999105713,6|0,1:2|1:2,0:2:0:0:
291,141,62945,1,10,0:2:0:0:
365,341,63106,1,0,0:2:0:0:
475,175,63267,1,0,1:2:0:0:
278,277,63428,2,0,P|160:244|132:248,1,97.6799997019043,2|0,1:2|0:2,0:2:0:0:
359,101,63751,1,2,1:2:0:0:
462,271,63912,2,0,P|414:281|371:303,1,97.6799997019043,8|0,0:2|0:2,0:2:0:0:
280,113,64235,6,0,P|340:19|440:40,1,195.359999403809,2|0,1:2|0:2,0:2:0:0:
308,199,64716,1,2,1:2:0:0:
181,72,64876,2,0,P|206:182|207:210,1,97.6799997019043,8|0,0:2|0:2,0:2:0:0:
103,326,65196,1,10,0:2:0:0:
398,234,65356,2,0,P|282:240|187:296,1,195.359999403809,0|0,1:2|1:2,0:2:0:0:
194,302,65756,1,0,1:2:0:0:
194,302,65836,1,10,0:2:0:0:
274,116,65996,1,8,0:2:0:0:
467,163,66156,1,8,0:2:0:0:
387,349,66316,6,0,P|331:313|253:321,1,121.360001851807,6|0,1:2|0:2,0:2:0:0:
85,267,66796,6,0,P|188:237|202:222,1,97.6799997019043,10|0,0:2|0:2,0:2:0:0:
322,135,67116,6,0,P|253:117|224:119,1,60.6800009259034,6|0,1:2|0:2,0:2:0:0:
345,214,67436,1,8,0:2:0:0:
292,41,67596,1,8,0:2:0:0:
345,214,67756,6,0,P|336:263|335:287,1,57.7199996477051,10|0,1:3|0:2,0:2:0:0:
360,341,68076,6,0,P|293:359|261:245,1,195.359999403809,6|0,1:2|1:2,0:2:0:0:
266,232,68476,1,0,1:0:0:0:
266,232,68556,1,8,0:2:0:0:
176,234,68716,1,4,0:3:0:0:
308,135,68876,5,4,0:3:0:0:
219,141,69036,1,4,0:3:0:0:
436,316,69196,5,10,0:2:0:0:
120,38,69518,5,10,0:2:0:0:
120,38,70002,6,0,B|80:198|212:131|133:320,1,270.839988841736,6|0,1:2|0:2,0:2:0:0:
34,361,70647,2,0,P|149:315|195:358,1,180.559992561158,8|0,0:2|1:2,0:2:0:0:
337,221,71115,2,0,P|241:258|223:258,1,90.2799962805788,2|0,1:2|0:2,0:2:0:0:
398,325,71435,1,2,1:2:0:0:
266,149,71595,1,8,0:2:0:0:
266,149,71915,6,0,P|186:217|87:157,1,180.559992561158,6|0,1:2|0:2,0:2:0:0:
320,63,72395,1,2,1:2:0:0:
324,224,72555,2,0,P|356:130|364:113,2,90.2799962805788,8|0|2,0:2|1:2|0:2,0:2:0:0:
192,117,73042,1,8,0:2:0:0:
408,200,73202,1,4,0:3:0:0:
252,286,73362,1,6,0:3:0:0:
453,131,73522,5,8,0:2:0:0:
286,44,73678,1,8,0:2:0:0:
434,271,73834,1,8,0:2:0:0:
405,72,73990,6,0,P|296:73|236:153,1,165.760002023438,6|0,1:2|0:2,0:2:0:0:
36,64,74471,2,0,P|103:108|184:99,1,165.760002023438,8|0,0:2|1:2,0:2:0:0:
76,195,74953,2,0,P|-9:226|-20:238,1,82.8800010117188,0|0,1:2|0:2,0:2:0:0:
161,283,75275,1,2,1:2:0:0:
250,141,75435,2,0,P|290:146|327:165,1,82.8800010117188,10|0,0:2|0:2,0:2:0:0:
497,223,75757,6,0,P|388:226|304:354,1,248.640003035156,6|0,1:2|1:2,0:2:0:0:
86,224,76399,2,0,P|199:238|251:279,1,165.760002023438,8|0,0:2|1:2,0:2:0:0:
338,100,76879,2,0,P|267:146|207:148,1,82.8800010117188,0|0,1:2|0:2,0:2:0:0:
131,81,77199,1,0,1:2:0:0:
243,218,77359,2,0,P|263:309|263:336,1,82.8800010117188,8|0,0:2|0:2,0:2:0:0:
52,95,77679,6,0,P|110:5|232:36,1,248.640003035156,6|0,1:2|1:2,0:2:0:0:
173,256,78323,1,10,0:2:0:0:
287,125,78647,5,0,1:2:0:0:
316,214,78808,1,8,0:2:0:0:
475,62,79113,5,10,0:2:0:0:
426,262,79266,1,2,1:2:0:0:
306,40,79607,6,0,B|196:22|240:121|117:97,1,195.359999403809,6|0,1:2|1:2,0:2:0:0:
97,81,80024,1,8,0:2:0:0:
97,81,80100,1,0,1:0:0:0:
280,110,80252,1,8,0:3:0:0:
150,156,80408,1,4,0:3:0:0:
249,213,80564,1,4,0:3:0:0:
60,184,80720,1,10,0:2:0:0:
449,53,81040,1,6,1:2:0:0:
449,53,81520,6,0,P|392:140|385:296,1,248.640003035156,6|0,1:2|1:2,0:2:0:0:
306,106,82160,2,0,P|228:74|212:77,1,82.8800010117188,10|0,0:2|0:2,0:2:0:0:
152,106,82480,1,0,1:2:0:0:
146,282,82640,2,0,P|224:314|240:311,1,82.8800010117188,2|0,1:2|0:2,0:2:0:0:
300,282,82965,1,0,1:2:0:0:
64,197,83127,1,10,0:2:0:0:
64,197,83447,6,0,P|208:192|335:161,1,248.640003035156,6|0,1:2|1:2,0:2:0:0:
467,73,84087,2,0,P|438:157|436:187,1,82.8800010117188,10|0,0:2|0:2,0:2:0:0:
454,234,84407,1,0,1:2:0:0:
281,91,84567,2,0,P|310:175|312:205,1,82.8800010117188,2|0,1:2|0:2,0:2:0:0:
294,252,84887,1,0,1:2:0:0:
137,90,85047,1,10,0:2:0:0:
137,90,85367,6,0,P|43:144|70:292,1,248.640003035156,6|0,1:2|1:2,0:2:0:0:
207,320,86007,2,0,P|122:340|108:347,1,82.8800010117188,10|0,0:2|0:2,0:2:0:0:
63,378,86319,1,0,1:2:0:0:
362,240,86475,2,0,P|277:220|263:213,1,82.8800010117188,10|0,0:2|0:2,0:2:0:0:
220,184,86788,1,10,0:2:0:0:
465,327,86944,1,6,1:2:0:0:
465,327,87271,6,0,B|424:183|532:243|475:44,1,248.640003035156,6|4,1:2|0:3,0:2:0:0:
281,44,87915,1,10,0:2:0:0:
421,133,88075,1,0,1:2:0:0:
254,195,88235,1,0,1:2:0:0:
351,14,88395,5,10,0:0:0:0:
305,250,88555,1,8,0:0:0:0:
210,10,88715,1,8,0:0:0:0:
338,130,88875,5,10,0:3:0:0:
199,117,89031,1,4,0:3:0:0:
281,44,89187,1,4,0:3:0:0:
281,44,89343,6,0,P|195:56|119:88,1,162.800004968262,6|0,1:2|0:2,0:2:0:0:
125,84,92246,5,2,0:2:0:0:
125,84,93206,6,0,P|80:79|38:179,1,170.940005216675,2|2,0:2|0:2,0:2:0:0:
37,177,95624,6,0,L|85:166,2,31.0799990515137,0|0|0,3:2|3:2|3:2,3:2:0:0:
170,215,96075,2,0,L|122:204,2,31.0799990515137,0|0|0,3:2|3:2|3:2,3:2:0:0:
284,165,96566,2,0,L|254:172,2,31.0799990515137,0|0|0,3:2|3:2|3:2,3:2:0:0:
362,86,97036,6,0,P|410:106|464:113,1,76.9599995302735,6|0,1:2|0:2,0:2:0:0:
223,69,97512,2,0,P|257:53|295:43,1,76.9599995302735,0|0,3:2|0:2,0:2:0:0:
99,96,97988,2,0,P|136:105|171:121,1,76.9599995302735,0|0,1:2|0:2,0:2:0:0:
7,58,98464,2,0,P|51:42|58:38,1,38.4799997651367,0|0,3:2|0:2,0:2:0:0:
34,131,98789,6,0,P|54:200|61:275,1,115.43999929541,2|0,1:2|0:2,0:2:0:0:
114,310,99439,2,0,P|39:328|13:347,1,76.9599995302735,0|0,3:2|0:2,0:2:0:0:
228,268,99913,2,0,P|153:250|127:231,1,76.9599995302735,2|0,1:2|0:2,0:2:0:0:
364,291,100387,2,0,P|289:309|263:328,1,76.9599995302735,0|0,3:2|0:2,0:2:0:0:
436,333,100861,2,0,P|482:283|420:170,1,192.399998825684,2|0,1:2|0:2,0:2:0:0:
358,134,101836,6,0,L|368:178,1,38.4799997651367,2|0,1:2|0:2,0:2:0:0:
282,107,102156,2,0,L|272:151,1,38.4799997651367,0|0,3:2|0:2,0:2:0:0:
192,129,102476,2,0,L|202:173,1,38.4799997651367,0|0,3:2|0:2,0:2:0:0:
410,69,102796,5,10,0:2:0:0:
109,179,103112,5,8,0:2:0:0:
443,284,103428,5,4,0:3:0:0:
323,207,103586,1,4,0:3:0:0:
472,137,103734,1,8,0:2:0:0:
318,302,103882,1,8,0:2:0:0:
247,156,104050,1,4,0:3:0:0:
411,204,104218,1,4,0:3:0:0:
242,306,104378,1,4,0:3:0:0:
317,115,104538,1,4,0:3:0:0:
317,115,104618,1,4,0:3:0:0:
317,115,104698,6,0,P|267:80|132:159,1,229.399990899048,6|0,1:2|0:2,0:2:0:0:
25,210,105665,2,0,P|93:215|160:260,1,137.639994539429,10|0,0:2|3:2,0:2:0:0:
179,319,106310,1,0,3:2:0:0:
252,349,106472,1,0,3:2:0:0:
317,308,106633,6,0,P|319:232|337:148,1,137.639994539429,2|0,1:2|3:2,0:2:0:0:
362,101,107273,1,0,3:2:0:0:
308,38,107433,1,0,3:2:0:0:
233,57,107593,2,0,P|217:112|214:143,1,45.8799981798097,10|0,0:2|3:2,0:2:0:0:
229,179,107913,1,0,3:2:0:0:
125,130,108073,2,0,P|130:152|138:173,1,45.8799981798097,0|0,3:2|3:2,0:2:0:0:
105,244,108393,1,0,3:2:0:0:
28,99,108553,6,0,P|14:186|-4:265,1,137.639994539429,6|0,1:2|3:2,0:2:0:0:
49,305,109196,1,0,3:2:0:0:
128,323,109356,1,0,3:2:0:0:
198,282,109516,2,0,P|252:261|346:255,1,137.639994539429,10|0,0:2|3:2,0:2:0:0:
404,293,110156,1,0,3:2:0:0:
472,257,110316,1,0,3:2:0:0:
479,180,110476,6,0,P|468:131|459:115,1,45.8799981798097,2|0,1:2|3:2,0:2:0:0:
429,61,110793,1,0,3:2:0:0:
289,140,110952,2,0,P|300:91|309:75,1,45.8799981798097,0|0,3:2|3:2,0:2:0:0:
339,21,111268,1,0,3:2:0:0:
211,214,111428,6,0,P|189:128|139:47,1,150.960000921387,10|0,0:2|0:2,0:2:0:0:
302,222,111904,1,8,0:2:0:0:
101,132,112063,1,8,0:2:0:0:
258,14,112222,1,8,0:2:0:0:
24,245,112380,6,0,P|65:247|91:255,1,57.7199996477051,6|0,1:2|0:2,0:2:0:0:
136,304,112713,2,0,P|195:279|224:274,1,79.9200019511719,8|0,1:3|0:2,0:2:0:0:
264,336,113047,2,0,P|306:279|351:264,1,102.1199965719,4|0,1:3|0:2,0:2:0:0:
414,213,113367,6,0,P|378:192|350:184,1,68.8199972697145,6|0,1:2|0:2,0:2:0:0:
280,199,113684,2,0,P|244:145|213:116,1,91.020001388855,8|0,1:3|0:2,0:2:0:0:
150,156,114001,2,0,P|145:85|111:37,1,113.22000069104,4|0,1:3|0:2,0:2:0:0:
45,17,114306,6,0,P|29:58|22:106,1,79.9200019511719,6|0,1:2|0:2,0:2:0:0:
65,168,114623,2,0,P|79:205|89:272,1,102.1199965719,4|0,2:3|0:3,0:3:0:0:
36,358,114940,2,0,P|74:322|168:323,1,124.320001517578,4|0,2:3|0:2,0:2:0:0:
219,352,115258,5,10,0:3:0:0:
315,40,115583,5,8,0:3:0:0:
219,352,115908,5,8,0:2:0:0:
273,172,116056,1,8,0:2:0:0:
401,308,116204,2,0,P|316:272|214:280,1,150.960000921387,6|0,1:2|0:2,0:2:0:0:
62,248,116691,2,0,P|136:242|204:210,1,150.960000921387,8|0,0:2|1:2,0:2:0:0:
339,92,117179,2,0,P|255:71|225:51,1,75.4800004606934,2|0,1:2|0:2,0:2:0:0:
352,181,117504,1,0,1:2:0:0:
163,28,117667,2,0,P|237:99|219:173,1,150.960000921387,8|0,0:2|0:2,0:2:0:0:
141,324,118155,6,0,P|210:258|291:283,1,150.960000921387,6|0,1:2|0:2,0:2:0:0:
432,346,118635,1,8,0:2:0:0:
374,187,118795,1,8,0:2:0:0:
293,308,118955,1,4,0:3:0:0:
345,115,119115,1,10,0:2:0:0:
220,188,119272,1,4,0:3:0:0:
419,113,119429,1,4,0:3:0:0:
216,54,119587,1,8,0:3:0:0:
449,189,119750,1,8,0:3:0:0:
176,286,119914,1,8,0:3:0:0:
288,166,120078,5,8,0:2:0:0:
288,166,120160,1,8,0:2:0:0:
288,166,120242,1,8,0:2:0:0:
266,241,120406,1,8,0:2:0:0:
181,211,120562,1,8,0:2:0:0:
210,143,120722,1,8,0:2:0:0:
239,193,120882,5,8,0:2:0:0:
239,193,120962,1,8,0:2:0:0:
239,193,121042,2,0,B|186:180|121:200|181:270|91:277|48:263,1,213.12,6|0,1:2|0:2,0:2:0:0:
55,265,122802,6,0,P|109:263|215:306,1,165.76,6|0,1:2|0:2,0:2:0:0:
211,303,124400,1,8,0:3:0:0:
140,21,124694,6,0,P|72:24|36:111,1,165.76,6|8,1:2|0:3,0:2:0:0:
293,17,126156,1,4,0:3:0:0:
293,17,126644,6,0,P|314:77|311:128,1,115.43999929541,6|8,1:2|0:2,0:2:0:0:
209,232,127295,1,8,0:2:0:0:
306,202,127451,1,4,0:3:0:0:
209,232,127607,1,4,0:3:0:0:
440,248,127763,1,8,0:2:0:0:
440,248,128083,6,0,B|324:248|408:304|253:306,1,168.71999794043,4|0,1:2|0:2,0:2:0:0:
252,294,128427,1,8,0:2:0:0:
462,227,128563,1,8,0:2:0:0:
174,296,128723,6,0,P|131:208|204:128,1,195.359999403809,6|0,1:2|0:2,0:2:0:0:
502,94,129203,2,0,P|391:162|297:156,1,195.359999403809,10|0,0:2|1:2,0:2:0:0:
204,28,129683,2,0,P|266:51|311:58,1,97.6799997019043,2|0,1:2|0:2,0:2:0:0:
208,207,130003,1,0,1:2:0:0:
92,111,130163,2,0,P|44:121|0:139,1,97.6799997019043,10|0,0:2|0:2,0:2:0:0:
175,298,130483,6,0,B|342:310|248:180|477:205,1,293.039999105713,2|0,1:2|1:2,0:2:0:0:
272,42,131127,2,0,P|255:146|247:176,1,97.6799997019043,8|0,0:2|0:2,0:2:0:0:
372,297,131445,1,0,1:2:0:0:
448,80,131605,2,0,P|465:184|473:214,1,97.6799997019043,2|0,1:2|0:2,0:2:0:0:
285,320,131923,2,0,P|295:272|301:224,2,97.6799997019043,2|8|0,1:2|0:2|0:2,0:2:0:0:
143,34,132401,6,0,P|40:69|41:252,1,293.039999105713,6|0,1:2|1:2,0:2:0:0:
259,85,133039,2,0,P|377:57|465:65,1,195.359999403809,10|0,0:2|1:2,0:2:0:0:
260,215,133522,2,0,P|160:182|144:182,1,97.6799997019043,10|0,0:2|0:2,0:2:0:0:
385,133,133839,1,10,0:2:0:0:
299,322,133998,1,0,1:2:0:0:
299,322,134315,6,0,B|189:313|220:387|95:360,1,195.359999403809,6|8,1:2|0:2,0:2:0:0:
90,347,134712,1,8,0:2:0:0:
90,347,134791,1,8,0:2:0:0:
252,229,134950,1,8,0:2:0:0:
112,112,135109,1,4,0:3:0:0:
173,232,135268,1,6,0:3:0:0:
287,0,135426,1,10,0:2:0:0:
287,0,135753,6,0,P|298:134|309:215,1,168.71999794043,14|0,0:2|0:2,0:2:0:0:
280,202,136081,1,8,0:2:0:0:
439,58,136245,1,8,0:2:0:0:
325,277,136409,6,0,P|196:255|179:128,1,195.359999403809,6|0,1:2|0:2,0:2:0:0:
0,156,136889,2,0,P|129:134|146:7,1,195.359999403809,10|0,0:2|1:2,0:2:0:0:
50,293,137369,2,0,P|153:329|167:343,1,97.6799997019043,2|0,1:2|0:2,0:2:0:0:
250,183,137689,1,0,1:2:0:0:
363,361,137849,1,10,0:2:0:0:
363,361,138169,6,0,P|445:284|370:117,1,293.039999105713,6|2,1:2|1:2,0:2:0:0:
103,68,138809,2,0,P|202:33|219:20,1,97.6799997019043,8|0,0:2|0:2,0:2:0:0:
165,285,139121,1,2,1:2:0:0:
312,83,139277,2,0,P|347:191|347:209,1,97.6799997019043,0|0,1:2|0:2,0:2:0:0:
220,340,139590,1,2,1:2:0:0:
418,251,139746,2,0,P|517:286|534:299,1,97.6799997019043,8|0,0:2|0:2,0:2:0:0:
175,186,140068,6,0,P|49:236|45:380,1,293.039999105713,6|0,1:2|1:2,0:2:0:0:
298,238,140713,2,0,P|282:125|282:34,1,195.359999403809,10|0,0:2|1:2,0:2:0:0:
143,261,141197,1,14,0:2:0:0:
362,135,141358,1,8,0:2:0:0:
159,32,141520,1,10,0:2:0:0:
405,214,141681,1,10,0:2:0:0:
405,214,141991,5,6,0:3:0:0:
263,137,142154,1,12,0:2:0:0:
263,137,142235,1,8,0:2:0:0:
263,137,142316,1,8,0:2:0:0:
343,291,142479,1,4,0:3:0:0:
479,117,142641,1,8,0:2:0:0:
256,212,142799,1,8,0:2:0:0:
462,324,142958,1,6,0:3:0:0:
354,79,143117,1,14,0:2:0:0:
354,79,143434,2,0,P|265:133|215:17,1,244.199999254761,14|0,0:2|0:2,0:2:0:0:
354,79,143910,6,0,B|314:241|419:189|385:377,1,293.039999105713,6|0,0:2|1:2,0:2:0:0:
437,134,144545,1,8,0:2:0:0:
299,328,144706,1,0,0:2:0:0:
434,167,144867,1,0,1:2:0:0:
233,286,145028,2,0,P|185:275|142:253,1,97.6799997019043,2|0,1:2|0:2,0:2:0:0:
303,115,145351,1,2,1:2:0:0:
465,280,145512,2,0,P|417:290|374:312,1,97.6799997019043,8|0,0:2|0:2,0:2:0:0:
226,120,145835,6,0,P|286:26|386:47,1,195.359999403809,2|0,1:2|0:2,0:2:0:0:
242,202,146318,1,2,1:2:0:0:
148,44,146479,1,8,0:2:0:0:
303,115,146641,1,0,1:2:0:0:
129,227,146802,1,10,0:2:0:0:
289,383,146963,2,0,P|306:267|323:181,1,195.359999403809,0|0,1:2|1:2,0:2:0:0:
188,329,147447,1,8,0:2:0:0:
422,243,147604,1,8,0:2:0:0:
216,118,147760,1,8,0:2:0:0:
435,155,147916,6,0,P|358:168|306:204,1,121.360001851807,6|0,1:2|0:2,0:2:0:0:
101,163,148396,2,0,P|202:199|215:210,1,97.6799997019043,8|0,0:2|0:2,0:2:0:0:
10,77,148716,2,0,P|79:36|150:32,1,121.360001851807,6|8,1:2|0:2,0:2:0:0:
11,237,149196,1,8,0:2:0:0:
71,336,149356,2,0,P|74:308|84:266,1,57.7199996477051,10|0,0:3|0:2,0:2:0:0:
99,156,149676,6,0,P|102:241|120:358,1,195.359999403809,6|8,1:2|0:2,0:2:0:0:
132,373,150076,1,8,0:2:0:0:
132,373,150156,1,8,0:2:0:0:
226,220,150316,1,8,0:2:0:0:
331,336,150471,1,4,0:3:0:0:
225,299,150627,1,4,0:3:0:0:
478,172,150782,1,10,0:2:0:0:
137,40,151102,1,10,0:2:0:0:
137,40,151582,6,0,B|290:10|209:142|425:114,1,270.839988841736,6|0,1:2|0:2,0:2:0:0:
139,155,152231,2,0,P|40:192|18:217,1,90.2799962805788,8|0,0:2|0:2,0:2:0:0:
259,292,152557,1,2,1:2:0:0:
266,107,152719,2,0,P|290:209|300:239,1,90.2799962805788,2|0,1:2|0:2,0:2:0:0:
169,71,153039,1,2,1:2:0:0:
375,150,153199,1,8,0:2:0:0:
375,150,153519,6,0,P|458:71|510:125,1,180.559992561158,6|8,1:2|0:2,0:2:0:0:
348,238,153999,1,10,0:2:0:0:
153,170,154159,2,0,P|265:183|323:215,1,180.559992561158,0|2,1:2|1:2,0:2:0:0:
209,95,154646,1,8,0:2:0:0:
49,149,154804,1,8,0:2:0:0:
107,315,154963,1,10,0:2:0:0:
267,261,155122,1,8,0:2:0:0:
326,107,155280,1,8,0:2:0:0:
486,78,155439,1,8,0:2:0:0:
486,78,155519,1,8,0:2:0:0:
486,78,155598,6,0,P|458:181|448:288,1,180.559992561158,6|0,1:2|0:2,0:2:0:0:
306,145,156081,2,0,P|334:248|344:355,1,180.559992561158,10|0,0:2|1:2,0:2:0:0:
198,71,156565,2,0,P|173:157|161:247,1,180.559992561158,2|0,1:2|0:2,0:2:0:0:
0,146,157045,2,0,P|24:232|36:322,1,180.559992561158,10|0,0:2|0:2,0:2:0:0:
122,45,157525,6,0,P|217:-13|293:146,1,270.839988841736,6|8,1:2|0:2,0:2:0:0:
312,87,158325,1,0,1:2:0:0:
274,159,158485,2,0,B|166:161|222:240|73:224,1,180.559992561158,2|0,1:2|0:2,0:2:0:0:
334,212,158972,1,10,0:2:0:0:
199,86,159130,1,8,0:2:0:0:
292,298,159289,1,8,0:2:0:0:
373,35,159448,6,0,P|473:108|419:243,1,270.839988841736,6|8,1:2|0:2,0:2:0:0:
435,232,160235,1,2,1:2:0:0:
369,139,160392,2,0,P|258:174|183:228,1,180.559992561158,2|0,1:2|0:2,0:2:0:0:
25,239,160879,2,0,P|136:274|211:328,1,180.559992561158,10|0,0:2|1:2,0:2:0:0:
63,170,161367,5,14,0:2:0:0:
342,293,161687,5,2,1:2:0:0:
138,372,161847,1,10,0:2:0:0:
303,29,162167,5,2,1:2:0:0:
460,292,162652,5,2,1:2:0:0:
242,182,162814,1,8,0:2:0:0:
434,62,162971,1,8,0:2:0:0:
342,293,163128,1,8,0:2:0:0:
404,188,163286,5,6,1:2:0:0:
404,188,163762,5,10,0:2:0:0:
380,263,163920,1,0,1:2:0:0:
380,263,164079,1,0,1:2:0:0:
273,231,164238,5,2,1:2:0:0:
297,306,164400,1,0,1:2:0:0:
297,306,164563,1,0,1:2:0:0:
200,182,164725,5,10,0:2:0:0:
176,257,164888,1,0,1:2:0:0:
176,257,165051,1,0,1:2:0:0:
76,112,165213,5,6,1:2:0:0:
76,112,165691,5,10,0:2:0:0:
143,63,165850,1,0,1:2:0:0:
70,36,166009,1,0,1:2:0:0:
199,206,166169,5,2,1:2:0:0:
192,129,166328,1,0,1:2:0:0:
265,156,166487,1,0,1:2:0:0:
38,237,166647,5,10,0:2:0:0:
111,264,166806,1,0,1:2:0:0:
104,187,166965,1,0,1:2:0:0:
237,324,167125,5,6,1:2:0:0:
237,324,167603,5,10,0:2:0:0:
314,205,167765,1,0,1:2:0:0:
388,336,167928,1,0,1:2:0:0:
245,161,168090,5,2,1:2:0:0:
322,280,168247,1,0,1:2:0:0:
396,149,168404,1,0,1:2:0:0:
246,246,168562,5,10,0:2:0:0:
169,127,168722,1,0,1:2:0:0:
95,258,168882,1,0,1:2:0:0:
314,68,169042,5,2,1:2:0:0:
182,301,169202,1,2,1:2:0:0:
114,63,169362,1,2,1:2:0:0:
374,311,169522,5,10,0:2:0:0:
374,311,170013,5,10,0:2:0:0:
314,68,170181,1,2,1:2:0:0:
75,117,170349,1,2,1:2:0:0:
135,360,170496,6,0,P|154:275|149:203,1,150.960000921387,14|0,0:2|1:2,0:2:0:0:
132,196,170896,5,0,1:2:0:0:
132,196,170976,6,0,B|327:157|207:302|407:278,1,306.360007479492,6|0,1:2|0:2,0:2:0:0:
