osu file format v14

[General]
AudioFilename: audio.mp3
AudioLeadIn: 0
PreviewTime: 120802
Countdown: 0
SampleSet: Soft
StackLeniency: 0.2
Mode: 0
LetterboxInBreaks: 0
WidescreenStoryboard: 1

[Editor]
Bookmarks: 155592
DistanceSpacing: 1.1
BeatDivisor: 6
GridSize: 4
TimelineZoom: 1.500001

[Metadata]
Title:Hoshi o Atsumete
TitleUnicode:星をあつめて
Artist:fhana
ArtistUnicode:fhána
Creator:Sotarks
Version:Irohas' Insane
Source:劇場版「SHIROBAKO」
Tags:movie anime japanese female vocalist white box p.a. works miyamori aoi yasuhara ema sakaki shizuka imai midori toudou misa miyai kaede Junichi Sato yuxuki waga kevin mitsunaga towana lantis 15th single irohas mugiwarasekai kowari akitoshi corinn -laura- deca
BeatmapID:2335335
BeatmapSetID:1108679

[Difficulty]
HPDrainRate:5
CircleSize:4.3
OverallDifficulty:7
ApproachRate:9
SliderMultiplier:1.92
SliderTickRate:1

[Events]
//Background and Video events
0,0,"bg.jpg",0,0
//Break Periods
2,89543,95024
//Storyboard Layer 0 (Background)
//Storyboard Layer 1 (Fail)
//Storyboard Layer 2 (Pass)
//Storyboard Layer 3 (Foreground)
//Storyboard Layer 4 (Overlay)
//Storyboard Sound Samples

[TimingPoints]
82,458.015267175573,4,2,22,52,1,0
540,491.803278688525,4,2,22,52,1,0
1031,480,4,2,22,52,1,0
1031,-111.111111111111,4,2,22,52,0,0
1431,-111.111111111111,4,2,22,5,0,0
1511,-111.111111111111,4,2,22,52,0,0
1911,-111.111111111111,4,2,22,5,0,0
1991,472.44094488189,4,2,22,52,1,0
1991,-111.111111111111,4,2,22,52,0,0
2384,-111.111111111111,4,2,22,5,0,0
2463,-111.111111111111,4,2,22,52,0,0
2854,-111.111111111111,4,2,22,5,0,0
2935,483.870967741935,4,2,22,52,1,0
2935,-111.111111111111,4,2,22,52,0,0
4305,-111.111111111111,4,2,22,5,0,0
4386,476.190476190476,4,2,22,52,1,0
4386,-111.111111111111,4,2,22,52,0,0
4782,-111.111111111111,4,2,22,5,0,0
4862,-111.111111111111,4,2,22,52,0,0
5814,487.80487804878,4,2,22,52,1,0
5814,-111.111111111111,4,2,22,52,0,0
6220,-111.111111111111,4,2,22,5,0,0
6300,-200,4,2,22,52,0,0
6301,480,4,2,22,52,1,0
6301,-200,4,2,22,52,0,0
6700,-111.111111111111,4,2,22,5,0,0
6781,-76.9230769230769,4,2,22,52,0,0
7261,-83.3333333333333,4,2,22,52,0,0
7501,-66.6666666666667,4,2,22,5,0,0
7581,-82.3045267489712,4,2,22,52,0,0
7741,468.75,4,2,22,52,1,0
7975,-90.9090909090909,4,2,22,52,0,0
8053,535.714285714286,4,2,22,52,1,0
8053,-90.9090909090909,4,2,22,52,0,0
8142,-90.9090909090909,4,2,22,52,0,0
8231,476.190476190476,4,2,22,52,1,0
8231,-90.9090909090909,4,2,22,52,0,0
8707,481.927710843374,4,2,22,52,1,0
8707,-111.111111111111,4,2,22,52,0,0
9183,-111.111111111111,4,2,22,52,0,0
9670,480,4,2,22,52,1,0
9670,-111.111111111111,4,2,22,52,0,0
10150,468.75,4,2,22,52,1,0
10150,-111.111111111111,4,2,22,52,0,0
10618,483.870967741935,4,2,22,52,1,0
10618,-111.111111111111,4,2,22,52,0,0
11585,-100,4,2,22,72,0,0
12069,-81.9672131147541,4,2,22,72,0,0
12472,-81.9672131147541,4,2,22,5,0,0
12553,487.80487804878,4,2,22,62,1,0
12553,-111.111111111111,4,2,22,62,0,0
13040,-111.111111111111,4,2,22,62,0,0
13528,481.927710843374,4,2,22,62,1,0
13528,-111.111111111111,4,2,22,62,0,0
14491,479.041916167665,4,2,22,62,1,0
14491,-108.695652173913,4,2,22,62,0,0
14970,-111.111111111111,4,2,22,62,0,0
15449,465.116279069767,4,2,22,62,1,0
15604,-108.695652173913,4,2,22,62,0,0
15914,487.80487804878,4,2,22,62,1,0
15914,-111.111111111111,4,2,22,62,0,0
16401,480,4,2,22,62,1,0
16401,-111.111111111111,4,2,22,62,0,0
16881,-108.695652173913,4,2,22,62,0,0
17361,491.803278688525,4,2,22,62,1,0
17361,-108.695652173913,4,2,22,62,0,0
17852,476.190476190476,4,2,22,62,1,0
17852,-81.9672131147541,4,2,22,62,0,0
18328,476.190476190476,4,2,22,62,1,0
18328,-83.3333333333333,4,2,22,62,0,0
18804,-66.6666666666667,4,2,22,62,0,0
18883,-66.6666666666667,4,2,22,5,0,0
19121,-111.111111111111,4,2,22,62,0,0
19518,-111.111111111111,4,2,22,5,0,0
19597,-66.6666666666667,4,2,22,62,0,0
19677,-200,4,2,22,5,0,0
19756,480,4,2,22,62,1,0
19756,-200,4,2,22,62,0,0
20236,480,4,2,22,62,1,0
20236,-99.9999999999999,4,2,22,62,0,0
21676,478.08764940239,4,2,22,62,1,0
22154,478.08764940239,4,2,22,62,1,0
23588,483.870967741935,4,2,22,62,1,0
24071,-111.111111111111,4,2,22,62,0,0
24636,-111.111111111111,4,2,22,5,0,0
24878,-111.111111111111,4,2,22,62,0,0
24881,-111.111111111111,4,2,22,62,0,0
25039,480,4,2,22,62,1,0
25039,-111.111111111111,4,2,22,62,0,0
25599,-111.111111111111,4,2,22,5,0,0
25841,-111.111111111111,4,2,22,62,0,0
25999,480,4,2,22,62,1,0
25999,-83.3333333333333,4,2,22,62,0,0
26479,-58.8235294117647,4,2,22,62,0,0
26559,-58.8235294117647,4,2,22,5,0,0
26799,495.867768595041,4,2,22,62,1,0
26799,-90.9090909090909,4,2,22,62,0,0
27460,461.538461538462,4,2,22,62,1,0
27921,480,4,2,22,62,1,0
27921,-100,4,2,22,62,0,0
29121,-100,4,2,22,5,0,0
29201,-100,4,2,22,62,0,0
31281,472.44094488189,4,2,22,62,1,0
31753,480,4,2,22,62,1,0
32713,491.803278688525,4,2,22,62,1,0
32958,-100,4,2,22,5,0,0
33040,-90.9090909090909,4,2,22,62,0,0
33204,458.015267175573,4,2,22,62,1,0
33509,491.803278688525,4,2,22,62,1,0
34000,444.444444444444,4,2,22,62,1,0
34148,495.867768595041,4,2,22,62,1,0
34643,461.538461538462,4,2,22,62,1,0
35412,517.241379310345,4,2,22,62,1,0
35584,487.80487804878,4,2,22,62,1,0
36071,476.190476190476,4,2,22,62,1,0
36071,-90.9090909090909,4,2,22,62,0,0
36547,480,4,2,22,62,1,0
36547,-90.9090909090909,4,2,22,62,0,0
36787,-100,4,2,22,5,0,0
36867,-90.9090909090909,4,2,22,62,0,0
37987,483.870967741935,4,2,22,62,1,0
38954,465.116279069767,4,2,22,62,1,0
39419,495.867768595041,4,2,22,62,1,0
39914,487.80487804878,4,2,22,62,1,0
40401,480,4,2,22,62,1,0
41121,-100,4,2,22,5,0,0
41201,-111.111111111111,4,2,22,62,0,0
41361,480,4,2,22,62,1,0
41841,-100,4,2,22,62,0,0
42801,454.545454545455,4,2,22,62,1,0
42952,-142.857142857143,4,2,22,62,0,0
43255,487.80487804878,4,2,22,62,1,0
43255,-100,4,2,22,62,0,0
43661,-100,4,2,22,5,0,0
43742,-100,4,2,22,62,0,0
44147,-83.3333333333333,4,2,22,5,0,0
44230,-100,4,2,22,62,0,0
44718,-100,4,2,22,62,0,0
45206,474.308300395257,4,2,22,72,1,0
47103,487.80487804878,4,2,22,82,1,0
47103,-100,4,2,22,82,0,0
47509,-100,4,2,22,5,0,0
47590,-89.2857142857143,4,2,22,82,0,0
47997,-89.2857142857143,4,2,22,5,0,0
48078,476.190476190476,4,2,22,82,1,0
48078,-89.2857142857143,4,2,22,82,0,0
48554,-90.9090909090909,4,2,22,82,0,0
48633,-58.8235294117647,4,2,22,5,0,0
48871,-90.9090909090909,4,2,22,82,0,0
49030,-90.9090909090909,4,2,22,82,0,0
49268,-100,4,2,22,82,0,0
49347,-83.3333333333333,4,2,22,82,0,0
49506,491.803278688525,4,2,22,82,1,0
49506,-100,4,2,22,82,0,0
49997,476.190476190476,4,2,22,82,1,0
50235,-100,4,2,22,5,0,0
50314,-66.6666666666667,4,2,22,82,0,0
50393,-66.6666666666667,4,2,22,5,0,0
50473,-100,4,2,22,82,0,0
50711,-100,4,2,22,5,0,0
50790,-100,4,2,22,82,0,0
51425,481.927710843374,4,2,22,82,1,0
51906,468.75,4,2,22,82,1,0
52140,-100,4,2,22,5,0,0
52218,-100,4,2,22,82,0,0
52374,487.80487804878,4,2,22,82,1,0
53349,479.041916167665,4,2,22,82,1,0
54147,-65.7894736842105,4,2,22,82,0,0
54626,-66.6666666666667,4,2,22,82,0,0
54786,483.870967741935,4,2,22,82,1,0
55189,-100,4,2,22,5,0,0
55269,-100,4,2,22,82,0,0
55673,-100,4,2,22,5,0,0
55753,491.803278688525,4,2,22,82,1,0
55753,-100,4,2,22,82,0,0
56244,480,4,2,22,82,1,0
56324,-100,4,2,22,5,0,0
56564,-100,4,2,22,82,0,0
56964,-100,4,2,22,5,0,0
57044,-100,4,2,22,82,0,0
57124,-100,4,2,22,5,0,0
57204,-100,4,2,22,82,0,0
57684,478.08764940239,4,2,22,82,1,0
57922,-100,4,2,22,5,0,0
58001,-71.4285714285714,4,2,22,82,0,0
58080,-71.4285714285714,4,2,22,5,0,0
58160,-50,4,2,22,82,0,0
58240,-50,4,2,22,5,0,0
58480,480,4,2,22,82,1,0
58480,-100,4,2,22,82,0,0
58640,480,4,2,22,82,1,0
59120,-90.9090909090909,4,2,22,82,0,0
59600,458.015267175573,4,2,22,82,1,0
59600,-75.7575757575758,4,2,22,82,0,0
60058,491.803278688525,4,2,22,82,1,0
61041,476.190476190476,4,2,22,82,1,0
61517,-65.7894736842105,4,2,22,82,0,0
61596,-65.7894736842105,4,2,22,5,0,0
61834,-66.6666666666667,4,2,22,82,0,0
61914,-66.6666666666667,4,2,22,5,0,0
62310,-83.3333333333333,4,2,22,82,0,0
62945,483.870967741935,4,2,22,82,1,0
63670,-100,4,2,22,5,0,0
63751,-100,4,2,22,82,0,0
64235,-99.2063492063492,4,2,22,82,0,0
64396,480,4,2,22,82,1,0
66156,-71.4285714285714,4,2,22,82,0,0
66236,-71.4285714285714,4,2,22,5,0,0
66316,-100,4,2,22,82,0,0
66716,-100,4,2,22,82,0,0
66796,-250,4,2,22,82,0,0
67036,-250,4,2,22,82,0,0
67116,-65.7894736842105,4,2,22,82,0,0
67996,-75.7575757575758,4,2,22,5,0,0
68076,-75.7575757575758,4,2,22,82,0,0
69196,483.870967741935,4,2,22,82,1,0
69196,-75.7575757575758,4,2,22,82,0,0
69276,-75.7575757575758,4,2,22,5,0,0
69518,-70.4225352112676,4,2,22,82,0,0
69599,-70.4225352112676,4,2,22,5,0,0
70002,-100,4,2,22,82,0,0
70647,468.75,4,2,22,82,1,0
71037,-100,4,2,22,5,0,0
71115,480,4,2,22,82,1,0
71115,-100,4,2,22,82,0,0
71355,-100,4,2,22,5,0,0
71435,-100,4,2,22,82,0,0
71915,-100,4,2,22,82,0,0
72555,487.80487804878,4,2,22,82,1,0
73042,480,4,2,22,82,1,0
73522,468.75,4,2,22,82,1,0
73990,481.927710843374,4,2,22,72,1,0
73990,-81.9672131147541,4,2,22,72,0,0
74471,-100,4,2,22,72,0,0
75917,-81.9672131147541,4,2,22,72,0,0
76399,480,4,2,22,72,1,0
76399,-90.9090909090909,4,2,22,72,0,0
77359,-71.4285714285714,4,2,22,72,0,0
77599,-71.4285714285714,4,2,22,5,0,0
77679,-100.502512562814,4,2,22,72,0,0
77839,484.848484848485,4,2,22,72,1,0
77839,-100,4,2,22,72,0,0
78808,458.015267175573,4,2,22,72,1,0
79266,512.820512820513,4,2,22,72,1,0
79949,454.545454545455,4,2,22,72,1,0
80252,468.75,4,2,22,72,1,0
80720,480,4,2,22,72,1,0
80720,-70.4225352112676,4,2,22,72,0,0
80800,-70.4225352112676,4,2,22,5,0,0
81040,-333.333333333333,4,2,22,72,0,0
81440,-333.333333333333,4,2,22,5,0,0
81520,-100,4,2,22,72,0,0
81680,480,4,2,22,72,1,0
82558,-100,4,2,22,72,0,0
82640,487.80487804878,4,2,22,72,1,0
82640,-100,4,2,22,72,0,0
83127,480,4,2,22,72,1,0
83367,-100,4,2,22,5,0,0
83447,-100,4,2,22,72,0,0
83607,480,4,2,22,72,1,0
85287,-100,4,2,22,5,0,0
85367,-81.9672131147541,4,2,22,72,0,0
86007,468.75,4,2,22,72,1,0
86944,491.803278688525,4,2,22,72,1,0
87271,-74.4601638123604,4,2,22,72,0,0
87435,480,4,2,22,72,1,0
88875,468.75,4,2,22,72,1,0
89343,535.714285714286,4,2,22,42,1,0
89343,-100,4,2,22,42,0,0
89700,480,4,2,22,42,1,0
91140,474.308300395257,4,2,22,42,1,0
92246,480,4,2,22,42,1,0
93206,512.820512820513,4,2,22,42,1,0
93547,480,4,2,22,42,1,0
94987,478.08764940239,4,2,22,42,1,0
95624,451.127819548872,4,2,22,42,1,0
95624,-161.290322580645,4,2,22,42,0,0
96075,491.803278688525,4,2,22,42,1,0
96075,-161.290322580645,4,2,22,42,0,0
96566,470.588235294118,4,2,22,42,1,0
96566,-161.290322580645,4,2,22,42,0,0
97036,476.190476190476,4,2,22,52,1,0
97036,-125,4,2,22,52,0,0
98464,487.80487804878,4,2,22,52,1,0
98464,-125,4,2,22,52,0,0
99439,474.308300395257,4,2,22,52,1,0
99439,-125,4,2,22,52,0,0
100861,487.80487804878,4,2,22,52,1,0
100861,-125,4,2,22,52,0,0
101836,480,4,2,22,52,1,0
102156,-138.888888888889,4,2,22,52,0,0
102476,-138.888888888889,4,2,22,52,0,0
102796,474.308300395257,4,2,22,62,1,0
102796,-89.2857142857143,4,2,22,62,0,0
103586,444.444444444444,4,2,22,62,1,0
103882,504.201680672269,4,2,22,62,1,0
104218,480,4,2,22,62,1,0
104698,483.870967741935,4,2,22,52,1,0
104698,-142.857142857143,4,2,22,52,0,0
106149,-117.647058823529,4,2,22,52,0,0
106633,480,4,2,22,52,1,0
108553,483.870967741935,4,2,22,52,1,0
108553,-111.111111111111,4,2,22,52,0,0
109036,480,4,2,22,52,1,0
109036,-111.111111111111,4,2,22,52,0,0
110476,476.190476190476,4,2,22,52,1,0
110476,-100,4,2,22,52,0,0
111428,-81.9672131147541,4,2,22,52,0,0
112380,500.834724540902,4,2,22,52,1,0
113047,480,4,2,22,52,1,0
113367,476.190476190476,4,2,22,62,1,0
113367,-95.2380952380952,4,2,22,62,0,0
114001,458.015267175573,4,2,22,62,1,0
114001,-95.2380952380952,4,2,22,62,0,0
114306,476.190476190476,4,2,22,62,1,0
114306,-90.9090909090909,4,2,22,62,0,0
114940,-90.9090909090909,4,2,22,62,0,0
115258,487.80487804878,4,2,22,62,1,0
115258,-90.9090909090909,4,2,22,62,0,0
115583,-66.6666666666667,4,2,22,62,0,0
115664,-66.6666666666667,4,2,22,5,0,0
115908,444.444444444444,4,2,22,62,1,0
115908,-66.6666666666667,4,2,22,62,0,0
115982,-66.6666666666667,4,2,22,5,0,0
116056,-66.6666666666667,4,2,22,62,0,0
116130,-66.6666666666667,4,2,22,5,0,0
116204,487.80487804878,4,2,22,62,1,0
116204,-111.111111111111,4,2,22,62,0,0
116610,-75.7575757575758,4,2,22,62,0,0
116691,-111.111111111111,4,2,22,62,0,0
117179,-111.111111111111,4,2,22,62,0,0
118155,480,4,2,22,62,1,0
118155,-117.647058823529,4,2,22,62,0,0
119115,472.44094488189,4,2,22,72,1,0
119587,491.803278688525,4,2,22,72,1,0
120078,-100,4,2,22,52,0,0
120406,468.75,4,2,22,52,1,0
120562,480,4,2,22,52,1,0
120882,-83.3333333333333,4,2,22,52,0,0
121042,480,4,2,22,72,1,0
121042,-135.135135135135,4,2,22,72,0,0
122802,483.870967741935,4,2,22,72,1,0
122802,-135.135135135135,4,2,22,72,0,0
124253,441.176470588235,4,2,22,72,1,0
124253,-135.135135135135,4,2,22,72,0,0
124694,487.80487804878,4,2,22,72,1,0
124694,-135.135135135135,4,2,22,72,0,0
124856,487.80487804878,4,2,22,72,1,0
125831,-121.951219512195,4,2,22,72,0,0
126644,-135.135135135135,4,2,22,72,0,0
127295,468.75,4,2,22,72,1,0
127295,-135.135135135135,4,2,22,72,0,0
127763,480,4,2,22,72,1,0
128083,517.241379310345,4,2,22,72,1,0
128083,-76.3358778625954,4,2,22,72,0,0
128427,410.958904109589,4,2,22,72,1,0
128563,480,4,2,22,72,1,0
128723,480,4,2,22,82,1,0
128723,-100,4,2,22,82,0,0
129123,-100,4,2,22,5,0,0
129203,-100,4,2,22,82,0,0
129603,-100,4,2,22,5,0,0
129683,-100,4,2,22,82,0,0
129923,-100,4,2,22,5,0,0
130003,-100,4,2,22,82,0,0
130483,483.870967741935,4,2,22,82,1,0
130483,-100,4,2,22,82,0,0
130886,-100,4,2,22,5,0,0
130966,-83.3333333333333,4,2,22,82,0,0
131127,478.08764940239,4,2,22,82,1,0
131445,-83.3333333333333,4,2,22,82,0,0
131844,-100,4,2,22,82,0,0
131923,-83.3333333333333,4,2,22,82,0,0
132162,-83.3333333333333,4,2,22,5,0,0
132401,-100,4,2,22,82,0,0
133039,483.870967741935,4,2,22,82,1,0
133039,-100,4,2,22,82,0,0
133522,476.190476190476,4,2,22,82,1,0
133522,-55.5555555555556,4,2,22,82,0,0
133602,-55.5555555555556,4,2,22,5,0,0
133839,-55.5555555555556,4,2,22,82,0,0
133918,-55.5555555555556,4,2,22,5,0,0
133998,-100,4,2,22,82,0,0
134077,-100,4,2,22,5,0,0
134315,-83.3333333333333,4,2,22,82,0,0
135426,491.803278688525,4,2,22,82,1,0
135507,-100,4,2,22,82,0,0
135753,-70.4225352112676,4,2,22,82,0,0
136409,480,4,2,22,82,1,0
136409,-100,4,2,22,82,0,0
136809,-100,4,2,22,5,0,0
136889,-100,4,2,22,82,0,0
137289,-100,4,2,22,5,0,0
137369,-100,4,2,22,82,0,0
137609,-100,4,2,22,5,0,0
137689,-100,4,2,22,82,0,0
138169,-100,4,2,22,82,0,0
138649,-100,4,2,22,82,0,0
138809,468.75,4,2,22,82,1,0
139746,483.870967741935,4,2,22,82,1,0
139746,-76.9230769230769,4,2,22,82,0,0
139826,-76.9230769230769,4,2,22,5,0,0
140068,-100,4,2,22,82,0,0
140229,-70.4225352112676,4,2,22,82,0,0
140713,-100,4,2,22,82,0,0
141681,465.116279069767,4,2,22,82,1,0
141681,-83.3333333333333,4,2,22,82,0,0
141758,-83.3333333333333,4,2,22,5,0,0
141991,491.803278688525,4,2,22,82,1,0
142154,487.80487804878,4,2,22,82,1,0
142154,-83.3333333333333,4,2,22,82,0,0
142641,476.190476190476,4,2,22,82,1,0
143117,-75.7575757575758,4,2,22,82,0,0
143831,-75.7575757575758,4,2,22,5,0,0
143910,-98.0392156862745,4,2,22,82,0,0
144545,483.870967741935,4,2,22,82,1,0
145028,-75.7575757575758,4,2,22,82,0,0
145512,-98.0392156862745,4,2,22,82,0,0
145835,-100,4,2,22,82,0,0
145996,483.870967741935,4,2,22,82,1,0
146237,-100,4,2,22,5,0,0
146318,-100,4,2,22,82,0,0
146721,-100,4,2,22,5,0,0
146802,-100,4,2,22,82,0,0
147448,468.75,4,2,22,82,1,0
147916,480,4,2,22,82,1,0
147916,-75.7575757575758,4,2,22,82,0,0
149596,-75.7575757575758,4,2,22,5,0,0
149676,-75.7575757575758,4,2,22,82,0,0
150316,466.926070038911,4,2,22,82,1,0
150782,480,4,2,22,82,1,0
150782,-75.7575757575758,4,2,22,82,0,0
150862,-75.7575757575758,4,2,22,5,0,0
151102,-75.7575757575758,4,2,22,82,0,0
151182,-75.7575757575758,4,2,22,5,0,0
151582,487.80487804878,4,2,22,82,1,0
151744,487.80487804878,4,2,22,82,1,0
152639,-100,4,2,22,82,0,0
152719,480,4,2,22,82,1,0
152719,-100,4,2,22,82,0,0
153519,-71.4285714285714,4,2,22,82,0,0
154159,487.80487804878,4,2,22,82,1,0
154646,476.190476190476,4,2,22,82,1,0
155598,483.870967741935,4,2,22,82,1,0
155598,-90.9090909090909,4,2,22,82,0,0
156565,480,4,2,22,82,1,0
156565,-90.9090909090909,4,2,22,82,0,0
158005,-100,4,2,22,82,0,0
158485,487.80487804878,4,2,22,82,1,0
158485,-111.111111111111,4,2,22,82,0,0
158891,-111.111111111111,4,2,22,5,0,0
158972,476.190476190476,4,2,22,82,1,0
159448,472.44094488189,4,2,22,82,1,0
159448,-90.9090909090909,4,2,22,82,0,0
160392,487.80487804878,4,2,22,82,1,0
160392,-90.9090909090909,4,2,22,82,0,0
160879,-100,4,2,22,82,0,0
161367,480,4,2,22,82,1,0
161367,-75.7575757575758,4,2,22,82,0,0
161847,-66.6666666666667,4,2,22,82,0,0
161927,-66.6666666666667,4,2,22,5,0,0
162167,485.82995951417,4,2,22,82,1,0
162167,-66.6666666666667,4,2,22,82,0,0
162247,-66.6666666666667,4,2,22,5,0,0
162328,-100,4,2,22,82,0,0
162814,472.44094488189,4,2,22,82,1,0
163286,476.190476190476,4,2,22,72,1,0
164238,487.80487804878,4,2,22,72,1,0
165213,478.08764940239,4,2,22,72,1,0
167603,487.80487804878,4,2,22,72,1,0
168090,472.44094488189,4,2,22,72,1,0
168562,480,4,2,22,72,1,0
169522,491.803278688525,4,2,22,72,1,0
170013,504.201680672269,4,2,22,72,1,0
170349,441.176470588235,4,2,22,72,1,0
170496,480,4,2,22,72,1,0
170976,480,4,2,22,52,1,0
170976,-277.777777777778,4,2,22,52,0,0
171056,-277.777777777778,4,2,22,22,0,0
171456,-100,4,2,22,22,0,0
171936,-100,4,2,22,22,0,0
172416,-100,4,2,22,22,0,0
172896,-100,4,2,22,22,0,0
173376,-100,4,2,22,22,0,0
173856,-100,4,2,22,22,0,0
174336,-100,4,2,22,22,0,0
174816,-100,4,2,22,22,0,0
175296,-100,4,2,22,22,0,0
175776,-100,4,2,22,22,0,0
176256,-100,4,2,22,22,0,0
176496,-100,4,2,22,12,0,0

[Colours]
Combo1 : 20,100,220
Combo2 : 70,164,191
Combo3 : 6,255,255

[HitObjects]
512,203,1031,6,0,P|458:158|388:162,1,143.999995605469,6|0,1:2|0:0,0:0:0:0:
350,290,1511,2,0,P|404:335|474:331,1,143.999995605469,2|0,1:2|0:0,0:0:0:0:
421,249,1991,2,0,P|311:268|265:276,1,143.999995605469,2|0,1:2|0:0,0:0:0:0:
209,333,2463,2,0,B|142:319|140:372|56:357,1,143.999995605469,2|0,1:2|0:0,0:0:0:0:
13,297,2935,6,0,B|-15:238|-2:148|58:91|121:131|127:195|82:219,1,287.999991210938,6|0,1:2|3:2,0:0:0:0:
207,333,3902,6,0,P|248:345|315:273,1,143.999995605469,2|0,1:2|0:0,0:0:0:0:
318,178,4386,2,0,P|255:198|173:206,1,143.999995605469,2|0,1:2|0:0,0:0:0:0:
315,282,4862,2,0,B|424:263|416:357|536:335,1,230.39999296875,2|0,1:2|3:2,0:0:0:0:
485,230,5655,2,0,L|448:237,1,28.7999991210938,2|2,3:2|3:2,0:0:0:0:
488,239,5814,2,0,P|496:196|515:84,1,143.999995605469,2|0,1:2|0:0,0:0:0:0:
455,34,6301,2,0,P|445:14|452:38,1,80,2|0,1:2|0:0,0:0:0:0:
395,107,6780,5,2,1:2:0:0:
191,0,7101,1,2,1:2:0:0:
138,62,7261,2,0,P|147:127|156:181,1,115.199996484375,2|0,1:2|0:0,0:0:0:0:
97,241,7581,6,0,P|56:251|23:156,1,153.5999953125,10|0,0:2|0:0,0:0:0:0:
180,305,8053,2,0,L|187:270,1,35.2000010742188,10|0,0:2|0:2,0:0:0:0:
180,305,8231,2,0,P|227:258|313:269,1,140.800004296875,2|0,1:2|3:2,0:0:0:0:
371,302,8707,6,0,P|414:295|487:283,1,115.199996484375,6|0,1:2|0:2,0:0:0:0:
439,190,9188,2,0,L|452:129,2,57.5999982421876,2|0|0,1:2|3:2|3:2,0:0:0:0:
484,283,9670,2,0,L|471:344,2,57.5999982421876,2|0|0,1:2|3:2|3:2,0:0:0:0:
372,294,10150,2,0,L|315:285,1,57.5999982421876,2|0,1:2|3:2,0:0:0:0:
305,295,10462,1,0,3:2:0:0:
216,336,10618,6,0,P|162:307|99:319,1,115.199996484375,2|0,1:2|0:2,0:0:0:0:
39,269,11101,2,0,P|37:237|47:205,1,57.5999982421876,2|0,1:2|3:2,0:0:0:0:
115,161,11424,1,0,3:2:0:0:
237,102,11585,5,10,1:2:0:0:
325,52,11747,1,2,1:2:0:0:
238,8,11908,1,2,1:2:0:0:
321,137,12069,2,0,P|418:146|475:43,1,195.199991958008,14|0,0:2|3:2,0:0:0:0:
473,75,12553,6,0,P|468:115|456:196,1,115.199996484375,6|0,1:2|0:2,0:0:0:0:
512,252,13040,1,10,0:2:0:0:
378,384,13366,1,2,1:2:0:0:
299,339,13528,2,0,P|283:292|321:226,1,115.199996484375,0|0,1:2|0:2,0:0:0:0:
197,275,14009,2,0,P|139:285|78:295,1,115.199996484375,10|2,0:2|0:2,0:0:0:0:
15,350,14491,5,0,1:2:0:0:
157,104,14810,1,0,0:2:0:0:
103,173,14970,2,0,P|53:206|-8:188,1,115.199996484375,10|2,0:2|1:2,0:0:0:0:
157,104,15449,1,0,1:2:0:0:
89,6,15604,2,0,L|76:74,1,58.8799980234376,2|0,3:2|3:2,0:0:0:0:
210,179,15914,2,0,L|326:162,1,115.199996484375,10|2,0:2|0:2,0:0:0:0:
387,102,16401,5,2,1:2:0:0:
458,343,16721,1,0,0:2:0:0:
512,275,16881,2,0,P|508:246|500:216,1,58.8799980234376,8|0,0:2|0:2,0:0:0:0:
458,343,17201,1,2,1:2:0:0:
363,322,17361,2,0,P|304:342|245:339,1,117.759996046875,2|0,1:2|0:2,0:0:0:0:
176,380,17852,1,8,0:2:0:0:
71,128,18169,1,0,0:2:0:0:
30,227,18328,6,0,B|100:237|104:182|199:203,1,153.5999953125,14|2,0:2|1:2,0:0:0:0:
247,148,18804,2,0,P|242:131|240:143,1,48.0000018310548,10|0,0:2|0:0,0:0:0:0:
469,363,19121,6,0,P|434:313|347:312,1,144.000005493164,6|0,1:2|0:0,0:0:0:0:
289,251,19597,6,0,P|299:218|299:185,1,48.0000018310548,10|0,0:2|0:2,0:0:0:0:
378,141,19756,6,0,P|368:108|367:70,1,64,10|8,0:2|0:3,0:0:0:0:
303,8,20236,6,0,P|266:-2|211:69,1,128,6|0,1:2|0:2,0:0:0:0:
253,130,20716,5,8,0:2:0:0:
77,252,21036,1,0,1:2:0:0:
0,198,21196,2,0,P|49:160|115:164,1,128,2|0,1:2|1:2,0:0:0:0:
152,320,21676,2,0,P|105:355|36:353,1,128,8|0,0:2|0:2,0:0:0:0:
201,237,22154,2,0,L|331:258,1,128,2|0,1:2|0:2,0:0:0:0:
409,161,22632,2,0,P|377:161|344:175,1,64,8|0,0:2|0:0,0:0:0:0:
509,296,22950,1,0,1:2:0:0:
413,327,23110,2,0,L|427:263,2,64,2|0|0,1:2|0:2|1:2,0:0:0:0:
504,384,23588,5,10,0:2:0:0:
347,172,23910,1,0,1:2:0:0:
278,242,24071,6,0,P|224:268|162:253,1,115.199996484375,2|0,1:2|1:2,0:0:0:0:
110,194,24555,2,0,L|119:152,1,28.7999991210938,10|0,0:2|0:0,0:0:0:0:
7,12,24878,1,0,1:2:0:0:
85,58,25039,2,0,P|143:48|202:39,1,115.199996484375,2|0,1:2|1:2,0:0:0:0:
286,7,25519,2,0,L|279:35,1,28.7999991210938,10|0,0:2|0:0,0:0:0:0:
512,246,25839,1,0,1:2:0:0:
431,305,25999,6,0,P|373:258|295:264,1,153.5999953125,14|0,0:2|1:2,0:0:0:0:
210,209,26479,2,0,P|219:225|218:204,1,54.4000010375977,10|0,0:2|0:0,0:0:0:0:
210,209,26799,6,0,B|250:180|276:108|241:38|159:79|180:138,1,211.200006445313,6|0,1:2|0:0,0:0:0:0:
100,165,27460,5,10,0:0:0:0:
41,111,27613,5,8,0:0:0:0:
60,37,27767,5,8,0:2:0:0:
100,165,27921,6,0,P|93:214|82:292,1,128,2|0,1:2|0:2,0:0:0:0:
160,379,28401,2,0,P|193:343|279:348,1,128,10|0,0:2|1:2,0:0:0:0:
345,269,28881,2,0,P|358:235|343:174,1,96,2|0,1:2|0:0,0:0:0:0:
270,142,29201,2,0,L|207:156,1,64,2|8,1:2|0:2,0:0:0:0:
382,19,29681,6,0,B|457:6|457:6|427:122,1,192,6|0,1:2|1:2,0:0:0:0:
345,178,30321,1,10,0:2:0:0:
487,353,30641,1,0,1:2:0:0:
398,311,30801,5,2,1:2:0:0:
404,289,30961,1,0,1:2:0:0:
409,270,31121,1,0,1:2:0:0:
231,84,31281,5,10,0:2:0:0:
246,172,31438,1,8,0:2:0:0:
265,261,31595,1,8,0:3:0:0:
179,307,31753,6,0,P|123:280|49:293,1,128,6|0,1:2|0:2,0:0:0:0:
281,375,32233,2,0,P|317:383|371:314,1,128,10|0,0:2|1:2,0:0:0:0:
512,247,32713,2,0,P|474:248|404:233,1,96,2|0,1:2|0:0,0:0:0:0:
371,321,33041,2,0,P|408:340|451:335,1,70.4000021484376,2|8,1:2|0:2,0:0:0:0:
315,230,33509,2,0,P|242:218|141:288,1,192,6|0,1:2|1:2,0:0:0:0:
67,333,34148,6,0,P|36:327|-4:321,1,64,10|0,0:2|1:2,0:0:0:0:
158,302,34478,1,0,1:2:0:0:
155,320,34643,1,2,1:2:0:0:
89,246,34796,1,8,0:2:0:0:
152,178,34950,1,0,1:2:0:0:
88,116,35104,5,10,0:2:0:0:
92,100,35258,1,4,0:3:0:0:
98,80,35412,1,4,0:3:0:0:
30,33,35584,6,0,P|68:47|147:10,1,128,6|0,1:2|0:2,0:0:0:0:
237,57,36071,2,0,B|304:43|306:96|390:81,1,140.800004296875,10|0,0:2|0:2,0:0:0:0:
452,23,36547,2,0,P|477:65|470:119,1,105.600003222656,2|0,1:2|0:0,0:0:0:0:
374,163,36867,2,0,L|387:92,1,70.4000021484376,2|8,1:2|0:2,0:0:0:0:
499,238,37347,6,0,B|453:312|368:279|368:279|404:283|426:253,1,211.200006445313,6|0,1:2|1:2,0:0:0:0:
308,351,37987,2,0,P|274:320|187:318,1,128,10|0,0:2|1:2,0:0:0:0:
109,259,38470,1,2,1:2:0:0:
94,278,38632,1,0,0:2:0:0:
93,310,38793,1,0,1:2:0:0:
190,234,38954,1,8,0:2:0:0:
108,156,39109,1,8,0:3:0:0:
187,79,39264,1,4,0:3:0:0:
144,12,39419,1,6,1:2:0:0:
187,79,39749,5,0,0:2:0:0:
257,130,39914,2,0,P|300:124|387:112,1,128,8|0,0:2|1:2,0:0:0:0:
456,150,40401,1,2,1:2:0:0:
323,299,40721,1,2,1:2:0:0:
282,356,40881,2,0,P|329:349|383:341,1,96,8|0,0:2|0:0,0:0:0:0:
457,380,41201,6,0,P|476:271|425:224,1,172.799994726563,2|0,1:2|1:2,0:0:0:0:
359,106,41841,2,0,P|349:167|338:234,1,128,8|0,0:2|1:2,0:0:0:0:
260,283,42321,2,0,B|165:267|176:341|70:322,1,192,2|8,1:2|0:2,0:0:0:0:
133,180,42952,5,0,1:1:0:0:
145,188,43104,5,0,1:1:0:0:
138,197,43255,6,4,B|296:171,1,160,2|0,1:2|0:0,0:0:0:0:
368,115,43742,2,0,P|347:50|268:61,1,160,8|0,0:2|0:0,0:0:0:0:
287,184,44230,6,0,P|294:227|309:315,1,128,2|0,1:2|1:2,0:0:0:0:
192,383,44718,2,0,P|175:338|214:269,1,128,8|0,0:2|0:2,0:0:0:0:
294,308,45206,5,10,0:2:0:0:
379,353,45364,1,8,0:2:0:0:
403,348,45522,1,8,0:2:0:0:
505,384,45680,5,8,0:3:0:0:
460,288,45838,1,4,0:3:0:0:
468,259,45996,1,4,0:3:0:0:
507,188,46154,5,10,0:2:0:0:
469,115,46312,1,8,0:2:0:0:
391,96,46470,1,8,0:2:0:0:
321,131,46628,1,4,0:3:0:0:
317,120,46787,1,4,0:3:0:0:
313,108,46945,1,4,0:3:0:0:
368,28,47103,6,0,P|299:82|218:65,1,160,6|0,1:2|0:0,0:0:0:0:
58,19,47590,2,0,B|115:-5|115:-5|78:130,1,179.2000021875,10|0,0:2|0:0,0:0:0:0:
157,161,48078,2,0,L|228:150,1,71.680000875,2|0,1:2|0:2,0:0:0:0:
80,226,48395,1,0,1:2:0:0:
124,299,48554,2,0,L|115:333,1,35.2000010742188,10|0,0:2|0:0,0:0:0:0:
114,333,48871,5,6,1:2:0:0:
188,384,49030,2,0,P|231:351|284:353,1,105.600003222656
339,298,49347,2,0,P|346:280|347:258,1,38.399998828125,2|2,1:2|0:0,0:0:0:0:
347,304,49506,6,0,P|418:316|483:326,1,128,8|0,0:2|1:2,0:0:0:0:
512,253,49997,2,0,P|478:216|414:219,1,96,2|0,1:2|0:0,0:0:0:0:
422,214,50314,6,0,P|413:191|413:165,1,48.0000018310548,2|0,1:2|0:0,0:0:0:0:
342,123,50473,6,0,B|353:82|353:82|353:75|353:75|367:27,1,96,8|0,0:2|0:0,0:0:0:0:
403,69,50790,6,0,B|308:53|319:127|212:112,1,192,2|0,1:2|1:2,0:0:0:0:
101,29,51425,2,0,P|64:88|75:155,1,128,10|0,0:2|1:2,0:0:0:0:
143,207,51906,6,0,L|253:191,1,96,10|0,0:3|0:0,0:0:0:0:
288,128,52218,1,10,0:2:0:0:
327,269,52699,6,0,P|367:289|420:278,1,96,6|0,1:2|0:2,0:0:0:0:
469,235,53024,2,0,L|462:196,2,32,8|8|8,0:2|0:2|0:0,0:0:0:0:
384,195,53349,5,10,0:0:0:0:
365,124,53508,1,4,0:3:0:0:
417,66,53668,1,4,0:3:0:0:
492,76,53828,1,10,0:2:0:0:
352,268,54147,2,0,B|262:258|272:331|169:323,1,194.559997625,6|8,1:2|0:2,0:0:0:0:
94,271,54626,2,0,P|97:243|110:210,1,48.0000018310548,8|0,0:2|0:0,0:0:0:0:
38,127,54786,6,0,P|-7:198|8:279,1,160,6|0,1:2|0:0,0:0:0:0:
171,364,55269,2,0,P|208:285|193:209,1,160,10|0,0:2|0:0,0:0:0:0:
118,151,55753,2,0,L|106:219,1,64,2|0,1:2|0:2,0:0:0:0:
280,337,56080,5,0,1:2:0:0:
356,310,56244,2,0,L|395:318,1,32,10|0,0:2|0:0,0:0:0:0:
481,370,56564,6,0,P|488:303|509:211,1,160,2|0,1:2|0:0,0:0:0:0:
429,99,57044,2,0,L|436:145,1,32,2|0,1:2|0:0,0:0:0:0:
384,191,57204,2,0,P|333:205|268:158,1,128,8|0,0:2|1:2,0:0:0:0:
166,54,57684,2,0,L|180:155,1,96,2|0,1:2|0:0,0:0:0:0:
113,209,58002,2,0,P|110:194|115:207,1,44.7999986328125,2|0,1:2|0:0,0:0:0:0:
179,265,58162,6,0,P|192:299|190:331,1,64,8|0,0:2|0:0,0:0:0:0:
184,345,58480,6,0,B|89:360|89:291|-8:315,1,192,2|0,1:2|1:2,0:0:0:0:
264,293,59120,2,0,P|340:289|389:343,1,140.800004296875,10|0,0:2|1:2,0:0:0:0:
477,298,59600,5,10,0:2:0:0:
499,223,59752,1,8,0:2:0:0:
443,155,59905,5,10,0:2:0:0:
471,83,60058,1,8,0:2:0:0:
471,83,60385,5,2,1:2:0:0:
374,26,60549,1,8,0:2:0:0:
378,39,60631,1,8,0:2:0:0:
381,53,60713,1,8,0:2:0:0:
323,138,60877,5,0,1:2:0:0:
257,193,61041,1,8,0:2:0:0:
172,183,61199,1,4,0:3:0:0:
125,113,61358,1,4,0:3:0:0:
224,49,61517,6,0,L|216:106,1,48.63999940625,10|0,0:2|0:0,0:0:0:0:
85,236,61834,6,0,L|92:289,1,48.0000018310548,10|0,0:2|0:0,0:0:0:0:
223,370,62310,6,0,B|263:283|387:268|397:341|346:372|306:303,1,230.39999296875,6|0,1:2|1:2,0:0:0:0:
319,321,62945,2,0,P|320:291|334:249,1,64,10|0,0:2|0:2,0:0:0:0:
422,191,63267,1,0,1:2:0:0:
337,143,63428,2,0,P|292:152|232:164,1,96,2|0,1:2|0:0,0:0:0:0:
176,104,63751,2,0,L|192:27,1,64,2|8,1:2|0:2,0:0:0:0:
9,209,64235,6,0,P|51:196|149:297,1,192,2|2,1:2|1:2,0:0:0:0:
47,353,64876,2,0,P|56:316|60:273,1,64,8|0,0:2|0:2,0:0:0:0:
149,384,65196,1,10,0:2:0:0:
227,347,65356,2,0,L|353:373,1,128,0|0,1:2|1:2,0:0:0:0:
434,336,65836,1,10,0:2:0:0:
362,282,65996,1,8,0:2:0:0:
440,241,66156,2,0,L|453:190,1,44.7999986328125,8|0,0:2|0:0,0:0:0:0:
403,119,66316,5,6,1:2:0:0:
269,0,66796,1,10,0:2:0:0:
244,78,67116,1,6,1:2:0:0:
244,78,67436,5,8,0:2:0:0:
160,58,67596,1,8,0:2:0:0:
76,30,67756,5,10,1:3:0:0:
199,238,68076,1,6,1:2:0:0:
124,184,68396,1,0,1:2:0:0:
131,165,68476,1,0,1:0:0:0:
134,146,68556,1,8,0:2:0:0:
23,219,68716,1,4,0:3:0:0:
94,293,68876,5,4,0:3:0:0:
117,313,69036,5,4,0:3:0:0:
91,326,69196,6,0,L|79:373,1,42.2399998710938,10|0,0:2|0:0,0:0:0:0:
269,166,69518,2,0,L|257:120,1,45.4399977119142,10|0,0:2|0:0,0:0:0:0:
227,303,70002,2,0,P|295:352|402:318,1,192,6|0,1:2|0:2,0:0:0:0:
511,201,70647,2,0,P|413:219|351:229,1,160,8|0,0:2|0:0,0:0:0:0:
276,173,71115,2,0,P|267:124|291:67,1,96,2|0,1:2|0:0,0:0:0:0:
352,40,71435,2,0,L|428:55,1,64,2|8,1:2|0:2,0:0:0:0:
185,219,71915,6,0,B|139:157|48:188|48:188|73:201|84:227,1,192,6|2,1:2|1:2,0:0:0:0:
16,282,72555,1,8,0:2:0:0:
105,372,72717,1,0,1:2:0:0:
105,372,72880,1,2,0:2:0:0:
200,328,73042,5,8,0:2:0:0:
288,350,73202,1,4,0:3:0:0:
376,384,73362,1,6,0:3:0:0:
498,246,73522,1,8,0:2:0:0:
377,280,73678,1,8,0:2:0:0:
498,370,73834,1,8,0:2:0:0:
450,312,73990,6,0,P|465:217|486:144,1,156.159993566407,6|0,1:2|0:2,0:0:0:0:
346,24,74471,2,0,L|369:160,1,128,8|0,0:2|1:2,0:0:0:0:
292,243,74953,2,0,P|243:275|176:264,1,128,0|2,1:2|1:2,0:0:0:0:
62,299,75435,2,0,P|71:255|84:192,1,96,10|0,0:2|0:0,0:0:0:0:
105,182,75757,1,6,1:2:0:0:
13,150,75917,6,0,B|86:160|88:104|178:126,1,156.159993566407,0|0,1:0|1:2,0:0:0:0:
270,0,76399,2,0,P|252:38|256:80,1,70.4000021484376,8|0,0:2|0:0,0:0:0:0:
443,167,76719,1,0,1:2:0:0:
346,188,76879,2,0,L|360:114,1,70.4000021484376,0|0,1:2|0:2,0:0:0:0:
234,219,77199,1,0,1:2:0:0:
302,279,77359,2,0,B|360:299|360:299|368:312|368:312|430:336,1,134.399995898438,8|0,0:2|0:0,0:0:0:0:
454,312,77679,6,0,P|412:299|300:387,1,192,6|0,1:2|1:2,0:0:0:0:
234,219,78323,2,0,P|246:151|259:78,1,128,10|0,0:2|1:2,0:0:0:0:
194,33,78808,5,8,0:2:0:0:
53,193,79113,1,10,0:2:0:0:
92,102,79266,5,2,1:2:0:0:
0,362,79607,1,6,1:2:0:0:
183,282,79949,5,8,0:2:0:0:
179,263,80024,1,8,0:2:0:0:
174,242,80100,1,12,1:3:0:0:
84,232,80252,5,8,0:3:0:0:
120,339,80408,1,4,0:3:0:0:
255,299,80564,1,4,0:3:0:0:
226,195,80720,6,0,L|180:208,1,45.4399977119142,10|0,0:2|0:0,0:0:0:0:
414,355,81040,6,0,L|366:366,1,47.9999985351563,6|0,1:2|0:0,0:0:0:0:
338,344,81520,6,0,P|405:263|499:283,1,192,6|0,1:2|1:2,0:0:0:0:
370,179,82160,2,0,P|382:140|383:76,1,96,10|0,0:2|0:0,0:0:0:0:
415,64,82480,1,0,1:2:0:0:
316,36,82640,2,0,L|184:59,1,128,2|0,1:2|1:2,0:0:0:0:
99,32,83127,2,0,P|79:3|104:27,1,96,10|0,0:2|0:0,0:0:0:0:
191,59,83447,6,0,P|109:121|12:94,1,192,6|0,1:2|1:2,0:0:0:0:
183,209,84087,2,0,P|236:197|316:190,1,128,10|0,0:2|1:2,0:0:0:0:
428,123,84567,2,0,P|418:180|406:260,1,128,2|0,1:2|1:2,0:0:0:0:
473,325,85047,2,0,P|504:338|480:313,1,96,10|0,0:2|0:0,0:0:0:0:
407,249,85367,5,6,1:2:0:0:
381,265,85527,2,0,B|309:249|314:311|214:293,1,156.159993566407,0|0,1:0|1:2,0:0:0:0:
111,266,86007,2,0,P|120:299|125:336,1,64,10|0,0:2|0:2,0:0:0:0:
246,187,86319,1,0,1:2:0:0:
167,110,86475,2,0,L|152:190,1,64,10|0,0:2|0:2,0:0:0:0:
74,118,86788,1,10,0:2:0:0:
221,33,86944,5,6,1:2:0:0:
221,33,87271,2,0,B|305:19|292:110|421:112|435:14|338:2,1,253.439999226563,6|4,1:2|0:3,0:0:0:0:
315,95,87915,5,10,0:2:0:0:
256,142,88075,1,0,1:2:0:0:
252,219,88235,1,0,1:2:0:0:
441,352,88395,5,10,0:0:0:0:
451,271,88555,1,8,0:0:0:0:
398,209,88715,1,8,0:0:0:0:
320,312,88875,5,10,0:3:0:0:
316,332,89031,1,4,0:3:0:0:
311,351,89187,1,4,0:3:0:0:
330,377,89343,5,6,1:2:0:0:
460,280,95624,6,0,L|472:236,2,39.6799984257813,0|2|0,3:2|3:2|3:2,0:0:0:0:
384,232,96075,6,0,L|375:190,2,39.6799984257813,0|2|0,3:2|0:2|3:2,0:0:0:0:
291,291,96566,6,0,L|303:247,2,39.6799984257813,0|2|0,3:2|0:2|3:2,0:0:0:0:
204,243,97036,6,0,P|168:250|89:266,1,102.4,6|0,1:2|0:2,0:0:0:0:
34,217,97512,1,0,3:2:0:0:
273,34,97829,1,0,0:2:0:0:
229,97,97988,2,0,P|279:86|329:77,1,102.4,0|0,1:2|0:2,0:0:0:0:
433,112,98464,2,0,P|440:91|441:60,1,51.2,0|0,3:2|0:2,0:0:0:0:
485,218,98789,6,0,P|465:179|363:160,1,153.6,2|0,1:2|0:2,0:0:0:0:
316,237,99439,2,0,L|336:347,1,102.4,0|0,3:2|0:2,0:0:0:0:
421,280,99913,5,2,1:2:0:0:
239,381,100229,1,0,0:2:0:0:
161,339,100387,2,0,P|128:346|52:363,1,102.4,0|0,3:2|0:2,0:0:0:0:
0,307,100861,6,0,P|19:255|117:242,1,153.6,2|0,1:2|0:0,0:0:0:0:
236,143,101674,1,0,0:2:0:0:
163,97,101836,5,2,1:2:0:0:
163,97,102156,1,0,3:2:0:0:
163,97,102476,1,0,3:2:0:0:
249,42,102796,5,10,0:2:0:0:
195,261,103112,1,8,0:2:0:0:
249,42,103428,1,4,0:3:0:0:
322,92,103587,5,4,0:3:0:0:
289,174,103734,1,8,0:2:0:0:
393,138,103882,5,8,0:2:0:0:
340,5,104050,1,4,0:3:0:0:
442,59,104218,5,4,0:3:0:0:
478,151,104378,1,4,0:3:0:0:
508,255,104538,1,4,0:3:0:0:
429,319,104698,6,0,B|317:307|330:397|208:376,1,223.999993164063,6|0,1:2|0:2,0:0:0:0:
87,288,105665,2,0,P|100:336|107:388,1,89.5999972656251,10|0,0:2|0:0,0:0:0:0:
201,281,106149,2,0,P|225:236|200:174,1,108.800002075195,0|0,3:2|3:2,0:0:0:0:
119,142,106633,6,0,P|72:153|-18:174,1,128,2|0,1:2|0:0,0:0:0:0:
51,71,107113,2,0,B|64:37|42:3|42:3|70:37|107:29,1,128,0|0,3:2|3:2,0:0:0:0:
188,80,107593,2,0,B|222:49|264:51|264:51|285:76|324:67,1,128,10|0,0:2|3:2,0:0:0:0:
380,112,108073,5,0,3:2:0:0:
452,72,108233,1,0,3:2:0:0:
383,26,108393,1,0,3:2:0:0:
406,72,108553,5,6,1:2:0:0:
443,298,108875,1,0,0:0:0:0:
483,358,109036,2,0,P|489:307|507:230,1,115.199996484375,0|0,3:2|3:2,0:0:0:0:
449,184,109516,1,10,0:2:0:0:
104,293,109836,1,0,0:0:0:0:
64,353,109996,2,0,P|58:302|40:225,1,115.199996484375,0|0,3:2|3:2,0:0:0:0:
98,173,110476,5,2,1:2:0:0:
255,269,110793,5,0,3:2:0:0:
236,288,110952,5,0,3:2:0:0:
253,305,111110,5,0,3:2:0:0:
249,325,111269,5,0,3:2:0:0:
247,341,111428,5,10,0:2:0:0:
180,384,111745,5,0,0:2:0:0:
340,341,111904,1,8,0:2:0:0:
297,222,112063,1,8,0:2:0:0:
155,253,112222,1,8,0:2:0:0:
141,264,112380,6,0,B|96:284|96:284|39:261,1,96,6|0,1:2|0:2,0:0:0:0:
58,157,112713,2,0,B|100:142|100:142|147:161,1,96,8|0,1:3|0:2,0:0:0:0:
224,208,113047,2,0,L|323:194,1,96,4|0,1:3|0:2,0:0:0:0:
428,267,113367,6,0,P|452:209|434:161,1,100.799996923828,6|0,1:2|0:2,0:0:0:0:
290,75,113684,2,0,P|266:133|284:181,1,100.799996923828,8|0,1:3|0:2,0:0:0:0:
403,99,114001,2,0,P|396:61|384:-4,1,100.799996923828,4|0,1:3|0:2,0:0:0:0:
290,75,114306,6,0,P|248:106|185:98,1,105.600003222656,6|0,1:2|0:2,0:0:0:0:
64,143,114623,2,0,B|62:130|62:130|81:30,1,105.600003222656,4|0,2:3|0:3,0:0:0:0:
231,150,114940,2,0,B|233:163|233:163|214:264,1,105.600003222656,4|0,2:3|0:2,0:0:0:0:
91,372,115258,2,0,P|75:330|100:276,1,105.600003222656,10|0,0:3|0:0,0:0:0:0:
216,254,115583,6,0,L|262:266,1,48.0000018310548,8|0,0:3|0:0,0:0:0:0:
473,364,115908,2,0,L|426:374,1,48.0000018310548,8|0,0:2|0:0,0:0:0:0:
312,319,116056,6,0,L|358:308,1,48.0000018310548,8|0,0:2|0:0,0:0:0:0:
445,257,116204,6,0,P|389:213|337:220,1,115.199996484375,6|0,1:2|0:2,0:0:0:0:
275,149,116691,2,0,P|267:91|294:25,1,115.199996484375,8|0,0:2|1:2,0:0:0:0:
364,9,117179,5,2,1:2:0:0:
129,236,117504,1,0,1:2:0:0:
184,182,117667,2,0,P|101:201|58:210,1,115.199996484375,8|0,0:2|0:2,0:0:0:0:
1,142,118155,6,0,P|36:112|118:119,1,108.800002075195,6|0,1:2|0:2,0:0:0:0:
183,182,118635,1,8,0:2:0:0:
163,265,118795,1,8,0:2:0:0:
89,309,118955,5,4,0:3:0:0:
208,383,119115,1,10,0:2:0:0:
274,314,119272,5,4,0:3:0:0:
274,314,119429,1,4,0:3:0:0:
274,314,119587,1,8,0:3:0:0:
208,383,119750,5,8,0:3:0:0:
382,285,119914,1,8,0:3:0:0:
333,215,120078,5,0,0:0:0:0:
329,200,120160,1,8,0:2:0:0:
324,184,120242,1,8,0:2:0:0:
390,113,120406,5,8,0:2:0:0:
390,113,120562,1,8,0:2:0:0:
390,113,120722,1,8,0:2:0:0:
313,62,120882,6,8,P|316:44|324:54,1,38.399998828125,8|8,0:2|0:2,0:0:0:0:
313,62,121042,6,0,B|267:35|145:50|188:155|41:240|-6:152|-17:62|64:33,1,426.24001040625,6|0,1:2|0:2,0:0:0:0:
344,257,122802,6,0,B|431:294|546:227|549:140|526:113|526:113|520:149|504:163,1,331.52000809375,6|0,1:2|0:2,0:0:0:0:
512,152,124253,2,0,L|458:164,1,47.36000115625,0|8,0:0|0:3,0:0:0:0:
367,326,124694,6,0,B|297:282|220:354|220:354|190:248|100:258,1,331.52000809375,6|8,1:2|0:3,0:0:0:0:
0,175,126156,1,4,0:3:0:0:
0,175,126644,2,0,P|41:182|116:120,1,142.08000346875,6|8,1:2|0:2,0:0:0:0:
141,28,127295,2,0,L|30:55,1,94.7200023125001,8|4,0:2|0:3,0:0:0:0:
190,117,127763,1,8,0:2:0:0:
190,117,128083,6,0,B|223:168|291:198|353:161|341:110|287:108|241:201,1,234.23999034961,4|8,1:2|0:2,0:0:0:0:
257,172,128723,6,0,L|281:346,1,160,6|0,1:2|0:0,0:0:0:0:
202,384,129203,2,0,P|152:331|61:332,1,160,10|0,0:2|0:0,0:0:0:0:
0,270,129682,2,0,P|-10:221|5:170,1,96,2|0,1:2|0:0,0:0:0:0:
87,136,130003,1,0,1:2:0:0:
8,84,130163,1,8,0:2:0:0:
232,255,130483,6,0,B|313:247|307:202|388:207,1,160,2|0,1:2|0:0,0:0:0:0:
449,276,130966,2,0,P|437:322|436:354,1,76.7999976562501,0|8,1:2|0:2,0:0:0:0:
252,146,131445,1,0,1:2:0:0:
324,85,131605,2,0,P|333:52|332:-1,1,76.7999976562501,0|0,1:1|0:0,0:0:0:0:
252,146,131923,1,2,1:2:0:0:
324,191,132083,2,0,L|376:182,1,38.399998828125,8|0,0:0|0:0,0:0:0:0:
266,311,132401,6,0,B|165:289|165:289|135:341|83:332,1,192,6|0,1:2|1:2,0:0:0:0:
4,208,133039,2,0,L|136:191,1,128,10|0,0:2|1:2,0:0:0:0:
199,128,133522,6,0,L|188:71,1,57.5999982421876,10|0,0:2|0:0,0:0:0:0:
351,209,133839,2,0,L|361:152,1,57.5999982421876,10|0,0:2|0:0,0:0:0:0:
361,152,133998,2,0,L|320:161,1,32,0|0,1:2|0:0,0:0:0:0:
96,350,134315,2,0,B|150:342|150:342|155:348|155:348|225:337,1,115.199996484375,6|0,1:2|1:2,0:0:0:0:
266,280,134633,2,8,L|256:236,2,38.399998828125,8|8|0,0:2|0:2|1:0,0:0:0:0:
332,342,134950,5,8,0:2:0:0:
422,306,135109,5,4,0:3:0:0:
445,225,135268,1,6,0:3:0:0:
467,145,135426,1,10,0:2:0:0:
467,145,135753,6,0,P|442:94|328:81,1,181.759990847657,14|8,0:2|0:2,0:0:0:0:
253,43,136245,2,0,P|260:24|263:-1,1,45.4399977119142,8|0,0:2|0:0,0:0:0:0:
249,50,136409,6,0,P|208:59|85:83,1,160,6|0,1:2|0:0,0:0:0:0:
2,142,136889,2,0,P|73:181|150:153,1,160,10|0,0:2|0:0,0:0:0:0:
241,127,137369,2,0,L|223:231,1,96,2|0,1:2|0:0,0:0:0:0:
280,286,137689,1,0,1:2:0:0:
195,332,137849,1,8,0:2:0:0:
195,332,138169,2,0,B|102:308|108:387|-6:362,1,192,6|2,1:2|1:2,0:0:0:0:
44,267,138809,1,8,0:2:0:0:
289,339,139121,5,2,1:2:0:0:
368,374,139277,2,0,P|404:344|489:348,1,128,0|2,1:2|1:2,0:0:0:0:
512,241,139746,6,0,P|509:217|495:186,1,41.5999980957032,8|0,0:2|0:0,0:0:0:0:
503,200,140068,6,0,B|418:219|418:219|408:231|408:231|310:254,1,192,6|0,1:2|1:2,0:0:0:0:
240,170,140713,2,0,P|250:114|265:23,1,128,10|0,0:2|1:2,0:0:0:0:
187,5,141197,5,14,0:2:0:0:
104,6,141358,1,8,0:2:0:0:
56,70,141520,1,10,0:2:0:0:
92,142,141681,2,0,L|84:187,1,38.399998828125,10|0,0:2|0:0,0:0:0:0:
222,368,141991,5,6,0:3:0:0:
166,296,142154,2,0,L|176:244,2,38.399998828125,12|8|8,0:2|0:2|0:2,0:0:0:0:
80,329,142479,1,4,0:3:0:0:
270,275,142641,5,8,0:2:0:0:
361,294,142799,1,8,0:2:0:0:
451,319,142958,1,6,0:3:0:0:
384,384,143117,5,14,0:2:0:0:
456,98,143434,1,14,0:2:0:0:
512,207,143910,6,0,P|406:223|345:154,1,195.840001195313,6|0,0:2|1:2,0:0:0:0:
292,104,144545,2,0,L|307:35,2,64,8|0|0,0:2|0:2|1:2,0:0:0:0:
348,165,145028,1,2,1:2:0:0:
185,313,145352,1,2,1:2:0:0:
280,368,145512,2,0,L|292:294,1,65.2800003984375,8|0,0:2|0:2,0:0:0:0:
236,243,145835,6,0,L|73:275,1,160,2|0,1:2|0:0,0:0:0:0:
0,228,146318,2,0,P|12:179|115:158,1,160,2|0,1:2|0:0,0:0:0:0:
174,100,146802,2,0,P|179:69|166:20,1,64,10|0,0:2|1:2,0:0:0:0:
356,185,147286,1,0,1:2:0:0:
434,138,147448,5,8,0:2:0:0:
307,107,147604,1,8,0:2:0:0:
268,229,147760,1,8,0:2:0:0:
411,266,147916,1,6,1:2:0:0:
269,384,148396,5,8,0:2:0:0:
244,306,148716,1,6,1:2:0:0:
244,306,149036,5,8,0:2:0:0:
160,326,149196,1,8,0:2:0:0:
76,354,149356,5,10,0:3:0:0:
194,132,149676,1,6,1:2:0:0:
124,200,149996,5,8,0:2:0:0:
127,215,150076,1,8,0:2:0:0:
131,231,150156,1,8,0:2:0:0:
23,165,150316,1,8,0:2:0:0:
94,91,150471,5,4,0:3:0:0:
117,71,150627,5,4,0:3:0:0:
89,53,150782,6,0,L|101:6,1,42.2399998710938,10|0,0:2|0:0,0:0:0:0:
269,218,151102,2,0,L|258:264,1,42.2399998710938,10|0,0:2|0:0,0:0:0:0:
231,110,151582,2,0,P|326:42|415:60,1,192,6|0,1:2|0:2,0:0:0:0:
511,175,152231,2,0,L|370:152,1,128,8|2,0:2|1:2,0:0:0:0:
289,213,152719,2,0,P|264:258|280:308,1,96,2|0,1:2|0:0,0:0:0:0:
341,349,153039,2,0,L|417:334,1,64,2|8,1:2|0:2,0:0:0:0:
218,384,153519,5,6,1:2:0:0:
7,291,153839,1,8,0:2:0:0:
89,233,153999,1,10,0:2:0:0:
27,166,154159,2,0,P|18:124|1:31,1,128,8|2,0:0|0:0,0:0:0:0:
166,152,154646,5,8,0:2:0:0:
159,176,154804,1,8,0:2:0:0:
89,233,154963,5,10,0:2:0:0:
96,258,155122,1,8,0:2:0:0:
170,321,155280,5,8,0:2:0:0:
176,324,155439,5,8,0:2:0:0:
170,329,155598,6,0,P|218:278|301:286,1,140.800004296875,6|0,1:2|0:2,0:0:0:0:
393,332,156081,2,0,P|407:282|380:189,1,140.800004296875,10|0,0:2|1:2,0:0:0:0:
273,13,156565,2,0,L|257:160,1,140.800004296875,2|0,1:2|0:2,0:0:0:0:
184,212,157045,2,0,P|112:222|79:168,1,140.800004296875,10|0,0:2|0:2,0:0:0:0:
134,88,157525,5,6,1:2:0:0:
241,300,157845,1,0,0:0:0:0:
312,240,158005,2,0,P|344:217|437:219,1,128,8|0,0:2|1:2,0:0:0:0:
500,151,158485,6,0,P|505:104|492:145,1,143.999995605469,2|0,1:2|0:0,0:0:0:0:
429,215,158972,5,10,0:2:0:0:
450,298,159130,1,8,0:2:0:0:
468,381,159289,1,8,0:2:0:0:
356,323,159448,6,0,B|314:330|288:301|288:301|233:299|214:335,1,140.800004296875,6|0,1:2|0:0,0:0:0:0:
167,373,159920,1,8,0:2:0:0:
29,291,160235,1,0,1:0:0:0:
98,239,160392,2,0,P|106:190|123:92,1,140.800004296875,2|0,1:2|0:2,0:0:0:0:
62,22,160879,2,0,P|28:28|17:116,1,128,10|0,0:2|1:2,0:0:0:0:
204,218,161367,6,0,B|284:222|287:170|368:184,1,168.959999484375,14|2,0:2|1:2,0:0:0:0:
386,173,161847,6,0,P|384:151|374:121,1,48.0000018310548,10|0,0:2|0:0,0:0:0:0:
503,344,162167,6,0,P|505:322|515:292,1,48.0000018310548,2|0,1:2|0:0,0:0:0:0:
435,262,162328,6,0,L|354:278,1,64,0|0,1:0|1:0,0:0:0:0:
316,357,162652,5,2,1:2:0:0:
237,291,162814,1,8,0:2:0:0:
166,332,162971,1,8,0:2:0:0:
96,290,163128,1,8,0:2:0:0:
29,328,163286,5,6,1:2:0:0:
4,250,163444,1,0,1:0:0:0:
25,334,163762,5,10,0:2:0:0:
10,244,163920,1,0,1:2:0:0:
18,335,164238,5,2,1:2:0:0:
18,243,164400,1,0,1:2:0:0:
10,336,164725,5,10,0:2:0:0:
25,245,164888,1,0,1:2:0:0:
41,157,165051,1,0,1:2:0:0:
113,92,165213,6,0,L|99:26,2,64,6|0|0,1:2|1:0|1:0,0:0:0:0:
262,162,165691,2,0,L|276:96,2,64,10|0|0,0:2|1:2|1:2,0:0:0:0:
167,257,166169,2,0,L|153:191,2,64,2|0|0,1:2|1:2|1:2,0:0:0:0:
328,324,166647,2,0,L|342:258,2,64,10|0|0,0:2|1:2|1:2,0:0:0:0:
251,382,167125,6,0,P|202:344|131:348,1,128,6|0,1:2|1:0,0:0:0:0:
37,310,167603,2,0,B|45:276|17:233|17:233|39:258|66:256,1,128,10|0,0:2|1:2,0:0:0:0:
140,207,168090,2,0,B|128:151|128:151|129:145|129:145|125:139|125:139|110:62,1,128,2|0,1:2|1:2,0:0:0:0:
58,4,168562,2,0,P|25:-2|3:75,1,128,10|0,0:2|1:2,0:0:0:0:
141,207,169042,6,0,B|267:181|267:181|230:203|236:241,1,192,2|10,1:2|0:2,0:0:0:0:
349,344,170013,5,10,0:2:0:0:
428,358,170181,1,2,1:2:0:0:
492,309,170349,1,2,1:2:0:0:
490,230,170496,1,14,0:2:0:0:
490,230,170976,6,0,B|408:204|325:100|368:-71|568:-26|621:114|523:249|301:343|194:323|109:246|198:105|300:123|297:231,1,794.88001940625,6|0,1:2|0:2,0:0:0:0:
